  0
SECTION
  2
HEADER
  9
$ACADVER
  1
AC1015
  9
$ACADMAINTVER
 70
     6
  9
$DWGCODEPAGE
  3
ANSI_932
  9
$INSBASE
 10
0.0
 20
0.0
 30
0.0
  9
$EXTMIN
 10
0.0
 20
0.0
 30
0.0
  9
$EXTMAX
 10
420.0
 20
297.0
 30
0.0
  9
$LIMMIN
 10
0.0
 20
0.0
  9
$LIMMAX
 10
420.0
 20
297.0
  9
$ORTHOMODE
 70
     0
  9
$REGENMODE
 70
     1
  9
$FILLMODE
 70
     1
  9
$QTEXTMODE
 70
     0
  9
$MIRRTEXT
 70
     1
  9
$LTSCALE
 40
1.0
  9
$ATTMODE
 70
     1
  9
$TEXTSIZE
 40
2.5
  9
$TRACEWID
 40
1.0
  9
$TEXTSTYLE
  7
ＭＳ ゴシック
  9
$CLAYER
  8
0
  9
$CELTYPE
  6
ByLayer
  9
$CECOLOR
 62
   256
  9
$CELTSCALE
 40
1.0
  9
$DISPSILH
 70
     0
  9
$DIMSCALE
 40
1.0
  9
$DIMASZ
 40
2.5
  9
$DIMEXO
 40
1.0
  9
$DIMDLI
 40
8.0
  9
$DIMRND
 40
0.0
  9
$DIMDLE
 40
4.0
  9
$DIMEXE
 40
1.0
  9
$DIMTP
 40
0.0
  9
$DIMTM
 40
0.0
  9
$DIMTXT
 40
3.5
  9
$DIMCEN
 40
2.5
  9
$DIMTSZ
 40
0.0
  9
$DIMTOL
 70
     0
  9
$DIMLIM
 70
     0
  9
$DIMTIH
 70
     0
  9
$DIMTOH
 70
     0
  9
$DIMSE1
 70
     0
  9
$DIMSE2
 70
     0
  9
$DIMTAD
 70
     1
  9
$DIMZIN
 70
     8
  9
$DIMBLK
  1

  9
$DIMASO
 70
     1
  9
$DIMSHO
 70
     1
  9
$DIMPOST
  1

  9
$DIMAPOST
  1

  9
$DIMALT
 70
     0
  9
$DIMALTD
 70
     3
  9
$DIMALTF
 40
0.03937
  9
$DIMLFAC
 40
1.0
  9
$DIMTOFL
 70
     1
  9
$DIMTVP
 40
0.0
  9
$DIMTIX
 70
     0
  9
$DIMSOXD
 70
     0
  9
$DIMSAH
 70
     1
  9
$DIMBLK1
  1
FXTIP_ARROW_S
  9
$DIMBLK2
  1
FXTIP_ARROW_E
  9
$DIMSTYLE
  2
FX_DIMINFO
  9
$DIMCLRD
 70
     5
  9
$DIMCLRE
 70
     5
  9
$DIMCLRT
 70
    94
  9
$DIMTFAC
 40
1.0
  9
$DIMGAP
 40
1.0
  9
$DIMJUST
 70
     0
  9
$DIMSD1
 70
     0
  9
$DIMSD2
 70
     0
  9
$DIMTOLJ
 70
     1
  9
$DIMTZIN
 70
     8
  9
$DIMALTZ
 70
     0
  9
$DIMALTTZ
 70
     0
  9
$DIMUPT
 70
     0
  9
$DIMDEC
 70
     2
  9
$DIMTDEC
 70
     2
  9
$DIMALTU
 70
     2
  9
$DIMALTTD
 70
     3
  9
$DIMTXSTY
  7
ＭＳ ゴシック
  9
$DIMAUNIT
 70
     0
  9
$DIMADEC
 70
     2
  9
$DIMALTRND
 40
0.0
  9
$DIMAZIN
 70
     2
  9
$DIMDSEP
 70
    46
  9
$DIMATFIT
 70
     3
  9
$DIMFRAC
 70
     0
  9
$DIMLDRBLK
  1
FXTIP_ARROW_S
  9
$DIMLUNIT
 70
     2
  9
$DIMLWD
 70
    -2
  9
$DIMLWE
 70
    -2
  9
$DIMTMOVE
 70
     0
  9
$LUNITS
 70
     2
  9
$LUPREC
 70
     4
  9
$SKETCHINC
 40
1.0
  9
$FILLETRAD
 40
10.0
  9
$AUNITS
 70
     0
  9
$AUPREC
 70
     0
  9
$MENU
  1
.
  9
$ELEVATION
 40
0.0
  9
$PELEVATION
 40
0.0
  9
$THICKNESS
 40
0.0
  9
$LIMCHECK
 70
     0
  9
$CHAMFERA
 40
0.0
  9
$CHAMFERB
 40
0.0
  9
$CHAMFERC
 40
0.0
  9
$CHAMFERD
 40
0.0
  9
$SKPOLY
 70
     0
  9
$TDCREATE
 40
2456828.560891817
  9
$TDUCREATE
 40
2456828.185891817
  9
$TDUPDATE
 40
2456828.560892905
  9
$TDUUPDATE
 40
2456828.185892905
  9
$TDINDWG
 40
0.0000000116
  9
$TDUSRTIMER
 40
0.0000000116
  9
$USRTIMER
 70
     1
  9
$ANGBASE
 50
0.0
  9
$ANGDIR
 70
     0
  9
$PDMODE
 70
     0
  9
$PDSIZE
 40
0.0
  9
$PLINEWID
 40
0.0
  9
$SPLFRAME
 70
     0
  9
$SPLINETYPE
 70
     6
  9
$SPLINESEGS
 70
     8
  9
$HANDSEED
  5
4C1
  9
$SURFTAB1
 70
     6
  9
$SURFTAB2
 70
     6
  9
$SURFTYPE
 70
     6
  9
$SURFU
 70
     6
  9
$SURFV
 70
     6
  9
$UCSBASE
  2

  9
$UCSNAME
  2

  9
$UCSORG
 10
0.0
 20
0.0
 30
0.0
  9
$UCSXDIR
 10
1.0
 20
0.0
 30
0.0
  9
$UCSYDIR
 10
0.0
 20
1.0
 30
0.0
  9
$UCSORTHOREF
  2

  9
$UCSORTHOVIEW
 70
     0
  9
$UCSORGTOP
 10
0.0
 20
0.0
 30
0.0
  9
$UCSORGBOTTOM
 10
0.0
 20
0.0
 30
0.0
  9
$UCSORGLEFT
 10
0.0
 20
0.0
 30
0.0
  9
$UCSORGRIGHT
 10
0.0
 20
0.0
 30
0.0
  9
$UCSORGFRONT
 10
0.0
 20
0.0
 30
0.0
  9
$UCSORGBACK
 10
0.0
 20
0.0
 30
0.0
  9
$PUCSBASE
  2

  9
$PUCSNAME
  2

  9
$PUCSORG
 10
0.0
 20
0.0
 30
0.0
  9
$PUCSXDIR
 10
1.0
 20
0.0
 30
0.0
  9
$PUCSYDIR
 10
0.0
 20
1.0
 30
0.0
  9
$PUCSORTHOREF
  2

  9
$PUCSORTHOVIEW
 70
     0
  9
$PUCSORGTOP
 10
0.0
 20
0.0
 30
0.0
  9
$PUCSORGBOTTOM
 10
0.0
 20
0.0
 30
0.0
  9
$PUCSORGLEFT
 10
0.0
 20
0.0
 30
0.0
  9
$PUCSORGRIGHT
 10
0.0
 20
0.0
 30
0.0
  9
$PUCSORGFRONT
 10
0.0
 20
0.0
 30
0.0
  9
$PUCSORGBACK
 10
0.0
 20
0.0
 30
0.0
  9
$USERI1
 70
     0
  9
$USERI2
 70
     0
  9
$USERI3
 70
     0
  9
$USERI4
 70
     0
  9
$USERI5
 70
     0
  9
$USERR1
 40
0.0
  9
$USERR2
 40
0.0
  9
$USERR3
 40
0.0
  9
$USERR4
 40
0.0
  9
$USERR5
 40
0.0
  9
$WORLDVIEW
 70
     1
  9
$SHADEDGE
 70
     3
  9
$SHADEDIF
 70
    70
  9
$TILEMODE
 70
     1
  9
$MAXACTVP
 70
    64
  9
$PINSBASE
 10
0.0
 20
0.0
 30
0.0
  9
$PLIMCHECK
 70
     0
  9
$PEXTMIN
 10
1.000000000000000E+20
 20
1.000000000000000E+20
 30
1.000000000000000E+20
  9
$PEXTMAX
 10
-1.000000000000000E+20
 20
-1.000000000000000E+20
 30
-1.000000000000000E+20
  9
$PLIMMIN
 10
0.0
 20
0.0
  9
$PLIMMAX
 10
420.0
 20
297.0
  9
$UNITMODE
 70
     0
  9
$VISRETAIN
 70
     1
  9
$PLINEGEN
 70
     0
  9
$PSLTSCALE
 70
     1
  9
$TREEDEPTH
 70
  3020
  9
$CMLSTYLE
  2
Standard
  9
$CMLJUST
 70
     0
  9
$CMLSCALE
 40
20.0
  9
$PROXYGRAPHICS
 70
     1
  9
$MEASUREMENT
 70
     1
  9
$CELWEIGHT
370
    -1
  9
$ENDCAPS
280
     0
  9
$JOINSTYLE
280
     0
  9
$LWDISPLAY
290
     0
  9
$INSUNITS
 70
     4
  9
$HYPERLINKBASE
  1

  9
$STYLESHEET
  1

  9
$XEDIT
290
     1
  9
$CEPSNTYPE
380
     0
  9
$PSTYLEMODE
290
     1
  9
$FINGERPRINTGUID
  2
{054F21C6-A972-4172-93F8-857B9C986CAE}
  9
$VERSIONGUID
  2
{FAEB1C32-E019-11D5-929B-00C0DF256EC4}
  9
$EXTNAMES
290
     1
  9
$PSVPSCALE
 40
0.0
  9
$OLESTARTUP
290
     0
  0
ENDSEC
  0
SECTION
  2
CLASSES
  0
CLASS
  1
ACDBDICTIONARYWDFLT
  2
AcDbDictionaryWithDefault
  3
ObjectDBX Classes
 90
        0
280
     0
281
     0
  0
CLASS
  1
VISUALSTYLE
  2
AcDbVisualStyle
  3
ObjectDBX Classes
 90
     4095
280
     0
281
     0
  0
CLASS
  1
MATERIAL
  2
AcDbMaterial
  3
ObjectDBX Classes
 90
     1153
280
     0
281
     0
  0
CLASS
  1
SCALE
  2
AcDbScale
  3
ObjectDBX Classes
 90
     1153
280
     0
281
     0
  0
CLASS
  1
SUN
  2
AcDbSun
  3
SCENEOE
 90
     1153
280
     0
281
     0
  0
CLASS
  1
DICTIONARYVAR
  2
AcDbDictionaryVar
  3
ObjectDBX Classes
 90
        0
280
     0
281
     0
  0
CLASS
  1
ACDBPLACEHOLDER
  2
AcDbPlaceHolder
  3
ObjectDBX Classes
 90
        0
280
     0
281
     0
  0
CLASS
  1
LAYOUT
  2
AcDbLayout
  3
ObjectDBX Classes
 90
        0
280
     0
281
     0
  0
ENDSEC
  0
SECTION
  2
TABLES
  0
TABLE
  2
VPORT
  5
8
330
0
100
AcDbSymbolTable
 70
     1
  0
VPORT
  5
29
330
8
100
AcDbSymbolTableRecord
100
AcDbViewportTableRecord
  2
*Active
 70
     0
 10
0.0
 20
0.0
 11
1.0
 21
1.0
 12
210.0
 22
148.5
 13
0.0
 23
0.0
 14
10.0
 24
10.0
 15
10.0
 25
10.0
 16
0.0
 26
0.0
 36
1.0
 17
0.0
 27
0.0
 37
0.0
 40
297.0
 41
1.414141414141414
 42
50.0
 43
0.0
 44
0.0
 50
0.0
 51
0.0
 71
     0
 72
   100
 73
     1
 74
     3
 75
     0
 76
     0
 77
     0
 78
     0
281
     0
 65
     1
110
0.0
120
0.0
130
0.0
111
1.0
121
0.0
131
0.0
112
0.0
122
1.0
132
0.0
 79
     0
146
0.0
  0
ENDTAB
  0
TABLE
  2
LTYPE
  5
5
330
0
100
AcDbSymbolTable
 70
     2
  0
LTYPE
  5
14
330
5
100
AcDbSymbolTableRecord
100
AcDbLinetypeTableRecord
  2
ByBlock
 70
     0
  3

 72
    65
 73
     0
 40
0.0
  0
LTYPE
  5
15
330
5
100
AcDbSymbolTableRecord
100
AcDbLinetypeTableRecord
  2
ByLayer
 70
     0
  3

 72
    65
 73
     0
 40
0.0
  0
LTYPE
  5
16
330
5
100
AcDbSymbolTableRecord
100
AcDbLinetypeTableRecord
  2
Continuous
 70
     0
  3
Solid line
 72
    65
 73
     0
 40
0.0
  0
LTYPE
  5
D9
330
5
100
AcDbSymbolTableRecord
100
AcDbLinetypeTableRecord
  2
0.5実線
 70
     0
  3

 72
    65
 73
     0
 40
0.0
  0
ENDTAB
  0
TABLE
  2
LAYER
  5
2
330
0
100
AcDbSymbolTable
 70
     4
  0
LAYER
  5
10
330
2
100
AcDbSymbolTableRecord
100
AcDbLayerTableRecord
  2
0
 70
     0
 62
     7
  6
Continuous
370
    -3
390
F
  0
LAYER
  5
D6
330
2
100
AcDbSymbolTableRecord
100
AcDbLayerTableRecord
  2
Defpoints
 70
     0
 62
     7
  6
Continuous
290
     0
370
    -3
390
F
  0
LAYER
  5
D8
330
2
100
AcDbSymbolTableRecord
100
AcDbLayerTableRecord
  2
GR5_01
 70
     0
 62
     1
  6
0.5実線
370
    30
390
F
  0
LAYER
  5
46F
330
2
100
AcDbSymbolTableRecord
100
AcDbLayerTableRecord
  2
GR1_01
 70
     0
 62
     1
  6
0.5実線
370
    30
390
F
  0
ENDTAB
  0
TABLE
  2
STYLE
  5
3
330
0
100
AcDbSymbolTable
 70
     4
  0
STYLE
  5
11
330
3
100
AcDbSymbolTableRecord
100
AcDbTextStyleTableRecord
  2
Standard
 70
     0
 40
0.0
 41
1.0
 50
0.0
 71
     0
 42
2.5
  3
txt
  4

  0
STYLE
  5
6A
330
3
100
AcDbSymbolTableRecord
100
AcDbTextStyleTableRecord
  2
FX_VECTOR
 70
     0
 40
0.0
 41
1.0
 50
0.0
 71
     0
 42
2.5
  3
MONOTXT.SHX
  4
BigFont.shx
  0
STYLE
  5
D5
330
3
100
AcDbSymbolTableRecord
100
AcDbTextStyleTableRecord
  2
ＭＳ ゴシック
 70
     0
 40
0.0
 41
1.0
 50
0.0
 71
     0
 42
2.5
  3

  4

1001
ACAD
1000
ＭＳ ゴシック
1071
    32817
  0
STYLE
  5
D7
330
3
100
AcDbSymbolTableRecord
100
AcDbTextStyleTableRecord
  2
DEFAULT
 70
     0
 40
0.0
 41
1.0
 50
0.0
 71
     0
 42
2.5
  3

  4

1001
ACAD
1000
ＭＳ ゴシック
1071
    32817
  0
ENDTAB
  0
TABLE
  2
VIEW
  5
6
330
0
100
AcDbSymbolTable
 70
     0
  0
ENDTAB
  0
TABLE
  2
UCS
  5
7
330
0
100
AcDbSymbolTable
 70
     0
  0
ENDTAB
  0
TABLE
  2
APPID
  5
9
330
0
100
AcDbSymbolTable
 70
     1
  0
APPID
  5
12
330
9
100
AcDbSymbolTableRecord
100
AcDbRegAppTableRecord
  2
ACAD
 70
     0
  0
ENDTAB
  0
TABLE
  2
DIMSTYLE
  5
A
330
0
100
AcDbSymbolTable
 70
     2
100
AcDbDimStyleTable
  0
DIMSTYLE
105
27
330
A
100
AcDbSymbolTableRecord
100
AcDbDimStyleTableRecord
  2
ISO-25
 70
     0
 41
2.5
 42
0.625
 43
3.75
 44
1.25
 73
     0
 74
     0
 77
     1
 78
     8
140
2.5
141
2.5
143
0.03937007874016
147
0.625
171
     3
172
     1
178
     0
271
     2
272
     2
274
     3
278
    44
283
     0
284
     8
340
11
  0
DIMSTYLE
105
D4
102
{ACAD_REACTORS
330
ED
330
12A
330
134
102
}
330
A
100
AcDbSymbolTableRecord
100
AcDbDimStyleTableRecord
  2
FX_DIMINFO
 70
     0
 41
2.5
 42
1.0
 43
8.0
 44
1.0
 46
4.0
 73
     0
 74
     0
 77
     1
 78
     8
 79
     2
140
3.5
141
2.5
143
0.03937
147
1.0
171
     3
172
     1
173
     1
176
     5
177
     5
271
     2
178
    94
179
     2
271
     2
272
     2
274
     3
284
     8
340
D5
341
6E
343
6E
344
74
  0
ENDTAB
  0
TABLE
  2
BLOCK_RECORD
  5
1
330
0
100
AcDbSymbolTable
 70
    31
  0
BLOCK_RECORD
  5
1F
330
1
100
AcDbSymbolTableRecord
100
AcDbBlockTableRecord
  2
*Model_Space
340
22
  0
BLOCK_RECORD
  5
1B
330
1
100
AcDbSymbolTableRecord
100
AcDbBlockTableRecord
  2
*Paper_Space
340
1E
  0
BLOCK_RECORD
  5
23
330
1
100
AcDbSymbolTableRecord
100
AcDbBlockTableRecord
  2
*Paper_Space0
340
26
  0
BLOCK_RECORD
  5
6B
330
1
100
AcDbSymbolTableRecord
100
AcDbBlockTableRecord
  2
FXTIP_NONE
340
0
  0
BLOCK_RECORD
  5
6E
330
1
100
AcDbSymbolTableRecord
100
AcDbBlockTableRecord
  2
FXTIP_ARROW_S
340
0
102
{BLKREFS
331
F3
331
130
331
13A
102
}
  0
BLOCK_RECORD
  5
74
330
1
100
AcDbSymbolTableRecord
100
AcDbBlockTableRecord
  2
FXTIP_ARROW_E
340
0
102
{BLKREFS
331
F4
331
131
331
13B
102
}
  0
BLOCK_RECORD
  5
7A
330
1
100
AcDbSymbolTableRecord
100
AcDbBlockTableRecord
  2
FXTIP_BLACKDOT_S
340
0
  0
BLOCK_RECORD
  5
80
330
1
100
AcDbSymbolTableRecord
100
AcDbBlockTableRecord
  2
FXTIP_BLACKDOT_E
340
0
  0
BLOCK_RECORD
  5
86
330
1
100
AcDbSymbolTableRecord
100
AcDbBlockTableRecord
  2
FXTIP_TRIANGLE_S
340
0
  0
BLOCK_RECORD
  5
8D
330
1
100
AcDbSymbolTableRecord
100
AcDbBlockTableRecord
  2
FXTIP_TRIANGLE_E
340
0
  0
BLOCK_RECORD
  5
94
330
1
100
AcDbSymbolTableRecord
100
AcDbBlockTableRecord
  2
FXTIP_ARCHITECT_S
340
0
  0
BLOCK_RECORD
  5
9A
330
1
100
AcDbSymbolTableRecord
100
AcDbBlockTableRecord
  2
FXTIP_ARCHITECT_E
340
0
  0
BLOCK_RECORD
  5
A0
330
1
100
AcDbSymbolTableRecord
100
AcDbBlockTableRecord
  2
FXTIP_CIVIL_S
340
0
  0
BLOCK_RECORD
  5
A6
330
1
100
AcDbSymbolTableRecord
100
AcDbBlockTableRecord
  2
FXTIP_CIVIL_E
340
0
  0
BLOCK_RECORD
  5
AC
330
1
100
AcDbSymbolTableRecord
100
AcDbBlockTableRecord
  2
FXTIP_WHITEDOT_S
340
0
  0
BLOCK_RECORD
  5
B1
330
1
100
AcDbSymbolTableRecord
100
AcDbBlockTableRecord
  2
FXTIP_WHITEDOT_E
340
0
  0
BLOCK_RECORD
  5
B6
330
1
100
AcDbSymbolTableRecord
100
AcDbBlockTableRecord
  2
FXTIP_UPARROW_S
340
0
  0
BLOCK_RECORD
  5
BB
330
1
100
AcDbSymbolTableRecord
100
AcDbBlockTableRecord
  2
FXTIP_UPARROW_E
340
0
  0
BLOCK_RECORD
  5
C0
330
1
100
AcDbSymbolTableRecord
100
AcDbBlockTableRecord
  2
FXTIP_DOWNARROW_S
340
0
  0
BLOCK_RECORD
  5
C5
330
1
100
AcDbSymbolTableRecord
100
AcDbBlockTableRecord
  2
FXTIP_DOWNARROW_E
340
0
  0
BLOCK_RECORD
  5
CA
330
1
100
AcDbSymbolTableRecord
100
AcDbBlockTableRecord
  2
FXTIP_BLACKTRIANGLE_S
340
0
  0
BLOCK_RECORD
  5
CF
330
1
100
AcDbSymbolTableRecord
100
AcDbBlockTableRecord
  2
FXTIP_BLACKTRIANGLE_E
340
0
  0
BLOCK_RECORD
  5
EE
330
1
100
AcDbSymbolTableRecord
100
AcDbBlockTableRecord
  2
*D20
340
0
  0
BLOCK_RECORD
  5
FD
330
1
100
AcDbSymbolTableRecord
100
AcDbBlockTableRecord
  2
BLKF024
340
0
102
{BLKREFS
331
100
102
}
  0
BLOCK_RECORD
  5
10A
330
1
100
AcDbSymbolTableRecord
100
AcDbBlockTableRecord
  2
BLKF025
340
0
102
{BLKREFS
331
10D
102
}
  0
BLOCK_RECORD
  5
12B
330
1
100
AcDbSymbolTableRecord
100
AcDbBlockTableRecord
  2
*D23
340
0
  0
BLOCK_RECORD
  5
135
330
1
100
AcDbSymbolTableRecord
100
AcDbBlockTableRecord
  2
*D24
340
0
  0
BLOCK_RECORD
  5
152
330
1
100
AcDbSymbolTableRecord
100
AcDbBlockTableRecord
  2
BLKF028
340
0
102
{BLKREFS
331
155
102
}
  0
BLOCK_RECORD
  5
15F
330
1
100
AcDbSymbolTableRecord
100
AcDbBlockTableRecord
  2
BLKF029
340
0
102
{BLKREFS
331
162
102
}
  0
BLOCK_RECORD
  5
2DA
330
1
100
AcDbSymbolTableRecord
100
AcDbBlockTableRecord
  2
BLKF030
340
0
102
{BLKREFS
331
2DD
102
}
  0
BLOCK_RECORD
  5
2F9
330
1
100
AcDbSymbolTableRecord
100
AcDbBlockTableRecord
  2
BLKF031
340
0
102
{BLKREFS
331
2FC
102
}
  0
BLOCK_RECORD
  5
427
330
1
100
AcDbSymbolTableRecord
100
AcDbBlockTableRecord
  2
BLKF032
340
0
102
{BLKREFS
331
42A
102
}
  0
BLOCK_RECORD
  5
445
330
1
100
AcDbSymbolTableRecord
100
AcDbBlockTableRecord
  2
BLKF033
340
0
102
{BLKREFS
331
448
102
}
  0
ENDTAB
  0
ENDSEC
  0
SECTION
  2
BLOCKS
  0
BLOCK
  5
20
330
1F
100
AcDbEntity
  8
0
100
AcDbBlockBegin
  2
*Model_Space
 70
     0
 10
0.0
 20
0.0
 30
0.0
  3
*Model_Space
  1
*Model_Space
  0
ENDBLK
  5
21
330
1F
100
AcDbEntity
  8
0
100
AcDbBlockEnd
  0
BLOCK
  5
1C
330
1B
100
AcDbEntity
 67
     1
  8
0
100
AcDbBlockBegin
  2
*Paper_Space
 70
     0
 10
0.0
 20
0.0
 30
0.0
  3
*Paper_Space
  1
*Paper_Space
  0
ENDBLK
  5
1D
330
1B
100
AcDbEntity
 67
     1
  8
0
100
AcDbBlockEnd
  0
BLOCK
  5
24
330
23
100
AcDbEntity
  8
0
100
AcDbBlockBegin
  2
*Paper_Space0
 70
     0
 10
0.0
 20
0.0
 30
0.0
  3
*Paper_Space0
  1
*Paper_Space0
  0
ENDBLK
  5
25
330
23
100
AcDbEntity
  8
0
100
AcDbBlockEnd
  0
BLOCK
  5
6C
330
6B
100
AcDbEntity
  8
0
100
AcDbBlockBegin
  2
FXTIP_NONE
 70
     0
 10
0.0
 20
0.0
 30
0.0
  3
FXTIP_NONE
  1
FXTIP_NONE
  0
ENDBLK
  5
6D
330
6B
100
AcDbEntity
  8
0
100
AcDbBlockEnd
  0
BLOCK
  5
6F
330
6E
100
AcDbEntity
  8
0
100
AcDbBlockBegin
  2
FXTIP_ARROW_S
 70
     0
 10
0.0
 20
0.0
 30
0.0
  3
FXTIP_ARROW_S
  1
FXTIP_ARROW_S
  0
LINE
  5
71
330
6E
100
AcDbEntity
  8
0
  6
Continuous
 62
     0
370
    -2
100
AcDbLine
 10
0.0
 20
0.0
 30
0.0
 11
-1.0
 21
0.0000000000000001
 31
0.0
  0
LINE
  5
72
330
6E
100
AcDbEntity
  8
0
  6
Continuous
 62
     0
370
    -2
100
AcDbLine
 10
0.0
 20
0.0
 30
0.0
 11
-0.9659258262890683
 21
-0.2588190451025206
 31
0.0
  0
LINE
  5
73
330
6E
100
AcDbEntity
  8
0
  6
Continuous
 62
     0
370
    -2
100
AcDbLine
 10
0.0
 20
0.0
 30
0.0
 11
-0.9659258262890683
 21
0.2588190451025209
 31
0.0
  0
ENDBLK
  5
70
330
6E
100
AcDbEntity
  8
0
100
AcDbBlockEnd
  0
BLOCK
  5
75
330
74
100
AcDbEntity
  8
0
100
AcDbBlockBegin
  2
FXTIP_ARROW_E
 70
     0
 10
0.0
 20
0.0
 30
0.0
  3
FXTIP_ARROW_E
  1
FXTIP_ARROW_E
  0
LINE
  5
77
330
74
100
AcDbEntity
  8
0
  6
Continuous
 62
     0
370
    -2
100
AcDbLine
 10
0.0
 20
0.0
 30
0.0
 11
-1.0
 21
0.0
 31
0.0
  0
LINE
  5
78
330
74
100
AcDbEntity
  8
0
  6
Continuous
 62
     0
370
    -2
100
AcDbLine
 10
0.0
 20
0.0
 30
0.0
 11
-0.9659258262890683
 21
0.2588190451025207
 31
0.0
  0
LINE
  5
79
330
74
100
AcDbEntity
  8
0
  6
Continuous
 62
     0
370
    -2
100
AcDbLine
 10
0.0
 20
0.0
 30
0.0
 11
-0.9659258262890683
 21
-0.2588190451025207
 31
0.0
  0
ENDBLK
  5
76
330
74
100
AcDbEntity
  8
0
100
AcDbBlockEnd
  0
BLOCK
  5
7B
330
7A
100
AcDbEntity
  8
0
100
AcDbBlockBegin
  2
FXTIP_BLACKDOT_S
 70
     0
 10
0.0
 20
0.0
 30
0.0
  3
FXTIP_BLACKDOT_S
  1
FXTIP_BLACKDOT_S
  0
LINE
  5
7D
330
7A
100
AcDbEntity
  8
0
  6
Continuous
 62
     0
370
    -2
100
AcDbLine
 10
0.0
 20
0.0
 30
0.0
 11
-1.0
 21
0.0000000000000001
 31
0.0
  0
LWPOLYLINE
  5
7E
330
7A
100
AcDbEntity
  8
0
  6
Continuous
 62
     0
370
    -2
100
AcDbPolyline
 90
        2
 70
     1
 43
0.2
 10
-0.1
 20
0.0
 42
1.0
 10
0.1
 20
0.0
 42
1.0
  0
CIRCLE
  5
7F
330
7A
100
AcDbEntity
  8
0
  6
Continuous
 62
     0
370
    -2
100
AcDbCircle
 10
0.0
 20
0.0
 30
0.0
 40
0.2
  0
ENDBLK
  5
7C
330
7A
100
AcDbEntity
  8
0
100
AcDbBlockEnd
  0
BLOCK
  5
81
330
80
100
AcDbEntity
  8
0
100
AcDbBlockBegin
  2
FXTIP_BLACKDOT_E
 70
     0
 10
0.0
 20
0.0
 30
0.0
  3
FXTIP_BLACKDOT_E
  1
FXTIP_BLACKDOT_E
  0
LINE
  5
83
330
80
100
AcDbEntity
  8
0
  6
Continuous
 62
     0
370
    -2
100
AcDbLine
 10
0.0
 20
0.0
 30
0.0
 11
-1.0
 21
0.0
 31
0.0
  0
LWPOLYLINE
  5
84
330
80
100
AcDbEntity
  8
0
  6
Continuous
 62
     0
370
    -2
100
AcDbPolyline
 90
        2
 70
     1
 43
0.2
 10
-0.1
 20
0.0
 42
1.0
 10
0.1
 20
0.0
 42
1.0
  0
CIRCLE
  5
85
330
80
100
AcDbEntity
  8
0
  6
Continuous
 62
     0
370
    -2
100
AcDbCircle
 10
0.0
 20
0.0
 30
0.0
 40
0.2
  0
ENDBLK
  5
82
330
80
100
AcDbEntity
  8
0
100
AcDbBlockEnd
  0
BLOCK
  5
87
330
86
100
AcDbEntity
  8
0
100
AcDbBlockBegin
  2
FXTIP_TRIANGLE_S
 70
     0
 10
0.0
 20
0.0
 30
0.0
  3
FXTIP_TRIANGLE_S
  1
FXTIP_TRIANGLE_S
  0
LINE
  5
89
330
86
100
AcDbEntity
  8
0
  6
Continuous
 62
     0
370
    -2
100
AcDbLine
 10
0.0
 20
0.0
 30
0.0
 11
-1.0
 21
0.0000000000000001
 31
0.0
  0
LINE
  5
8A
330
86
100
AcDbEntity
  8
0
  6
Continuous
 62
     0
370
    -2
100
AcDbLine
 10
0.0
 20
0.0
 30
0.0
 11
-0.9659258262890683
 21
-0.2588190451025206
 31
0.0
  0
LINE
  5
8B
330
86
100
AcDbEntity
  8
0
  6
Continuous
 62
     0
370
    -2
100
AcDbLine
 10
0.0
 20
0.0
 30
0.0
 11
-0.9659258262890683
 21
0.2588190451025209
 31
0.0
  0
LINE
  5
8C
330
86
100
AcDbEntity
  8
0
  6
Continuous
 62
     0
370
    -2
100
AcDbLine
 10
-0.9659258262890683
 20
-0.2588190451025206
 30
0.0
 11
-0.9659258262890683
 21
0.2588190451025209
 31
0.0
  0
ENDBLK
  5
88
330
86
100
AcDbEntity
  8
0
100
AcDbBlockEnd
  0
BLOCK
  5
8E
330
8D
100
AcDbEntity
  8
0
100
AcDbBlockBegin
  2
FXTIP_TRIANGLE_E
 70
     0
 10
0.0
 20
0.0
 30
0.0
  3
FXTIP_TRIANGLE_E
  1
FXTIP_TRIANGLE_E
  0
LINE
  5
90
330
8D
100
AcDbEntity
  8
0
  6
Continuous
 62
     0
370
    -2
100
AcDbLine
 10
0.0
 20
0.0
 30
0.0
 11
-1.0
 21
0.0
 31
0.0
  0
LINE
  5
91
330
8D
100
AcDbEntity
  8
0
  6
Continuous
 62
     0
370
    -2
100
AcDbLine
 10
0.0
 20
0.0
 30
0.0
 11
-0.9659258262890683
 21
0.2588190451025207
 31
0.0
  0
LINE
  5
92
330
8D
100
AcDbEntity
  8
0
  6
Continuous
 62
     0
370
    -2
100
AcDbLine
 10
0.0
 20
0.0
 30
0.0
 11
-0.9659258262890683
 21
-0.2588190451025207
 31
0.0
  0
LINE
  5
93
330
8D
100
AcDbEntity
  8
0
  6
Continuous
 62
     0
370
    -2
100
AcDbLine
 10
-0.9659258262890683
 20
0.2588190451025207
 30
0.0
 11
-0.9659258262890683
 21
-0.2588190451025207
 31
0.0
  0
ENDBLK
  5
8F
330
8D
100
AcDbEntity
  8
0
100
AcDbBlockEnd
  0
BLOCK
  5
95
330
94
100
AcDbEntity
  8
0
100
AcDbBlockBegin
  2
FXTIP_ARCHITECT_S
 70
     0
 10
0.0
 20
0.0
 30
0.0
  3
FXTIP_ARCHITECT_S
  1
FXTIP_ARCHITECT_S
  0
LINE
  5
97
330
94
100
AcDbEntity
  8
0
  6
Continuous
 62
     0
370
    -2
100
AcDbLine
 10
0.0
 20
0.0
 30
0.0
 11
-1.0
 21
0.0000000000000001
 31
0.0
  0
LINE
  5
98
330
94
100
AcDbEntity
  8
0
  6
Continuous
 62
     0
370
    -2
100
AcDbLine
 10
0.0
 20
0.0
 30
0.0
 11
-0.7071067811865476
 21
-0.7071067811865474
 31
0.0
  0
LINE
  5
99
330
94
100
AcDbEntity
  8
0
  6
Continuous
 62
     0
370
    -2
100
AcDbLine
 10
0.0
 20
0.0
 30
0.0
 11
0.7071067811865476
 21
0.7071067811865474
 31
0.0
  0
ENDBLK
  5
96
330
94
100
AcDbEntity
  8
0
100
AcDbBlockEnd
  0
BLOCK
  5
9B
330
9A
100
AcDbEntity
  8
0
100
AcDbBlockBegin
  2
FXTIP_ARCHITECT_E
 70
     0
 10
0.0
 20
0.0
 30
0.0
  3
FXTIP_ARCHITECT_E
  1
FXTIP_ARCHITECT_E
  0
LINE
  5
9D
330
9A
100
AcDbEntity
  8
0
  6
Continuous
 62
     0
370
    -2
100
AcDbLine
 10
0.0
 20
0.0
 30
0.0
 11
-1.0
 21
0.0
 31
0.0
  0
LINE
  5
9E
330
9A
100
AcDbEntity
  8
0
  6
Continuous
 62
     0
370
    -2
100
AcDbLine
 10
0.0
 20
0.0
 30
0.0
 11
0.7071067811865475
 21
0.7071067811865475
 31
0.0
  0
LINE
  5
9F
330
9A
100
AcDbEntity
  8
0
  6
Continuous
 62
     0
370
    -2
100
AcDbLine
 10
0.0
 20
0.0
 30
0.0
 11
-0.7071067811865475
 21
-0.7071067811865475
 31
0.0
  0
ENDBLK
  5
9C
330
9A
100
AcDbEntity
  8
0
100
AcDbBlockEnd
  0
BLOCK
  5
A1
330
A0
100
AcDbEntity
  8
0
100
AcDbBlockBegin
  2
FXTIP_CIVIL_S
 70
     0
 10
0.0
 20
0.0
 30
0.0
  3
FXTIP_CIVIL_S
  1
FXTIP_CIVIL_S
  0
LINE
  5
A3
330
A0
100
AcDbEntity
  8
0
  6
Continuous
 62
     0
370
    -2
100
AcDbLine
 10
0.0
 20
0.0
 30
0.0
 11
-1.0
 21
0.0000000000000001
 31
0.0
  0
LINE
  5
A4
330
A0
100
AcDbEntity
  8
0
  6
Continuous
 62
     0
370
    -2
100
AcDbLine
 10
0.0
 20
-0.1
 30
0.0
 11
-1.0
 21
-0.0999999999999999
 31
0.0
  0
LINE
  5
A5
330
A0
100
AcDbEntity
  8
0
  6
Continuous
 62
     0
370
    -2
100
AcDbLine
 10
0.0
 20
-0.2
 30
0.0
 11
-1.0
 21
-0.1999999999999999
 31
0.0
  0
ENDBLK
  5
A2
330
A0
100
AcDbEntity
  8
0
100
AcDbBlockEnd
  0
BLOCK
  5
A7
330
A6
100
AcDbEntity
  8
0
100
AcDbBlockBegin
  2
FXTIP_CIVIL_E
 70
     0
 10
0.0
 20
0.0
 30
0.0
  3
FXTIP_CIVIL_E
  1
FXTIP_CIVIL_E
  0
LINE
  5
A9
330
A6
100
AcDbEntity
  8
0
  6
Continuous
 62
     0
370
    -2
100
AcDbLine
 10
0.0
 20
0.0
 30
0.0
 11
-1.0
 21
0.0
 31
0.0
  0
LINE
  5
AA
330
A6
100
AcDbEntity
  8
0
  6
Continuous
 62
     0
370
    -2
100
AcDbLine
 10
0.0
 20
0.1
 30
0.0
 11
-1.0
 21
0.1
 31
0.0
  0
LINE
  5
AB
330
A6
100
AcDbEntity
  8
0
  6
Continuous
 62
     0
370
    -2
100
AcDbLine
 10
0.0
 20
0.2
 30
0.0
 11
-1.0
 21
0.2
 31
0.0
  0
ENDBLK
  5
A8
330
A6
100
AcDbEntity
  8
0
100
AcDbBlockEnd
  0
BLOCK
  5
AD
330
AC
100
AcDbEntity
  8
0
100
AcDbBlockBegin
  2
FXTIP_WHITEDOT_S
 70
     0
 10
0.0
 20
0.0
 30
0.0
  3
FXTIP_WHITEDOT_S
  1
FXTIP_WHITEDOT_S
  0
LINE
  5
AF
330
AC
100
AcDbEntity
  8
0
  6
Continuous
 62
     0
370
    -2
100
AcDbLine
 10
0.0
 20
0.0
 30
0.0
 11
-1.0
 21
0.0000000000000001
 31
0.0
  0
CIRCLE
  5
B0
330
AC
100
AcDbEntity
  8
0
  6
Continuous
 62
     0
370
    -2
100
AcDbCircle
 10
0.0
 20
0.0
 30
0.0
 40
0.2
  0
ENDBLK
  5
AE
330
AC
100
AcDbEntity
  8
0
100
AcDbBlockEnd
  0
BLOCK
  5
B2
330
B1
100
AcDbEntity
  8
0
100
AcDbBlockBegin
  2
FXTIP_WHITEDOT_E
 70
     0
 10
0.0
 20
0.0
 30
0.0
  3
FXTIP_WHITEDOT_E
  1
FXTIP_WHITEDOT_E
  0
LINE
  5
B4
330
B1
100
AcDbEntity
  8
0
  6
Continuous
 62
     0
370
    -2
100
AcDbLine
 10
0.0
 20
0.0
 30
0.0
 11
-1.0
 21
0.0
 31
0.0
  0
CIRCLE
  5
B5
330
B1
100
AcDbEntity
  8
0
  6
Continuous
 62
     0
370
    -2
100
AcDbCircle
 10
0.0
 20
0.0
 30
0.0
 40
0.2
  0
ENDBLK
  5
B3
330
B1
100
AcDbEntity
  8
0
100
AcDbBlockEnd
  0
BLOCK
  5
B7
330
B6
100
AcDbEntity
  8
0
100
AcDbBlockBegin
  2
FXTIP_UPARROW_S
 70
     0
 10
0.0
 20
0.0
 30
0.0
  3
FXTIP_UPARROW_S
  1
FXTIP_UPARROW_S
  0
LINE
  5
B9
330
B6
100
AcDbEntity
  8
0
  6
Continuous
 62
     0
370
    -2
100
AcDbLine
 10
0.0
 20
0.0
 30
0.0
 11
-1.0
 21
0.0000000000000001
 31
0.0
  0
LINE
  5
BA
330
B6
100
AcDbEntity
  8
0
  6
Continuous
 62
     0
370
    -2
100
AcDbLine
 10
0.0
 20
0.0
 30
0.0
 11
-0.9659258262890683
 21
-0.2588190451025206
 31
0.0
  0
ENDBLK
  5
B8
330
B6
100
AcDbEntity
  8
0
100
AcDbBlockEnd
  0
BLOCK
  5
BC
330
BB
100
AcDbEntity
  8
0
100
AcDbBlockBegin
  2
FXTIP_UPARROW_E
 70
     0
 10
0.0
 20
0.0
 30
0.0
  3
FXTIP_UPARROW_E
  1
FXTIP_UPARROW_E
  0
LINE
  5
BE
330
BB
100
AcDbEntity
  8
0
  6
Continuous
 62
     0
370
    -2
100
AcDbLine
 10
0.0
 20
0.0
 30
0.0
 11
-1.0
 21
0.0
 31
0.0
  0
LINE
  5
BF
330
BB
100
AcDbEntity
  8
0
  6
Continuous
 62
     0
370
    -2
100
AcDbLine
 10
0.0
 20
0.0
 30
0.0
 11
-0.9659258262890683
 21
0.2588190451025207
 31
0.0
  0
ENDBLK
  5
BD
330
BB
100
AcDbEntity
  8
0
100
AcDbBlockEnd
  0
BLOCK
  5
C1
330
C0
100
AcDbEntity
  8
0
100
AcDbBlockBegin
  2
FXTIP_DOWNARROW_S
 70
     0
 10
0.0
 20
0.0
 30
0.0
  3
FXTIP_DOWNARROW_S
  1
FXTIP_DOWNARROW_S
  0
LINE
  5
C3
330
C0
100
AcDbEntity
  8
0
  6
Continuous
 62
     0
370
    -2
100
AcDbLine
 10
0.0
 20
0.0
 30
0.0
 11
-1.0
 21
0.0000000000000001
 31
0.0
  0
LINE
  5
C4
330
C0
100
AcDbEntity
  8
0
  6
Continuous
 62
     0
370
    -2
100
AcDbLine
 10
0.0
 20
0.0
 30
0.0
 11
-0.9659258262890683
 21
0.2588190451025209
 31
0.0
  0
ENDBLK
  5
C2
330
C0
100
AcDbEntity
  8
0
100
AcDbBlockEnd
  0
BLOCK
  5
C6
330
C5
100
AcDbEntity
  8
0
100
AcDbBlockBegin
  2
FXTIP_DOWNARROW_E
 70
     0
 10
0.0
 20
0.0
 30
0.0
  3
FXTIP_DOWNARROW_E
  1
FXTIP_DOWNARROW_E
  0
LINE
  5
C8
330
C5
100
AcDbEntity
  8
0
  6
Continuous
 62
     0
370
    -2
100
AcDbLine
 10
0.0
 20
0.0
 30
0.0
 11
-1.0
 21
0.0
 31
0.0
  0
LINE
  5
C9
330
C5
100
AcDbEntity
  8
0
  6
Continuous
 62
     0
370
    -2
100
AcDbLine
 10
0.0
 20
0.0
 30
0.0
 11
-0.9659258262890683
 21
-0.2588190451025207
 31
0.0
  0
ENDBLK
  5
C7
330
C5
100
AcDbEntity
  8
0
100
AcDbBlockEnd
  0
BLOCK
  5
CB
330
CA
100
AcDbEntity
  8
0
100
AcDbBlockBegin
  2
FXTIP_BLACKTRIANGLE_S
 70
     0
 10
0.0
 20
0.0
 30
0.0
  3
FXTIP_BLACKTRIANGLE_S
  1
FXTIP_BLACKTRIANGLE_S
  0
LINE
  5
CD
330
CA
100
AcDbEntity
  8
0
  6
Continuous
 62
     0
370
    -2
100
AcDbLine
 10
0.0
 20
0.0
 30
0.0
 11
-1.0
 21
0.0000000000000001
 31
0.0
  0
SOLID
  5
CE
330
CA
100
AcDbEntity
  8
0
  6
Continuous
 62
     0
370
    -2
100
AcDbTrace
 10
0.0
 20
0.0
 30
0.0
 11
-0.9659258262890683
 21
-0.2588190451025206
 31
0.0
 12
-0.9659258262890683
 22
0.2588190451025209
 32
0.0
 13
-0.9659258262890683
 23
0.2588190451025209
 33
0.0
  0
ENDBLK
  5
CC
330
CA
100
AcDbEntity
  8
0
100
AcDbBlockEnd
  0
BLOCK
  5
D0
330
CF
100
AcDbEntity
  8
0
100
AcDbBlockBegin
  2
FXTIP_BLACKTRIANGLE_E
 70
     0
 10
0.0
 20
0.0
 30
0.0
  3
FXTIP_BLACKTRIANGLE_E
  1
FXTIP_BLACKTRIANGLE_E
  0
LINE
  5
D2
330
CF
100
AcDbEntity
  8
0
  6
Continuous
 62
     0
370
    -2
100
AcDbLine
 10
0.0
 20
0.0
 30
0.0
 11
-1.0
 21
0.0
 31
0.0
  0
SOLID
  5
D3
330
CF
100
AcDbEntity
  8
0
  6
Continuous
 62
     0
370
    -2
100
AcDbTrace
 10
0.0
 20
0.0
 30
0.0
 11
-0.9659258262890683
 21
0.2588190451025207
 31
0.0
 12
-0.9659258262890683
 22
-0.2588190451025207
 32
0.0
 13
-0.9659258262890683
 23
-0.2588190451025207
 33
0.0
  0
ENDBLK
  5
D1
330
CF
100
AcDbEntity
  8
0
100
AcDbBlockEnd
  0
BLOCK
  5
EF
330
EE
100
AcDbEntity
  8
0
100
AcDbBlockBegin
  2
*D20
 70
     1
 10
0.0
 20
0.0
 30
0.0
  3
*D20
  1
*D20
  0
TEXT
  5
F1
330
EE
100
AcDbEntity
  8
0
  6
ByBlock
 62
    94
370
    -2
100
AcDbText
 10
146.0119653875178
 20
88.38977813720703
 30
0.0
 40
2.651515151515151
  1
３４
 50
90.0
 41
0.8703296703296703
  7
ＭＳ ゴシック
 72
     1
 11
146.4963226318359
 21
91.38977813720703
 31
0.0
100
AcDbText
 73
     1
  0
LINE
  5
F2
330
EE
100
AcDbEntity
  8
0
  6
ByBlock
 62
     0
370
    -2
100
AcDbLine
 10
147.4963119873417
 20
74.38977788996326
 30
0.0
 11
147.4963119873417
 21
108.3897778899632
 31
0.0
  0
INSERT
  5
F3
330
EE
100
AcDbEntity
  8
0
  6
ByBlock
 62
     0
370
    -2
100
AcDbBlockReference
  2
FXTIP_ARROW_S
 10
147.4963119873417
 20
74.38977788996326
 30
0.0
 41
2.5
 42
2.5
 50
270.0
  0
INSERT
  5
F4
330
EE
100
AcDbEntity
  8
0
  6
ByBlock
 62
     0
370
    -2
100
AcDbBlockReference
  2
FXTIP_ARROW_E
 10
147.4963119873417
 20
108.3897778899632
 30
0.0
 41
2.5
 42
2.5
 50
90.0
  0
LINE
  5
F5
330
EE
100
AcDbEntity
  8
0
  6
ByBlock
 62
     0
370
    -2
100
AcDbLine
 10
137.0622138583839
 20
74.38977788996323
 30
0.0
 11
148.4963119873417
 21
74.38977788996324
 31
0.0
  0
LINE
  5
F6
330
EE
100
AcDbEntity
  8
0
  6
ByBlock
 62
     0
370
    -2
100
AcDbLine
 10
137.0622138583839
 20
108.3897778899632
 30
0.0
 11
148.4963119873417
 21
108.3897778899632
 31
0.0
  0
ENDBLK
  5
F0
330
EE
100
AcDbEntity
  8
0
100
AcDbBlockEnd
  0
BLOCK
  5
FE
330
FD
100
AcDbEntity
  8
0
100
AcDbBlockBegin
  2
BLKF024
 70
     0
 10
0.0
 20
0.0
 30
0.0
  3
BLKF024
  1
BLKF024
  0
CIRCLE
  5
101
330
FD
100
AcDbEntity
  8
0
  6
ByBlock
 62
     0
370
    -2
100
AcDbCircle
 10
86.06221385838388
 20
226.4442105798888
 30
0.0
 40
2.75
  0
LINE
  5
102
330
FD
100
AcDbEntity
  8
0
  6
ByBlock
 62
     0
370
    -2
100
AcDbLine
 10
84.26221385838387
 20
226.0442105798889
 30
0.0
 11
84.26221385838387
 21
226.8442105798888
 31
0.0
  0
LINE
  5
103
330
FD
100
AcDbEntity
  8
0
  6
ByBlock
 62
     0
370
    -2
100
AcDbLine
 10
85.66221385838391
 20
228.2442105798889
 30
0.0
 11
86.46221385838386
 21
228.2442105798889
 31
0.0
  0
LINE
  5
104
330
FD
100
AcDbEntity
  8
0
  6
ByBlock
 62
     0
370
    -2
100
AcDbLine
 10
87.8622138583839
 20
226.0442105798889
 30
0.0
 11
87.8622138583839
 21
226.8442105798888
 31
0.0
  0
LINE
  5
105
330
FD
100
AcDbEntity
  8
0
  6
ByBlock
 62
     0
370
    -2
100
AcDbLine
 10
85.66221385838391
 20
224.6442105798888
 30
0.0
 11
86.46221385838386
 21
224.6442105798888
 31
0.0
  0
ARC
  5
106
330
FD
100
AcDbEntity
  8
0
  6
ByBlock
 62
     0
370
    -2
100
AcDbCircle
 10
84.26221385838387
 20
228.2442105798889
 30
0.0
 40
1.399999999999999
100
AcDbArc
 50
270.0
 51
0.0
  0
ARC
  5
107
330
FD
100
AcDbEntity
  8
0
  6
ByBlock
 62
     0
370
    -2
100
AcDbCircle
 10
84.26221385838387
 20
224.6442105798888
 30
0.0
 40
1.399999999999999
100
AcDbArc
 50
0.0
 51
90.0
  0
ARC
  5
108
330
FD
100
AcDbEntity
  8
0
  6
ByBlock
 62
     0
370
    -2
100
AcDbCircle
 10
87.8622138583839
 20
224.6442105798888
 30
0.0
 40
1.399999999999999
100
AcDbArc
 50
90.0
 51
180.0
  0
ARC
  5
109
330
FD
100
AcDbEntity
  8
0
  6
ByBlock
 62
     0
370
    -2
100
AcDbCircle
 10
87.8622138583839
 20
228.2442105798889
 30
0.0
 40
1.399999999999999
100
AcDbArc
 50
180.0
 51
270.0
  0
ENDBLK
  5
FF
330
FD
100
AcDbEntity
  8
0
100
AcDbBlockEnd
  0
BLOCK
  5
10B
330
10A
100
AcDbEntity
  8
0
100
AcDbBlockBegin
  2
BLKF025
 70
     0
 10
0.0
 20
0.0
 30
0.0
  3
BLKF025
  1
BLKF025
  0
CIRCLE
  5
10E
330
10A
100
AcDbEntity
  8
0
  6
ByBlock
 62
     0
370
    -2
100
AcDbCircle
 10
86.06221385838387
 20
156.4442105798888
 30
0.0
 40
2.75
  0
LINE
  5
10F
330
10A
100
AcDbEntity
  8
0
  6
ByBlock
 62
     0
370
    -2
100
AcDbLine
 10
84.26221385838386
 20
156.0442105798888
 30
0.0
 11
84.26221385838386
 21
156.8442105798888
 31
0.0
  0
LINE
  5
110
330
10A
100
AcDbEntity
  8
0
  6
ByBlock
 62
     0
370
    -2
100
AcDbLine
 10
85.6622138583839
 20
158.2442105798888
 30
0.0
 11
86.46221385838385
 21
158.2442105798888
 31
0.0
  0
LINE
  5
111
330
10A
100
AcDbEntity
  8
0
  6
ByBlock
 62
     0
370
    -2
100
AcDbLine
 10
87.86221385838388
 20
156.0442105798888
 30
0.0
 11
87.86221385838388
 21
156.8442105798888
 31
0.0
  0
LINE
  5
112
330
10A
100
AcDbEntity
  8
0
  6
ByBlock
 62
     0
370
    -2
100
AcDbLine
 10
85.6622138583839
 20
154.6442105798888
 30
0.0
 11
86.46221385838385
 21
154.6442105798888
 31
0.0
  0
ARC
  5
113
330
10A
100
AcDbEntity
  8
0
  6
ByBlock
 62
     0
370
    -2
100
AcDbCircle
 10
84.26221385838386
 20
158.2442105798888
 30
0.0
 40
1.399999999999999
100
AcDbArc
 50
270.0
 51
0.0
  0
ARC
  5
114
330
10A
100
AcDbEntity
  8
0
  6
ByBlock
 62
     0
370
    -2
100
AcDbCircle
 10
84.26221385838386
 20
154.6442105798888
 30
0.0
 40
1.399999999999999
100
AcDbArc
 50
0.0
 51
90.0
  0
ARC
  5
115
330
10A
100
AcDbEntity
  8
0
  6
ByBlock
 62
     0
370
    -2
100
AcDbCircle
 10
87.86221385838388
 20
154.6442105798888
 30
0.0
 40
1.399999999999999
100
AcDbArc
 50
90.0
 51
180.0
  0
ARC
  5
116
330
10A
100
AcDbEntity
  8
0
  6
ByBlock
 62
     0
370
    -2
100
AcDbCircle
 10
87.86221385838388
 20
158.2442105798888
 30
0.0
 40
1.399999999999999
100
AcDbArc
 50
180.0
 51
270.0
  0
ENDBLK
  5
10C
330
10A
100
AcDbEntity
  8
0
100
AcDbBlockEnd
  0
BLOCK
  5
12C
330
12B
100
AcDbEntity
  8
0
100
AcDbBlockBegin
  2
*D23
 70
     1
 10
0.0
 20
0.0
 30
0.0
  3
*D23
  1
*D23
  0
TEXT
  5
12E
330
12B
100
AcDbEntity
  8
0
  6
ByBlock
 62
    94
370
    -2
100
AcDbText
 10
146.0119653875178
 20
185.9441833496094
 30
0.0
 40
2.651515151515151
  1
１０２
 50
90.0
 41
0.8703296703296705
  7
ＭＳ ゴシック
 72
     1
 11
146.4963226318359
 21
190.4441833496094
 31
0.0
100
AcDbText
 73
     1
  0
LINE
  5
12F
330
12B
100
AcDbEntity
  8
0
  6
ByBlock
 62
     0
370
    -2
100
AcDbLine
 10
147.4963119873417
 20
139.4442105798888
 30
0.0
 11
147.4963119873417
 21
241.4442105798888
 31
0.0
  0
INSERT
  5
130
330
12B
100
AcDbEntity
  8
0
  6
ByBlock
 62
     0
370
    -2
100
AcDbBlockReference
  2
FXTIP_ARROW_S
 10
147.4963119873417
 20
139.4442105798888
 30
0.0
 41
2.5
 42
2.5
 50
270.0
  0
INSERT
  5
131
330
12B
100
AcDbEntity
  8
0
  6
ByBlock
 62
     0
370
    -2
100
AcDbBlockReference
  2
FXTIP_ARROW_E
 10
147.4963119873417
 20
241.4442105798888
 30
0.0
 41
2.5
 42
2.5
 50
90.0
  0
LINE
  5
132
330
12B
100
AcDbEntity
  8
0
  6
ByBlock
 62
     0
370
    -2
100
AcDbLine
 10
136.8122138583839
 20
139.4442105798888
 30
0.0
 11
148.7463119873417
 21
139.4442105798888
 31
0.0
  0
LINE
  5
133
330
12B
100
AcDbEntity
  8
0
  6
ByBlock
 62
     0
370
    -2
100
AcDbLine
 10
136.8122138583839
 20
241.4442105798888
 30
0.0
 11
148.7463119873417
 21
241.4442105798888
 31
0.0
  0
ENDBLK
  5
12D
330
12B
100
AcDbEntity
  8
0
100
AcDbBlockEnd
  0
BLOCK
  5
136
330
135
100
AcDbEntity
  8
0
100
AcDbBlockBegin
  2
*D24
 70
     1
 10
0.0
 20
0.0
 30
0.0
  3
*D24
  1
*D24
  0
TEXT
  5
138
330
135
100
AcDbEntity
  8
0
  6
ByBlock
 62
    94
370
    -2
100
AcDbText
 10
102.9622192382812
 20
125.7432988947088
 30
0.0
 40
2.651515151515151
  1
５５．２
 41
0.8703296703296703
  7
ＭＳ ゴシック
 72
     1
 11
108.9622192382812
 21
125.2589416503906
 31
0.0
100
AcDbText
 73
     1
  0
LINE
  5
139
330
135
100
AcDbEntity
  8
0
  6
ByBlock
 62
     0
370
    -2
100
AcDbLine
 10
81.36221385838388
 20
124.2589453746365
 30
0.0
 11
136.5622138583839
 21
124.2589453746365
 31
0.0
  0
INSERT
  5
13A
330
135
100
AcDbEntity
  8
0
  6
ByBlock
 62
     0
370
    -2
100
AcDbBlockReference
  2
FXTIP_ARROW_S
 10
81.36221385838388
 20
124.2589453746365
 30
0.0
 41
2.5
 42
2.5
 50
180.0
  0
INSERT
  5
13B
330
135
100
AcDbEntity
  8
0
  6
ByBlock
 62
     0
370
    -2
100
AcDbBlockReference
  2
FXTIP_ARROW_E
 10
136.5622138583839
 20
124.2589453746365
 30
0.0
 41
2.5
 42
2.5
 50
360.0
  0
LINE
  5
13C
330
135
100
AcDbEntity
  8
0
  6
ByBlock
 62
     0
370
    -2
100
AcDbLine
 10
81.36221385838388
 20
139.4442105798888
 30
0.0
 11
81.36221385838388
 21
123.2589453746365
 31
0.0
  0
LINE
  5
13D
330
135
100
AcDbEntity
  8
0
  6
ByBlock
 62
     0
370
    -2
100
AcDbLine
 10
136.5622138583839
 20
139.4442105798888
 30
0.0
 11
136.5622138583839
 21
123.2589453746365
 31
0.0
  0
ENDBLK
  5
137
330
135
100
AcDbEntity
  8
0
100
AcDbBlockEnd
  0
BLOCK
  5
153
330
152
100
AcDbEntity
  8
0
100
AcDbBlockBegin
  2
BLKF028
 70
     0
 10
0.0
 20
0.0
 30
0.0
  3
BLKF028
  1
BLKF028
  0
CIRCLE
  5
156
330
152
100
AcDbEntity
  8
0
  6
ByBlock
 62
     0
370
    -2
100
AcDbCircle
 10
113.8622138583839
 20
226.4442105798888
 30
0.0
 40
2.75
  0
LINE
  5
157
330
152
100
AcDbEntity
  8
0
  6
ByBlock
 62
     0
370
    -2
100
AcDbLine
 10
112.0622138583839
 20
226.0442105798889
 30
0.0
 11
112.0622138583839
 21
226.8442105798888
 31
0.0
  0
LINE
  5
158
330
152
100
AcDbEntity
  8
0
  6
ByBlock
 62
     0
370
    -2
100
AcDbLine
 10
113.4622138583839
 20
228.2442105798889
 30
0.0
 11
114.2622138583839
 21
228.2442105798889
 31
0.0
  0
LINE
  5
159
330
152
100
AcDbEntity
  8
0
  6
ByBlock
 62
     0
370
    -2
100
AcDbLine
 10
115.6622138583839
 20
226.0442105798889
 30
0.0
 11
115.6622138583839
 21
226.8442105798888
 31
0.0
  0
LINE
  5
15A
330
152
100
AcDbEntity
  8
0
  6
ByBlock
 62
     0
370
    -2
100
AcDbLine
 10
113.4622138583839
 20
224.6442105798888
 30
0.0
 11
114.2622138583839
 21
224.6442105798888
 31
0.0
  0
ARC
  5
15B
330
152
100
AcDbEntity
  8
0
  6
ByBlock
 62
     0
370
    -2
100
AcDbCircle
 10
112.0622138583839
 20
228.2442105798889
 30
0.0
 40
1.399999999999999
100
AcDbArc
 50
270.0
 51
0.0
  0
ARC
  5
15C
330
152
100
AcDbEntity
  8
0
  6
ByBlock
 62
     0
370
    -2
100
AcDbCircle
 10
112.0622138583839
 20
224.6442105798888
 30
0.0
 40
1.399999999999999
100
AcDbArc
 50
0.0
 51
90.0
  0
ARC
  5
15D
330
152
100
AcDbEntity
  8
0
  6
ByBlock
 62
     0
370
    -2
100
AcDbCircle
 10
115.6622138583839
 20
224.6442105798888
 30
0.0
 40
1.399999999999999
100
AcDbArc
 50
90.0
 51
180.0
  0
ARC
  5
15E
330
152
100
AcDbEntity
  8
0
  6
ByBlock
 62
     0
370
    -2
100
AcDbCircle
 10
115.6622138583839
 20
228.2442105798889
 30
0.0
 40
1.399999999999999
100
AcDbArc
 50
180.0
 51
270.0
  0
ENDBLK
  5
154
330
152
100
AcDbEntity
  8
0
100
AcDbBlockEnd
  0
BLOCK
  5
160
330
15F
100
AcDbEntity
  8
0
100
AcDbBlockBegin
  2
BLKF029
 70
     0
 10
0.0
 20
0.0
 30
0.0
  3
BLKF029
  1
BLKF029
  0
CIRCLE
  5
163
330
15F
100
AcDbEntity
  8
0
  6
ByBlock
 62
     0
370
    -2
100
AcDbCircle
 10
113.8622138583839
 20
156.4442105798888
 30
0.0
 40
2.75
  0
LINE
  5
164
330
15F
100
AcDbEntity
  8
0
  6
ByBlock
 62
     0
370
    -2
100
AcDbLine
 10
112.0622138583839
 20
156.0442105798888
 30
0.0
 11
112.0622138583839
 21
156.8442105798888
 31
0.0
  0
LINE
  5
165
330
15F
100
AcDbEntity
  8
0
  6
ByBlock
 62
     0
370
    -2
100
AcDbLine
 10
113.4622138583839
 20
158.2442105798888
 30
0.0
 11
114.2622138583839
 21
158.2442105798888
 31
0.0
  0
LINE
  5
166
330
15F
100
AcDbEntity
  8
0
  6
ByBlock
 62
     0
370
    -2
100
AcDbLine
 10
115.6622138583839
 20
156.0442105798888
 30
0.0
 11
115.6622138583839
 21
156.8442105798888
 31
0.0
  0
LINE
  5
167
330
15F
100
AcDbEntity
  8
0
  6
ByBlock
 62
     0
370
    -2
100
AcDbLine
 10
113.4622138583839
 20
154.6442105798888
 30
0.0
 11
114.2622138583839
 21
154.6442105798888
 31
0.0
  0
ARC
  5
168
330
15F
100
AcDbEntity
  8
0
  6
ByBlock
 62
     0
370
    -2
100
AcDbCircle
 10
112.0622138583839
 20
158.2442105798888
 30
0.0
 40
1.399999999999999
100
AcDbArc
 50
270.0
 51
0.0
  0
ARC
  5
169
330
15F
100
AcDbEntity
  8
0
  6
ByBlock
 62
     0
370
    -2
100
AcDbCircle
 10
112.0622138583839
 20
154.6442105798888
 30
0.0
 40
1.399999999999999
100
AcDbArc
 50
0.0
 51
90.0
  0
ARC
  5
16A
330
15F
100
AcDbEntity
  8
0
  6
ByBlock
 62
     0
370
    -2
100
AcDbCircle
 10
115.6622138583839
 20
154.6442105798888
 30
0.0
 40
1.399999999999999
100
AcDbArc
 50
90.0
 51
180.0
  0
ARC
  5
16B
330
15F
100
AcDbEntity
  8
0
  6
ByBlock
 62
     0
370
    -2
100
AcDbCircle
 10
115.6622138583839
 20
158.2442105798888
 30
0.0
 40
1.399999999999999
100
AcDbArc
 50
180.0
 51
270.0
  0
ENDBLK
  5
161
330
15F
100
AcDbEntity
  8
0
100
AcDbBlockEnd
  0
BLOCK
  5
2DB
330
2DA
100
AcDbEntity
  8
0
100
AcDbBlockBegin
  2
BLKF030
 70
     0
 10
0.0
 20
0.0
 30
0.0
  3
BLKF030
  1
BLKF030
  0
CIRCLE
  5
2DE
330
2DA
100
AcDbEntity
  8
0
  6
ByBlock
 62
     0
370
    -2
100
AcDbCircle
 10
276.7455868299331
 20
236.4442105798887
 30
0.0
 40
2.25
  0
LINE
  5
2DF
330
2DA
100
AcDbEntity
  8
0
  6
ByBlock
 62
     0
370
    -2
100
AcDbLine
 10
275.4455868299332
 20
236.0442105798888
 30
0.0
 11
275.4455868299332
 21
236.8442105798888
 31
0.0
  0
LINE
  5
2E0
330
2DA
100
AcDbEntity
  8
0
  6
ByBlock
 62
     0
370
    -2
100
AcDbLine
 10
276.3455868299332
 20
237.7442105798889
 30
0.0
 11
277.1455868299331
 21
237.7442105798889
 31
0.0
  0
LINE
  5
2E1
330
2DA
100
AcDbEntity
  8
0
  6
ByBlock
 62
     0
370
    -2
100
AcDbLine
 10
278.0455868299332
 20
236.0442105798888
 30
0.0
 11
278.0455868299332
 21
236.8442105798888
 31
0.0
  0
LINE
  5
2E2
330
2DA
100
AcDbEntity
  8
0
  6
ByBlock
 62
     0
370
    -2
100
AcDbLine
 10
276.3455868299332
 20
235.1442105798887
 30
0.0
 11
277.1455868299331
 21
235.1442105798887
 31
0.0
  0
ARC
  5
2E3
330
2DA
100
AcDbEntity
  8
0
  6
ByBlock
 62
     0
370
    -2
100
AcDbCircle
 10
275.4455868299332
 20
237.7442105798889
 30
0.0
 40
0.9000000000000341
100
AcDbArc
 50
270.0
 51
0.0
  0
ARC
  5
2E4
330
2DA
100
AcDbEntity
  8
0
  6
ByBlock
 62
     0
370
    -2
100
AcDbCircle
 10
275.4455868299332
 20
235.1442105798887
 30
0.0
 40
0.9000000000000341
100
AcDbArc
 50
0.0
 51
90.0
  0
ARC
  5
2E5
330
2DA
100
AcDbEntity
  8
0
  6
ByBlock
 62
     0
370
    -2
100
AcDbCircle
 10
278.0455868299332
 20
235.1442105798887
 30
0.0
 40
0.9000000000000341
100
AcDbArc
 50
90.0
 51
180.0
  0
ARC
  5
2E6
330
2DA
100
AcDbEntity
  8
0
  6
ByBlock
 62
     0
370
    -2
100
AcDbCircle
 10
278.0455868299332
 20
237.7442105798889
 30
0.0
 40
0.9000000000000341
100
AcDbArc
 50
180.0
 51
270.0
  0
ENDBLK
  5
2DC
330
2DA
100
AcDbEntity
  8
0
100
AcDbBlockEnd
  0
BLOCK
  5
2FA
330
2F9
100
AcDbEntity
  8
0
100
AcDbBlockBegin
  2
BLKF031
 70
     0
 10
0.0
 20
0.0
 30
0.0
  3
BLKF031
  1
BLKF031
  0
CIRCLE
  5
2FD
330
2F9
100
AcDbEntity
  8
0
  6
ByBlock
 62
     0
370
    -2
100
AcDbCircle
 10
276.745586829933
 20
144.4442105798885
 30
0.0
 40
2.25
  0
LINE
  5
2FE
330
2F9
100
AcDbEntity
  8
0
  6
ByBlock
 62
     0
370
    -2
100
AcDbLine
 10
275.4455868299331
 20
144.0442105798887
 30
0.0
 11
275.4455868299331
 21
144.8442105798886
 31
0.0
  0
LINE
  5
2FF
330
2F9
100
AcDbEntity
  8
0
  6
ByBlock
 62
     0
370
    -2
100
AcDbLine
 10
276.345586829933
 20
145.7442105798887
 30
0.0
 11
277.145586829933
 21
145.7442105798887
 31
0.0
  0
LINE
  5
300
330
2F9
100
AcDbEntity
  8
0
  6
ByBlock
 62
     0
370
    -2
100
AcDbLine
 10
278.0455868299331
 20
144.0442105798887
 30
0.0
 11
278.0455868299331
 21
144.8442105798886
 31
0.0
  0
LINE
  5
301
330
2F9
100
AcDbEntity
  8
0
  6
ByBlock
 62
     0
370
    -2
100
AcDbLine
 10
276.345586829933
 20
143.1442105798886
 30
0.0
 11
277.145586829933
 21
143.1442105798886
 31
0.0
  0
ARC
  5
302
330
2F9
100
AcDbEntity
  8
0
  6
ByBlock
 62
     0
370
    -2
100
AcDbCircle
 10
275.4455868299331
 20
145.7442105798887
 30
0.0
 40
0.9000000000000341
100
AcDbArc
 50
270.0
 51
0.0
  0
ARC
  5
303
330
2F9
100
AcDbEntity
  8
0
  6
ByBlock
 62
     0
370
    -2
100
AcDbCircle
 10
275.4455868299331
 20
143.1442105798886
 30
0.0
 40
0.9000000000000341
100
AcDbArc
 50
0.0
 51
90.0
  0
ARC
  5
304
330
2F9
100
AcDbEntity
  8
0
  6
ByBlock
 62
     0
370
    -2
100
AcDbCircle
 10
278.0455868299331
 20
143.1442105798886
 30
0.0
 40
0.9000000000000341
100
AcDbArc
 50
90.0
 51
180.0
  0
ARC
  5
305
330
2F9
100
AcDbEntity
  8
0
  6
ByBlock
 62
     0
370
    -2
100
AcDbCircle
 10
278.0455868299331
 20
145.7442105798887
 30
0.0
 40
0.9000000000000341
100
AcDbArc
 50
180.0
 51
270.0
  0
ENDBLK
  5
2FB
330
2F9
100
AcDbEntity
  8
0
100
AcDbBlockEnd
  0
BLOCK
  5
428
330
427
100
AcDbEntity
  8
0
100
AcDbBlockBegin
  2
BLKF032
 70
     0
 10
0.0
 20
0.0
 30
0.0
  3
BLKF032
  1
BLKF032
  0
CIRCLE
  5
42B
330
427
100
AcDbEntity
  8
0
  6
ByBlock
 62
     0
370
    -2
100
AcDbCircle
 10
248.9455868299331
 20
236.4442105798887
 30
0.0
 40
2.25
  0
LINE
  5
42C
330
427
100
AcDbEntity
  8
0
  6
ByBlock
 62
     0
370
    -2
100
AcDbLine
 10
247.6455868299332
 20
236.0442105798888
 30
0.0
 11
247.6455868299332
 21
236.8442105798888
 31
0.0
  0
LINE
  5
42D
330
427
100
AcDbEntity
  8
0
  6
ByBlock
 62
     0
370
    -2
100
AcDbLine
 10
248.5455868299331
 20
237.7442105798889
 30
0.0
 11
249.3455868299331
 21
237.7442105798889
 31
0.0
  0
LINE
  5
42E
330
427
100
AcDbEntity
  8
0
  6
ByBlock
 62
     0
370
    -2
100
AcDbLine
 10
250.2455868299332
 20
236.0442105798888
 30
0.0
 11
250.2455868299332
 21
236.8442105798888
 31
0.0
  0
LINE
  5
42F
330
427
100
AcDbEntity
  8
0
  6
ByBlock
 62
     0
370
    -2
100
AcDbLine
 10
248.5455868299331
 20
235.1442105798887
 30
0.0
 11
249.3455868299331
 21
235.1442105798887
 31
0.0
  0
ARC
  5
430
330
427
100
AcDbEntity
  8
0
  6
ByBlock
 62
     0
370
    -2
100
AcDbCircle
 10
247.6455868299332
 20
237.7442105798889
 30
0.0
 40
0.9000000000000341
100
AcDbArc
 50
270.0
 51
0.0
  0
ARC
  5
431
330
427
100
AcDbEntity
  8
0
  6
ByBlock
 62
     0
370
    -2
100
AcDbCircle
 10
247.6455868299332
 20
235.1442105798887
 30
0.0
 40
0.9000000000000341
100
AcDbArc
 50
0.0
 51
90.0
  0
ARC
  5
432
330
427
100
AcDbEntity
  8
0
  6
ByBlock
 62
     0
370
    -2
100
AcDbCircle
 10
250.2455868299332
 20
235.1442105798887
 30
0.0
 40
0.9000000000000341
100
AcDbArc
 50
90.0
 51
180.0
  0
ARC
  5
433
330
427
100
AcDbEntity
  8
0
  6
ByBlock
 62
     0
370
    -2
100
AcDbCircle
 10
250.2455868299332
 20
237.7442105798889
 30
0.0
 40
0.9000000000000341
100
AcDbArc
 50
180.0
 51
270.0
  0
ENDBLK
  5
429
330
427
100
AcDbEntity
  8
0
100
AcDbBlockEnd
  0
BLOCK
  5
446
330
445
100
AcDbEntity
  8
0
100
AcDbBlockBegin
  2
BLKF033
 70
     0
 10
0.0
 20
0.0
 30
0.0
  3
BLKF033
  1
BLKF033
  0
CIRCLE
  5
449
330
445
100
AcDbEntity
  8
0
  6
ByBlock
 62
     0
370
    -2
100
AcDbCircle
 10
248.9455868299331
 20
144.4442105798885
 30
0.0
 40
2.25
  0
LINE
  5
44A
330
445
100
AcDbEntity
  8
0
  6
ByBlock
 62
     0
370
    -2
100
AcDbLine
 10
247.6455868299331
 20
144.0442105798887
 30
0.0
 11
247.6455868299331
 21
144.8442105798886
 31
0.0
  0
LINE
  5
44B
330
445
100
AcDbEntity
  8
0
  6
ByBlock
 62
     0
370
    -2
100
AcDbLine
 10
248.5455868299331
 20
145.7442105798887
 30
0.0
 11
249.345586829933
 21
145.7442105798887
 31
0.0
  0
LINE
  5
44C
330
445
100
AcDbEntity
  8
0
  6
ByBlock
 62
     0
370
    -2
100
AcDbLine
 10
250.2455868299331
 20
144.0442105798887
 30
0.0
 11
250.2455868299331
 21
144.8442105798886
 31
0.0
  0
LINE
  5
44D
330
445
100
AcDbEntity
  8
0
  6
ByBlock
 62
     0
370
    -2
100
AcDbLine
 10
248.5455868299331
 20
143.1442105798886
 30
0.0
 11
249.345586829933
 21
143.1442105798886
 31
0.0
  0
ARC
  5
44E
330
445
100
AcDbEntity
  8
0
  6
ByBlock
 62
     0
370
    -2
100
AcDbCircle
 10
247.6455868299331
 20
145.7442105798887
 30
0.0
 40
0.9000000000000341
100
AcDbArc
 50
270.0
 51
0.0
  0
ARC
  5
44F
330
445
100
AcDbEntity
  8
0
  6
ByBlock
 62
     0
370
    -2
100
AcDbCircle
 10
247.6455868299331
 20
143.1442105798886
 30
0.0
 40
0.9000000000000341
100
AcDbArc
 50
0.0
 51
90.0
  0
ARC
  5
450
330
445
100
AcDbEntity
  8
0
  6
ByBlock
 62
     0
370
    -2
100
AcDbCircle
 10
250.2455868299331
 20
143.1442105798886
 30
0.0
 40
0.9000000000000341
100
AcDbArc
 50
90.0
 51
180.0
  0
ARC
  5
451
330
445
100
AcDbEntity
  8
0
  6
ByBlock
 62
     0
370
    -2
100
AcDbCircle
 10
250.2455868299331
 20
145.7442105798887
 30
0.0
 40
0.9000000000000341
100
AcDbArc
 50
180.0
 51
270.0
  0
ENDBLK
  5
447
330
445
100
AcDbEntity
  8
0
100
AcDbBlockEnd
  0
ENDSEC
  0
SECTION
  2
ENTITIES
  0
LINE
  5
DA
330
1F
100
AcDbEntity
  8
GR5_01
 62
   234
370
    20
100
AcDbLine
 10
119.6122138583839
 20
69.63977788996323
 30
0.0
 11
123.8622138583839
 21
69.63977788996323
 31
0.0
  0
LINE
  5
DB
330
1F
100
AcDbEntity
  8
GR5_01
 62
   234
370
    20
100
AcDbLine
 10
119.3122138583838
 20
69.93977788996324
 30
0.0
 11
119.6122138583839
 21
69.63977788996323
 31
0.0
  0
LINE
  5
DC
330
1F
100
AcDbEntity
  8
GR5_01
 62
   234
370
    20
100
AcDbLine
 10
123.8622138583838
 20
72.88977788996328
 30
0.0
 11
125.3622138583839
 21
72.88977788996328
 31
0.0
  0
LINE
  5
DD
330
1F
100
AcDbEntity
  8
GR5_01
 62
   234
370
    20
100
AcDbLine
 10
123.8622138583838
 20
72.88977788996326
 30
0.0
 11
123.8622138583839
 21
69.63977788996323
 31
0.0
  0
LINE
  5
DE
330
1F
100
AcDbEntity
  8
GR5_01
 62
   234
370
    20
100
AcDbLine
 10
125.3622138583839
 20
72.88977788996326
 30
0.0
 11
125.362213858384
 21
69.63977788996323
 31
0.0
  0
LINE
  5
DF
330
1F
100
AcDbEntity
  8
GR5_01
 62
   234
370
    20
100
AcDbLine
 10
128.6122138583837
 20
69.93977788996327
 30
0.0
 11
128.3122138583836
 21
69.63977788996323
 31
0.0
  0
LINE
  5
E0
330
1F
100
AcDbEntity
  8
GR5_01
 62
   234
370
    20
100
AcDbLine
 10
125.362213858384
 20
69.63977788996326
 30
0.0
 11
128.3122138583836
 21
69.63977788996326
 31
0.0
  0
LINE
  5
E1
330
1F
100
AcDbEntity
  8
GR5_01
 62
   234
370
    20
100
AcDbLine
 10
128.6122138583838
 20
74.38977788996323
 30
0.0
 11
128.6122138583837
 21
69.93977788996327
 31
0.0
  0
LINE
  5
E2
330
1F
100
AcDbEntity
  8
GR5_01
 62
    94
370
    20
100
AcDbLine
 10
119.3122138583838
 20
69.93977788996318
 30
0.0
 11
120.8122138583838
 21
69.93977788996321
 31
0.0
  0
LINE
  5
E3
330
1F
100
AcDbEntity
  8
GR5_01
 62
    94
370
    20
100
AcDbLine
 10
125.362213858384
 20
69.93977788996321
 30
0.0
 11
126.6122138583838
 21
69.93977788996324
 31
0.0
  0
LINE
  5
E4
330
1F
100
AcDbEntity
  8
GR5_01
 62
    94
370
    20
100
AcDbLine
 10
119.6122138583838
 20
74.38977788996323
 30
0.0
 11
119.6122138583839
 21
69.6397778899632
 31
0.0
  0
LINE
  5
E5
330
1F
100
AcDbEntity
  8
GR5_01
 62
   234
370
    20
100
AcDbLine
 10
126.6122138583838
 20
74.38977788996323
 30
0.0
 11
126.6122138583838
 21
69.63977788996328
 31
0.0
  0
LINE
  5
E6
330
1F
100
AcDbEntity
  8
GR5_01
 62
   234
370
    20
100
AcDbLine
 10
119.3122138583838
 20
74.38977788996323
 30
0.0
 11
119.3122138583838
 21
69.93977788996324
 31
0.0
  0
LINE
  5
E7
330
1F
100
AcDbEntity
  8
GR5_01
 62
   234
370
    20
100
AcDbLine
 10
120.8122138583838
 20
74.38977788996323
 30
0.0
 11
120.8122138583838
 21
69.63977788996323
 31
0.0
  0
LINE
  5
E8
330
1F
100
AcDbEntity
  8
GR5_01
 62
   234
370
    20
100
AcDbLine
 10
127.7422538583837
 20
74.38977788996323
 30
0.0
 11
127.7422538583838
 21
69.63977788996326
 31
0.0
  0
LINE
  5
E9
330
1F
100
AcDbEntity
  8
GR5_01
 62
   234
370
    20
100
AcDbLine
 10
127.0122138583837
 20
74.38977788996323
 30
0.0
 11
127.0122138583838
 21
69.63977788996328
 31
0.0
  0
LINE
  5
EA
330
1F
100
AcDbEntity
  8
GR5_01
 62
    94
370
    20
100
AcDbLine
 10
129.3622138583838
 20
110.8097778899632
 30
0.0
 11
129.9622138583838
 21
110.8097778899632
 31
0.0
  0
LINE
  5
EB
330
1F
100
AcDbEntity
  8
GR5_01
 62
    94
370
    20
100
AcDbLine
 10
130.4622138583838
 20
109.9437524861788
 30
0.0
 11
130.4622138583838
 21
108.3897778899632
 31
0.0
  0
LINE
  5
EC
330
1F
100
AcDbEntity
  8
GR5_01
 62
    94
370
    20
100
AcDbLine
 10
128.8622138583838
 20
109.9437524861788
 30
0.0
 11
128.8622138583838
 21
108.3897778899632
 31
0.0
  0
DIMENSION
  5
ED
330
1F
100
AcDbEntity
  8
GR5_01
 62
     5
370
    20
100
AcDbDimension
  2
*D20
 10
147.4963119873417
 20
108.3897778899632
 30
0.0
 11
146.4963226318359
 21
91.38977813720703
 31
0.0
 70
    33
 71
     5
 42
-1.0
  3
FX_DIMINFO
100
AcDbAlignedDimension
 13
136.0622138583839
 23
74.38977788996323
 33
0.0
 14
136.0622138583839
 24
108.3897778899632
 34
0.0
1001
ACAD
1000
DSTYLE
1002
{
1070
   173
1070
     1
1070
   344
1005
74
1070
   343
1005
6E
1070
   178
1070
    94
1002
}
  0
LINE
  5
F7
330
1F
100
AcDbEntity
  8
GR5_01
 62
    94
370
    20
100
AcDbLine
 10
209.3485145164413
 20
236.4442105798886
 30
0.0
 11
209.3485145164413
 21
161.9442105798886
 31
0.0
  0
LINE
  5
F8
330
1F
100
AcDbEntity
  8
GR5_01
 62
    94
370
    20
100
AcDbLine
 10
204.5985145164413
 20
236.4442105798886
 30
0.0
 11
209.3485145164413
 21
236.4442105798886
 31
0.0
  0
LINE
  5
F9
330
1F
100
AcDbEntity
  8
GR5_01
 62
    94
370
    20
100
AcDbLine
 10
202.9985145164413
 20
161.9442105798886
 30
0.0
 11
209.3485145164413
 21
161.9442105798886
 31
0.0
  0
ARC
  5
FA
330
1F
100
AcDbEntity
  8
GR5_01
 62
    94
370
    20
100
AcDbCircle
 10
82.36221385838388
 20
240.4442105798889
 30
0.0
 40
1.0
100
AcDbArc
 50
89.99999999999962
 51
180.0
  0
LINE
  5
FB
330
1F
100
AcDbEntity
  8
GR5_01
 62
    94
370
    20
100
AcDbLine
 10
129.3622138583838
 20
110.8097778899632
 30
0.0
 11
128.8622138583838
 21
109.9437524861788
 31
0.0
  0
LINE
  5
FC
330
1F
100
AcDbEntity
  8
GR5_01
 62
    94
370
    20
100
AcDbLine
 10
129.9622138583838
 20
110.8097778899632
 30
0.0
 11
130.4622138583838
 21
109.9437524861788
 31
0.0
  0
INSERT
  5
100
330
1F
100
AcDbEntity
  8
GR5_01
 62
    94
370
    20
100
AcDbBlockReference
  2
BLKF024
 10
0.0
 20
0.0
 30
0.0
  0
INSERT
  5
10D
330
1F
100
AcDbEntity
  8
GR5_01
 62
    94
370
    20
100
AcDbBlockReference
  2
BLKF025
 10
0.0
 20
0.0
 30
0.0
  0
CIRCLE
  5
117
330
1F
100
AcDbEntity
  8
GR5_01
 62
    94
370
    20
100
AcDbCircle
 10
86.06221385838388
 20
226.4442105798888
 30
0.0
 40
3.0
  0
CIRCLE
  5
118
330
1F
100
AcDbEntity
  8
GR5_01
 62
    94
370
    20
100
AcDbCircle
 10
86.06221385838387
 20
156.4442105798888
 30
0.0
 40
3.0
  0
LINE
  5
119
330
1F
100
AcDbEntity
  8
GR5_01
 62
    94
370
    20
100
AcDbLine
 10
81.36221385838388
 20
240.4442105798889
 30
0.0
 11
81.36221385838388
 21
140.4442105798888
 31
0.0
  0
ARC
  5
11A
330
1F
100
AcDbEntity
  8
GR5_01
 62
    94
370
    20
100
AcDbCircle
 10
82.36221385838388
 20
140.4442105798888
 30
0.0
 40
1.0
100
AcDbArc
 50
180.0
 51
270.0
  0
CIRCLE
  5
11B
330
1F
100
AcDbEntity
  8
GR5_01
 62
    94
370
    20
100
AcDbCircle
 10
86.06221385838388
 20
226.4442105798888
 30
0.0
 40
3.25
  0
CIRCLE
  5
11C
330
1F
100
AcDbEntity
  8
GR5_01
 62
    94
370
    20
100
AcDbCircle
 10
86.06221385838388
 20
156.4442105798887
 30
0.0
 40
3.25
  0
LINE
  5
11D
330
1F
100
AcDbEntity
  8
GR5_01
 62
    94
370
    20
100
AcDbLine
 10
81.86221385838394
 20
108.3897778899633
 30
0.0
 11
136.0622138583839
 21
108.3897778899632
 31
0.0
  0
LINE
  5
11E
330
1F
100
AcDbEntity
  8
GR5_01
 62
    94
370
    20
100
AcDbLine
 10
136.5622138583839
 20
91.88977788996323
 30
0.0
 11
136.5622138583839
 21
107.8897778899632
 31
0.0
  0
ARC
  5
11F
330
1F
100
AcDbEntity
  8
GR5_01
 62
    94
370
    20
100
AcDbCircle
 10
136.0622138583839
 20
107.8897778899632
 30
0.0
 40
0.5
100
AcDbArc
 50
0.0
 51
90.0
  0
LINE
  5
120
330
1F
100
AcDbEntity
  8
GR5_01
 62
    94
370
    20
100
AcDbLine
 10
81.36221385838394
 20
91.88977788996328
 30
0.0
 11
136.5622138583839
 21
91.88977788996323
 31
0.0
  0
LINE
  5
121
330
1F
100
AcDbEntity
  8
GR5_01
 62
    94
370
    20
100
AcDbLine
 10
81.86221385838383
 20
74.3897778899632
 30
0.0
 11
108.2622138583839
 21
74.38977788996323
 31
0.0
  0
LINE
  5
122
330
1F
100
AcDbEntity
  8
GR5_01
 62
    94
370
    20
100
AcDbLine
 10
81.36221385838383
 20
91.38977788996323
 30
0.0
 11
136.5622138583839
 21
91.38977788996323
 31
0.0
  0
LINE
  5
123
330
1F
100
AcDbEntity
  8
GR5_01
 62
    94
370
    20
100
AcDbLine
 10
135.6684638583839
 20
91.88977788996323
 30
0.0
 11
135.7622138583838
 21
91.38977788996323
 31
0.0
  0
LINE
  5
124
330
1F
100
AcDbEntity
  8
GR5_01
 62
    94
370
    20
100
AcDbLine
 10
136.5622138583839
 20
91.38977788996323
 30
0.0
 11
136.5622138583839
 21
74.88977788996323
 31
0.0
  0
ARC
  5
125
330
1F
100
AcDbEntity
  8
GR5_01
 62
    94
370
    20
100
AcDbCircle
 10
136.0622138583839
 20
74.88977788996323
 30
0.0
 40
0.5
100
AcDbArc
 50
270.0
 51
0.0
  0
LINE
  5
126
330
1F
100
AcDbEntity
  8
GR5_01
 62
    94
370
    20
100
AcDbLine
 10
82.86221385838388
 20
239.9442105798889
 30
0.0
 11
88.86221385838388
 21
239.9442105798889
 31
0.0
  0
LINE
  5
127
330
1F
100
AcDbEntity
  8
GR5_01
 62
    94
370
    20
100
AcDbLine
 10
88.86221385838388
 20
239.9442105798889
 30
0.0
 11
88.86221385838388
 21
231.9442105798889
 31
0.0
  0
LINE
  5
128
330
1F
100
AcDbEntity
  8
GR5_01
 62
    94
370
    20
100
AcDbLine
 10
88.86221385838388
 20
231.9442105798889
 30
0.0
 11
82.86221385838388
 21
231.9442105798889
 31
0.0
  0
LINE
  5
129
330
1F
100
AcDbEntity
  8
GR5_01
 62
    94
370
    20
100
AcDbLine
 10
82.86221385838388
 20
239.9442105798889
 30
0.0
 11
82.86221385838388
 21
231.9442105798889
 31
0.0
  0
DIMENSION
  5
12A
330
1F
100
AcDbEntity
  8
GR5_01
 62
     5
370
    20
100
AcDbDimension
  2
*D23
 10
147.4963119873417
 20
241.4442105798888
 30
0.0
 11
146.4963226318359
 21
190.4441833496094
 31
0.0
 70
    33
 71
     5
 42
-1.0
  3
FX_DIMINFO
100
AcDbAlignedDimension
 13
135.5622138583839
 23
139.4442105798888
 33
0.0
 14
135.5622138583839
 24
241.4442105798888
 34
0.0
1001
ACAD
1000
DSTYLE
1002
{
1070
   173
1070
     1
1070
   344
1005
74
1070
   343
1005
6E
1070
   178
1070
    94
1002
}
  0
DIMENSION
  5
134
330
1F
100
AcDbEntity
  8
GR5_01
 62
     5
370
    20
100
AcDbDimension
  2
*D24
 10
136.5622138583839
 20
124.2589453746365
 30
0.0
 11
108.9622192382812
 21
125.2589416503906
 31
0.0
 70
    33
 71
     5
 42
-1.0
  3
FX_DIMINFO
100
AcDbAlignedDimension
 13
81.36221385838388
 23
140.4442105798888
 33
0.0
 14
136.5622138583839
 24
140.4442105798888
 34
0.0
1001
ACAD
1000
DSTYLE
1002
{
1070
   173
1070
     1
1070
   344
1005
74
1070
   343
1005
6E
1070
   178
1070
    94
1002
}
  0
LINE
  5
13E
330
1F
100
AcDbEntity
  8
GR5_01
 62
    94
370
    20
100
AcDbLine
 10
185.8485145164413
 20
218.9442105798887
 30
0.0
 11
185.8485145164413
 21
161.9442105798888
 31
0.0
  0
ARC
  5
13F
330
1F
100
AcDbEntity
  8
GR5_01
 62
    94
370
    20
100
AcDbCircle
 10
185.3485145164413
 20
218.9442105798887
 30
0.0
 40
0.5
100
AcDbArc
 50
0.0
 51
90.0
  0
LINE
  5
140
330
1F
100
AcDbEntity
  8
GR5_01
 62
    94
370
    20
100
AcDbLine
 10
189.5985145164412
 20
227.9442105798892
 30
0.0
 11
189.5985145164412
 21
217.9442105798891
 31
0.0
  0
LINE
  5
141
330
1F
100
AcDbEntity
  8
GR5_01
 62
    94
370
    20
100
AcDbLine
 10
189.5985145164412
 20
217.9442105798891
 30
0.0
 11
191.5985145164412
 21
217.9442105798891
 31
0.0
  0
LINE
  5
142
330
1F
100
AcDbEntity
  8
GR5_01
 62
    94
370
    20
100
AcDbLine
 10
191.5985145164412
 20
217.9442105798891
 30
0.0
 11
191.5985145164412
 21
227.9442105798892
 31
0.0
  0
LINE
  5
143
330
1F
100
AcDbEntity
  8
GR5_01
 62
    94
370
    20
100
AcDbLine
 10
191.5985145164412
 20
227.9442105798892
 30
0.0
 11
189.5985145164412
 21
227.9442105798892
 31
0.0
  0
LINE
  5
144
330
1F
100
AcDbEntity
  8
GR5_01
 62
    94
370
    20
100
AcDbLine
 10
189.5985145164412
 20
162.9442105798891
 30
0.0
 11
189.5985145164412
 21
152.9442105798891
 31
0.0
  0
LINE
  5
145
330
1F
100
AcDbEntity
  8
GR5_01
 62
    94
370
    20
100
AcDbLine
 10
189.5985145164412
 20
152.9442105798891
 30
0.0
 11
191.5985145164412
 21
152.9442105798891
 31
0.0
  0
LINE
  5
146
330
1F
100
AcDbEntity
  8
GR5_01
 62
    94
370
    20
100
AcDbLine
 10
191.5985145164412
 20
152.9442105798891
 30
0.0
 11
191.5985145164412
 21
162.9442105798891
 31
0.0
  0
LINE
  5
147
330
1F
100
AcDbEntity
  8
GR5_01
 62
    94
370
    20
100
AcDbLine
 10
191.5985145164412
 20
162.9442105798891
 30
0.0
 11
189.5985145164412
 21
162.9442105798891
 31
0.0
  0
LINE
  5
148
330
1F
100
AcDbEntity
  8
GR5_01
 62
    94
370
    20
100
AcDbLine
 10
187.5985145164412
 20
241.4442105798889
 30
0.0
 11
204.0985145164413
 21
241.4442105798889
 31
0.0
  0
LINE
  5
149
330
1F
100
AcDbEntity
  8
GR5_01
 62
    94
370
    20
100
AcDbLine
 10
187.5985145164412
 20
139.4442105798888
 30
0.0
 11
204.0985145164412
 21
139.4442105798888
 31
0.0
  0
LINE
  5
14A
330
1F
100
AcDbEntity
  8
GR5_01
 62
    94
370
    20
100
AcDbLine
 10
174.8485145164412
 20
218.9442105798888
 30
0.0
 11
174.8485145164412
 21
161.9442105798888
 31
0.0
  0
LINE
  5
14B
330
1F
100
AcDbEntity
  8
GR5_01
 62
    94
370
    20
100
AcDbLine
 10
175.3485145164412
 20
161.4442105798888
 30
0.0
 11
185.3485145164413
 21
161.4442105798888
 31
0.0
  0
LINE
  5
14C
330
1F
100
AcDbEntity
  8
GR5_01
 62
    94
370
    20
100
AcDbLine
 10
175.3485145164412
 20
219.4442105798888
 30
0.0
 11
185.3485145164413
 21
219.4442105798887
 31
0.0
  0
ARC
  5
14D
330
1F
100
AcDbEntity
  8
GR5_01
 62
    94
370
    20
100
AcDbCircle
 10
175.3485145164412
 20
218.9442105798888
 30
0.0
 40
0.5
100
AcDbArc
 50
90.0
 51
180.0
  0
ARC
  5
14E
330
1F
100
AcDbEntity
  8
GR5_01
 62
    94
370
    20
100
AcDbCircle
 10
185.3485145164413
 20
161.9442105798888
 30
0.0
 40
0.5
100
AcDbArc
 50
270.0
 51
0.0
  0
ARC
  5
14F
330
1F
100
AcDbEntity
  8
GR5_01
 62
    94
370
    20
100
AcDbCircle
 10
175.3485145164412
 20
161.9442105798888
 30
0.0
 40
0.5
100
AcDbArc
 50
180.0
 51
270.0
  0
LINE
  5
150
330
1F
100
AcDbEntity
  8
GR5_01
 62
    94
370
    20
100
AcDbLine
 10
82.36221385838388
 20
241.444210579889
 30
0.0
 11
135.5622138583839
 21
241.4442105798888
 31
0.0
  0
ARC
  5
151
330
1F
100
AcDbEntity
  8
GR5_01
 62
    94
370
    20
100
AcDbCircle
 10
135.5622138583839
 20
240.4442105798888
 30
0.0
 40
1.0
100
AcDbArc
 50
0.0
 51
90.0
  0
INSERT
  5
155
330
1F
100
AcDbEntity
  8
GR5_01
 62
    94
370
    20
100
AcDbBlockReference
  2
BLKF028
 10
0.0
 20
0.0
 30
0.0
  0
INSERT
  5
162
330
1F
100
AcDbEntity
  8
GR5_01
 62
    94
370
    20
100
AcDbBlockReference
  2
BLKF029
 10
0.0
 20
0.0
 30
0.0
  0
CIRCLE
  5
16C
330
1F
100
AcDbEntity
  8
GR5_01
 62
    94
370
    20
100
AcDbCircle
 10
113.8622138583839
 20
226.4442105798888
 30
0.0
 40
3.0
  0
CIRCLE
  5
16D
330
1F
100
AcDbEntity
  8
GR5_01
 62
    94
370
    20
100
AcDbCircle
 10
113.8622138583839
 20
156.4442105798888
 30
0.0
 40
3.0
  0
LINE
  5
16E
330
1F
100
AcDbEntity
  8
GR5_01
 62
    94
370
    20
100
AcDbLine
 10
136.5622138583839
 20
240.4442105798888
 30
0.0
 11
136.5622138583839
 21
140.4442105798888
 31
0.0
  0
LINE
  5
16F
330
1F
100
AcDbEntity
  8
GR5_01
 62
    94
370
    20
100
AcDbLine
 10
82.36221385838388
 20
139.4442105798888
 30
0.0
 11
135.5622138583839
 21
139.4442105798888
 31
0.0
  0
ARC
  5
170
330
1F
100
AcDbEntity
  8
GR5_01
 62
    94
370
    20
100
AcDbCircle
 10
135.5622138583839
 20
140.4442105798888
 30
0.0
 40
1.0
100
AcDbArc
 50
270.0
 51
0.0
  0
CIRCLE
  5
171
330
1F
100
AcDbEntity
  8
GR5_01
 62
    94
370
    20
100
AcDbCircle
 10
113.8622138583839
 20
226.4442105798888
 30
0.0
 40
3.25
  0
CIRCLE
  5
172
330
1F
100
AcDbEntity
  8
GR5_01
 62
    94
370
    20
100
AcDbCircle
 10
113.8622138583839
 20
156.4442105798887
 30
0.0
 40
3.25
  0
LINE
  5
173
330
1F
100
AcDbEntity
  8
GR5_01
 62
    94
370
    20
100
AcDbLine
 10
134.8622138583838
 20
235.4442105798888
 30
0.0
 11
134.8622138583838
 21
149.2442105798887
 31
0.0
  0
LINE
  5
174
330
1F
100
AcDbEntity
  8
GR5_01
 62
    94
370
    20
100
AcDbLine
 10
118.5622138583842
 20
141.2442105798887
 30
0.0
 11
125.812213858384
 21
141.2442105798888
 31
0.0
  0
LINE
  5
175
330
1F
100
AcDbEntity
  8
GR5_01
 62
    94
370
    20
100
AcDbLine
 10
128.162213858384
 20
238.4442105798888
 30
0.0
 11
131.162213858384
 21
238.4442105798888
 31
0.0
  0
ARC
  5
176
330
1F
100
AcDbEntity
  8
GR5_01
 62
    94
370
    20
100
AcDbCircle
 10
130.612213858384
 20
144.4442105798888
 30
0.0
 40
4.5
100
AcDbArc
 50
90.0
 51
180.0
  0
LINE
  5
177
330
1F
100
AcDbEntity
  8
GR5_01
 62
    94
370
    20
100
AcDbLine
 10
130.612213858384
 20
148.9442105798888
 30
0.0
 11
134.5622138583838
 21
148.9442105798888
 31
0.0
  0
LINE
  5
178
330
1F
100
AcDbEntity
  8
GR5_01
 62
    94
370
    20
100
AcDbLine
 10
126.112213858384
 20
144.4442105798888
 30
0.0
 11
126.112213858384
 21
141.5442105798888
 31
0.0
  0
CIRCLE
  5
179
330
1F
100
AcDbEntity
  8
GR5_01
 62
    94
370
    20
100
AcDbCircle
 10
130.612213858384
 20
144.4442105798888
 30
0.0
 40
2.0
  0
CIRCLE
  5
17A
330
1F
100
AcDbEntity
  8
GR5_01
 62
    94
370
    20
100
AcDbCircle
 10
130.612213858384
 20
144.4442105798888
 30
0.0
 40
1.6
  0
CIRCLE
  5
17B
330
1F
100
AcDbEntity
  8
GR5_01
 62
    94
370
    20
100
AcDbCircle
 10
122.112213858384
 20
236.4442105798888
 30
0.0
 40
2.0
  0
CIRCLE
  5
17C
330
1F
100
AcDbEntity
  8
GR5_01
 62
    94
370
    20
100
AcDbCircle
 10
122.112213858384
 20
236.4442105798888
 30
0.0
 40
1.6
  0
ARC
  5
17D
330
1F
100
AcDbEntity
  8
GR5_01
 62
    94
370
    20
100
AcDbCircle
 10
122.112213858384
 20
236.4442105798888
 30
0.0
 40
4.3
100
AcDbArc
 50
270.0
 51
0.0
  0
LINE
  5
17E
330
1F
100
AcDbEntity
  8
GR5_01
 62
    94
370
    20
100
AcDbLine
 10
126.4122138583839
 20
236.4442105798888
 30
0.0
 11
126.4122138583839
 21
239.3442105798888
 31
0.0
  0
LINE
  5
17F
330
1F
100
AcDbEntity
  8
GR5_01
 62
    94
370
    20
100
AcDbLine
 10
122.112213858384
 20
232.1442105798887
 30
0.0
 11
118.562213858384
 21
232.1442105798887
 31
0.0
  0
LINE
  5
180
330
1F
100
AcDbEntity
  8
GR5_01
 62
    94
370
    20
100
AcDbLine
 10
132.1622138583838
 20
236.0442105798889
 30
0.0
 11
132.1622138583841
 21
239.3442105798887
 31
0.0
  0
LINE
  5
181
330
1F
100
AcDbEntity
  8
GR5_01
 62
    94
370
    20
100
AcDbLine
 10
132.4622138583839
 20
235.7442105798887
 30
0.0
 11
134.5622138583838
 21
235.7442105798887
 31
0.0
  0
ARC
  5
182
330
1F
100
AcDbEntity
  8
GR5_01
 62
    94
370
    20
100
AcDbCircle
 10
132.4622138583839
 20
236.0442105798888
 30
0.0
 40
0.3
100
AcDbArc
 50
179.9999999999892
 51
270.0
  0
ARC
  5
183
330
1F
100
AcDbEntity
  8
GR5_01
 62
    94
370
    20
100
AcDbCircle
 10
134.5622138583838
 20
235.4442105798888
 30
0.0
 40
0.3
100
AcDbArc
 50
0.0
 51
90.0
  0
ARC
  5
184
330
1F
100
AcDbEntity
  8
GR5_01
 62
    94
370
    20
100
AcDbCircle
 10
118.562213858384
 20
231.8442105798888
 30
0.0
 40
0.3
100
AcDbArc
 50
90.0
 51
180.0
  0
ARC
  5
185
330
1F
100
AcDbEntity
  8
GR5_01
 62
    94
370
    20
100
AcDbCircle
 10
134.5622138583838
 20
149.2442105798887
 30
0.0
 40
0.3
100
AcDbArc
 50
270.0
 51
0.0
  0
ARC
  5
186
330
1F
100
AcDbEntity
  8
GR5_01
 62
    94
370
    20
100
AcDbCircle
 10
125.812213858384
 20
141.5442105798888
 30
0.0
 40
0.3
100
AcDbArc
 50
270.0
 51
0.0
  0
ARC
  5
187
330
1F
100
AcDbEntity
  8
GR5_01
 62
    94
370
    20
100
AcDbCircle
 10
118.5622138583842
 20
141.5442105798888
 30
0.0
 40
0.3
100
AcDbArc
 50
180.0
 51
270.0
  0
CIRCLE
  5
188
330
1F
100
AcDbEntity
  8
GR5_01
 62
    94
370
    20
100
AcDbCircle
 10
130.612213858384
 20
144.4442105798888
 30
0.0
 40
3.15
  0
CIRCLE
  5
189
330
1F
100
AcDbEntity
  8
GR5_01
 62
    94
370
    20
100
AcDbCircle
 10
122.1122138583838
 20
236.4442105798887
 30
0.0
 40
3.15
  0
LINE
  5
18A
330
1F
100
AcDbEntity
  8
GR5_01
 62
    94
370
    20
100
AcDbLine
 10
128.162213858384
 20
148.1858679666628
 30
0.0
 11
128.162213858384
 21
163.4442105798887
 31
0.0
  0
LINE
  5
18B
330
1F
100
AcDbEntity
  8
GR5_01
 62
    94
370
    20
100
AcDbLine
 10
131.162213858384
 20
148.9442105798888
 30
0.0
 11
131.162213858384
 21
238.4442105798888
 31
0.0
  0
LINE
  5
18C
330
1F
100
AcDbEntity
  8
GR5_01
 62
    94
370
    20
100
AcDbLine
 10
118.262213858384
 20
231.8442105798888
 30
0.0
 11
118.2622138583843
 21
141.5442105798888
 31
0.0
  0
LINE
  5
18D
330
1F
100
AcDbEntity
  8
GR5_01
 62
    94
370
    20
100
AcDbLine
 10
126.7122138583839
 20
239.6442105798888
 30
0.0
 11
131.8622138583841
 21
239.6442105798887
 31
0.0
  0
ARC
  5
18E
330
1F
100
AcDbEntity
  8
GR5_01
 62
    94
370
    20
100
AcDbCircle
 10
131.8622138583841
 20
239.3442105798887
 30
0.0
 40
0.3
100
AcDbArc
 50
359.9999999999946
 51
90.0
  0
ARC
  5
18F
330
1F
100
AcDbEntity
  8
GR5_01
 62
    94
370
    20
100
AcDbCircle
 10
126.7122138583839
 20
239.3442105798888
 30
0.0
 40
0.3
100
AcDbArc
 50
89.99999999999726
 51
180.0
  0
LINE
  5
190
330
1F
100
AcDbEntity
  8
GR5_01
 62
    94
370
    20
100
AcDbLine
 10
130.462213858384
 20
150.4642105798888
 30
0.0
 11
128.862213858384
 21
150.4642105798888
 31
0.0
  0
LINE
  5
191
330
1F
100
AcDbEntity
  8
GR5_01
 62
    94
370
    20
100
AcDbLine
 10
128.862213858384
 20
150.4642105798888
 30
0.0
 11
128.862213858384
 21
236.4642105798888
 31
0.0
  0
LINE
  5
192
330
1F
100
AcDbEntity
  8
GR5_01
 62
    94
370
    20
100
AcDbLine
 10
130.462213858384
 20
150.4642105798888
 30
0.0
 11
130.462213858384
 21
236.4642105798888
 31
0.0
  0
LINE
  5
193
330
1F
100
AcDbEntity
  8
GR5_01
 62
    94
370
    20
100
AcDbLine
 10
130.462213858384
 20
236.4642105798888
 30
0.0
 11
128.862213858384
 21
236.4642105798888
 31
0.0
  0
LINE
  5
194
330
1F
100
AcDbEntity
  8
GR5_01
 62
    94
370
    20
100
AcDbLine
 10
121.162213858384
 20
167.4442105798887
 30
0.0
 11
121.162213858384
 21
213.4442105798887
 31
0.0
  0
LINE
  5
195
330
1F
100
AcDbEntity
  8
GR5_01
 62
    94
370
    20
100
AcDbLine
 10
126.162213858384
 20
215.4442105798887
 30
0.0
 11
123.162213858384
 21
215.4442105798887
 31
0.0
  0
LINE
  5
196
330
1F
100
AcDbEntity
  8
GR5_01
 62
    94
370
    20
100
AcDbLine
 10
123.162213858384
 20
165.4442105798887
 30
0.0
 11
126.162213858384
 21
165.4442105798887
 31
0.0
  0
ARC
  5
197
330
1F
100
AcDbEntity
  8
GR5_01
 62
    94
370
    20
100
AcDbCircle
 10
123.162213858384
 20
213.4442105798887
 30
0.0
 40
2.0
100
AcDbArc
 50
89.99999999999962
 51
180.0
  0
ARC
  5
198
330
1F
100
AcDbEntity
  8
GR5_01
 62
    94
370
    20
100
AcDbCircle
 10
123.162213858384
 20
167.4442105798887
 30
0.0
 40
2.0
100
AcDbArc
 50
180.0
 51
269.9999999999996
  0
LINE
  5
199
330
1F
100
AcDbEntity
  8
GR5_01
 62
    94
370
    20
100
AcDbLine
 10
128.162213858384
 20
217.4442105798887
 30
0.0
 11
128.162213858384
 21
238.4442105798888
 31
0.0
  0
ARC
  5
19A
330
1F
100
AcDbEntity
  8
GR5_01
 62
    94
370
    20
100
AcDbCircle
 10
126.162213858384
 20
217.4442105798887
 30
0.0
 40
2.0
100
AcDbArc
 50
269.9999999999996
 51
0.0
  0
ARC
  5
19B
330
1F
100
AcDbEntity
  8
GR5_01
 62
    94
370
    20
100
AcDbCircle
 10
126.162213858384
 20
163.4442105798887
 30
0.0
 40
2.0
100
AcDbArc
 50
0.0
 51
89.99999999999962
  0
LINE
  5
19C
330
1F
100
AcDbEntity
  8
GR5_01
 62
   234
370
    20
100
AcDbLine
 10
91.81221385838388
 20
69.63977788996323
 30
0.0
 11
96.06221385838388
 21
69.63977788996323
 31
0.0
  0
LINE
  5
19D
330
1F
100
AcDbEntity
  8
GR5_01
 62
   234
370
    20
100
AcDbLine
 10
91.51221385838382
 20
69.93977788996324
 30
0.0
 11
91.81221385838388
 21
69.63977788996323
 31
0.0
  0
LINE
  5
19E
330
1F
100
AcDbEntity
  8
GR5_01
 62
   234
370
    20
100
AcDbLine
 10
96.06221385838383
 20
72.88977788996328
 30
0.0
 11
97.56221385838394
 21
72.88977788996328
 31
0.0
  0
LINE
  5
19F
330
1F
100
AcDbEntity
  8
GR5_01
 62
   234
370
    20
100
AcDbLine
 10
96.06221385838383
 20
72.88977788996326
 30
0.0
 11
96.06221385838388
 21
69.63977788996323
 31
0.0
  0
LINE
  5
1A0
330
1F
100
AcDbEntity
  8
GR5_01
 62
   234
370
    20
100
AcDbLine
 10
97.56221385838394
 20
72.88977788996326
 30
0.0
 11
97.562213858384
 21
69.63977788996323
 31
0.0
  0
LINE
  5
1A1
330
1F
100
AcDbEntity
  8
GR5_01
 62
   234
370
    20
100
AcDbLine
 10
100.8122138583837
 20
69.93977788996327
 30
0.0
 11
100.5122138583836
 21
69.63977788996323
 31
0.0
  0
LINE
  5
1A2
330
1F
100
AcDbEntity
  8
GR5_01
 62
   234
370
    20
100
AcDbLine
 10
97.562213858384
 20
69.63977788996326
 30
0.0
 11
100.5122138583836
 21
69.63977788996326
 31
0.0
  0
LINE
  5
1A3
330
1F
100
AcDbEntity
  8
GR5_01
 62
   234
370
    20
100
AcDbLine
 10
100.8122138583838
 20
74.38977788996323
 30
0.0
 11
100.8122138583837
 21
69.93977788996327
 31
0.0
  0
LINE
  5
1A4
330
1F
100
AcDbEntity
  8
GR5_01
 62
    94
370
    20
100
AcDbLine
 10
91.51221385838382
 20
69.93977788996318
 30
0.0
 11
93.01221385838382
 21
69.93977788996321
 31
0.0
  0
LINE
  5
1A5
330
1F
100
AcDbEntity
  8
GR5_01
 62
    94
370
    20
100
AcDbLine
 10
97.562213858384
 20
69.93977788996321
 30
0.0
 11
98.81221385838377
 21
69.93977788996324
 31
0.0
  0
LINE
  5
1A6
330
1F
100
AcDbEntity
  8
GR5_01
 62
    94
370
    20
100
AcDbLine
 10
91.81221385838383
 20
74.38977788996323
 30
0.0
 11
91.81221385838388
 21
69.6397778899632
 31
0.0
  0
LINE
  5
1A7
330
1F
100
AcDbEntity
  8
GR5_01
 62
   234
370
    20
100
AcDbLine
 10
98.81221385838377
 20
74.38977788996323
 30
0.0
 11
98.81221385838377
 21
69.63977788996328
 31
0.0
  0
LINE
  5
1A8
330
1F
100
AcDbEntity
  8
GR5_01
 62
   234
370
    20
100
AcDbLine
 10
91.51221385838382
 20
74.38977788996323
 30
0.0
 11
91.51221385838382
 21
69.93977788996324
 31
0.0
  0
LINE
  5
1A9
330
1F
100
AcDbEntity
  8
GR5_01
 62
   234
370
    20
100
AcDbLine
 10
93.01221385838382
 20
74.38977788996323
 30
0.0
 11
93.01221385838382
 21
69.63977788996323
 31
0.0
  0
LINE
  5
1AA
330
1F
100
AcDbEntity
  8
GR5_01
 62
   234
370
    20
100
AcDbLine
 10
99.94225385838372
 20
74.38977788996323
 30
0.0
 11
99.94225385838378
 21
69.63977788996326
 31
0.0
  0
LINE
  5
1AB
330
1F
100
AcDbEntity
  8
GR5_01
 62
   234
370
    20
100
AcDbLine
 10
99.21221385838375
 20
74.38977788996323
 30
0.0
 11
99.2122138583838
 21
69.63977788996328
 31
0.0
  0
LINE
  5
1AC
330
1F
100
AcDbEntity
  8
GR5_01
 62
    94
370
    20
100
AcDbLine
 10
81.36221385838394
 20
91.88977788996323
 30
0.0
 11
81.36221385838394
 21
107.8897778899633
 31
0.0
  0
ARC
  5
1AD
330
1F
100
AcDbEntity
  8
GR5_01
 62
    94
370
    20
100
AcDbCircle
 10
81.86221385838394
 20
107.8897778899633
 30
0.0
 40
0.5
100
AcDbArc
 50
90.0
 51
180.0
  0
LINE
  5
1AE
330
1F
100
AcDbEntity
  8
GR5_01
 62
    94
370
    20
100
AcDbLine
 10
82.25596385838381
 20
91.88977788996323
 30
0.0
 11
82.16221385838378
 21
91.38977788996323
 31
0.0
  0
LINE
  5
1AF
330
1F
100
AcDbEntity
  8
GR5_01
 62
    94
370
    20
100
AcDbLine
 10
81.36221385838383
 20
91.38977788996323
 30
0.0
 11
81.36221385838383
 21
74.88977788996323
 31
0.0
  0
ARC
  5
1B0
330
1F
100
AcDbEntity
  8
GR5_01
 62
    94
370
    20
100
AcDbCircle
 10
81.86221385838383
 20
74.88977788996323
 30
0.0
 40
0.5
100
AcDbArc
 50
180.0
 51
270.0
  0
LINE
  5
1B1
330
1F
100
AcDbEntity
  8
GR5_01
 62
    94
370
    20
100
AcDbLine
 10
108.7622138583839
 20
91.38977788996323
 30
0.0
 11
108.7622138583839
 21
74.88977788996323
 31
0.0
  0
ARC
  5
1B2
330
1F
100
AcDbEntity
  8
GR5_01
 62
    94
370
    20
100
AcDbCircle
 10
108.2622138583839
 20
74.88977788996323
 30
0.0
 40
0.5
100
AcDbArc
 50
270.0
 51
0.0
  0
LINE
  5
1B3
330
1F
100
AcDbEntity
  8
GR5_01
 62
    94
370
    20
100
AcDbLine
 10
109.1622138583838
 20
91.38977788996323
 30
0.0
 11
109.1622138583838
 21
74.88977788996323
 31
0.0
  0
ARC
  5
1B4
330
1F
100
AcDbEntity
  8
GR5_01
 62
    94
370
    20
100
AcDbCircle
 10
109.6622138583838
 20
74.88977788996323
 30
0.0
 40
0.5
100
AcDbArc
 50
180.0
 51
270.0
  0
LINE
  5
1B5
330
1F
100
AcDbEntity
  8
GR5_01
 62
    94
370
    20
100
AcDbLine
 10
109.6622138583838
 20
74.38977788996323
 30
0.0
 11
136.0622138583839
 21
74.38977788996323
 31
0.0
  0
LINE
  5
1B6
330
1F
100
AcDbEntity
  8
GR5_01
 62
    94
370
    20
100
AcDbLine
 10
107.8684638583839
 20
91.88977788996323
 30
0.0
 11
107.9622138583838
 21
91.38977788996323
 31
0.0
  0
LINE
  5
1B7
330
1F
100
AcDbEntity
  8
GR5_01
 62
    94
370
    20
100
AcDbLine
 10
110.0559638583838
 20
91.88977788996323
 30
0.0
 11
109.9622138583838
 21
91.38977788996323
 31
0.0
  0
LINE
  5
1B8
330
1F
100
AcDbEntity
  8
GR5_01
 62
   234
370
    20
100
AcDbLine
 10
272.0147704183861
 20
162.3684746486009
 30
0.0
 11
272.0147704183861
 21
230.104833311842
 31
0.0
  0
LINE
  5
1B9
330
1F
100
AcDbEntity
  8
GR5_01
 62
   234
370
    20
100
AcDbLine
 10
271.8905063496741
 20
162.2442105798888
 30
0.0
 11
270.814770418386
 21
162.2442105798889
 31
0.0
  0
LINE
  5
1BA
330
1F
100
AcDbEntity
  8
GR5_01
 62
   234
370
    20
100
AcDbLine
 10
272.314770418386
 20
162.2442105798889
 30
0.0
 11
272.014770418386
 21
161.9442105798889
 31
0.0
  0
LINE
  5
1BB
330
1F
100
AcDbEntity
  8
GR5_01
 62
   234
370
    20
100
AcDbLine
 10
272.014770418386
 20
162.3684746486009
 30
0.0
 11
271.8905063496741
 21
162.2442105798889
 31
0.0
  0
LINE
  5
1BC
330
1F
100
AcDbEntity
  8
GR5_01
 62
   234
370
    20
100
AcDbLine
 10
272.014770418386
 20
162.3684746486009
 30
0.0
 11
272.314770418386
 21
162.2442105798889
 31
0.0
  0
LINE
  5
1BD
330
1F
100
AcDbEntity
  8
GR5_01
 62
   234
370
    20
100
AcDbLine
 10
271.8905063496741
 20
162.2442105798889
 30
0.0
 11
272.0147704183861
 21
161.9442105798889
 31
0.0
  0
LINE
  5
1BE
330
1F
100
AcDbEntity
  8
GR5_01
 62
   234
370
    20
100
AcDbLine
 10
265.0147704183861
 20
161.9442105798889
 30
0.0
 11
265.0147704183861
 21
162.9442105798889
 31
0.0
  0
LINE
  5
1BF
330
1F
100
AcDbEntity
  8
GR5_01
 62
   234
370
    20
100
AcDbLine
 10
266.264770418386
 20
161.9442105798889
 30
0.0
 11
266.264770418386
 21
168.3942105798887
 31
0.0
  0
LINE
  5
1C0
330
1F
100
AcDbEntity
  8
GR5_01
 62
   234
370
    20
100
AcDbLine
 10
263.0147704183862
 20
166.6858679666628
 30
0.0
 11
263.0147704183862
 21
168.3942105798887
 31
0.0
  0
LINE
  5
1C1
330
1F
100
AcDbEntity
  8
GR5_01
 62
   234
370
    20
100
AcDbLine
 10
271.2647704183861
 20
198.5642105798888
 30
0.0
 11
267.5147704183861
 21
198.5642105798888
 31
0.0
  0
LINE
  5
1C2
330
1F
100
AcDbEntity
  8
GR5_01
 62
   234
370
    20
100
AcDbLine
 10
271.2647704183861
 20
195.0642105798887
 30
0.0
 11
267.5147704183861
 21
195.0642105798887
 31
0.0
  0
LINE
  5
1C3
330
1F
100
AcDbEntity
  8
GR5_01
 62
   234
370
    20
100
AcDbLine
 10
271.2647704183861
 20
195.0642105798887
 30
0.0
 11
271.2647704183861
 21
198.5642105798888
 31
0.0
  0
LINE
  5
1C4
330
1F
100
AcDbEntity
  8
GR5_01
 62
   234
370
    20
100
AcDbLine
 10
271.2647704183861
 20
190.9442105798887
 30
0.0
 11
267.5147704183861
 21
190.9442105798887
 31
0.0
  0
LINE
  5
1C5
330
1F
100
AcDbEntity
  8
GR5_01
 62
   234
370
    20
100
AcDbLine
 10
271.2647704183861
 20
187.4442105798887
 30
0.0
 11
267.5147704183861
 21
187.4442105798887
 31
0.0
  0
LINE
  5
1C6
330
1F
100
AcDbEntity
  8
GR5_01
 62
   234
370
    20
100
AcDbLine
 10
271.2647704183861
 20
187.4442105798887
 30
0.0
 11
271.2647704183861
 21
190.9442105798887
 31
0.0
  0
LINE
  5
1C7
330
1F
100
AcDbEntity
  8
GR5_01
 62
   234
370
    20
100
AcDbLine
 10
271.2647704183861
 20
206.1842105798888
 30
0.0
 11
267.5147704183861
 21
206.1842105798888
 31
0.0
  0
LINE
  5
1C8
330
1F
100
AcDbEntity
  8
GR5_01
 62
   234
370
    20
100
AcDbLine
 10
271.2647704183861
 20
202.6842105798888
 30
0.0
 11
267.5147704183861
 21
202.6842105798888
 31
0.0
  0
LINE
  5
1C9
330
1F
100
AcDbEntity
  8
GR5_01
 62
   234
370
    20
100
AcDbLine
 10
271.2647704183861
 20
202.6842105798888
 30
0.0
 11
271.2647704183861
 21
206.1842105798888
 31
0.0
  0
LINE
  5
1CA
330
1F
100
AcDbEntity
  8
GR5_01
 62
   234
370
    20
100
AcDbLine
 10
267.7647704183861
 20
190.9442105798887
 30
0.0
 11
267.7647704183861
 21
195.0642105798887
 31
0.0
  0
LINE
  5
1CB
330
1F
100
AcDbEntity
  8
GR5_01
 62
   234
370
    20
100
AcDbLine
 10
267.7647704183861
 20
198.5642105798888
 30
0.0
 11
267.7647704183861
 21
202.6842105798888
 31
0.0
  0
LINE
  5
1CC
330
1F
100
AcDbEntity
  8
GR5_01
 62
   234
370
    20
100
AcDbLine
 10
267.7647704183861
 20
206.1842105798888
 30
0.0
 11
267.7647704183861
 21
210.3042105798888
 31
0.0
  0
LINE
  5
1CD
330
1F
100
AcDbEntity
  8
GR5_01
 62
   234
370
    20
100
AcDbLine
 10
271.2647704183861
 20
183.3242105798886
 30
0.0
 11
267.5147704183861
 21
183.3242105798886
 31
0.0
  0
LINE
  5
1CE
330
1F
100
AcDbEntity
  8
GR5_01
 62
   234
370
    20
100
AcDbLine
 10
271.2647704183861
 20
179.8242105798886
 30
0.0
 11
267.5147704183861
 21
179.8242105798886
 31
0.0
  0
LINE
  5
1CF
330
1F
100
AcDbEntity
  8
GR5_01
 62
   234
370
    20
100
AcDbLine
 10
271.2647704183861
 20
179.8242105798886
 30
0.0
 11
271.2647704183861
 21
183.3242105798886
 31
0.0
  0
LINE
  5
1D0
330
1F
100
AcDbEntity
  8
GR5_01
 62
   234
370
    20
100
AcDbLine
 10
267.7647704183861
 20
187.4442105798887
 30
0.0
 11
267.7647704183861
 21
183.3242105798887
 31
0.0
  0
LINE
  5
1D1
330
1F
100
AcDbEntity
  8
GR5_01
 62
   234
370
    20
100
AcDbLine
 10
271.2647704183861
 20
175.7042105798886
 30
0.0
 11
267.5147704183861
 21
175.7042105798886
 31
0.0
  0
LINE
  5
1D2
330
1F
100
AcDbEntity
  8
GR5_01
 62
   234
370
    20
100
AcDbLine
 10
271.2647704183861
 20
172.2042105798886
 30
0.0
 11
267.5147704183861
 21
172.2042105798886
 31
0.0
  0
LINE
  5
1D3
330
1F
100
AcDbEntity
  8
GR5_01
 62
   234
370
    20
100
AcDbLine
 10
271.2647704183861
 20
172.2042105798886
 30
0.0
 11
271.2647704183861
 21
175.7042105798886
 31
0.0
  0
LINE
  5
1D4
330
1F
100
AcDbEntity
  8
GR5_01
 62
   234
370
    20
100
AcDbLine
 10
267.7647704183861
 20
179.8242105798887
 30
0.0
 11
267.7647704183861
 21
175.7042105798886
 31
0.0
  0
LINE
  5
1D5
330
1F
100
AcDbEntity
  8
GR5_01
 62
   234
370
    20
100
AcDbLine
 10
271.2647704183861
 20
168.0842105798886
 30
0.0
 11
267.5147704183861
 21
168.0842105798887
 31
0.0
  0
LINE
  5
1D6
330
1F
100
AcDbEntity
  8
GR5_01
 62
   234
370
    20
100
AcDbLine
 10
271.2647704183861
 20
164.5842105798886
 30
0.0
 11
267.5147704183861
 21
164.5842105798886
 31
0.0
  0
LINE
  5
1D7
330
1F
100
AcDbEntity
  8
GR5_01
 62
   234
370
    20
100
AcDbLine
 10
271.2647704183861
 20
164.5842105798886
 30
0.0
 11
271.2647704183861
 21
168.0842105798886
 31
0.0
  0
LINE
  5
1D8
330
1F
100
AcDbEntity
  8
GR5_01
 62
   234
370
    20
100
AcDbLine
 10
267.7647704183861
 20
172.2042105798887
 30
0.0
 11
267.7647704183861
 21
168.0842105798887
 31
0.0
  0
LINE
  5
1D9
330
1F
100
AcDbEntity
  8
GR5_01
 62
   234
370
    20
100
AcDbLine
 10
267.7647704183861
 20
164.5842105798887
 30
0.0
 11
267.7647704183861
 21
161.9442105798889
 31
0.0
  0
LINE
  5
1DA
330
1F
100
AcDbEntity
  8
GR5_01
 62
   234
370
    20
100
AcDbLine
 10
263.0147704183862
 20
179.5142105798887
 30
0.0
 11
266.5147704183861
 21
179.5142105798887
 31
0.0
  0
LINE
  5
1DB
330
1F
100
AcDbEntity
  8
GR5_01
 62
   234
370
    20
100
AcDbLine
 10
263.0147704183862
 20
176.0142105798888
 30
0.0
 11
266.5147704183861
 21
176.0142105798888
 31
0.0
  0
LINE
  5
1DC
330
1F
100
AcDbEntity
  8
GR5_01
 62
   234
370
    20
100
AcDbLine
 10
263.0147704183862
 20
171.8942105798887
 30
0.0
 11
266.5147704183862
 21
171.8942105798887
 31
0.0
  0
LINE
  5
1DD
330
1F
100
AcDbEntity
  8
GR5_01
 62
   234
370
    20
100
AcDbLine
 10
263.0147704183862
 20
168.3942105798887
 30
0.0
 11
266.5147704183861
 21
168.3942105798887
 31
0.0
  0
LINE
  5
1DE
330
1F
100
AcDbEntity
  8
GR5_01
 62
   234
370
    20
100
AcDbLine
 10
263.3147704183862
 20
166.4669935706505
 30
0.0
 11
263.3147704183862
 21
168.3942105798887
 31
0.0
  0
LINE
  5
1DF
330
1F
100
AcDbEntity
  8
GR5_01
 62
   234
370
    20
100
AcDbLine
 10
266.264770418386
 20
162.2442105798889
 30
0.0
 11
265.0147704183861
 21
162.2442105798889
 31
0.0
  0
LINE
  5
1E0
330
1F
100
AcDbEntity
  8
GR5_01
 62
   234
370
    20
100
AcDbLine
 10
271.2647704183861
 20
199.6242105798888
 30
0.0
 11
267.7647704183861
 21
199.6242105798888
 31
0.0
  0
LINE
  5
1E1
330
1F
100
AcDbEntity
  8
GR5_01
 62
   234
370
    20
100
AcDbLine
 10
271.2647704183861
 20
201.6242105798888
 30
0.0
 11
267.7647704183861
 21
201.6242105798888
 31
0.0
  0
LINE
  5
1E2
330
1F
100
AcDbEntity
  8
GR5_01
 62
   234
370
    20
100
AcDbLine
 10
271.2647704183861
 20
201.6242105798888
 30
0.0
 11
271.2647704183861
 21
199.6242105798888
 31
0.0
  0
LINE
  5
1E3
330
1F
100
AcDbEntity
  8
GR5_01
 62
   234
370
    20
100
AcDbLine
 10
271.2647704183861
 20
192.0042105798886
 30
0.0
 11
267.7647704183861
 21
192.0042105798886
 31
0.0
  0
LINE
  5
1E4
330
1F
100
AcDbEntity
  8
GR5_01
 62
   234
370
    20
100
AcDbLine
 10
271.2647704183861
 20
194.0042105798886
 30
0.0
 11
267.7647704183861
 21
194.0042105798886
 31
0.0
  0
LINE
  5
1E5
330
1F
100
AcDbEntity
  8
GR5_01
 62
   234
370
    20
100
AcDbLine
 10
271.2647704183861
 20
184.3842105798887
 30
0.0
 11
267.7647704183861
 21
184.3842105798887
 31
0.0
  0
LINE
  5
1E6
330
1F
100
AcDbEntity
  8
GR5_01
 62
   234
370
    20
100
AcDbLine
 10
271.2647704183861
 20
186.3842105798887
 30
0.0
 11
267.7647704183861
 21
186.3842105798887
 31
0.0
  0
LINE
  5
1E7
330
1F
100
AcDbEntity
  8
GR5_01
 62
   234
370
    20
100
AcDbLine
 10
271.2647704183861
 20
194.0042105798887
 30
0.0
 11
271.2647704183861
 21
192.0042105798887
 31
0.0
  0
LINE
  5
1E8
330
1F
100
AcDbEntity
  8
GR5_01
 62
   234
370
    20
100
AcDbLine
 10
271.2647704183861
 20
186.3842105798887
 30
0.0
 11
271.2647704183861
 21
184.3842105798887
 31
0.0
  0
LINE
  5
1E9
330
1F
100
AcDbEntity
  8
GR5_01
 62
   234
370
    20
100
AcDbLine
 10
271.2647704183861
 20
176.7642105798887
 30
0.0
 11
267.7647704183861
 21
176.7642105798887
 31
0.0
  0
LINE
  5
1EA
330
1F
100
AcDbEntity
  8
GR5_01
 62
   234
370
    20
100
AcDbLine
 10
271.2647704183861
 20
178.7642105798887
 30
0.0
 11
267.7647704183861
 21
178.7642105798887
 31
0.0
  0
LINE
  5
1EB
330
1F
100
AcDbEntity
  8
GR5_01
 62
   234
370
    20
100
AcDbLine
 10
271.2647704183861
 20
178.7642105798887
 30
0.0
 11
271.2647704183861
 21
176.7642105798887
 31
0.0
  0
LINE
  5
1EC
330
1F
100
AcDbEntity
  8
GR5_01
 62
   234
370
    20
100
AcDbLine
 10
271.2647704183861
 20
169.1442105798887
 30
0.0
 11
267.7647704183861
 21
169.1442105798887
 31
0.0
  0
LINE
  5
1ED
330
1F
100
AcDbEntity
  8
GR5_01
 62
   234
370
    20
100
AcDbLine
 10
271.2647704183861
 20
171.1442105798887
 30
0.0
 11
267.7647704183861
 21
171.1442105798887
 31
0.0
  0
LINE
  5
1EE
330
1F
100
AcDbEntity
  8
GR5_01
 62
   234
370
    20
100
AcDbLine
 10
271.2647704183861
 20
171.1442105798887
 30
0.0
 11
271.2647704183861
 21
169.1442105798887
 31
0.0
  0
LINE
  5
1EF
330
1F
100
AcDbEntity
  8
GR5_01
 62
   234
370
    20
100
AcDbLine
 10
271.2647704183861
 20
209.2442105798888
 30
0.0
 11
267.7647704183861
 21
209.2442105798888
 31
0.0
  0
LINE
  5
1F0
330
1F
100
AcDbEntity
  8
GR5_01
 62
   234
370
    20
100
AcDbLine
 10
271.2647704183861
 20
207.2442105798888
 30
0.0
 11
267.7647704183861
 21
207.2442105798888
 31
0.0
  0
LINE
  5
1F1
330
1F
100
AcDbEntity
  8
GR5_01
 62
   234
370
    20
100
AcDbLine
 10
271.2647704183861
 20
207.2442105798888
 30
0.0
 11
271.2647704183861
 21
209.2442105798888
 31
0.0
  0
LINE
  5
1F2
330
1F
100
AcDbEntity
  8
GR5_01
 62
   234
370
    20
100
AcDbLine
 10
270.814770418386
 20
163.5242105798887
 30
0.0
 11
267.7647704183861
 21
163.5242105798887
 31
0.0
  0
LINE
  5
1F3
330
1F
100
AcDbEntity
  8
GR5_01
 62
   234
370
    20
100
AcDbLine
 10
263.0147704183862
 20
187.1342105798888
 30
0.0
 11
266.5147704183862
 21
187.1342105798888
 31
0.0
  0
LINE
  5
1F4
330
1F
100
AcDbEntity
  8
GR5_01
 62
   234
370
    20
100
AcDbLine
 10
263.0147704183862
 20
183.6342105798888
 30
0.0
 11
266.5147704183861
 21
183.6342105798888
 31
0.0
  0
LINE
  5
1F5
330
1F
100
AcDbEntity
  8
GR5_01
 62
   234
370
    20
100
AcDbLine
 10
267.5147704183861
 20
187.4442105798887
 30
0.0
 11
267.5147704183861
 21
190.9442105798887
 31
0.0
  0
LINE
  5
1F6
330
1F
100
AcDbEntity
  8
GR5_01
 62
   234
370
    20
100
AcDbLine
 10
267.5147704183861
 20
183.3242105798887
 30
0.0
 11
267.5147704183861
 21
179.8242105798886
 31
0.0
  0
LINE
  5
1F7
330
1F
100
AcDbEntity
  8
GR5_01
 62
   234
370
    20
100
AcDbLine
 10
267.5147704183861
 20
175.7042105798886
 30
0.0
 11
267.5147704183861
 21
172.2042105798886
 31
0.0
  0
LINE
  5
1F8
330
1F
100
AcDbEntity
  8
GR5_01
 62
   234
370
    20
100
AcDbLine
 10
267.5147704183861
 20
168.0842105798887
 30
0.0
 11
267.5147704183861
 21
164.5842105798886
 31
0.0
  0
LINE
  5
1F9
330
1F
100
AcDbEntity
  8
GR5_01
 62
   234
370
    20
100
AcDbLine
 10
267.5147704183861
 20
195.0642105798887
 30
0.0
 11
267.5147704183861
 21
198.5642105798888
 31
0.0
  0
LINE
  5
1FA
330
1F
100
AcDbEntity
  8
GR5_01
 62
   234
370
    20
100
AcDbLine
 10
267.5147704183861
 20
202.6842105798888
 30
0.0
 11
267.5147704183861
 21
206.1842105798888
 31
0.0
  0
LINE
  5
1FB
330
1F
100
AcDbEntity
  8
GR5_01
 62
    94
370
    20
100
AcDbLine
 10
265.5147704183861
 20
168.3942105798887
 30
0.0
 11
265.5147704183861
 21
171.8942105798887
 31
0.0
  0
LINE
  5
1FC
330
1F
100
AcDbEntity
  8
GR5_01
 62
    94
370
    20
100
AcDbLine
 10
265.5147704183861
 20
183.6342105798888
 30
0.0
 11
265.5147704183861
 21
187.1342105798888
 31
0.0
  0
LINE
  5
1FD
330
1F
100
AcDbEntity
  8
GR5_01
 62
    94
370
    20
100
AcDbLine
 10
265.5147704183861
 20
176.0142105798888
 30
0.0
 11
265.5147704183861
 21
179.5142105798887
 31
0.0
  0
LINE
  5
1FE
330
1F
100
AcDbEntity
  8
GR5_01
 62
   234
370
    20
100
AcDbLine
 10
266.5147704183861
 20
183.6342105798888
 30
0.0
 11
266.5147704183861
 21
187.1342105798888
 31
0.0
  0
LINE
  5
1FF
330
1F
100
AcDbEntity
  8
GR5_01
 62
   234
370
    20
100
AcDbLine
 10
266.5147704183861
 20
176.0142105798888
 30
0.0
 11
266.5147704183861
 21
179.5142105798888
 31
0.0
  0
LINE
  5
200
330
1F
100
AcDbEntity
  8
GR5_01
 62
   234
370
    20
100
AcDbLine
 10
266.5147704183861
 20
168.3942105798887
 30
0.0
 11
266.5147704183861
 21
171.8942105798887
 31
0.0
  0
LINE
  5
201
330
1F
100
AcDbEntity
  8
GR5_01
 62
   234
370
    20
100
AcDbLine
 10
266.2647704183861
 20
179.5142105798888
 30
0.0
 11
266.2647704183861
 21
183.6342105798888
 31
0.0
  0
LINE
  5
202
330
1F
100
AcDbEntity
  8
GR5_01
 62
   234
370
    20
100
AcDbLine
 10
266.2647704183861
 20
171.8942105798887
 30
0.0
 11
266.2647704183861
 21
176.0142105798888
 31
0.0
  0
LINE
  5
203
330
1F
100
AcDbEntity
  8
GR5_01
 62
   234
370
    20
100
AcDbLine
 10
271.2647704183861
 20
213.8042105798887
 30
0.0
 11
267.5147704183861
 21
213.8042105798887
 31
0.0
  0
LINE
  5
204
330
1F
100
AcDbEntity
  8
GR5_01
 62
   234
370
    20
100
AcDbLine
 10
271.2647704183861
 20
210.3042105798888
 30
0.0
 11
267.5147704183861
 21
210.3042105798888
 31
0.0
  0
LINE
  5
205
330
1F
100
AcDbEntity
  8
GR5_01
 62
   234
370
    20
100
AcDbLine
 10
271.2647704183861
 20
210.3042105798888
 30
0.0
 11
271.2647704183861
 21
213.8042105798887
 31
0.0
  0
LINE
  5
206
330
1F
100
AcDbEntity
  8
GR5_01
 62
   234
370
    20
100
AcDbLine
 10
267.7647704183861
 20
213.8042105798887
 30
0.0
 11
267.7647704183861
 21
217.9242105798887
 31
0.0
  0
LINE
  5
207
330
1F
100
AcDbEntity
  8
GR5_01
 62
   234
370
    20
100
AcDbLine
 10
271.2647704183861
 20
216.8642105798888
 30
0.0
 11
267.7647704183861
 21
216.8642105798888
 31
0.0
  0
LINE
  5
208
330
1F
100
AcDbEntity
  8
GR5_01
 62
   234
370
    20
100
AcDbLine
 10
271.2647704183861
 20
214.8642105798888
 30
0.0
 11
267.7647704183861
 21
214.8642105798888
 31
0.0
  0
LINE
  5
209
330
1F
100
AcDbEntity
  8
GR5_01
 62
   234
370
    20
100
AcDbLine
 10
271.2647704183861
 20
214.8642105798888
 30
0.0
 11
271.2647704183861
 21
216.8642105798888
 31
0.0
  0
LINE
  5
20A
330
1F
100
AcDbEntity
  8
GR5_01
 62
   234
370
    20
100
AcDbLine
 10
267.5147704183861
 20
210.3042105798888
 30
0.0
 11
267.5147704183861
 21
213.8042105798887
 31
0.0
  0
LINE
  5
20B
330
1F
100
AcDbEntity
  8
GR5_01
 62
   234
370
    20
100
AcDbLine
 10
271.2647704183861
 20
221.4242105798887
 30
0.0
 11
267.5147704183861
 21
221.4242105798887
 31
0.0
  0
LINE
  5
20C
330
1F
100
AcDbEntity
  8
GR5_01
 62
   234
370
    20
100
AcDbLine
 10
271.2647704183861
 20
217.9242105798887
 30
0.0
 11
267.5147704183861
 21
217.9242105798887
 31
0.0
  0
LINE
  5
20D
330
1F
100
AcDbEntity
  8
GR5_01
 62
   234
370
    20
100
AcDbLine
 10
271.2647704183861
 20
217.9242105798887
 30
0.0
 11
271.2647704183861
 21
221.4242105798887
 31
0.0
  0
LINE
  5
20E
330
1F
100
AcDbEntity
  8
GR5_01
 62
   234
370
    20
100
AcDbLine
 10
267.7647704183861
 20
221.4242105798887
 30
0.0
 11
267.7647704183861
 21
225.5442105798887
 31
0.0
  0
LINE
  5
20F
330
1F
100
AcDbEntity
  8
GR5_01
 62
   234
370
    20
100
AcDbLine
 10
271.2647704183861
 20
224.4842105798888
 30
0.0
 11
267.7647704183861
 21
224.4842105798888
 31
0.0
  0
LINE
  5
210
330
1F
100
AcDbEntity
  8
GR5_01
 62
   234
370
    20
100
AcDbLine
 10
271.2647704183861
 20
222.4842105798888
 30
0.0
 11
267.7647704183861
 21
222.4842105798888
 31
0.0
  0
LINE
  5
211
330
1F
100
AcDbEntity
  8
GR5_01
 62
   234
370
    20
100
AcDbLine
 10
271.2647704183861
 20
222.4842105798888
 30
0.0
 11
271.2647704183861
 21
224.4842105798888
 31
0.0
  0
LINE
  5
212
330
1F
100
AcDbEntity
  8
GR5_01
 62
   234
370
    20
100
AcDbLine
 10
267.5147704183861
 20
217.9242105798887
 30
0.0
 11
267.5147704183861
 21
221.4242105798887
 31
0.0
  0
LINE
  5
213
330
1F
100
AcDbEntity
  8
GR5_01
 62
   234
370
    20
100
AcDbLine
 10
271.2647704183861
 20
229.0442105798887
 30
0.0
 11
267.5147704183861
 21
229.0442105798887
 31
0.0
  0
LINE
  5
214
330
1F
100
AcDbEntity
  8
GR5_01
 62
   234
370
    20
100
AcDbLine
 10
271.2647704183861
 20
225.5442105798887
 30
0.0
 11
267.5147704183861
 21
225.5442105798887
 31
0.0
  0
LINE
  5
215
330
1F
100
AcDbEntity
  8
GR5_01
 62
   234
370
    20
100
AcDbLine
 10
271.2647704183861
 20
225.5442105798887
 30
0.0
 11
271.2647704183861
 21
229.0442105798887
 31
0.0
  0
LINE
  5
216
330
1F
100
AcDbEntity
  8
GR5_01
 62
   234
370
    20
100
AcDbLine
 10
267.7647704183861
 20
229.0442105798887
 30
0.0
 11
267.7647704183861
 21
233.0567283861926
 31
0.0
  0
LINE
  5
217
330
1F
100
AcDbEntity
  8
GR5_01
 62
   234
370
    20
100
AcDbLine
 10
267.5147704183861
 20
225.5442105798887
 30
0.0
 11
267.5147704183861
 21
229.0442105798887
 31
0.0
  0
LINE
  5
218
330
1F
100
AcDbEntity
  8
GR5_01
 62
   234
370
    20
100
AcDbLine
 10
263.0147704183862
 20
232.8542105798889
 30
0.0
 11
266.5147704183861
 21
232.8542105798889
 31
0.0
  0
LINE
  5
219
330
1F
100
AcDbEntity
  8
GR5_01
 62
   234
370
    20
100
AcDbLine
 10
263.0147704183862
 20
229.3542105798888
 30
0.0
 11
266.5147704183861
 21
229.3542105798888
 31
0.0
  0
LINE
  5
21A
330
1F
100
AcDbEntity
  8
GR5_01
 62
   234
370
    20
100
AcDbLine
 10
266.5147704183861
 20
229.3542105798888
 30
0.0
 11
266.5147704183861
 21
233.5470962628587
 31
0.0
  0
LINE
  5
21B
330
1F
100
AcDbEntity
  8
GR5_01
 62
   234
370
    20
100
AcDbLine
 10
263.3147704183862
 20
234.7699465111767
 30
0.0
 11
263.3147704183862
 21
232.8542105798889
 31
0.0
  0
LINE
  5
21C
330
1F
100
AcDbEntity
  8
GR5_01
 62
   234
370
    20
100
AcDbLine
 10
263.0147704183862
 20
232.8542105798889
 30
0.0
 11
263.0147704183862
 21
234.8942105798887
 31
0.0
  0
LINE
  5
21D
330
1F
100
AcDbEntity
  8
GR5_01
 62
   234
370
    20
100
AcDbLine
 10
272.314770418386
 20
162.2442105798889
 30
0.0
 11
272.314770418386
 21
230.104833311842
 31
0.0
  0
ARC
  5
21E
330
1F
100
AcDbEntity
  8
GR5_01
 62
   234
370
    20
100
AcDbCircle
 10
268.7647704183861
 20
237.4442105798887
 30
0.0
 40
5.5
100
AcDbArc
 50
204.1477399170226
 51
236.5685374418164
  0
LINE
  5
21F
330
1F
100
AcDbEntity
  8
GR5_01
 62
   234
370
    20
100
AcDbLine
 10
263.3147704183863
 20
235.1942105798887
 30
0.0
 11
263.746055443415
 21
235.1942105798887
 31
0.0
  0
LINE
  5
220
330
1F
100
AcDbEntity
  8
GR5_01
 62
   234
370
    20
100
AcDbLine
 10
263.3147704183862
 20
235.1942105798887
 30
0.0
 11
263.0147704183862
 21
234.8942105798887
 31
0.0
  0
LINE
  5
221
330
1F
100
AcDbEntity
  8
GR5_01
 62
   234
370
    20
100
AcDbLine
 10
263.4390344870982
 20
234.8942105798887
 30
0.0
 11
263.3147704183862
 21
234.7699465111767
 31
0.0
  0
LINE
  5
222
330
1F
100
AcDbEntity
  8
GR5_01
 62
   234
370
    20
100
AcDbLine
 10
263.4390344870982
 20
234.8942105798887
 30
0.0
 11
263.3147704183863
 21
235.1942105798887
 31
0.0
  0
LINE
  5
223
330
1F
100
AcDbEntity
  8
GR5_01
 62
   234
370
    20
100
AcDbLine
 10
263.3147704183862
 20
234.7699465111768
 30
0.0
 11
263.0147704183862
 21
234.8942105798887
 31
0.0
  0
LINE
  5
224
330
1F
100
AcDbEntity
  8
GR5_01
 62
   234
370
    20
100
AcDbLine
 10
263.8916297473199
 20
234.8942105798887
 30
0.0
 11
263.4390344870982
 21
234.8942105798887
 31
0.0
  0
LINE
  5
225
330
1F
100
AcDbEntity
  8
GR5_01
 62
   234
370
    20
100
AcDbLine
 10
263.3147704183862
 20
176.0142105798888
 30
0.0
 11
263.3147704183862
 21
171.8942105798887
 31
0.0
  0
LINE
  5
226
330
1F
100
AcDbEntity
  8
GR5_01
 62
    94
370
    20
100
AcDbLine
 10
263.4716304183861
 20
168.3942105798887
 30
0.0
 11
263.4716304183861
 21
171.8942105798887
 31
0.0
  0
LINE
  5
227
330
1F
100
AcDbEntity
  8
GR5_01
 62
   234
370
    20
100
AcDbLine
 10
264.9147704183862
 20
182.4092105798887
 30
0.0
 11
264.9147704183861
 21
180.7392105798888
 31
0.0
  0
LINE
  5
228
330
1F
100
AcDbEntity
  8
GR5_01
 62
   234
370
    20
100
AcDbLine
 10
264.0147704183861
 20
182.4092105798887
 30
0.0
 11
264.9147704183862
 21
182.4092105798887
 31
0.0
  0
LINE
  5
229
330
1F
100
AcDbEntity
  8
GR5_01
 62
   234
370
    20
100
AcDbLine
 10
264.314770418386
 20
180.4392105798888
 30
0.0
 11
264.3147704183859
 21
179.7913685969845
 31
0.0
  0
LINE
  5
22A
330
1F
100
AcDbEntity
  8
GR5_01
 62
   234
370
    20
100
AcDbLine
 10
264.0147704183861
 20
180.7392105798888
 30
0.0
 11
264.9147704183861
 21
180.7392105798888
 31
0.0
  0
LINE
  5
22B
330
1F
100
AcDbEntity
  8
GR5_01
 62
   234
370
    20
100
AcDbLine
 10
263.5147704183862
 20
181.6927498306528
 30
0.0
 11
263.884731875408
 21
182.7092105798887
 31
0.0
  0
LINE
  5
22C
330
1F
100
AcDbEntity
  8
GR5_01
 62
   234
370
    20
100
AcDbLine
 10
263.9095583323908
 20
179.9388537348516
 30
0.0
 11
264.3147704183859
 21
179.7913685969845
 31
0.0
  0
LINE
  5
22D
330
1F
100
AcDbEntity
  8
GR5_01
 62
   234
370
    20
100
AcDbLine
 10
263.3147704183862
 20
183.6342105798887
 30
0.0
 11
263.3147704183862
 21
179.5142105798887
 31
0.0
  0
LINE
  5
22E
330
1F
100
AcDbEntity
  8
GR5_01
 62
   234
370
    20
100
AcDbLine
 10
263.884731875408
 20
182.7092105798887
 30
0.0
 11
266.2647704183861
 21
182.7092105798887
 31
0.0
  0
LINE
  5
22F
330
1F
100
AcDbEntity
  8
GR5_01
 62
   234
370
    20
100
AcDbLine
 10
264.314770418386
 20
180.4392105798888
 30
0.0
 11
266.2647704183861
 21
180.4392105798887
 31
0.0
  0
LINE
  5
230
330
1F
100
AcDbEntity
  8
GR5_01
 62
   234
370
    20
100
AcDbLine
 10
263.0147704183862
 20
171.8942105798887
 30
0.0
 11
263.0147704183862
 21
176.0142105798888
 31
0.0
  0
LINE
  5
231
330
1F
100
AcDbEntity
  8
GR5_01
 62
   234
370
    20
100
AcDbLine
 10
263.0147704183862
 20
179.5142105798887
 30
0.0
 11
263.0147704183862
 21
183.6342105798888
 31
0.0
  0
LINE
  5
232
330
1F
100
AcDbEntity
  8
GR5_01
 62
    94
370
    20
100
AcDbLine
 10
263.5147704183861
 20
183.6342105798888
 30
0.0
 11
263.5147704183861
 21
187.1342105798887
 31
0.0
  0
LINE
  5
233
330
1F
100
AcDbEntity
  8
GR5_01
 62
    94
370
    20
100
AcDbLine
 10
264.2647704183861
 20
183.6342105798888
 30
0.0
 11
264.2647704183861
 21
187.1342105798887
 31
0.0
  0
LINE
  5
234
330
1F
100
AcDbEntity
  8
GR5_01
 62
    94
370
    20
100
AcDbLine
 10
264.2647704183861
 20
168.3942105798888
 30
0.0
 11
264.2647704183861
 21
171.8942105798887
 31
0.0
  0
LINE
  5
235
330
1F
100
AcDbEntity
  8
GR5_01
 62
    94
370
    20
100
AcDbLine
 10
263.4716304183861
 20
176.0142105798887
 30
0.0
 11
263.4716304183861
 21
179.5142105798887
 31
0.0
  0
LINE
  5
236
330
1F
100
AcDbEntity
  8
GR5_01
 62
    94
370
    20
100
AcDbLine
 10
264.2647704183861
 20
176.0142105798888
 30
0.0
 11
264.2647704183861
 21
179.5142105798887
 31
0.0
  0
LINE
  5
237
330
1F
100
AcDbEntity
  8
GR5_01
 62
   234
370
    20
100
AcDbLine
 10
263.0147704183862
 20
194.7542105798888
 30
0.0
 11
266.5147704183862
 21
194.7542105798888
 31
0.0
  0
LINE
  5
238
330
1F
100
AcDbEntity
  8
GR5_01
 62
   234
370
    20
100
AcDbLine
 10
263.0147704183862
 20
191.2542105798888
 30
0.0
 11
266.5147704183862
 21
191.2542105798888
 31
0.0
  0
LINE
  5
239
330
1F
100
AcDbEntity
  8
GR5_01
 62
    94
370
    20
100
AcDbLine
 10
265.5147704183861
 20
191.2542105798888
 30
0.0
 11
265.5147704183861
 21
194.7542105798888
 31
0.0
  0
LINE
  5
23A
330
1F
100
AcDbEntity
  8
GR5_01
 62
   234
370
    20
100
AcDbLine
 10
266.5147704183862
 20
191.2542105798888
 30
0.0
 11
266.5147704183862
 21
194.7542105798888
 31
0.0
  0
LINE
  5
23B
330
1F
100
AcDbEntity
  8
GR5_01
 62
   234
370
    20
100
AcDbLine
 10
266.2647704183861
 20
187.1342105798888
 30
0.0
 11
266.2647704183861
 21
191.2542105798888
 31
0.0
  0
LINE
  5
23C
330
1F
100
AcDbEntity
  8
GR5_01
 62
   234
370
    20
100
AcDbLine
 10
263.3147704183862
 20
191.2542105798887
 30
0.0
 11
263.3147704183862
 21
187.1342105798887
 31
0.0
  0
LINE
  5
23D
330
1F
100
AcDbEntity
  8
GR5_01
 62
   234
370
    20
100
AcDbLine
 10
263.0147704183862
 20
187.1342105798888
 30
0.0
 11
263.0147704183862
 21
191.2542105798888
 31
0.0
  0
LINE
  5
23E
330
1F
100
AcDbEntity
  8
GR5_01
 62
    94
370
    20
100
AcDbLine
 10
263.5147704183861
 20
191.2542105798888
 30
0.0
 11
263.5147704183861
 21
194.7542105798887
 31
0.0
  0
LINE
  5
23F
330
1F
100
AcDbEntity
  8
GR5_01
 62
    94
370
    20
100
AcDbLine
 10
264.2647704183861
 20
191.2542105798888
 30
0.0
 11
264.2647704183861
 21
194.7542105798887
 31
0.0
  0
LINE
  5
240
330
1F
100
AcDbEntity
  8
GR5_01
 62
   234
370
    20
100
AcDbLine
 10
263.0147704183862
 20
202.3742105798888
 30
0.0
 11
266.5147704183862
 21
202.3742105798888
 31
0.0
  0
LINE
  5
241
330
1F
100
AcDbEntity
  8
GR5_01
 62
   234
370
    20
100
AcDbLine
 10
263.0147704183862
 20
198.8742105798888
 30
0.0
 11
266.5147704183862
 21
198.8742105798888
 31
0.0
  0
LINE
  5
242
330
1F
100
AcDbEntity
  8
GR5_01
 62
    94
370
    20
100
AcDbLine
 10
265.5147704183861
 20
198.8742105798888
 30
0.0
 11
265.5147704183861
 21
202.3742105798888
 31
0.0
  0
LINE
  5
243
330
1F
100
AcDbEntity
  8
GR5_01
 62
   234
370
    20
100
AcDbLine
 10
266.5147704183862
 20
198.8742105798888
 30
0.0
 11
266.5147704183862
 21
202.3742105798888
 31
0.0
  0
LINE
  5
244
330
1F
100
AcDbEntity
  8
GR5_01
 62
   234
370
    20
100
AcDbLine
 10
266.2647704183861
 20
194.7542105798888
 30
0.0
 11
266.2647704183861
 21
198.8742105798888
 31
0.0
  0
LINE
  5
245
330
1F
100
AcDbEntity
  8
GR5_01
 62
   234
370
    20
100
AcDbLine
 10
263.0147704183862
 20
194.7542105798888
 30
0.0
 11
263.0147704183862
 21
198.8742105798888
 31
0.0
  0
LINE
  5
246
330
1F
100
AcDbEntity
  8
GR5_01
 62
    94
370
    20
100
AcDbLine
 10
263.5147704183861
 20
198.8742105798888
 30
0.0
 11
263.5147704183861
 21
202.3742105798887
 31
0.0
  0
LINE
  5
247
330
1F
100
AcDbEntity
  8
GR5_01
 62
    94
370
    20
100
AcDbLine
 10
264.2647704183861
 20
198.8742105798888
 30
0.0
 11
264.2647704183861
 21
202.3742105798887
 31
0.0
  0
LINE
  5
248
330
1F
100
AcDbEntity
  8
GR5_01
 62
   234
370
    20
100
AcDbLine
 10
263.0147704183862
 20
209.9942105798888
 30
0.0
 11
266.5147704183862
 21
209.9942105798888
 31
0.0
  0
LINE
  5
249
330
1F
100
AcDbEntity
  8
GR5_01
 62
   234
370
    20
100
AcDbLine
 10
263.0147704183862
 20
206.4942105798888
 30
0.0
 11
266.5147704183862
 21
206.4942105798888
 31
0.0
  0
LINE
  5
24A
330
1F
100
AcDbEntity
  8
GR5_01
 62
    94
370
    20
100
AcDbLine
 10
265.5147704183861
 20
206.4942105798888
 30
0.0
 11
265.5147704183861
 21
209.9942105798888
 31
0.0
  0
LINE
  5
24B
330
1F
100
AcDbEntity
  8
GR5_01
 62
   234
370
    20
100
AcDbLine
 10
266.5147704183862
 20
206.4942105798888
 30
0.0
 11
266.5147704183862
 21
209.9942105798888
 31
0.0
  0
LINE
  5
24C
330
1F
100
AcDbEntity
  8
GR5_01
 62
   234
370
    20
100
AcDbLine
 10
266.2647704183861
 20
202.3742105798888
 30
0.0
 11
266.2647704183861
 21
206.4942105798888
 31
0.0
  0
LINE
  5
24D
330
1F
100
AcDbEntity
  8
GR5_01
 62
   234
370
    20
100
AcDbLine
 10
263.3147704183862
 20
206.4942105798887
 30
0.0
 11
263.3147704183862
 21
202.3742105798887
 31
0.0
  0
LINE
  5
24E
330
1F
100
AcDbEntity
  8
GR5_01
 62
   234
370
    20
100
AcDbLine
 10
263.0147704183862
 20
202.3742105798888
 30
0.0
 11
263.0147704183862
 21
206.4942105798888
 31
0.0
  0
LINE
  5
24F
330
1F
100
AcDbEntity
  8
GR5_01
 62
    94
370
    20
100
AcDbLine
 10
263.5147704183861
 20
206.4942105798888
 30
0.0
 11
263.5147704183861
 21
209.9942105798887
 31
0.0
  0
LINE
  5
250
330
1F
100
AcDbEntity
  8
GR5_01
 62
    94
370
    20
100
AcDbLine
 10
264.2647704183861
 20
206.4942105798888
 30
0.0
 11
264.2647704183861
 21
209.9942105798887
 31
0.0
  0
LINE
  5
251
330
1F
100
AcDbEntity
  8
GR5_01
 62
   234
370
    20
100
AcDbLine
 10
263.0147704183862
 20
217.6142105798888
 30
0.0
 11
266.5147704183862
 21
217.6142105798888
 31
0.0
  0
LINE
  5
252
330
1F
100
AcDbEntity
  8
GR5_01
 62
   234
370
    20
100
AcDbLine
 10
263.0147704183862
 20
214.1142105798888
 30
0.0
 11
266.5147704183862
 21
214.1142105798888
 31
0.0
  0
LINE
  5
253
330
1F
100
AcDbEntity
  8
GR5_01
 62
    94
370
    20
100
AcDbLine
 10
265.5147704183862
 20
214.1142105798888
 30
0.0
 11
265.5147704183862
 21
217.6142105798888
 31
0.0
  0
LINE
  5
254
330
1F
100
AcDbEntity
  8
GR5_01
 62
   234
370
    20
100
AcDbLine
 10
266.5147704183862
 20
214.1142105798888
 30
0.0
 11
266.5147704183862
 21
217.6142105798888
 31
0.0
  0
LINE
  5
255
330
1F
100
AcDbEntity
  8
GR5_01
 62
   234
370
    20
100
AcDbLine
 10
266.2647704183862
 20
209.9942105798888
 30
0.0
 11
266.2647704183862
 21
214.1142105798888
 31
0.0
  0
LINE
  5
256
330
1F
100
AcDbEntity
  8
GR5_01
 62
   234
370
    20
100
AcDbLine
 10
263.3147704183862
 20
214.1142105798887
 30
0.0
 11
263.3147704183862
 21
209.9942105798888
 31
0.0
  0
LINE
  5
257
330
1F
100
AcDbEntity
  8
GR5_01
 62
   234
370
    20
100
AcDbLine
 10
263.0147704183862
 20
209.9942105798888
 30
0.0
 11
263.0147704183862
 21
214.1142105798888
 31
0.0
  0
LINE
  5
258
330
1F
100
AcDbEntity
  8
GR5_01
 62
    94
370
    20
100
AcDbLine
 10
263.5147704183861
 20
214.1142105798888
 30
0.0
 11
263.5147704183861
 21
217.6142105798887
 31
0.0
  0
LINE
  5
259
330
1F
100
AcDbEntity
  8
GR5_01
 62
    94
370
    20
100
AcDbLine
 10
264.2647704183861
 20
214.1142105798888
 30
0.0
 11
264.2647704183861
 21
217.6142105798887
 31
0.0
  0
LINE
  5
25A
330
1F
100
AcDbEntity
  8
GR5_01
 62
   234
370
    20
100
AcDbLine
 10
263.0147704183862
 20
225.2342105798888
 30
0.0
 11
266.5147704183862
 21
225.2342105798888
 31
0.0
  0
LINE
  5
25B
330
1F
100
AcDbEntity
  8
GR5_01
 62
   234
370
    20
100
AcDbLine
 10
263.0147704183862
 20
221.7342105798888
 30
0.0
 11
266.5147704183862
 21
221.7342105798888
 31
0.0
  0
LINE
  5
25C
330
1F
100
AcDbEntity
  8
GR5_01
 62
    94
370
    20
100
AcDbLine
 10
265.5147704183862
 20
221.7342105798888
 30
0.0
 11
265.5147704183862
 21
225.2342105798888
 31
0.0
  0
LINE
  5
25D
330
1F
100
AcDbEntity
  8
GR5_01
 62
   234
370
    20
100
AcDbLine
 10
266.5147704183862
 20
221.7342105798888
 30
0.0
 11
266.5147704183862
 21
225.2342105798888
 31
0.0
  0
LINE
  5
25E
330
1F
100
AcDbEntity
  8
GR5_01
 62
   234
370
    20
100
AcDbLine
 10
266.2647704183862
 20
217.6142105798888
 30
0.0
 11
266.2647704183862
 21
221.7342105798888
 31
0.0
  0
LINE
  5
25F
330
1F
100
AcDbEntity
  8
GR5_01
 62
   234
370
    20
100
AcDbLine
 10
263.3147704183862
 20
221.7342105798888
 30
0.0
 11
263.3147704183862
 21
217.6142105798887
 31
0.0
  0
LINE
  5
260
330
1F
100
AcDbEntity
  8
GR5_01
 62
   234
370
    20
100
AcDbLine
 10
263.0147704183862
 20
217.6142105798888
 30
0.0
 11
263.0147704183862
 21
221.7342105798888
 31
0.0
  0
LINE
  5
261
330
1F
100
AcDbEntity
  8
GR5_01
 62
    94
370
    20
100
AcDbLine
 10
263.5147704183861
 20
221.7342105798888
 30
0.0
 11
263.5147704183861
 21
225.2342105798888
 31
0.0
  0
LINE
  5
262
330
1F
100
AcDbEntity
  8
GR5_01
 62
    94
370
    20
100
AcDbLine
 10
264.2647704183861
 20
221.7342105798888
 30
0.0
 11
264.2647704183861
 21
225.2342105798888
 31
0.0
  0
LINE
  5
263
330
1F
100
AcDbEntity
  8
GR5_01
 62
   234
370
    20
100
AcDbLine
 10
266.2647704183862
 20
225.2342105798888
 30
0.0
 11
266.2647704183862
 21
229.3542105798888
 31
0.0
  0
LINE
  5
264
330
1F
100
AcDbEntity
  8
GR5_01
 62
   234
370
    20
100
AcDbLine
 10
263.3147704183862
 20
229.3542105798888
 30
0.0
 11
263.3147704183862
 21
225.2342105798888
 31
0.0
  0
LINE
  5
265
330
1F
100
AcDbEntity
  8
GR5_01
 62
   234
370
    20
100
AcDbLine
 10
263.0147704183862
 20
225.2342105798888
 30
0.0
 11
263.0147704183862
 21
229.3542105798888
 31
0.0
  0
LINE
  5
266
330
1F
100
AcDbEntity
  8
GR5_01
 62
    94
370
    20
100
AcDbLine
 10
265.5147704183861
 20
229.3542105798888
 30
0.0
 11
265.5147704183861
 21
232.8542105798889
 31
0.0
  0
LINE
  5
267
330
1F
100
AcDbEntity
  8
GR5_01
 62
    94
370
    20
100
AcDbLine
 10
263.5147704183861
 20
229.3542105798888
 30
0.0
 11
263.5147704183861
 21
232.8542105798888
 31
0.0
  0
LINE
  5
268
330
1F
100
AcDbEntity
  8
GR5_01
 62
    94
370
    20
100
AcDbLine
 10
264.2647704183861
 20
229.3542105798888
 30
0.0
 11
264.2647704183861
 21
232.8542105798888
 31
0.0
  0
ARC
  5
269
330
1F
100
AcDbEntity
  8
GR5_01
 62
   234
370
    20
100
AcDbCircle
 10
260.5147704183861
 20
162.9442105798889
 30
0.0
 40
4.5
100
AcDbArc
 50
0.0
 51
63.6122000387566
  0
LINE
  5
26A
330
1F
100
AcDbEntity
  8
GR5_01
 62
   234
370
    20
100
AcDbLine
 10
267.7647704183861
 20
231.6517068074736
 30
0.0
 11
272.0147704183861
 21
230.104833311842
 31
0.0
  0
LINE
  5
26B
330
1F
100
AcDbEntity
  8
GR5_01
 62
   234
370
    20
100
AcDbLine
 10
272.5147704183861
 20
230.104833311842
 30
0.0
 11
272.5147704183861
 21
232.9442105798886
 31
0.0
  0
LINE
  5
26C
330
1F
100
AcDbEntity
  8
GR5_01
 62
   234
370
    20
100
AcDbLine
 10
272.5147704183861
 20
230.104833311842
 30
0.0
 11
267.7647704183861
 21
230.104833311842
 31
0.0
  0
LINE
  5
26D
330
1F
100
AcDbEntity
  8
GR5_01
 62
   234
370
    20
100
AcDbLine
 10
270.814770418386
 20
161.9442105798889
 30
0.0
 11
270.814770418386
 21
163.5242105798887
 31
0.0
  0
LINE
  5
26E
330
1F
100
AcDbEntity
  8
GR5_01
 62
   234
370
    20
100
AcDbLine
 10
265.0147704183862
 20
161.9442105798885
 30
0.0
 11
272.814770418386
 21
161.9442105798885
 31
0.0
  0
LINE
  5
26F
330
1F
100
AcDbEntity
  8
GR5_01
 62
   234
370
    20
100
AcDbLine
 10
264.0147704183861
 20
179.9005596672642
 30
0.0
 11
264.0147704183861
 21
182.7092105798887
 31
0.0
  0
LINE
  5
270
330
1F
100
AcDbEntity
  8
GR5_01
 62
    94
370
    20
100
AcDbLine
 10
265.2147704183861
 20
182.7092105798887
 30
0.0
 11
265.2147704183861
 21
180.4392105798888
 31
0.0
  0
LINE
  5
271
330
1F
100
AcDbEntity
  8
GR5_01
 62
   234
370
    20
100
AcDbLine
 10
264.9147704183862
 20
174.7892105798888
 30
0.0
 11
264.9147704183861
 21
173.1192105798888
 31
0.0
  0
LINE
  5
272
330
1F
100
AcDbEntity
  8
GR5_01
 62
   234
370
    20
100
AcDbLine
 10
264.0147704183861
 20
174.7892105798887
 30
0.0
 11
264.9147704183862
 21
174.7892105798887
 31
0.0
  0
LINE
  5
273
330
1F
100
AcDbEntity
  8
GR5_01
 62
   234
370
    20
100
AcDbLine
 10
264.314770418386
 20
172.8192105798888
 30
0.0
 11
264.3147704183859
 21
172.1713685969845
 31
0.0
  0
LINE
  5
274
330
1F
100
AcDbEntity
  8
GR5_01
 62
   234
370
    20
100
AcDbLine
 10
264.0147704183861
 20
173.1192105798888
 30
0.0
 11
264.9147704183861
 21
173.1192105798888
 31
0.0
  0
LINE
  5
275
330
1F
100
AcDbEntity
  8
GR5_01
 62
   234
370
    20
100
AcDbLine
 10
263.5147704183862
 20
174.0727498306529
 30
0.0
 11
263.884731875408
 21
175.0892105798887
 31
0.0
  0
LINE
  5
276
330
1F
100
AcDbEntity
  8
GR5_01
 62
   234
370
    20
100
AcDbLine
 10
263.9095583323908
 20
172.3188537348516
 30
0.0
 11
264.3147704183859
 21
172.1713685969845
 31
0.0
  0
LINE
  5
277
330
1F
100
AcDbEntity
  8
GR5_01
 62
   234
370
    20
100
AcDbLine
 10
263.884731875408
 20
175.0892105798887
 30
0.0
 11
266.2647704183861
 21
175.0892105798887
 31
0.0
  0
LINE
  5
278
330
1F
100
AcDbEntity
  8
GR5_01
 62
   234
370
    20
100
AcDbLine
 10
264.314770418386
 20
172.8192105798888
 30
0.0
 11
266.2647704183861
 21
172.8192105798888
 31
0.0
  0
LINE
  5
279
330
1F
100
AcDbEntity
  8
GR5_01
 62
   234
370
    20
100
AcDbLine
 10
264.0147704183861
 20
172.2805596672643
 30
0.0
 11
264.0147704183861
 21
175.0892105798887
 31
0.0
  0
LINE
  5
27A
330
1F
100
AcDbEntity
  8
GR5_01
 62
    94
370
    20
100
AcDbLine
 10
265.2147704183861
 20
175.0892105798887
 30
0.0
 11
265.2147704183861
 21
172.8192105798888
 31
0.0
  0
LINE
  5
27B
330
1F
100
AcDbEntity
  8
GR5_01
 62
   234
370
    20
100
AcDbLine
 10
264.9147704183862
 20
190.0292105798887
 30
0.0
 11
264.9147704183862
 21
188.3592105798888
 31
0.0
  0
LINE
  5
27C
330
1F
100
AcDbEntity
  8
GR5_01
 62
   234
370
    20
100
AcDbLine
 10
264.0147704183862
 20
190.0292105798887
 30
0.0
 11
264.9147704183862
 21
190.0292105798887
 31
0.0
  0
LINE
  5
27D
330
1F
100
AcDbEntity
  8
GR5_01
 62
   234
370
    20
100
AcDbLine
 10
264.314770418386
 20
188.0592105798888
 30
0.0
 11
264.3147704183859
 21
187.4113685969845
 31
0.0
  0
LINE
  5
27E
330
1F
100
AcDbEntity
  8
GR5_01
 62
   234
370
    20
100
AcDbLine
 10
264.0147704183862
 20
188.3592105798888
 30
0.0
 11
264.9147704183861
 21
188.3592105798888
 31
0.0
  0
LINE
  5
27F
330
1F
100
AcDbEntity
  8
GR5_01
 62
   234
370
    20
100
AcDbLine
 10
263.5147704183862
 20
189.3127498306528
 30
0.0
 11
263.884731875408
 21
190.3292105798887
 31
0.0
  0
LINE
  5
280
330
1F
100
AcDbEntity
  8
GR5_01
 62
   234
370
    20
100
AcDbLine
 10
263.9095583323908
 20
187.5588537348516
 30
0.0
 11
264.3147704183859
 21
187.4113685969845
 31
0.0
  0
LINE
  5
281
330
1F
100
AcDbEntity
  8
GR5_01
 62
   234
370
    20
100
AcDbLine
 10
263.884731875408
 20
190.3292105798887
 30
0.0
 11
266.2647704183862
 21
190.3292105798887
 31
0.0
  0
LINE
  5
282
330
1F
100
AcDbEntity
  8
GR5_01
 62
   234
370
    20
100
AcDbLine
 10
264.314770418386
 20
188.0592105798888
 30
0.0
 11
266.2647704183861
 21
188.0592105798887
 31
0.0
  0
LINE
  5
283
330
1F
100
AcDbEntity
  8
GR5_01
 62
   234
370
    20
100
AcDbLine
 10
264.0147704183862
 20
187.5205596672643
 30
0.0
 11
264.0147704183862
 21
190.3292105798887
 31
0.0
  0
LINE
  5
284
330
1F
100
AcDbEntity
  8
GR5_01
 62
    94
370
    20
100
AcDbLine
 10
265.2147704183861
 20
190.3292105798887
 30
0.0
 11
265.2147704183861
 21
188.0592105798888
 31
0.0
  0
LINE
  5
285
330
1F
100
AcDbEntity
  8
GR5_01
 62
   234
370
    20
100
AcDbLine
 10
264.9147704183862
 20
197.6492105798887
 30
0.0
 11
264.9147704183862
 21
195.9792105798888
 31
0.0
  0
LINE
  5
286
330
1F
100
AcDbEntity
  8
GR5_01
 62
   234
370
    20
100
AcDbLine
 10
264.0147704183862
 20
197.6492105798887
 30
0.0
 11
264.9147704183862
 21
197.6492105798887
 31
0.0
  0
LINE
  5
287
330
1F
100
AcDbEntity
  8
GR5_01
 62
   234
370
    20
100
AcDbLine
 10
264.314770418386
 20
195.6792105798888
 30
0.0
 11
264.3147704183859
 21
195.0313685969845
 31
0.0
  0
LINE
  5
288
330
1F
100
AcDbEntity
  8
GR5_01
 62
   234
370
    20
100
AcDbLine
 10
264.0147704183862
 20
195.9792105798888
 30
0.0
 11
264.9147704183861
 21
195.9792105798888
 31
0.0
  0
LINE
  5
289
330
1F
100
AcDbEntity
  8
GR5_01
 62
   234
370
    20
100
AcDbLine
 10
263.5147704183862
 20
196.9327498306528
 30
0.0
 11
263.884731875408
 21
197.9492105798887
 31
0.0
  0
LINE
  5
28A
330
1F
100
AcDbEntity
  8
GR5_01
 62
   234
370
    20
100
AcDbLine
 10
263.9095583323908
 20
195.1788537348516
 30
0.0
 11
264.3147704183859
 21
195.0313685969845
 31
0.0
  0
LINE
  5
28B
330
1F
100
AcDbEntity
  8
GR5_01
 62
   234
370
    20
100
AcDbLine
 10
263.884731875408
 20
197.9492105798887
 30
0.0
 11
266.2647704183862
 21
197.9492105798887
 31
0.0
  0
LINE
  5
28C
330
1F
100
AcDbEntity
  8
GR5_01
 62
   234
370
    20
100
AcDbLine
 10
264.314770418386
 20
195.6792105798888
 30
0.0
 11
266.2647704183861
 21
195.6792105798887
 31
0.0
  0
LINE
  5
28D
330
1F
100
AcDbEntity
  8
GR5_01
 62
   234
370
    20
100
AcDbLine
 10
264.0147704183862
 20
195.1405596672643
 30
0.0
 11
264.0147704183862
 21
197.9492105798887
 31
0.0
  0
LINE
  5
28E
330
1F
100
AcDbEntity
  8
GR5_01
 62
    94
370
    20
100
AcDbLine
 10
265.2147704183861
 20
197.9492105798887
 30
0.0
 11
265.2147704183861
 21
195.6792105798888
 31
0.0
  0
LINE
  5
28F
330
1F
100
AcDbEntity
  8
GR5_01
 62
   234
370
    20
100
AcDbLine
 10
264.9147704183862
 20
205.2692105798887
 30
0.0
 11
264.9147704183862
 21
203.5992105798888
 31
0.0
  0
LINE
  5
290
330
1F
100
AcDbEntity
  8
GR5_01
 62
   234
370
    20
100
AcDbLine
 10
264.0147704183862
 20
205.2692105798887
 30
0.0
 11
264.9147704183862
 21
205.2692105798886
 31
0.0
  0
LINE
  5
291
330
1F
100
AcDbEntity
  8
GR5_01
 62
   234
370
    20
100
AcDbLine
 10
264.314770418386
 20
203.2992105798887
 30
0.0
 11
264.3147704183859
 21
202.6513685969845
 31
0.0
  0
LINE
  5
292
330
1F
100
AcDbEntity
  8
GR5_01
 62
   234
370
    20
100
AcDbLine
 10
264.0147704183862
 20
203.5992105798887
 30
0.0
 11
264.9147704183861
 21
203.5992105798887
 31
0.0
  0
LINE
  5
293
330
1F
100
AcDbEntity
  8
GR5_01
 62
   234
370
    20
100
AcDbLine
 10
263.5147704183862
 20
204.5527498306528
 30
0.0
 11
263.884731875408
 21
205.5692105798886
 31
0.0
  0
LINE
  5
294
330
1F
100
AcDbEntity
  8
GR5_01
 62
   234
370
    20
100
AcDbLine
 10
263.9095583323908
 20
202.7988537348516
 30
0.0
 11
264.3147704183859
 21
202.6513685969844
 31
0.0
  0
LINE
  5
295
330
1F
100
AcDbEntity
  8
GR5_01
 62
   234
370
    20
100
AcDbLine
 10
263.884731875408
 20
205.5692105798886
 30
0.0
 11
266.2647704183862
 21
205.5692105798886
 31
0.0
  0
LINE
  5
296
330
1F
100
AcDbEntity
  8
GR5_01
 62
   234
370
    20
100
AcDbLine
 10
264.314770418386
 20
203.2992105798887
 30
0.0
 11
266.2647704183861
 21
203.2992105798887
 31
0.0
  0
LINE
  5
297
330
1F
100
AcDbEntity
  8
GR5_01
 62
   234
370
    20
100
AcDbLine
 10
264.0147704183862
 20
202.7605596672642
 30
0.0
 11
264.0147704183862
 21
205.5692105798886
 31
0.0
  0
LINE
  5
298
330
1F
100
AcDbEntity
  8
GR5_01
 62
    94
370
    20
100
AcDbLine
 10
265.2147704183861
 20
205.5692105798887
 30
0.0
 11
265.2147704183861
 21
203.2992105798888
 31
0.0
  0
LINE
  5
299
330
1F
100
AcDbEntity
  8
GR5_01
 62
   234
370
    20
100
AcDbLine
 10
264.9147704183862
 20
212.8892105798888
 30
0.0
 11
264.9147704183862
 21
211.2192105798888
 31
0.0
  0
LINE
  5
29A
330
1F
100
AcDbEntity
  8
GR5_01
 62
   234
370
    20
100
AcDbLine
 10
264.0147704183862
 20
212.8892105798887
 30
0.0
 11
264.9147704183862
 21
212.8892105798887
 31
0.0
  0
LINE
  5
29B
330
1F
100
AcDbEntity
  8
GR5_01
 62
   234
370
    20
100
AcDbLine
 10
264.314770418386
 20
210.9192105798888
 30
0.0
 11
264.3147704183859
 21
210.2713685969845
 31
0.0
  0
LINE
  5
29C
330
1F
100
AcDbEntity
  8
GR5_01
 62
   234
370
    20
100
AcDbLine
 10
264.0147704183862
 20
211.2192105798888
 30
0.0
 11
264.9147704183862
 21
211.2192105798888
 31
0.0
  0
LINE
  5
29D
330
1F
100
AcDbEntity
  8
GR5_01
 62
   234
370
    20
100
AcDbLine
 10
263.5147704183862
 20
212.1727498306528
 30
0.0
 11
263.884731875408
 21
213.1892105798887
 31
0.0
  0
LINE
  5
29E
330
1F
100
AcDbEntity
  8
GR5_01
 62
   234
370
    20
100
AcDbLine
 10
263.9095583323908
 20
210.4188537348516
 30
0.0
 11
264.314770418386
 21
210.2713685969845
 31
0.0
  0
LINE
  5
29F
330
1F
100
AcDbEntity
  8
GR5_01
 62
   234
370
    20
100
AcDbLine
 10
263.884731875408
 20
213.1892105798887
 30
0.0
 11
266.2647704183862
 21
213.1892105798887
 31
0.0
  0
LINE
  5
2A0
330
1F
100
AcDbEntity
  8
GR5_01
 62
   234
370
    20
100
AcDbLine
 10
264.314770418386
 20
210.9192105798888
 30
0.0
 11
266.2647704183862
 21
210.9192105798887
 31
0.0
  0
LINE
  5
2A1
330
1F
100
AcDbEntity
  8
GR5_01
 62
   234
370
    20
100
AcDbLine
 10
264.0147704183862
 20
210.3805596672643
 30
0.0
 11
264.0147704183862
 21
213.1892105798887
 31
0.0
  0
LINE
  5
2A2
330
1F
100
AcDbEntity
  8
GR5_01
 62
    94
370
    20
100
AcDbLine
 10
265.2147704183861
 20
213.1892105798887
 30
0.0
 11
265.2147704183861
 21
210.9192105798888
 31
0.0
  0
LINE
  5
2A3
330
1F
100
AcDbEntity
  8
GR5_01
 62
   234
370
    20
100
AcDbLine
 10
264.9147704183862
 20
228.1292105798888
 30
0.0
 11
264.9147704183862
 21
226.4592105798888
 31
0.0
  0
LINE
  5
2A4
330
1F
100
AcDbEntity
  8
GR5_01
 62
   234
370
    20
100
AcDbLine
 10
264.0147704183862
 20
228.1292105798888
 30
0.0
 11
264.9147704183862
 21
228.1292105798887
 31
0.0
  0
LINE
  5
2A5
330
1F
100
AcDbEntity
  8
GR5_01
 62
   234
370
    20
100
AcDbLine
 10
264.314770418386
 20
226.1592105798888
 30
0.0
 11
264.3147704183859
 21
225.5113685969845
 31
0.0
  0
LINE
  5
2A6
330
1F
100
AcDbEntity
  8
GR5_01
 62
   234
370
    20
100
AcDbLine
 10
264.0147704183862
 20
226.4592105798888
 30
0.0
 11
264.9147704183862
 21
226.4592105798888
 31
0.0
  0
LINE
  5
2A7
330
1F
100
AcDbEntity
  8
GR5_01
 62
   234
370
    20
100
AcDbLine
 10
263.5147704183862
 20
227.4127498306528
 30
0.0
 11
263.884731875408
 21
228.4292105798887
 31
0.0
  0
LINE
  5
2A8
330
1F
100
AcDbEntity
  8
GR5_01
 62
   234
370
    20
100
AcDbLine
 10
263.9095583323908
 20
225.6588537348516
 30
0.0
 11
264.314770418386
 21
225.5113685969845
 31
0.0
  0
LINE
  5
2A9
330
1F
100
AcDbEntity
  8
GR5_01
 62
   234
370
    20
100
AcDbLine
 10
263.884731875408
 20
228.4292105798887
 30
0.0
 11
266.2647704183862
 21
228.4292105798887
 31
0.0
  0
LINE
  5
2AA
330
1F
100
AcDbEntity
  8
GR5_01
 62
   234
370
    20
100
AcDbLine
 10
264.314770418386
 20
226.1592105798888
 30
0.0
 11
266.2647704183862
 21
226.1592105798887
 31
0.0
  0
LINE
  5
2AB
330
1F
100
AcDbEntity
  8
GR5_01
 62
   234
370
    20
100
AcDbLine
 10
264.0147704183862
 20
225.6205596672643
 30
0.0
 11
264.0147704183862
 21
228.4292105798887
 31
0.0
  0
LINE
  5
2AC
330
1F
100
AcDbEntity
  8
GR5_01
 62
    94
370
    20
100
AcDbLine
 10
265.2147704183861
 20
228.4292105798887
 30
0.0
 11
265.2147704183861
 21
226.1592105798888
 31
0.0
  0
LINE
  5
2AD
330
1F
100
AcDbEntity
  8
GR5_01
 62
   234
370
    20
100
AcDbLine
 10
264.9147704183862
 20
220.5092105798888
 30
0.0
 11
264.9147704183862
 21
218.8392105798888
 31
0.0
  0
LINE
  5
2AE
330
1F
100
AcDbEntity
  8
GR5_01
 62
   234
370
    20
100
AcDbLine
 10
264.0147704183862
 20
220.5092105798888
 30
0.0
 11
264.9147704183862
 21
220.5092105798886
 31
0.0
  0
LINE
  5
2AF
330
1F
100
AcDbEntity
  8
GR5_01
 62
   234
370
    20
100
AcDbLine
 10
264.314770418386
 20
218.5392105798887
 30
0.0
 11
264.3147704183859
 21
217.8913685969845
 31
0.0
  0
LINE
  5
2B0
330
1F
100
AcDbEntity
  8
GR5_01
 62
   234
370
    20
100
AcDbLine
 10
264.0147704183862
 20
218.8392105798887
 30
0.0
 11
264.9147704183862
 21
218.8392105798887
 31
0.0
  0
LINE
  5
2B1
330
1F
100
AcDbEntity
  8
GR5_01
 62
   234
370
    20
100
AcDbLine
 10
263.5147704183862
 20
219.7927498306528
 30
0.0
 11
263.884731875408
 21
220.8092105798887
 31
0.0
  0
LINE
  5
2B2
330
1F
100
AcDbEntity
  8
GR5_01
 62
   234
370
    20
100
AcDbLine
 10
263.9095583323908
 20
218.0388537348516
 30
0.0
 11
264.314770418386
 21
217.8913685969844
 31
0.0
  0
LINE
  5
2B3
330
1F
100
AcDbEntity
  8
GR5_01
 62
   234
370
    20
100
AcDbLine
 10
263.884731875408
 20
220.8092105798887
 30
0.0
 11
266.2647704183862
 21
220.8092105798887
 31
0.0
  0
LINE
  5
2B4
330
1F
100
AcDbEntity
  8
GR5_01
 62
   234
370
    20
100
AcDbLine
 10
264.314770418386
 20
218.5392105798887
 30
0.0
 11
266.2647704183862
 21
218.5392105798887
 31
0.0
  0
LINE
  5
2B5
330
1F
100
AcDbEntity
  8
GR5_01
 62
   234
370
    20
100
AcDbLine
 10
264.0147704183862
 20
218.0005596672642
 30
0.0
 11
264.0147704183862
 21
220.8092105798887
 31
0.0
  0
LINE
  5
2B6
330
1F
100
AcDbEntity
  8
GR5_01
 62
    94
370
    20
100
AcDbLine
 10
265.2147704183861
 20
220.8092105798887
 30
0.0
 11
265.2147704183861
 21
218.5392105798888
 31
0.0
  0
LINE
  5
2B7
330
1F
100
AcDbEntity
  8
GR5_01
 62
   234
370
    20
100
AcDbLine
 10
263.5147704183862
 20
172.8826693073232
 30
0.0
 11
263.5147704183862
 21
174.0727498306528
 31
0.0
  0
ARC
  5
2B8
330
1F
100
AcDbEntity
  8
GR5_01
 62
   234
370
    20
100
AcDbCircle
 10
264.1147704183862
 20
172.8826693073232
 30
0.0
 40
0.6
100
AcDbArc
 50
180.0
 51
250.0000000000008
  0
LINE
  5
2B9
330
1F
100
AcDbEntity
  8
GR5_01
 62
   234
370
    20
100
AcDbLine
 10
263.5147704183862
 20
180.5026693073232
 30
0.0
 11
263.5147704183862
 21
181.6927498306528
 31
0.0
  0
ARC
  5
2BA
330
1F
100
AcDbEntity
  8
GR5_01
 62
   234
370
    20
100
AcDbCircle
 10
264.1147704183862
 20
180.5026693073232
 30
0.0
 40
0.6
100
AcDbArc
 50
180.0
 51
250.0000000000008
  0
LINE
  5
2BB
330
1F
100
AcDbEntity
  8
GR5_01
 62
   234
370
    20
100
AcDbLine
 10
263.5147704183862
 20
188.1226693073232
 30
0.0
 11
263.5147704183862
 21
189.3127498306528
 31
0.0
  0
ARC
  5
2BC
330
1F
100
AcDbEntity
  8
GR5_01
 62
   234
370
    20
100
AcDbCircle
 10
264.1147704183862
 20
188.1226693073232
 30
0.0
 40
0.6
100
AcDbArc
 50
180.0
 51
250.0000000000008
  0
LINE
  5
2BD
330
1F
100
AcDbEntity
  8
GR5_01
 62
   234
370
    20
100
AcDbLine
 10
263.5147704183862
 20
195.7426693073232
 30
0.0
 11
263.5147704183862
 21
196.9327498306528
 31
0.0
  0
ARC
  5
2BE
330
1F
100
AcDbEntity
  8
GR5_01
 62
   234
370
    20
100
AcDbCircle
 10
264.1147704183862
 20
195.7426693073232
 30
0.0
 40
0.6
100
AcDbArc
 50
180.0
 51
250.0000000000008
  0
LINE
  5
2BF
330
1F
100
AcDbEntity
  8
GR5_01
 62
   234
370
    20
100
AcDbLine
 10
263.5147704183862
 20
203.3626693073231
 30
0.0
 11
263.5147704183862
 21
204.5527498306528
 31
0.0
  0
ARC
  5
2C0
330
1F
100
AcDbEntity
  8
GR5_01
 62
   234
370
    20
100
AcDbCircle
 10
264.1147704183862
 20
203.3626693073231
 30
0.0
 40
0.6
100
AcDbArc
 50
180.0
 51
250.0000000000008
  0
LINE
  5
2C1
330
1F
100
AcDbEntity
  8
GR5_01
 62
   234
370
    20
100
AcDbLine
 10
263.5147704183862
 20
210.9826693073232
 30
0.0
 11
263.5147704183862
 21
212.1727498306528
 31
0.0
  0
ARC
  5
2C2
330
1F
100
AcDbEntity
  8
GR5_01
 62
   234
370
    20
100
AcDbCircle
 10
264.1147704183862
 20
210.9826693073232
 30
0.0
 40
0.6
100
AcDbArc
 50
180.0
 51
250.0000000000008
  0
LINE
  5
2C3
330
1F
100
AcDbEntity
  8
GR5_01
 62
   234
370
    20
100
AcDbLine
 10
263.5147704183862
 20
218.6026693073232
 30
0.0
 11
263.5147704183862
 21
219.7927498306528
 31
0.0
  0
ARC
  5
2C4
330
1F
100
AcDbEntity
  8
GR5_01
 62
   234
370
    20
100
AcDbCircle
 10
264.1147704183862
 20
218.6026693073232
 30
0.0
 40
0.6
100
AcDbArc
 50
180.0
 51
250.0000000000008
  0
LINE
  5
2C5
330
1F
100
AcDbEntity
  8
GR5_01
 62
   234
370
    20
100
AcDbLine
 10
263.5147704183862
 20
226.2226693073232
 30
0.0
 11
263.5147704183862
 21
227.4127498306528
 31
0.0
  0
ARC
  5
2C6
330
1F
100
AcDbEntity
  8
GR5_01
 62
   234
370
    20
100
AcDbCircle
 10
264.1147704183862
 20
226.2226693073232
 30
0.0
 40
0.6
100
AcDbArc
 50
180.0
 51
250.0000000000008
  0
LINE
  5
2C7
330
1F
100
AcDbEntity
  8
GR5_01
 62
   234
370
    20
100
AcDbLine
 10
262.5147704183862
 20
166.9753394540378
 30
0.0
 11
262.5147704183862
 21
236.4442105798886
 31
0.0
  0
LINE
  5
2C8
330
1F
100
AcDbEntity
  8
GR5_01
 62
   234
370
    20
100
AcDbLine
 10
272.814770418386
 20
161.9442105798885
 30
0.0
 11
272.814770418386
 21
232.9442105798886
 31
0.0
  0
ARC
  5
2C9
330
1F
100
AcDbEntity
  8
GR5_01
 62
   234
370
    20
100
AcDbCircle
 10
268.7647704183861
 20
237.4442105798886
 30
0.0
 40
4.5
100
AcDbArc
 50
192.8395884069041
 51
270.0
  0
LINE
  5
2CA
330
1F
100
AcDbEntity
  8
GR5_01
 62
   234
370
    20
100
AcDbLine
 10
268.7647704183861
 20
232.9442105798886
 30
0.0
 11
272.814770418386
 21
232.9442105798886
 31
0.0
  0
LINE
  5
2CB
330
1F
100
AcDbEntity
  8
GR5_01
 62
   234
370
    20
100
AcDbLine
 10
262.5147704183862
 20
236.4442105798886
 30
0.0
 11
264.37728822469
 21
236.4442105798886
 31
0.0
  0
LINE
  5
2CC
330
1F
100
AcDbEntity
  8
GR5_01
 62
    94
370
    20
100
AcDbLine
 10
255.0455868299332
 20
240.4442105798887
 30
0.0
 11
255.0455868299332
 21
140.4442105798888
 31
0.0
  0
LINE
  5
2CD
330
1F
100
AcDbEntity
  8
GR5_01
 62
    94
370
    20
100
AcDbLine
 10
282.4455868299332
 20
240.4442105798887
 30
0.0
 11
282.4455868299332
 21
140.4442105798887
 31
0.0
  0
CIRCLE
  5
2CE
330
1F
100
AcDbEntity
  8
GR5_01
 62
    94
370
    20
100
AcDbCircle
 10
276.7455868299331
 20
236.4442105798887
 30
0.0
 40
3.25
  0
ARC
  5
2CF
330
1F
100
AcDbEntity
  8
GR5_01
 62
    94
370
    20
100
AcDbCircle
 10
281.4455868299332
 20
240.4442105798887
 30
0.0
 40
1.0
100
AcDbArc
 50
0.0
 51
90.0
  0
ARC
  5
2D0
330
1F
100
AcDbEntity
  8
GR5_01
 62
    94
370
    20
100
AcDbCircle
 10
256.0455868299332
 20
240.4442105798887
 30
0.0
 40
1.0
100
AcDbArc
 50
90.0
 51
180.0
  0
LINE
  5
2D1
330
1F
100
AcDbEntity
  8
GR5_01
 62
    94
370
    20
100
AcDbLine
 10
281.4455868299332
 20
241.4442105798887
 30
0.0
 11
228.2455868299332
 21
241.4442105798887
 31
0.0
  0
CIRCLE
  5
2D2
330
1F
100
AcDbEntity
  8
GR5_01
 62
   234
370
    20
100
AcDbCircle
 10
277.7455868299332
 20
226.4442105798886
 30
0.0
 40
3.5
  0
CIRCLE
  5
2D3
330
1F
100
AcDbEntity
  8
GR5_01
 62
   234
370
    20
100
AcDbCircle
 10
277.7455868299332
 20
156.4442105798886
 30
0.0
 40
3.5
  0
CIRCLE
  5
2D4
330
1F
100
AcDbEntity
  8
GR5_01
 62
    94
370
    20
100
AcDbCircle
 10
277.7455868299331
 20
226.4442105798886
 30
0.0
 40
1.5
  0
CIRCLE
  5
2D5
330
1F
100
AcDbEntity
  8
GR5_01
 62
    94
370
    20
100
AcDbCircle
 10
277.7455868299332
 20
156.4442105798886
 30
0.0
 40
1.5
  0
LINE
  5
2D6
330
1F
100
AcDbEntity
  8
GR5_01
 62
    94
370
    20
100
AcDbLine
 10
263.7455868299331
 20
235.4442105798887
 30
0.0
 11
263.7455868299331
 21
241.4442105798889
 31
0.0
  0
LINE
  5
2D7
330
1F
100
AcDbEntity
  8
GR5_01
 62
    94
370
    20
100
AcDbLine
 10
272.3455868299333
 20
241.4442105798889
 30
0.0
 11
272.3455868299333
 21
233.0542105798883
 31
0.0
  0
LINE
  5
2D8
330
1F
100
AcDbEntity
  8
GR5_01
 62
    94
370
    20
100
AcDbLine
 10
282.4455868299332
 20
148.9442105798889
 30
0.0
 11
255.0455868299332
 21
148.9442105798889
 31
0.0
  0
LINE
  5
2D9
330
1F
100
AcDbEntity
  8
GR5_01
 62
    94
370
    20
100
AcDbLine
 10
256.4455868299331
 20
167.1442105798889
 30
0.0
 11
255.0455868299332
 21
167.1442105798889
 31
0.0
  0
INSERT
  5
2DD
330
1F
100
AcDbEntity
  8
GR5_01
 62
    94
370
    20
100
AcDbBlockReference
  2
BLKF030
 10
0.0
 20
0.0
 30
0.0
  0
LINE
  5
2E7
330
1F
100
AcDbEntity
  8
GR5_01
 62
    94
370
    20
100
AcDbLine
 10
268.7455868299331
 20
233.0442105798884
 30
0.0
 11
273.5455868299333
 21
233.0442105798884
 31
0.0
  0
LINE
  5
2E8
330
1F
100
AcDbEntity
  8
GR5_01
 62
    94
370
    20
100
AcDbLine
 10
273.5455868299333
 20
161.4442105798889
 30
0.0
 11
273.5455868299333
 21
233.0442105798884
 31
0.0
  0
LINE
  5
2E9
330
1F
100
AcDbEntity
  8
GR5_01
 62
    94
370
    20
100
AcDbLine
 10
261.7455868299331
 20
235.4442105798887
 30
0.0
 11
261.7455868299331
 21
161.4442105798889
 31
0.0
  0
LINE
  5
2EA
330
1F
100
AcDbEntity
  8
GR5_01
 62
    94
370
    20
100
AcDbLine
 10
264.8455868299332
 20
235.4442105798887
 30
0.0
 11
261.7455868299331
 21
235.4442105798887
 31
0.0
  0
LINE
  5
2EB
330
1F
100
AcDbEntity
  8
GR5_01
 62
    94
370
    20
100
AcDbLine
 10
273.5455868299333
 20
161.4442105798889
 30
0.0
 11
261.7455868299331
 21
161.4442105798889
 31
0.0
  0
ARC
  5
2EC
330
1F
100
AcDbEntity
  8
GR5_01
 62
    94
370
    20
100
AcDbCircle
 10
268.7647704183861
 20
237.4442105798887
 30
0.0
 40
4.4
100
AcDbArc
 50
207.0356917894131
 51
270.0
  0
LINE
  5
2ED
330
1F
100
AcDbEntity
  8
GR5_01
 62
    94
370
    20
100
AcDbLine
 10
271.1455868299331
 20
161.4442105798889
 30
0.0
 11
271.1455868299331
 21
148.9442105798889
 31
0.0
  0
LINE
  5
2EE
330
1F
100
AcDbEntity
  8
GR5_01
 62
    94
370
    20
100
AcDbLine
 10
256.4455868299331
 20
167.7442105798889
 30
0.0
 11
256.4455868299331
 21
159.1442105798889
 31
0.0
  0
LINE
  5
2EF
330
1F
100
AcDbEntity
  8
GR5_01
 62
    94
370
    20
100
AcDbLine
 10
264.0455868299332
 20
158.944210579889
 30
0.0
 11
256.6455868299331
 21
158.9442105798889
 31
0.0
  0
LINE
  5
2F0
330
1F
100
AcDbEntity
  8
GR5_01
 62
    94
370
    20
100
AcDbLine
 10
264.2455868299331
 20
159.144210579889
 30
0.0
 11
264.2455868299331
 21
161.4442105798889
 31
0.0
  0
LINE
  5
2F1
330
1F
100
AcDbEntity
  8
GR5_01
 62
    94
370
    20
100
AcDbLine
 10
261.7455868299331
 20
167.9442105798889
 30
0.0
 11
256.6455868299331
 21
167.9442105798889
 31
0.0
  0
ARC
  5
2F2
330
1F
100
AcDbEntity
  8
GR5_01
 62
    94
370
    20
100
AcDbCircle
 10
256.6455868299331
 20
167.7442105798889
 30
0.0
 40
0.2
100
AcDbArc
 50
90.0
 51
180.0
  0
ARC
  5
2F3
330
1F
100
AcDbEntity
  8
GR5_01
 62
    94
370
    20
100
AcDbCircle
 10
256.6455868299331
 20
159.1442105798889
 30
0.0
 40
0.2
100
AcDbArc
 50
180.0
 51
270.0
  0
ARC
  5
2F4
330
1F
100
AcDbEntity
  8
GR5_01
 62
    94
370
    20
100
AcDbCircle
 10
264.0455868299332
 20
159.144210579889
 30
0.0
 40
0.2
100
AcDbArc
 50
270.0
 51
0.0
  0
LINE
  5
2F5
330
1F
100
AcDbEntity
  8
GR5_01
 62
    94
370
    20
100
AcDbLine
 10
281.4455868299332
 20
139.4442105798888
 30
0.0
 11
228.2455868299332
 21
139.4442105798888
 31
0.0
  0
ARC
  5
2F6
330
1F
100
AcDbEntity
  8
GR5_01
 62
    94
370
    20
100
AcDbCircle
 10
281.4455868299332
 20
140.4442105798887
 30
0.0
 40
1.0
100
AcDbArc
 50
270.0
 51
0.0
  0
ARC
  5
2F7
330
1F
100
AcDbEntity
  8
GR5_01
 62
    94
370
    20
100
AcDbCircle
 10
256.0455868299332
 20
140.4442105798888
 30
0.0
 40
1.0
100
AcDbArc
 50
180.0
 51
270.0
  0
CIRCLE
  5
2F8
330
1F
100
AcDbEntity
  8
GR5_01
 62
    94
370
    20
100
AcDbCircle
 10
276.7264032414801
 20
144.4442105798887
 30
0.0
 40
3.25
  0
INSERT
  5
2FC
330
1F
100
AcDbEntity
  8
GR5_01
 62
    94
370
    20
100
AcDbBlockReference
  2
BLKF031
 10
0.0
 20
0.0
 30
0.0
  0
LINE
  5
306
330
1F
100
AcDbEntity
  8
GR5_01
 62
   234
370
    20
100
AcDbLine
 10
244.2147704183861
 20
162.3684746486009
 30
0.0
 11
244.2147704183861
 21
230.104833311842
 31
0.0
  0
LINE
  5
307
330
1F
100
AcDbEntity
  8
GR5_01
 62
   234
370
    20
100
AcDbLine
 10
244.0905063496741
 20
162.2442105798888
 30
0.0
 11
243.0147704183861
 21
162.2442105798889
 31
0.0
  0
LINE
  5
308
330
1F
100
AcDbEntity
  8
GR5_01
 62
   234
370
    20
100
AcDbLine
 10
244.514770418386
 20
162.2442105798889
 30
0.0
 11
244.214770418386
 21
161.9442105798889
 31
0.0
  0
LINE
  5
309
330
1F
100
AcDbEntity
  8
GR5_01
 62
   234
370
    20
100
AcDbLine
 10
244.214770418386
 20
162.3684746486009
 30
0.0
 11
244.0905063496741
 21
162.2442105798889
 31
0.0
  0
LINE
  5
30A
330
1F
100
AcDbEntity
  8
GR5_01
 62
   234
370
    20
100
AcDbLine
 10
244.214770418386
 20
162.3684746486009
 30
0.0
 11
244.514770418386
 21
162.2442105798889
 31
0.0
  0
LINE
  5
30B
330
1F
100
AcDbEntity
  8
GR5_01
 62
   234
370
    20
100
AcDbLine
 10
244.0905063496741
 20
162.2442105798889
 30
0.0
 11
244.2147704183861
 21
161.9442105798889
 31
0.0
  0
LINE
  5
30C
330
1F
100
AcDbEntity
  8
GR5_01
 62
   234
370
    20
100
AcDbLine
 10
237.2147704183861
 20
161.9442105798889
 30
0.0
 11
237.2147704183861
 21
162.9442105798889
 31
0.0
  0
LINE
  5
30D
330
1F
100
AcDbEntity
  8
GR5_01
 62
   234
370
    20
100
AcDbLine
 10
238.464770418386
 20
161.9442105798889
 30
0.0
 11
238.464770418386
 21
168.3942105798887
 31
0.0
  0
LINE
  5
30E
330
1F
100
AcDbEntity
  8
GR5_01
 62
   234
370
    20
100
AcDbLine
 10
235.2147704183861
 20
166.6858679666628
 30
0.0
 11
235.2147704183861
 21
168.3942105798887
 31
0.0
  0
LINE
  5
30F
330
1F
100
AcDbEntity
  8
GR5_01
 62
   234
370
    20
100
AcDbLine
 10
243.4647704183861
 20
198.5642105798888
 30
0.0
 11
239.7147704183861
 21
198.5642105798888
 31
0.0
  0
LINE
  5
310
330
1F
100
AcDbEntity
  8
GR5_01
 62
   234
370
    20
100
AcDbLine
 10
243.4647704183861
 20
195.0642105798887
 30
0.0
 11
239.7147704183861
 21
195.0642105798887
 31
0.0
  0
LINE
  5
311
330
1F
100
AcDbEntity
  8
GR5_01
 62
   234
370
    20
100
AcDbLine
 10
243.4647704183861
 20
195.0642105798887
 30
0.0
 11
243.4647704183861
 21
198.5642105798888
 31
0.0
  0
LINE
  5
312
330
1F
100
AcDbEntity
  8
GR5_01
 62
   234
370
    20
100
AcDbLine
 10
243.4647704183861
 20
190.9442105798887
 30
0.0
 11
239.7147704183861
 21
190.9442105798887
 31
0.0
  0
LINE
  5
313
330
1F
100
AcDbEntity
  8
GR5_01
 62
   234
370
    20
100
AcDbLine
 10
243.4647704183861
 20
187.4442105798887
 30
0.0
 11
239.7147704183861
 21
187.4442105798887
 31
0.0
  0
LINE
  5
314
330
1F
100
AcDbEntity
  8
GR5_01
 62
   234
370
    20
100
AcDbLine
 10
243.4647704183861
 20
187.4442105798887
 30
0.0
 11
243.4647704183861
 21
190.9442105798887
 31
0.0
  0
LINE
  5
315
330
1F
100
AcDbEntity
  8
GR5_01
 62
   234
370
    20
100
AcDbLine
 10
243.4647704183861
 20
206.1842105798888
 30
0.0
 11
239.7147704183861
 21
206.1842105798888
 31
0.0
  0
LINE
  5
316
330
1F
100
AcDbEntity
  8
GR5_01
 62
   234
370
    20
100
AcDbLine
 10
243.4647704183861
 20
202.6842105798888
 30
0.0
 11
239.7147704183861
 21
202.6842105798888
 31
0.0
  0
LINE
  5
317
330
1F
100
AcDbEntity
  8
GR5_01
 62
   234
370
    20
100
AcDbLine
 10
243.4647704183861
 20
202.6842105798888
 30
0.0
 11
243.4647704183861
 21
206.1842105798888
 31
0.0
  0
LINE
  5
318
330
1F
100
AcDbEntity
  8
GR5_01
 62
   234
370
    20
100
AcDbLine
 10
239.9647704183861
 20
190.9442105798887
 30
0.0
 11
239.9647704183861
 21
195.0642105798887
 31
0.0
  0
LINE
  5
319
330
1F
100
AcDbEntity
  8
GR5_01
 62
   234
370
    20
100
AcDbLine
 10
239.9647704183861
 20
198.5642105798888
 30
0.0
 11
239.9647704183861
 21
202.6842105798888
 31
0.0
  0
LINE
  5
31A
330
1F
100
AcDbEntity
  8
GR5_01
 62
   234
370
    20
100
AcDbLine
 10
239.9647704183861
 20
206.1842105798888
 30
0.0
 11
239.9647704183861
 21
210.3042105798888
 31
0.0
  0
LINE
  5
31B
330
1F
100
AcDbEntity
  8
GR5_01
 62
   234
370
    20
100
AcDbLine
 10
243.4647704183861
 20
183.3242105798886
 30
0.0
 11
239.7147704183861
 21
183.3242105798886
 31
0.0
  0
LINE
  5
31C
330
1F
100
AcDbEntity
  8
GR5_01
 62
   234
370
    20
100
AcDbLine
 10
243.4647704183861
 20
179.8242105798886
 30
0.0
 11
239.7147704183861
 21
179.8242105798886
 31
0.0
  0
LINE
  5
31D
330
1F
100
AcDbEntity
  8
GR5_01
 62
   234
370
    20
100
AcDbLine
 10
243.4647704183861
 20
179.8242105798886
 30
0.0
 11
243.4647704183861
 21
183.3242105798886
 31
0.0
  0
LINE
  5
31E
330
1F
100
AcDbEntity
  8
GR5_01
 62
   234
370
    20
100
AcDbLine
 10
239.9647704183861
 20
187.4442105798887
 30
0.0
 11
239.9647704183861
 21
183.3242105798887
 31
0.0
  0
LINE
  5
31F
330
1F
100
AcDbEntity
  8
GR5_01
 62
   234
370
    20
100
AcDbLine
 10
243.4647704183861
 20
175.7042105798886
 30
0.0
 11
239.7147704183861
 21
175.7042105798886
 31
0.0
  0
LINE
  5
320
330
1F
100
AcDbEntity
  8
GR5_01
 62
   234
370
    20
100
AcDbLine
 10
243.4647704183861
 20
172.2042105798886
 30
0.0
 11
239.7147704183861
 21
172.2042105798886
 31
0.0
  0
LINE
  5
321
330
1F
100
AcDbEntity
  8
GR5_01
 62
   234
370
    20
100
AcDbLine
 10
243.4647704183861
 20
172.2042105798886
 30
0.0
 11
243.4647704183861
 21
175.7042105798886
 31
0.0
  0
LINE
  5
322
330
1F
100
AcDbEntity
  8
GR5_01
 62
   234
370
    20
100
AcDbLine
 10
239.9647704183861
 20
179.8242105798887
 30
0.0
 11
239.9647704183861
 21
175.7042105798886
 31
0.0
  0
LINE
  5
323
330
1F
100
AcDbEntity
  8
GR5_01
 62
   234
370
    20
100
AcDbLine
 10
243.4647704183861
 20
168.0842105798886
 30
0.0
 11
239.7147704183861
 21
168.0842105798887
 31
0.0
  0
LINE
  5
324
330
1F
100
AcDbEntity
  8
GR5_01
 62
   234
370
    20
100
AcDbLine
 10
243.4647704183861
 20
164.5842105798886
 30
0.0
 11
239.7147704183861
 21
164.5842105798886
 31
0.0
  0
LINE
  5
325
330
1F
100
AcDbEntity
  8
GR5_01
 62
   234
370
    20
100
AcDbLine
 10
243.4647704183861
 20
164.5842105798886
 30
0.0
 11
243.4647704183861
 21
168.0842105798886
 31
0.0
  0
LINE
  5
326
330
1F
100
AcDbEntity
  8
GR5_01
 62
   234
370
    20
100
AcDbLine
 10
239.9647704183861
 20
172.2042105798887
 30
0.0
 11
239.9647704183861
 21
168.0842105798887
 31
0.0
  0
LINE
  5
327
330
1F
100
AcDbEntity
  8
GR5_01
 62
   234
370
    20
100
AcDbLine
 10
239.9647704183861
 20
164.5842105798887
 30
0.0
 11
239.9647704183861
 21
161.9442105798889
 31
0.0
  0
LINE
  5
328
330
1F
100
AcDbEntity
  8
GR5_01
 62
   234
370
    20
100
AcDbLine
 10
235.2147704183861
 20
179.5142105798887
 30
0.0
 11
238.7147704183861
 21
179.5142105798887
 31
0.0
  0
LINE
  5
329
330
1F
100
AcDbEntity
  8
GR5_01
 62
   234
370
    20
100
AcDbLine
 10
235.2147704183861
 20
176.0142105798888
 30
0.0
 11
238.7147704183861
 21
176.0142105798888
 31
0.0
  0
LINE
  5
32A
330
1F
100
AcDbEntity
  8
GR5_01
 62
   234
370
    20
100
AcDbLine
 10
235.2147704183861
 20
171.8942105798887
 30
0.0
 11
238.7147704183861
 21
171.8942105798887
 31
0.0
  0
LINE
  5
32B
330
1F
100
AcDbEntity
  8
GR5_01
 62
   234
370
    20
100
AcDbLine
 10
235.2147704183861
 20
168.3942105798887
 30
0.0
 11
238.7147704183861
 21
168.3942105798887
 31
0.0
  0
LINE
  5
32C
330
1F
100
AcDbEntity
  8
GR5_01
 62
   234
370
    20
100
AcDbLine
 10
235.5147704183861
 20
166.4669935706505
 30
0.0
 11
235.5147704183861
 21
168.3942105798887
 31
0.0
  0
LINE
  5
32D
330
1F
100
AcDbEntity
  8
GR5_01
 62
   234
370
    20
100
AcDbLine
 10
238.4647704183859
 20
162.2442105798889
 30
0.0
 11
237.2147704183861
 21
162.2442105798889
 31
0.0
  0
LINE
  5
32E
330
1F
100
AcDbEntity
  8
GR5_01
 62
   234
370
    20
100
AcDbLine
 10
243.4647704183861
 20
199.6242105798888
 30
0.0
 11
239.9647704183861
 21
199.6242105798888
 31
0.0
  0
LINE
  5
32F
330
1F
100
AcDbEntity
  8
GR5_01
 62
   234
370
    20
100
AcDbLine
 10
243.4647704183861
 20
201.6242105798888
 30
0.0
 11
239.9647704183861
 21
201.6242105798888
 31
0.0
  0
LINE
  5
330
330
1F
100
AcDbEntity
  8
GR5_01
 62
   234
370
    20
100
AcDbLine
 10
243.4647704183861
 20
201.6242105798888
 30
0.0
 11
243.4647704183861
 21
199.6242105798888
 31
0.0
  0
LINE
  5
331
330
1F
100
AcDbEntity
  8
GR5_01
 62
   234
370
    20
100
AcDbLine
 10
243.4647704183861
 20
192.0042105798886
 30
0.0
 11
239.9647704183861
 21
192.0042105798886
 31
0.0
  0
LINE
  5
332
330
1F
100
AcDbEntity
  8
GR5_01
 62
   234
370
    20
100
AcDbLine
 10
243.4647704183861
 20
194.0042105798886
 30
0.0
 11
239.9647704183861
 21
194.0042105798886
 31
0.0
  0
LINE
  5
333
330
1F
100
AcDbEntity
  8
GR5_01
 62
   234
370
    20
100
AcDbLine
 10
243.4647704183861
 20
184.3842105798887
 30
0.0
 11
239.9647704183861
 21
184.3842105798887
 31
0.0
  0
LINE
  5
334
330
1F
100
AcDbEntity
  8
GR5_01
 62
   234
370
    20
100
AcDbLine
 10
243.4647704183861
 20
186.3842105798887
 30
0.0
 11
239.9647704183861
 21
186.3842105798887
 31
0.0
  0
LINE
  5
335
330
1F
100
AcDbEntity
  8
GR5_01
 62
   234
370
    20
100
AcDbLine
 10
243.4647704183861
 20
194.0042105798887
 30
0.0
 11
243.4647704183861
 21
192.0042105798887
 31
0.0
  0
LINE
  5
336
330
1F
100
AcDbEntity
  8
GR5_01
 62
   234
370
    20
100
AcDbLine
 10
243.4647704183861
 20
186.3842105798887
 30
0.0
 11
243.4647704183861
 21
184.3842105798887
 31
0.0
  0
LINE
  5
337
330
1F
100
AcDbEntity
  8
GR5_01
 62
   234
370
    20
100
AcDbLine
 10
243.4647704183861
 20
176.7642105798887
 30
0.0
 11
239.9647704183861
 21
176.7642105798887
 31
0.0
  0
LINE
  5
338
330
1F
100
AcDbEntity
  8
GR5_01
 62
   234
370
    20
100
AcDbLine
 10
243.4647704183861
 20
178.7642105798887
 30
0.0
 11
239.9647704183861
 21
178.7642105798887
 31
0.0
  0
LINE
  5
339
330
1F
100
AcDbEntity
  8
GR5_01
 62
   234
370
    20
100
AcDbLine
 10
243.4647704183861
 20
178.7642105798887
 30
0.0
 11
243.4647704183861
 21
176.7642105798887
 31
0.0
  0
LINE
  5
33A
330
1F
100
AcDbEntity
  8
GR5_01
 62
   234
370
    20
100
AcDbLine
 10
243.4647704183861
 20
169.1442105798887
 30
0.0
 11
239.9647704183861
 21
169.1442105798887
 31
0.0
  0
LINE
  5
33B
330
1F
100
AcDbEntity
  8
GR5_01
 62
   234
370
    20
100
AcDbLine
 10
243.4647704183861
 20
171.1442105798887
 30
0.0
 11
239.9647704183861
 21
171.1442105798887
 31
0.0
  0
LINE
  5
33C
330
1F
100
AcDbEntity
  8
GR5_01
 62
   234
370
    20
100
AcDbLine
 10
243.4647704183861
 20
171.1442105798887
 30
0.0
 11
243.4647704183861
 21
169.1442105798887
 31
0.0
  0
LINE
  5
33D
330
1F
100
AcDbEntity
  8
GR5_01
 62
   234
370
    20
100
AcDbLine
 10
243.4647704183861
 20
209.2442105798888
 30
0.0
 11
239.9647704183861
 21
209.2442105798888
 31
0.0
  0
LINE
  5
33E
330
1F
100
AcDbEntity
  8
GR5_01
 62
   234
370
    20
100
AcDbLine
 10
243.4647704183861
 20
207.2442105798888
 30
0.0
 11
239.9647704183861
 21
207.2442105798888
 31
0.0
  0
LINE
  5
33F
330
1F
100
AcDbEntity
  8
GR5_01
 62
   234
370
    20
100
AcDbLine
 10
243.4647704183861
 20
207.2442105798888
 30
0.0
 11
243.4647704183861
 21
209.2442105798888
 31
0.0
  0
LINE
  5
340
330
1F
100
AcDbEntity
  8
GR5_01
 62
   234
370
    20
100
AcDbLine
 10
243.0147704183861
 20
163.5242105798887
 30
0.0
 11
239.9647704183861
 21
163.5242105798887
 31
0.0
  0
LINE
  5
341
330
1F
100
AcDbEntity
  8
GR5_01
 62
   234
370
    20
100
AcDbLine
 10
235.2147704183861
 20
187.1342105798888
 30
0.0
 11
238.7147704183861
 21
187.1342105798888
 31
0.0
  0
LINE
  5
342
330
1F
100
AcDbEntity
  8
GR5_01
 62
   234
370
    20
100
AcDbLine
 10
235.2147704183861
 20
183.6342105798888
 30
0.0
 11
238.7147704183861
 21
183.6342105798888
 31
0.0
  0
LINE
  5
343
330
1F
100
AcDbEntity
  8
GR5_01
 62
   234
370
    20
100
AcDbLine
 10
239.7147704183861
 20
187.4442105798887
 30
0.0
 11
239.7147704183861
 21
190.9442105798887
 31
0.0
  0
LINE
  5
344
330
1F
100
AcDbEntity
  8
GR5_01
 62
   234
370
    20
100
AcDbLine
 10
239.7147704183861
 20
183.3242105798887
 30
0.0
 11
239.7147704183861
 21
179.8242105798886
 31
0.0
  0
LINE
  5
345
330
1F
100
AcDbEntity
  8
GR5_01
 62
   234
370
    20
100
AcDbLine
 10
239.7147704183861
 20
175.7042105798886
 30
0.0
 11
239.7147704183861
 21
172.2042105798886
 31
0.0
  0
LINE
  5
346
330
1F
100
AcDbEntity
  8
GR5_01
 62
   234
370
    20
100
AcDbLine
 10
239.7147704183861
 20
168.0842105798887
 30
0.0
 11
239.7147704183861
 21
164.5842105798886
 31
0.0
  0
LINE
  5
347
330
1F
100
AcDbEntity
  8
GR5_01
 62
   234
370
    20
100
AcDbLine
 10
239.7147704183861
 20
195.0642105798887
 30
0.0
 11
239.7147704183861
 21
198.5642105798888
 31
0.0
  0
LINE
  5
348
330
1F
100
AcDbEntity
  8
GR5_01
 62
   234
370
    20
100
AcDbLine
 10
239.7147704183861
 20
202.6842105798888
 30
0.0
 11
239.7147704183861
 21
206.1842105798888
 31
0.0
  0
LINE
  5
349
330
1F
100
AcDbEntity
  8
GR5_01
 62
    94
370
    20
100
AcDbLine
 10
237.7147704183861
 20
168.3942105798887
 30
0.0
 11
237.7147704183861
 21
171.8942105798887
 31
0.0
  0
LINE
  5
34A
330
1F
100
AcDbEntity
  8
GR5_01
 62
    94
370
    20
100
AcDbLine
 10
237.7147704183861
 20
183.6342105798888
 30
0.0
 11
237.7147704183861
 21
187.1342105798888
 31
0.0
  0
LINE
  5
34B
330
1F
100
AcDbEntity
  8
GR5_01
 62
    94
370
    20
100
AcDbLine
 10
237.7147704183861
 20
176.0142105798888
 30
0.0
 11
237.7147704183861
 21
179.5142105798887
 31
0.0
  0
LINE
  5
34C
330
1F
100
AcDbEntity
  8
GR5_01
 62
   234
370
    20
100
AcDbLine
 10
238.7147704183861
 20
183.6342105798888
 30
0.0
 11
238.7147704183861
 21
187.1342105798888
 31
0.0
  0
LINE
  5
34D
330
1F
100
AcDbEntity
  8
GR5_01
 62
   234
370
    20
100
AcDbLine
 10
238.7147704183861
 20
176.0142105798888
 30
0.0
 11
238.7147704183861
 21
179.5142105798888
 31
0.0
  0
LINE
  5
34E
330
1F
100
AcDbEntity
  8
GR5_01
 62
   234
370
    20
100
AcDbLine
 10
238.7147704183861
 20
168.3942105798887
 30
0.0
 11
238.7147704183861
 21
171.8942105798887
 31
0.0
  0
LINE
  5
34F
330
1F
100
AcDbEntity
  8
GR5_01
 62
   234
370
    20
100
AcDbLine
 10
238.4647704183861
 20
179.5142105798888
 30
0.0
 11
238.4647704183861
 21
183.6342105798888
 31
0.0
  0
LINE
  5
350
330
1F
100
AcDbEntity
  8
GR5_01
 62
   234
370
    20
100
AcDbLine
 10
238.4647704183861
 20
171.8942105798887
 30
0.0
 11
238.4647704183861
 21
176.0142105798888
 31
0.0
  0
LINE
  5
351
330
1F
100
AcDbEntity
  8
GR5_01
 62
   234
370
    20
100
AcDbLine
 10
243.4647704183861
 20
213.8042105798887
 30
0.0
 11
239.7147704183861
 21
213.8042105798887
 31
0.0
  0
LINE
  5
352
330
1F
100
AcDbEntity
  8
GR5_01
 62
   234
370
    20
100
AcDbLine
 10
243.4647704183861
 20
210.3042105798888
 30
0.0
 11
239.7147704183861
 21
210.3042105798888
 31
0.0
  0
LINE
  5
353
330
1F
100
AcDbEntity
  8
GR5_01
 62
   234
370
    20
100
AcDbLine
 10
243.4647704183861
 20
210.3042105798888
 30
0.0
 11
243.4647704183861
 21
213.8042105798887
 31
0.0
  0
LINE
  5
354
330
1F
100
AcDbEntity
  8
GR5_01
 62
   234
370
    20
100
AcDbLine
 10
239.9647704183861
 20
213.8042105798887
 30
0.0
 11
239.9647704183861
 21
217.9242105798887
 31
0.0
  0
LINE
  5
355
330
1F
100
AcDbEntity
  8
GR5_01
 62
   234
370
    20
100
AcDbLine
 10
243.4647704183861
 20
216.8642105798888
 30
0.0
 11
239.9647704183861
 21
216.8642105798888
 31
0.0
  0
LINE
  5
356
330
1F
100
AcDbEntity
  8
GR5_01
 62
   234
370
    20
100
AcDbLine
 10
243.4647704183861
 20
214.8642105798888
 30
0.0
 11
239.9647704183861
 21
214.8642105798888
 31
0.0
  0
LINE
  5
357
330
1F
100
AcDbEntity
  8
GR5_01
 62
   234
370
    20
100
AcDbLine
 10
243.4647704183861
 20
214.8642105798888
 30
0.0
 11
243.4647704183861
 21
216.8642105798888
 31
0.0
  0
LINE
  5
358
330
1F
100
AcDbEntity
  8
GR5_01
 62
   234
370
    20
100
AcDbLine
 10
239.7147704183861
 20
210.3042105798888
 30
0.0
 11
239.7147704183861
 21
213.8042105798887
 31
0.0
  0
LINE
  5
359
330
1F
100
AcDbEntity
  8
GR5_01
 62
   234
370
    20
100
AcDbLine
 10
243.4647704183861
 20
221.4242105798887
 30
0.0
 11
239.7147704183861
 21
221.4242105798887
 31
0.0
  0
LINE
  5
35A
330
1F
100
AcDbEntity
  8
GR5_01
 62
   234
370
    20
100
AcDbLine
 10
243.4647704183861
 20
217.9242105798887
 30
0.0
 11
239.7147704183861
 21
217.9242105798887
 31
0.0
  0
LINE
  5
35B
330
1F
100
AcDbEntity
  8
GR5_01
 62
   234
370
    20
100
AcDbLine
 10
243.4647704183861
 20
217.9242105798887
 30
0.0
 11
243.4647704183861
 21
221.4242105798887
 31
0.0
  0
LINE
  5
35C
330
1F
100
AcDbEntity
  8
GR5_01
 62
   234
370
    20
100
AcDbLine
 10
239.9647704183861
 20
221.4242105798887
 30
0.0
 11
239.9647704183861
 21
225.5442105798887
 31
0.0
  0
LINE
  5
35D
330
1F
100
AcDbEntity
  8
GR5_01
 62
   234
370
    20
100
AcDbLine
 10
243.4647704183861
 20
224.4842105798888
 30
0.0
 11
239.9647704183861
 21
224.4842105798888
 31
0.0
  0
LINE
  5
35E
330
1F
100
AcDbEntity
  8
GR5_01
 62
   234
370
    20
100
AcDbLine
 10
243.4647704183861
 20
222.4842105798888
 30
0.0
 11
239.9647704183861
 21
222.4842105798888
 31
0.0
  0
LINE
  5
35F
330
1F
100
AcDbEntity
  8
GR5_01
 62
   234
370
    20
100
AcDbLine
 10
243.4647704183861
 20
222.4842105798888
 30
0.0
 11
243.4647704183861
 21
224.4842105798888
 31
0.0
  0
LINE
  5
360
330
1F
100
AcDbEntity
  8
GR5_01
 62
   234
370
    20
100
AcDbLine
 10
239.7147704183861
 20
217.9242105798887
 30
0.0
 11
239.7147704183861
 21
221.4242105798887
 31
0.0
  0
LINE
  5
361
330
1F
100
AcDbEntity
  8
GR5_01
 62
   234
370
    20
100
AcDbLine
 10
243.4647704183861
 20
229.0442105798887
 30
0.0
 11
239.7147704183861
 21
229.0442105798887
 31
0.0
  0
LINE
  5
362
330
1F
100
AcDbEntity
  8
GR5_01
 62
   234
370
    20
100
AcDbLine
 10
243.4647704183861
 20
225.5442105798887
 30
0.0
 11
239.7147704183861
 21
225.5442105798887
 31
0.0
  0
LINE
  5
363
330
1F
100
AcDbEntity
  8
GR5_01
 62
   234
370
    20
100
AcDbLine
 10
243.4647704183861
 20
225.5442105798887
 30
0.0
 11
243.4647704183861
 21
229.0442105798887
 31
0.0
  0
LINE
  5
364
330
1F
100
AcDbEntity
  8
GR5_01
 62
   234
370
    20
100
AcDbLine
 10
239.9647704183861
 20
229.0442105798887
 30
0.0
 11
239.9647704183861
 21
233.0567283861926
 31
0.0
  0
LINE
  5
365
330
1F
100
AcDbEntity
  8
GR5_01
 62
   234
370
    20
100
AcDbLine
 10
239.7147704183861
 20
225.5442105798887
 30
0.0
 11
239.7147704183861
 21
229.0442105798887
 31
0.0
  0
LINE
  5
366
330
1F
100
AcDbEntity
  8
GR5_01
 62
   234
370
    20
100
AcDbLine
 10
235.2147704183862
 20
232.8542105798889
 30
0.0
 11
238.7147704183861
 21
232.8542105798889
 31
0.0
  0
LINE
  5
367
330
1F
100
AcDbEntity
  8
GR5_01
 62
   234
370
    20
100
AcDbLine
 10
235.2147704183861
 20
229.3542105798888
 30
0.0
 11
238.7147704183861
 21
229.3542105798888
 31
0.0
  0
LINE
  5
368
330
1F
100
AcDbEntity
  8
GR5_01
 62
   234
370
    20
100
AcDbLine
 10
238.7147704183861
 20
229.3542105798888
 30
0.0
 11
238.7147704183861
 21
233.5470962628587
 31
0.0
  0
LINE
  5
369
330
1F
100
AcDbEntity
  8
GR5_01
 62
   234
370
    20
100
AcDbLine
 10
235.5147704183861
 20
234.7699465111767
 30
0.0
 11
235.5147704183861
 21
232.8542105798889
 31
0.0
  0
LINE
  5
36A
330
1F
100
AcDbEntity
  8
GR5_01
 62
   234
370
    20
100
AcDbLine
 10
235.2147704183861
 20
232.8542105798889
 30
0.0
 11
235.2147704183861
 21
234.8942105798887
 31
0.0
  0
LINE
  5
36B
330
1F
100
AcDbEntity
  8
GR5_01
 62
   234
370
    20
100
AcDbLine
 10
244.5147704183861
 20
162.2442105798889
 30
0.0
 11
244.5147704183861
 21
230.104833311842
 31
0.0
  0
ARC
  5
36C
330
1F
100
AcDbEntity
  8
GR5_01
 62
   234
370
    20
100
AcDbCircle
 10
240.9647704183861
 20
237.4442105798887
 30
0.0
 40
5.5
100
AcDbArc
 50
204.1477399170226
 51
236.5685374418164
  0
LINE
  5
36D
330
1F
100
AcDbEntity
  8
GR5_01
 62
   234
370
    20
100
AcDbLine
 10
235.5147704183862
 20
235.1942105798887
 30
0.0
 11
235.9460554434149
 21
235.1942105798887
 31
0.0
  0
LINE
  5
36E
330
1F
100
AcDbEntity
  8
GR5_01
 62
   234
370
    20
100
AcDbLine
 10
235.5147704183861
 20
235.1942105798887
 30
0.0
 11
235.2147704183862
 21
234.8942105798887
 31
0.0
  0
LINE
  5
36F
330
1F
100
AcDbEntity
  8
GR5_01
 62
   234
370
    20
100
AcDbLine
 10
235.6390344870981
 20
234.8942105798887
 30
0.0
 11
235.5147704183861
 21
234.7699465111767
 31
0.0
  0
LINE
  5
370
330
1F
100
AcDbEntity
  8
GR5_01
 62
   234
370
    20
100
AcDbLine
 10
235.6390344870981
 20
234.8942105798887
 30
0.0
 11
235.5147704183862
 21
235.1942105798887
 31
0.0
  0
LINE
  5
371
330
1F
100
AcDbEntity
  8
GR5_01
 62
   234
370
    20
100
AcDbLine
 10
235.5147704183861
 20
234.7699465111768
 30
0.0
 11
235.2147704183862
 21
234.8942105798887
 31
0.0
  0
LINE
  5
372
330
1F
100
AcDbEntity
  8
GR5_01
 62
   234
370
    20
100
AcDbLine
 10
236.0916297473199
 20
234.8942105798887
 30
0.0
 11
235.6390344870981
 21
234.8942105798887
 31
0.0
  0
LINE
  5
373
330
1F
100
AcDbEntity
  8
GR5_01
 62
   234
370
    20
100
AcDbLine
 10
235.5147704183861
 20
176.0142105798888
 30
0.0
 11
235.5147704183861
 21
171.8942105798887
 31
0.0
  0
LINE
  5
374
330
1F
100
AcDbEntity
  8
GR5_01
 62
    94
370
    20
100
AcDbLine
 10
235.6716304183861
 20
168.3942105798887
 30
0.0
 11
235.6716304183861
 21
171.8942105798887
 31
0.0
  0
LINE
  5
375
330
1F
100
AcDbEntity
  8
GR5_01
 62
   234
370
    20
100
AcDbLine
 10
237.1147704183861
 20
182.4092105798887
 30
0.0
 11
237.1147704183861
 21
180.7392105798888
 31
0.0
  0
LINE
  5
376
330
1F
100
AcDbEntity
  8
GR5_01
 62
   234
370
    20
100
AcDbLine
 10
236.2147704183861
 20
182.4092105798887
 30
0.0
 11
237.1147704183861
 21
182.4092105798887
 31
0.0
  0
LINE
  5
377
330
1F
100
AcDbEntity
  8
GR5_01
 62
   234
370
    20
100
AcDbLine
 10
236.514770418386
 20
180.4392105798888
 30
0.0
 11
236.5147704183859
 21
179.7913685969845
 31
0.0
  0
LINE
  5
378
330
1F
100
AcDbEntity
  8
GR5_01
 62
   234
370
    20
100
AcDbLine
 10
236.2147704183861
 20
180.7392105798888
 30
0.0
 11
237.1147704183861
 21
180.7392105798888
 31
0.0
  0
LINE
  5
379
330
1F
100
AcDbEntity
  8
GR5_01
 62
   234
370
    20
100
AcDbLine
 10
235.7147704183861
 20
181.6927498306528
 30
0.0
 11
236.0847318754079
 21
182.7092105798887
 31
0.0
  0
LINE
  5
37A
330
1F
100
AcDbEntity
  8
GR5_01
 62
   234
370
    20
100
AcDbLine
 10
236.1095583323907
 20
179.9388537348516
 30
0.0
 11
236.5147704183859
 21
179.7913685969845
 31
0.0
  0
LINE
  5
37B
330
1F
100
AcDbEntity
  8
GR5_01
 62
   234
370
    20
100
AcDbLine
 10
235.5147704183861
 20
183.6342105798887
 30
0.0
 11
235.5147704183861
 21
179.5142105798887
 31
0.0
  0
LINE
  5
37C
330
1F
100
AcDbEntity
  8
GR5_01
 62
   234
370
    20
100
AcDbLine
 10
236.0847318754079
 20
182.7092105798887
 30
0.0
 11
238.4647704183861
 21
182.7092105798887
 31
0.0
  0
LINE
  5
37D
330
1F
100
AcDbEntity
  8
GR5_01
 62
   234
370
    20
100
AcDbLine
 10
236.514770418386
 20
180.4392105798888
 30
0.0
 11
238.4647704183861
 21
180.4392105798887
 31
0.0
  0
LINE
  5
37E
330
1F
100
AcDbEntity
  8
GR5_01
 62
   234
370
    20
100
AcDbLine
 10
235.2147704183861
 20
171.8942105798887
 30
0.0
 11
235.2147704183861
 21
176.0142105798888
 31
0.0
  0
LINE
  5
37F
330
1F
100
AcDbEntity
  8
GR5_01
 62
   234
370
    20
100
AcDbLine
 10
235.2147704183861
 20
179.5142105798887
 30
0.0
 11
235.2147704183861
 21
183.6342105798888
 31
0.0
  0
LINE
  5
380
330
1F
100
AcDbEntity
  8
GR5_01
 62
    94
370
    20
100
AcDbLine
 10
235.7147704183861
 20
183.6342105798888
 30
0.0
 11
235.7147704183861
 21
187.1342105798887
 31
0.0
  0
LINE
  5
381
330
1F
100
AcDbEntity
  8
GR5_01
 62
    94
370
    20
100
AcDbLine
 10
236.4647704183861
 20
183.6342105798888
 30
0.0
 11
236.4647704183861
 21
187.1342105798887
 31
0.0
  0
LINE
  5
382
330
1F
100
AcDbEntity
  8
GR5_01
 62
    94
370
    20
100
AcDbLine
 10
236.4647704183861
 20
168.3942105798888
 30
0.0
 11
236.4647704183861
 21
171.8942105798887
 31
0.0
  0
LINE
  5
383
330
1F
100
AcDbEntity
  8
GR5_01
 62
    94
370
    20
100
AcDbLine
 10
235.6716304183861
 20
176.0142105798887
 30
0.0
 11
235.6716304183861
 21
179.5142105798887
 31
0.0
  0
LINE
  5
384
330
1F
100
AcDbEntity
  8
GR5_01
 62
    94
370
    20
100
AcDbLine
 10
236.4647704183861
 20
176.0142105798888
 30
0.0
 11
236.4647704183861
 21
179.5142105798887
 31
0.0
  0
LINE
  5
385
330
1F
100
AcDbEntity
  8
GR5_01
 62
   234
370
    20
100
AcDbLine
 10
235.2147704183861
 20
194.7542105798888
 30
0.0
 11
238.7147704183861
 21
194.7542105798888
 31
0.0
  0
LINE
  5
386
330
1F
100
AcDbEntity
  8
GR5_01
 62
   234
370
    20
100
AcDbLine
 10
235.2147704183861
 20
191.2542105798888
 30
0.0
 11
238.7147704183861
 21
191.2542105798888
 31
0.0
  0
LINE
  5
387
330
1F
100
AcDbEntity
  8
GR5_01
 62
    94
370
    20
100
AcDbLine
 10
237.7147704183861
 20
191.2542105798888
 30
0.0
 11
237.7147704183861
 21
194.7542105798888
 31
0.0
  0
LINE
  5
388
330
1F
100
AcDbEntity
  8
GR5_01
 62
   234
370
    20
100
AcDbLine
 10
238.7147704183861
 20
191.2542105798888
 30
0.0
 11
238.7147704183861
 21
194.7542105798888
 31
0.0
  0
LINE
  5
389
330
1F
100
AcDbEntity
  8
GR5_01
 62
   234
370
    20
100
AcDbLine
 10
238.4647704183861
 20
187.1342105798888
 30
0.0
 11
238.4647704183861
 21
191.2542105798888
 31
0.0
  0
LINE
  5
38A
330
1F
100
AcDbEntity
  8
GR5_01
 62
   234
370
    20
100
AcDbLine
 10
235.5147704183861
 20
191.2542105798887
 30
0.0
 11
235.5147704183861
 21
187.1342105798887
 31
0.0
  0
LINE
  5
38B
330
1F
100
AcDbEntity
  8
GR5_01
 62
   234
370
    20
100
AcDbLine
 10
235.2147704183861
 20
187.1342105798888
 30
0.0
 11
235.2147704183861
 21
191.2542105798888
 31
0.0
  0
LINE
  5
38C
330
1F
100
AcDbEntity
  8
GR5_01
 62
    94
370
    20
100
AcDbLine
 10
235.7147704183861
 20
191.2542105798888
 30
0.0
 11
235.7147704183861
 21
194.7542105798887
 31
0.0
  0
LINE
  5
38D
330
1F
100
AcDbEntity
  8
GR5_01
 62
    94
370
    20
100
AcDbLine
 10
236.4647704183861
 20
191.2542105798888
 30
0.0
 11
236.4647704183861
 21
194.7542105798887
 31
0.0
  0
LINE
  5
38E
330
1F
100
AcDbEntity
  8
GR5_01
 62
   234
370
    20
100
AcDbLine
 10
235.2147704183861
 20
202.3742105798888
 30
0.0
 11
238.7147704183861
 21
202.3742105798888
 31
0.0
  0
LINE
  5
38F
330
1F
100
AcDbEntity
  8
GR5_01
 62
   234
370
    20
100
AcDbLine
 10
235.2147704183861
 20
198.8742105798888
 30
0.0
 11
238.7147704183861
 21
198.8742105798888
 31
0.0
  0
LINE
  5
390
330
1F
100
AcDbEntity
  8
GR5_01
 62
    94
370
    20
100
AcDbLine
 10
237.7147704183861
 20
198.8742105798888
 30
0.0
 11
237.7147704183861
 21
202.3742105798888
 31
0.0
  0
LINE
  5
391
330
1F
100
AcDbEntity
  8
GR5_01
 62
   234
370
    20
100
AcDbLine
 10
238.7147704183861
 20
198.8742105798888
 30
0.0
 11
238.7147704183861
 21
202.3742105798888
 31
0.0
  0
LINE
  5
392
330
1F
100
AcDbEntity
  8
GR5_01
 62
   234
370
    20
100
AcDbLine
 10
238.4647704183861
 20
194.7542105798888
 30
0.0
 11
238.4647704183861
 21
198.8742105798888
 31
0.0
  0
LINE
  5
393
330
1F
100
AcDbEntity
  8
GR5_01
 62
   234
370
    20
100
AcDbLine
 10
235.2147704183861
 20
194.7542105798888
 30
0.0
 11
235.2147704183861
 21
198.8742105798888
 31
0.0
  0
LINE
  5
394
330
1F
100
AcDbEntity
  8
GR5_01
 62
    94
370
    20
100
AcDbLine
 10
235.7147704183861
 20
198.8742105798888
 30
0.0
 11
235.7147704183861
 21
202.3742105798887
 31
0.0
  0
LINE
  5
395
330
1F
100
AcDbEntity
  8
GR5_01
 62
    94
370
    20
100
AcDbLine
 10
236.4647704183861
 20
198.8742105798888
 30
0.0
 11
236.4647704183861
 21
202.3742105798887
 31
0.0
  0
LINE
  5
396
330
1F
100
AcDbEntity
  8
GR5_01
 62
   234
370
    20
100
AcDbLine
 10
235.2147704183861
 20
209.9942105798888
 30
0.0
 11
238.7147704183861
 21
209.9942105798888
 31
0.0
  0
LINE
  5
397
330
1F
100
AcDbEntity
  8
GR5_01
 62
   234
370
    20
100
AcDbLine
 10
235.2147704183861
 20
206.4942105798888
 30
0.0
 11
238.7147704183861
 21
206.4942105798888
 31
0.0
  0
LINE
  5
398
330
1F
100
AcDbEntity
  8
GR5_01
 62
    94
370
    20
100
AcDbLine
 10
237.7147704183861
 20
206.4942105798888
 30
0.0
 11
237.7147704183861
 21
209.9942105798888
 31
0.0
  0
LINE
  5
399
330
1F
100
AcDbEntity
  8
GR5_01
 62
   234
370
    20
100
AcDbLine
 10
238.7147704183861
 20
206.4942105798888
 30
0.0
 11
238.7147704183861
 21
209.9942105798888
 31
0.0
  0
LINE
  5
39A
330
1F
100
AcDbEntity
  8
GR5_01
 62
   234
370
    20
100
AcDbLine
 10
238.4647704183861
 20
202.3742105798888
 30
0.0
 11
238.4647704183861
 21
206.4942105798888
 31
0.0
  0
LINE
  5
39B
330
1F
100
AcDbEntity
  8
GR5_01
 62
   234
370
    20
100
AcDbLine
 10
235.5147704183861
 20
206.4942105798887
 30
0.0
 11
235.5147704183861
 21
202.3742105798887
 31
0.0
  0
LINE
  5
39C
330
1F
100
AcDbEntity
  8
GR5_01
 62
   234
370
    20
100
AcDbLine
 10
235.2147704183861
 20
202.3742105798888
 30
0.0
 11
235.2147704183861
 21
206.4942105798888
 31
0.0
  0
LINE
  5
39D
330
1F
100
AcDbEntity
  8
GR5_01
 62
    94
370
    20
100
AcDbLine
 10
235.7147704183861
 20
206.4942105798888
 30
0.0
 11
235.7147704183861
 21
209.9942105798887
 31
0.0
  0
LINE
  5
39E
330
1F
100
AcDbEntity
  8
GR5_01
 62
    94
370
    20
100
AcDbLine
 10
236.4647704183861
 20
206.4942105798888
 30
0.0
 11
236.4647704183861
 21
209.9942105798887
 31
0.0
  0
LINE
  5
39F
330
1F
100
AcDbEntity
  8
GR5_01
 62
   234
370
    20
100
AcDbLine
 10
235.2147704183861
 20
217.6142105798888
 30
0.0
 11
238.7147704183861
 21
217.6142105798888
 31
0.0
  0
LINE
  5
3A0
330
1F
100
AcDbEntity
  8
GR5_01
 62
   234
370
    20
100
AcDbLine
 10
235.2147704183861
 20
214.1142105798888
 30
0.0
 11
238.7147704183861
 21
214.1142105798888
 31
0.0
  0
LINE
  5
3A1
330
1F
100
AcDbEntity
  8
GR5_01
 62
    94
370
    20
100
AcDbLine
 10
237.7147704183861
 20
214.1142105798888
 30
0.0
 11
237.7147704183861
 21
217.6142105798888
 31
0.0
  0
LINE
  5
3A2
330
1F
100
AcDbEntity
  8
GR5_01
 62
   234
370
    20
100
AcDbLine
 10
238.7147704183861
 20
214.1142105798888
 30
0.0
 11
238.7147704183861
 21
217.6142105798888
 31
0.0
  0
LINE
  5
3A3
330
1F
100
AcDbEntity
  8
GR5_01
 62
   234
370
    20
100
AcDbLine
 10
238.4647704183861
 20
209.9942105798888
 30
0.0
 11
238.4647704183861
 21
214.1142105798888
 31
0.0
  0
LINE
  5
3A4
330
1F
100
AcDbEntity
  8
GR5_01
 62
   234
370
    20
100
AcDbLine
 10
235.5147704183861
 20
214.1142105798887
 30
0.0
 11
235.5147704183861
 21
209.9942105798888
 31
0.0
  0
LINE
  5
3A5
330
1F
100
AcDbEntity
  8
GR5_01
 62
   234
370
    20
100
AcDbLine
 10
235.2147704183861
 20
209.9942105798888
 30
0.0
 11
235.2147704183861
 21
214.1142105798888
 31
0.0
  0
LINE
  5
3A6
330
1F
100
AcDbEntity
  8
GR5_01
 62
    94
370
    20
100
AcDbLine
 10
235.7147704183861
 20
214.1142105798888
 30
0.0
 11
235.7147704183861
 21
217.6142105798887
 31
0.0
  0
LINE
  5
3A7
330
1F
100
AcDbEntity
  8
GR5_01
 62
    94
370
    20
100
AcDbLine
 10
236.4647704183861
 20
214.1142105798888
 30
0.0
 11
236.4647704183861
 21
217.6142105798887
 31
0.0
  0
LINE
  5
3A8
330
1F
100
AcDbEntity
  8
GR5_01
 62
   234
370
    20
100
AcDbLine
 10
235.2147704183861
 20
225.2342105798888
 30
0.0
 11
238.7147704183861
 21
225.2342105798888
 31
0.0
  0
LINE
  5
3A9
330
1F
100
AcDbEntity
  8
GR5_01
 62
   234
370
    20
100
AcDbLine
 10
235.2147704183861
 20
221.7342105798888
 30
0.0
 11
238.7147704183861
 21
221.7342105798888
 31
0.0
  0
LINE
  5
3AA
330
1F
100
AcDbEntity
  8
GR5_01
 62
    94
370
    20
100
AcDbLine
 10
237.7147704183861
 20
221.7342105798888
 30
0.0
 11
237.7147704183861
 21
225.2342105798888
 31
0.0
  0
LINE
  5
3AB
330
1F
100
AcDbEntity
  8
GR5_01
 62
   234
370
    20
100
AcDbLine
 10
238.7147704183861
 20
221.7342105798888
 30
0.0
 11
238.7147704183861
 21
225.2342105798888
 31
0.0
  0
LINE
  5
3AC
330
1F
100
AcDbEntity
  8
GR5_01
 62
   234
370
    20
100
AcDbLine
 10
238.4647704183861
 20
217.6142105798888
 30
0.0
 11
238.4647704183861
 21
221.7342105798888
 31
0.0
  0
LINE
  5
3AD
330
1F
100
AcDbEntity
  8
GR5_01
 62
   234
370
    20
100
AcDbLine
 10
235.5147704183861
 20
221.7342105798888
 30
0.0
 11
235.5147704183861
 21
217.6142105798887
 31
0.0
  0
LINE
  5
3AE
330
1F
100
AcDbEntity
  8
GR5_01
 62
   234
370
    20
100
AcDbLine
 10
235.2147704183861
 20
217.6142105798888
 30
0.0
 11
235.2147704183861
 21
221.7342105798888
 31
0.0
  0
LINE
  5
3AF
330
1F
100
AcDbEntity
  8
GR5_01
 62
    94
370
    20
100
AcDbLine
 10
235.7147704183861
 20
221.7342105798888
 30
0.0
 11
235.7147704183861
 21
225.2342105798888
 31
0.0
  0
LINE
  5
3B0
330
1F
100
AcDbEntity
  8
GR5_01
 62
    94
370
    20
100
AcDbLine
 10
236.4647704183861
 20
221.7342105798888
 30
0.0
 11
236.4647704183861
 21
225.2342105798888
 31
0.0
  0
LINE
  5
3B1
330
1F
100
AcDbEntity
  8
GR5_01
 62
   234
370
    20
100
AcDbLine
 10
238.4647704183861
 20
225.2342105798888
 30
0.0
 11
238.4647704183861
 21
229.3542105798888
 31
0.0
  0
LINE
  5
3B2
330
1F
100
AcDbEntity
  8
GR5_01
 62
   234
370
    20
100
AcDbLine
 10
235.5147704183861
 20
229.3542105798888
 30
0.0
 11
235.5147704183861
 21
225.2342105798888
 31
0.0
  0
LINE
  5
3B3
330
1F
100
AcDbEntity
  8
GR5_01
 62
   234
370
    20
100
AcDbLine
 10
235.2147704183861
 20
225.2342105798888
 30
0.0
 11
235.2147704183861
 21
229.3542105798888
 31
0.0
  0
LINE
  5
3B4
330
1F
100
AcDbEntity
  8
GR5_01
 62
    94
370
    20
100
AcDbLine
 10
237.7147704183861
 20
229.3542105798888
 30
0.0
 11
237.7147704183861
 21
232.8542105798889
 31
0.0
  0
LINE
  5
3B5
330
1F
100
AcDbEntity
  8
GR5_01
 62
    94
370
    20
100
AcDbLine
 10
235.7147704183861
 20
229.3542105798888
 30
0.0
 11
235.7147704183861
 21
232.8542105798888
 31
0.0
  0
LINE
  5
3B6
330
1F
100
AcDbEntity
  8
GR5_01
 62
    94
370
    20
100
AcDbLine
 10
236.4647704183861
 20
229.3542105798888
 30
0.0
 11
236.4647704183861
 21
232.8542105798888
 31
0.0
  0
ARC
  5
3B7
330
1F
100
AcDbEntity
  8
GR5_01
 62
   234
370
    20
100
AcDbCircle
 10
232.7147704183861
 20
162.9442105798889
 30
0.0
 40
4.5
100
AcDbArc
 50
0.0
 51
63.6122000387566
  0
LINE
  5
3B8
330
1F
100
AcDbEntity
  8
GR5_01
 62
   234
370
    20
100
AcDbLine
 10
239.9647704183861
 20
231.6517068074736
 30
0.0
 11
244.2147704183861
 21
230.104833311842
 31
0.0
  0
LINE
  5
3B9
330
1F
100
AcDbEntity
  8
GR5_01
 62
   234
370
    20
100
AcDbLine
 10
244.7147704183861
 20
230.104833311842
 30
0.0
 11
244.7147704183861
 21
232.9442105798886
 31
0.0
  0
LINE
  5
3BA
330
1F
100
AcDbEntity
  8
GR5_01
 62
   234
370
    20
100
AcDbLine
 10
244.7147704183861
 20
230.104833311842
 30
0.0
 11
239.9647704183861
 21
230.104833311842
 31
0.0
  0
LINE
  5
3BB
330
1F
100
AcDbEntity
  8
GR5_01
 62
   234
370
    20
100
AcDbLine
 10
243.0147704183861
 20
161.9442105798889
 30
0.0
 11
243.0147704183861
 21
163.5242105798887
 31
0.0
  0
LINE
  5
3BC
330
1F
100
AcDbEntity
  8
GR5_01
 62
   234
370
    20
100
AcDbLine
 10
237.2147704183861
 20
161.9442105798885
 30
0.0
 11
245.0147704183861
 21
161.9442105798885
 31
0.0
  0
LINE
  5
3BD
330
1F
100
AcDbEntity
  8
GR5_01
 62
   234
370
    20
100
AcDbLine
 10
236.2147704183861
 20
179.9005596672642
 30
0.0
 11
236.2147704183861
 21
182.7092105798887
 31
0.0
  0
LINE
  5
3BE
330
1F
100
AcDbEntity
  8
GR5_01
 62
    94
370
    20
100
AcDbLine
 10
237.4147704183861
 20
182.7092105798887
 30
0.0
 11
237.4147704183861
 21
180.4392105798888
 31
0.0
  0
LINE
  5
3BF
330
1F
100
AcDbEntity
  8
GR5_01
 62
   234
370
    20
100
AcDbLine
 10
237.1147704183861
 20
174.7892105798888
 30
0.0
 11
237.1147704183861
 21
173.1192105798888
 31
0.0
  0
LINE
  5
3C0
330
1F
100
AcDbEntity
  8
GR5_01
 62
   234
370
    20
100
AcDbLine
 10
236.2147704183861
 20
174.7892105798887
 30
0.0
 11
237.1147704183861
 21
174.7892105798887
 31
0.0
  0
LINE
  5
3C1
330
1F
100
AcDbEntity
  8
GR5_01
 62
   234
370
    20
100
AcDbLine
 10
236.514770418386
 20
172.8192105798888
 30
0.0
 11
236.5147704183859
 21
172.1713685969845
 31
0.0
  0
LINE
  5
3C2
330
1F
100
AcDbEntity
  8
GR5_01
 62
   234
370
    20
100
AcDbLine
 10
236.2147704183861
 20
173.1192105798888
 30
0.0
 11
237.1147704183861
 21
173.1192105798888
 31
0.0
  0
LINE
  5
3C3
330
1F
100
AcDbEntity
  8
GR5_01
 62
   234
370
    20
100
AcDbLine
 10
235.7147704183861
 20
174.0727498306529
 30
0.0
 11
236.0847318754079
 21
175.0892105798887
 31
0.0
  0
LINE
  5
3C4
330
1F
100
AcDbEntity
  8
GR5_01
 62
   234
370
    20
100
AcDbLine
 10
236.1095583323907
 20
172.3188537348516
 30
0.0
 11
236.5147704183859
 21
172.1713685969845
 31
0.0
  0
LINE
  5
3C5
330
1F
100
AcDbEntity
  8
GR5_01
 62
   234
370
    20
100
AcDbLine
 10
236.0847318754079
 20
175.0892105798887
 30
0.0
 11
238.4647704183861
 21
175.0892105798887
 31
0.0
  0
LINE
  5
3C6
330
1F
100
AcDbEntity
  8
GR5_01
 62
   234
370
    20
100
AcDbLine
 10
236.514770418386
 20
172.8192105798888
 30
0.0
 11
238.4647704183861
 21
172.8192105798888
 31
0.0
  0
LINE
  5
3C7
330
1F
100
AcDbEntity
  8
GR5_01
 62
   234
370
    20
100
AcDbLine
 10
236.2147704183861
 20
172.2805596672643
 30
0.0
 11
236.2147704183861
 21
175.0892105798887
 31
0.0
  0
LINE
  5
3C8
330
1F
100
AcDbEntity
  8
GR5_01
 62
    94
370
    20
100
AcDbLine
 10
237.4147704183861
 20
175.0892105798887
 30
0.0
 11
237.4147704183861
 21
172.8192105798888
 31
0.0
  0
LINE
  5
3C9
330
1F
100
AcDbEntity
  8
GR5_01
 62
   234
370
    20
100
AcDbLine
 10
237.1147704183861
 20
190.0292105798887
 30
0.0
 11
237.1147704183861
 21
188.3592105798888
 31
0.0
  0
LINE
  5
3CA
330
1F
100
AcDbEntity
  8
GR5_01
 62
   234
370
    20
100
AcDbLine
 10
236.2147704183861
 20
190.0292105798887
 30
0.0
 11
237.1147704183861
 21
190.0292105798887
 31
0.0
  0
LINE
  5
3CB
330
1F
100
AcDbEntity
  8
GR5_01
 62
   234
370
    20
100
AcDbLine
 10
236.514770418386
 20
188.0592105798888
 30
0.0
 11
236.5147704183859
 21
187.4113685969845
 31
0.0
  0
LINE
  5
3CC
330
1F
100
AcDbEntity
  8
GR5_01
 62
   234
370
    20
100
AcDbLine
 10
236.2147704183861
 20
188.3592105798888
 30
0.0
 11
237.1147704183861
 21
188.3592105798888
 31
0.0
  0
LINE
  5
3CD
330
1F
100
AcDbEntity
  8
GR5_01
 62
   234
370
    20
100
AcDbLine
 10
235.7147704183861
 20
189.3127498306528
 30
0.0
 11
236.0847318754079
 21
190.3292105798887
 31
0.0
  0
LINE
  5
3CE
330
1F
100
AcDbEntity
  8
GR5_01
 62
   234
370
    20
100
AcDbLine
 10
236.1095583323907
 20
187.5588537348516
 30
0.0
 11
236.5147704183859
 21
187.4113685969845
 31
0.0
  0
LINE
  5
3CF
330
1F
100
AcDbEntity
  8
GR5_01
 62
   234
370
    20
100
AcDbLine
 10
236.0847318754079
 20
190.3292105798887
 30
0.0
 11
238.4647704183861
 21
190.3292105798887
 31
0.0
  0
LINE
  5
3D0
330
1F
100
AcDbEntity
  8
GR5_01
 62
   234
370
    20
100
AcDbLine
 10
236.514770418386
 20
188.0592105798888
 30
0.0
 11
238.4647704183861
 21
188.0592105798887
 31
0.0
  0
LINE
  5
3D1
330
1F
100
AcDbEntity
  8
GR5_01
 62
   234
370
    20
100
AcDbLine
 10
236.2147704183861
 20
187.5205596672643
 30
0.0
 11
236.2147704183861
 21
190.3292105798887
 31
0.0
  0
LINE
  5
3D2
330
1F
100
AcDbEntity
  8
GR5_01
 62
    94
370
    20
100
AcDbLine
 10
237.4147704183861
 20
190.3292105798887
 30
0.0
 11
237.4147704183861
 21
188.0592105798888
 31
0.0
  0
LINE
  5
3D3
330
1F
100
AcDbEntity
  8
GR5_01
 62
   234
370
    20
100
AcDbLine
 10
237.1147704183861
 20
197.6492105798887
 30
0.0
 11
237.1147704183861
 21
195.9792105798888
 31
0.0
  0
LINE
  5
3D4
330
1F
100
AcDbEntity
  8
GR5_01
 62
   234
370
    20
100
AcDbLine
 10
236.2147704183861
 20
197.6492105798887
 30
0.0
 11
237.1147704183861
 21
197.6492105798887
 31
0.0
  0
LINE
  5
3D5
330
1F
100
AcDbEntity
  8
GR5_01
 62
   234
370
    20
100
AcDbLine
 10
236.514770418386
 20
195.6792105798888
 30
0.0
 11
236.5147704183859
 21
195.0313685969845
 31
0.0
  0
LINE
  5
3D6
330
1F
100
AcDbEntity
  8
GR5_01
 62
   234
370
    20
100
AcDbLine
 10
236.2147704183861
 20
195.9792105798888
 30
0.0
 11
237.1147704183861
 21
195.9792105798888
 31
0.0
  0
LINE
  5
3D7
330
1F
100
AcDbEntity
  8
GR5_01
 62
   234
370
    20
100
AcDbLine
 10
235.7147704183861
 20
196.9327498306528
 30
0.0
 11
236.0847318754079
 21
197.9492105798887
 31
0.0
  0
LINE
  5
3D8
330
1F
100
AcDbEntity
  8
GR5_01
 62
   234
370
    20
100
AcDbLine
 10
236.1095583323907
 20
195.1788537348516
 30
0.0
 11
236.5147704183859
 21
195.0313685969845
 31
0.0
  0
LINE
  5
3D9
330
1F
100
AcDbEntity
  8
GR5_01
 62
   234
370
    20
100
AcDbLine
 10
236.0847318754079
 20
197.9492105798887
 30
0.0
 11
238.4647704183861
 21
197.9492105798887
 31
0.0
  0
LINE
  5
3DA
330
1F
100
AcDbEntity
  8
GR5_01
 62
   234
370
    20
100
AcDbLine
 10
236.514770418386
 20
195.6792105798888
 30
0.0
 11
238.4647704183861
 21
195.6792105798887
 31
0.0
  0
LINE
  5
3DB
330
1F
100
AcDbEntity
  8
GR5_01
 62
   234
370
    20
100
AcDbLine
 10
236.2147704183861
 20
195.1405596672643
 30
0.0
 11
236.2147704183861
 21
197.9492105798887
 31
0.0
  0
LINE
  5
3DC
330
1F
100
AcDbEntity
  8
GR5_01
 62
    94
370
    20
100
AcDbLine
 10
237.4147704183861
 20
197.9492105798887
 30
0.0
 11
237.4147704183861
 21
195.6792105798888
 31
0.0
  0
LINE
  5
3DD
330
1F
100
AcDbEntity
  8
GR5_01
 62
   234
370
    20
100
AcDbLine
 10
237.1147704183861
 20
205.2692105798887
 30
0.0
 11
237.1147704183861
 21
203.5992105798888
 31
0.0
  0
LINE
  5
3DE
330
1F
100
AcDbEntity
  8
GR5_01
 62
   234
370
    20
100
AcDbLine
 10
236.2147704183861
 20
205.2692105798887
 30
0.0
 11
237.1147704183861
 21
205.2692105798886
 31
0.0
  0
LINE
  5
3DF
330
1F
100
AcDbEntity
  8
GR5_01
 62
   234
370
    20
100
AcDbLine
 10
236.514770418386
 20
203.2992105798887
 30
0.0
 11
236.5147704183859
 21
202.6513685969845
 31
0.0
  0
LINE
  5
3E0
330
1F
100
AcDbEntity
  8
GR5_01
 62
   234
370
    20
100
AcDbLine
 10
236.2147704183861
 20
203.5992105798887
 30
0.0
 11
237.1147704183861
 21
203.5992105798887
 31
0.0
  0
LINE
  5
3E1
330
1F
100
AcDbEntity
  8
GR5_01
 62
   234
370
    20
100
AcDbLine
 10
235.7147704183861
 20
204.5527498306528
 30
0.0
 11
236.0847318754079
 21
205.5692105798886
 31
0.0
  0
LINE
  5
3E2
330
1F
100
AcDbEntity
  8
GR5_01
 62
   234
370
    20
100
AcDbLine
 10
236.1095583323907
 20
202.7988537348516
 30
0.0
 11
236.5147704183859
 21
202.6513685969844
 31
0.0
  0
LINE
  5
3E3
330
1F
100
AcDbEntity
  8
GR5_01
 62
   234
370
    20
100
AcDbLine
 10
236.0847318754079
 20
205.5692105798886
 30
0.0
 11
238.4647704183861
 21
205.5692105798886
 31
0.0
  0
LINE
  5
3E4
330
1F
100
AcDbEntity
  8
GR5_01
 62
   234
370
    20
100
AcDbLine
 10
236.514770418386
 20
203.2992105798887
 30
0.0
 11
238.4647704183861
 21
203.2992105798887
 31
0.0
  0
LINE
  5
3E5
330
1F
100
AcDbEntity
  8
GR5_01
 62
   234
370
    20
100
AcDbLine
 10
236.2147704183861
 20
202.7605596672642
 30
0.0
 11
236.2147704183861
 21
205.5692105798886
 31
0.0
  0
LINE
  5
3E6
330
1F
100
AcDbEntity
  8
GR5_01
 62
    94
370
    20
100
AcDbLine
 10
237.4147704183861
 20
205.5692105798887
 30
0.0
 11
237.4147704183861
 21
203.2992105798888
 31
0.0
  0
LINE
  5
3E7
330
1F
100
AcDbEntity
  8
GR5_01
 62
   234
370
    20
100
AcDbLine
 10
237.1147704183861
 20
212.8892105798888
 30
0.0
 11
237.1147704183861
 21
211.2192105798888
 31
0.0
  0
LINE
  5
3E8
330
1F
100
AcDbEntity
  8
GR5_01
 62
   234
370
    20
100
AcDbLine
 10
236.2147704183861
 20
212.8892105798887
 30
0.0
 11
237.1147704183861
 21
212.8892105798887
 31
0.0
  0
LINE
  5
3E9
330
1F
100
AcDbEntity
  8
GR5_01
 62
   234
370
    20
100
AcDbLine
 10
236.514770418386
 20
210.9192105798888
 30
0.0
 11
236.5147704183859
 21
210.2713685969845
 31
0.0
  0
LINE
  5
3EA
330
1F
100
AcDbEntity
  8
GR5_01
 62
   234
370
    20
100
AcDbLine
 10
236.2147704183861
 20
211.2192105798888
 30
0.0
 11
237.1147704183861
 21
211.2192105798888
 31
0.0
  0
LINE
  5
3EB
330
1F
100
AcDbEntity
  8
GR5_01
 62
   234
370
    20
100
AcDbLine
 10
235.7147704183861
 20
212.1727498306528
 30
0.0
 11
236.084731875408
 21
213.1892105798887
 31
0.0
  0
LINE
  5
3EC
330
1F
100
AcDbEntity
  8
GR5_01
 62
   234
370
    20
100
AcDbLine
 10
236.1095583323907
 20
210.4188537348516
 30
0.0
 11
236.514770418386
 21
210.2713685969845
 31
0.0
  0
LINE
  5
3ED
330
1F
100
AcDbEntity
  8
GR5_01
 62
   234
370
    20
100
AcDbLine
 10
236.0847318754079
 20
213.1892105798887
 30
0.0
 11
238.4647704183861
 21
213.1892105798887
 31
0.0
  0
LINE
  5
3EE
330
1F
100
AcDbEntity
  8
GR5_01
 62
   234
370
    20
100
AcDbLine
 10
236.514770418386
 20
210.9192105798888
 30
0.0
 11
238.4647704183861
 21
210.9192105798887
 31
0.0
  0
LINE
  5
3EF
330
1F
100
AcDbEntity
  8
GR5_01
 62
   234
370
    20
100
AcDbLine
 10
236.2147704183861
 20
210.3805596672643
 30
0.0
 11
236.2147704183861
 21
213.1892105798887
 31
0.0
  0
LINE
  5
3F0
330
1F
100
AcDbEntity
  8
GR5_01
 62
    94
370
    20
100
AcDbLine
 10
237.4147704183861
 20
213.1892105798887
 30
0.0
 11
237.4147704183861
 21
210.9192105798888
 31
0.0
  0
LINE
  5
3F1
330
1F
100
AcDbEntity
  8
GR5_01
 62
   234
370
    20
100
AcDbLine
 10
237.1147704183861
 20
228.1292105798888
 30
0.0
 11
237.1147704183861
 21
226.4592105798888
 31
0.0
  0
LINE
  5
3F2
330
1F
100
AcDbEntity
  8
GR5_01
 62
   234
370
    20
100
AcDbLine
 10
236.2147704183861
 20
228.1292105798888
 30
0.0
 11
237.1147704183861
 21
228.1292105798887
 31
0.0
  0
LINE
  5
3F3
330
1F
100
AcDbEntity
  8
GR5_01
 62
   234
370
    20
100
AcDbLine
 10
236.514770418386
 20
226.1592105798888
 30
0.0
 11
236.5147704183859
 21
225.5113685969845
 31
0.0
  0
LINE
  5
3F4
330
1F
100
AcDbEntity
  8
GR5_01
 62
   234
370
    20
100
AcDbLine
 10
236.2147704183861
 20
226.4592105798888
 30
0.0
 11
237.1147704183861
 21
226.4592105798888
 31
0.0
  0
LINE
  5
3F5
330
1F
100
AcDbEntity
  8
GR5_01
 62
   234
370
    20
100
AcDbLine
 10
235.7147704183861
 20
227.4127498306528
 30
0.0
 11
236.084731875408
 21
228.4292105798887
 31
0.0
  0
LINE
  5
3F6
330
1F
100
AcDbEntity
  8
GR5_01
 62
   234
370
    20
100
AcDbLine
 10
236.1095583323907
 20
225.6588537348516
 30
0.0
 11
236.514770418386
 21
225.5113685969845
 31
0.0
  0
LINE
  5
3F7
330
1F
100
AcDbEntity
  8
GR5_01
 62
   234
370
    20
100
AcDbLine
 10
236.0847318754079
 20
228.4292105798887
 30
0.0
 11
238.4647704183861
 21
228.4292105798887
 31
0.0
  0
LINE
  5
3F8
330
1F
100
AcDbEntity
  8
GR5_01
 62
   234
370
    20
100
AcDbLine
 10
236.514770418386
 20
226.1592105798888
 30
0.0
 11
238.4647704183861
 21
226.1592105798887
 31
0.0
  0
LINE
  5
3F9
330
1F
100
AcDbEntity
  8
GR5_01
 62
   234
370
    20
100
AcDbLine
 10
236.2147704183861
 20
225.6205596672643
 30
0.0
 11
236.2147704183861
 21
228.4292105798887
 31
0.0
  0
LINE
  5
3FA
330
1F
100
AcDbEntity
  8
GR5_01
 62
    94
370
    20
100
AcDbLine
 10
237.4147704183861
 20
228.4292105798887
 30
0.0
 11
237.4147704183861
 21
226.1592105798888
 31
0.0
  0
LINE
  5
3FB
330
1F
100
AcDbEntity
  8
GR5_01
 62
   234
370
    20
100
AcDbLine
 10
237.1147704183861
 20
220.5092105798888
 30
0.0
 11
237.1147704183861
 21
218.8392105798888
 31
0.0
  0
LINE
  5
3FC
330
1F
100
AcDbEntity
  8
GR5_01
 62
   234
370
    20
100
AcDbLine
 10
236.2147704183861
 20
220.5092105798888
 30
0.0
 11
237.1147704183861
 21
220.5092105798886
 31
0.0
  0
LINE
  5
3FD
330
1F
100
AcDbEntity
  8
GR5_01
 62
   234
370
    20
100
AcDbLine
 10
236.514770418386
 20
218.5392105798887
 30
0.0
 11
236.5147704183859
 21
217.8913685969845
 31
0.0
  0
LINE
  5
3FE
330
1F
100
AcDbEntity
  8
GR5_01
 62
   234
370
    20
100
AcDbLine
 10
236.2147704183861
 20
218.8392105798887
 30
0.0
 11
237.1147704183861
 21
218.8392105798887
 31
0.0
  0
LINE
  5
3FF
330
1F
100
AcDbEntity
  8
GR5_01
 62
   234
370
    20
100
AcDbLine
 10
235.7147704183861
 20
219.7927498306528
 30
0.0
 11
236.084731875408
 21
220.8092105798887
 31
0.0
  0
LINE
  5
400
330
1F
100
AcDbEntity
  8
GR5_01
 62
   234
370
    20
100
AcDbLine
 10
236.1095583323907
 20
218.0388537348516
 30
0.0
 11
236.514770418386
 21
217.8913685969844
 31
0.0
  0
LINE
  5
401
330
1F
100
AcDbEntity
  8
GR5_01
 62
   234
370
    20
100
AcDbLine
 10
236.0847318754079
 20
220.8092105798887
 30
0.0
 11
238.4647704183861
 21
220.8092105798887
 31
0.0
  0
LINE
  5
402
330
1F
100
AcDbEntity
  8
GR5_01
 62
   234
370
    20
100
AcDbLine
 10
236.514770418386
 20
218.5392105798887
 30
0.0
 11
238.4647704183861
 21
218.5392105798887
 31
0.0
  0
LINE
  5
403
330
1F
100
AcDbEntity
  8
GR5_01
 62
   234
370
    20
100
AcDbLine
 10
236.2147704183861
 20
218.0005596672642
 30
0.0
 11
236.2147704183861
 21
220.8092105798887
 31
0.0
  0
LINE
  5
404
330
1F
100
AcDbEntity
  8
GR5_01
 62
    94
370
    20
100
AcDbLine
 10
237.4147704183861
 20
220.8092105798887
 30
0.0
 11
237.4147704183861
 21
218.5392105798888
 31
0.0
  0
LINE
  5
405
330
1F
100
AcDbEntity
  8
GR5_01
 62
   234
370
    20
100
AcDbLine
 10
235.7147704183861
 20
172.8826693073232
 30
0.0
 11
235.7147704183861
 21
174.0727498306528
 31
0.0
  0
ARC
  5
406
330
1F
100
AcDbEntity
  8
GR5_01
 62
   234
370
    20
100
AcDbCircle
 10
236.3147704183862
 20
172.8826693073232
 30
0.0
 40
0.6
100
AcDbArc
 50
180.0
 51
250.0000000000008
  0
LINE
  5
407
330
1F
100
AcDbEntity
  8
GR5_01
 62
   234
370
    20
100
AcDbLine
 10
235.7147704183861
 20
180.5026693073232
 30
0.0
 11
235.7147704183861
 21
181.6927498306528
 31
0.0
  0
ARC
  5
408
330
1F
100
AcDbEntity
  8
GR5_01
 62
   234
370
    20
100
AcDbCircle
 10
236.3147704183862
 20
180.5026693073232
 30
0.0
 40
0.6
100
AcDbArc
 50
180.0
 51
250.0000000000008
  0
LINE
  5
409
330
1F
100
AcDbEntity
  8
GR5_01
 62
   234
370
    20
100
AcDbLine
 10
235.7147704183861
 20
188.1226693073232
 30
0.0
 11
235.7147704183861
 21
189.3127498306528
 31
0.0
  0
ARC
  5
40A
330
1F
100
AcDbEntity
  8
GR5_01
 62
   234
370
    20
100
AcDbCircle
 10
236.3147704183862
 20
188.1226693073232
 30
0.0
 40
0.6
100
AcDbArc
 50
180.0
 51
250.0000000000008
  0
LINE
  5
40B
330
1F
100
AcDbEntity
  8
GR5_01
 62
   234
370
    20
100
AcDbLine
 10
235.7147704183861
 20
195.7426693073232
 30
0.0
 11
235.7147704183861
 21
196.9327498306528
 31
0.0
  0
ARC
  5
40C
330
1F
100
AcDbEntity
  8
GR5_01
 62
   234
370
    20
100
AcDbCircle
 10
236.3147704183862
 20
195.7426693073232
 30
0.0
 40
0.6
100
AcDbArc
 50
180.0
 51
250.0000000000008
  0
LINE
  5
40D
330
1F
100
AcDbEntity
  8
GR5_01
 62
   234
370
    20
100
AcDbLine
 10
235.7147704183861
 20
203.3626693073231
 30
0.0
 11
235.7147704183861
 21
204.5527498306528
 31
0.0
  0
ARC
  5
40E
330
1F
100
AcDbEntity
  8
GR5_01
 62
   234
370
    20
100
AcDbCircle
 10
236.3147704183862
 20
203.3626693073231
 30
0.0
 40
0.6
100
AcDbArc
 50
180.0
 51
250.0000000000008
  0
LINE
  5
40F
330
1F
100
AcDbEntity
  8
GR5_01
 62
   234
370
    20
100
AcDbLine
 10
235.7147704183861
 20
210.9826693073232
 30
0.0
 11
235.7147704183861
 21
212.1727498306528
 31
0.0
  0
ARC
  5
410
330
1F
100
AcDbEntity
  8
GR5_01
 62
   234
370
    20
100
AcDbCircle
 10
236.3147704183862
 20
210.9826693073232
 30
0.0
 40
0.6
100
AcDbArc
 50
180.0
 51
250.0000000000008
  0
LINE
  5
411
330
1F
100
AcDbEntity
  8
GR5_01
 62
   234
370
    20
100
AcDbLine
 10
235.7147704183861
 20
218.6026693073232
 30
0.0
 11
235.7147704183861
 21
219.7927498306528
 31
0.0
  0
ARC
  5
412
330
1F
100
AcDbEntity
  8
GR5_01
 62
   234
370
    20
100
AcDbCircle
 10
236.3147704183862
 20
218.6026693073232
 30
0.0
 40
0.6
100
AcDbArc
 50
180.0
 51
250.0000000000008
  0
LINE
  5
413
330
1F
100
AcDbEntity
  8
GR5_01
 62
   234
370
    20
100
AcDbLine
 10
235.7147704183861
 20
226.2226693073232
 30
0.0
 11
235.7147704183861
 21
227.4127498306528
 31
0.0
  0
ARC
  5
414
330
1F
100
AcDbEntity
  8
GR5_01
 62
   234
370
    20
100
AcDbCircle
 10
236.3147704183862
 20
226.2226693073232
 30
0.0
 40
0.6
100
AcDbArc
 50
180.0
 51
250.0000000000008
  0
LINE
  5
415
330
1F
100
AcDbEntity
  8
GR5_01
 62
   234
370
    20
100
AcDbLine
 10
234.7147704183861
 20
166.9753394540378
 30
0.0
 11
234.7147704183861
 21
236.4442105798886
 31
0.0
  0
LINE
  5
416
330
1F
100
AcDbEntity
  8
GR5_01
 62
   234
370
    20
100
AcDbLine
 10
245.0147704183861
 20
161.9442105798885
 30
0.0
 11
245.0147704183861
 21
232.9442105798886
 31
0.0
  0
ARC
  5
417
330
1F
100
AcDbEntity
  8
GR5_01
 62
   234
370
    20
100
AcDbCircle
 10
240.9647704183861
 20
237.4442105798886
 30
0.0
 40
4.5
100
AcDbArc
 50
192.8395884069041
 51
270.0
  0
LINE
  5
418
330
1F
100
AcDbEntity
  8
GR5_01
 62
   234
370
    20
100
AcDbLine
 10
240.9647704183861
 20
232.9442105798886
 30
0.0
 11
245.0147704183861
 21
232.9442105798886
 31
0.0
  0
LINE
  5
419
330
1F
100
AcDbEntity
  8
GR5_01
 62
   234
370
    20
100
AcDbLine
 10
234.7147704183861
 20
236.4442105798886
 30
0.0
 11
236.57728822469
 21
236.4442105798886
 31
0.0
  0
LINE
  5
41A
330
1F
100
AcDbEntity
  8
GR5_01
 62
    94
370
    20
100
AcDbLine
 10
227.2455868299332
 20
240.4442105798887
 30
0.0
 11
227.2455868299332
 21
140.4442105798888
 31
0.0
  0
LINE
  5
41B
330
1F
100
AcDbEntity
  8
GR5_01
 62
    94
370
    20
100
AcDbLine
 10
254.6455868299332
 20
240.4442105798887
 30
0.0
 11
254.6455868299332
 21
140.4442105798887
 31
0.0
  0
CIRCLE
  5
41C
330
1F
100
AcDbEntity
  8
GR5_01
 62
    94
370
    20
100
AcDbCircle
 10
248.9455868299331
 20
236.4442105798887
 30
0.0
 40
3.25
  0
ARC
  5
41D
330
1F
100
AcDbEntity
  8
GR5_01
 62
    94
370
    20
100
AcDbCircle
 10
253.6455868299332
 20
240.4442105798887
 30
0.0
 40
1.0
100
AcDbArc
 50
0.0
 51
90.0
  0
ARC
  5
41E
330
1F
100
AcDbEntity
  8
GR5_01
 62
    94
370
    20
100
AcDbCircle
 10
228.2455868299332
 20
240.4442105798887
 30
0.0
 40
1.0
100
AcDbArc
 50
90.0
 51
180.0
  0
CIRCLE
  5
41F
330
1F
100
AcDbEntity
  8
GR5_01
 62
   234
370
    20
100
AcDbCircle
 10
249.9455868299332
 20
226.4442105798886
 30
0.0
 40
3.5
  0
CIRCLE
  5
420
330
1F
100
AcDbEntity
  8
GR5_01
 62
   234
370
    20
100
AcDbCircle
 10
249.9455868299332
 20
156.4442105798886
 30
0.0
 40
3.5
  0
CIRCLE
  5
421
330
1F
100
AcDbEntity
  8
GR5_01
 62
    94
370
    20
100
AcDbCircle
 10
249.9455868299331
 20
226.4442105798886
 30
0.0
 40
1.5
  0
CIRCLE
  5
422
330
1F
100
AcDbEntity
  8
GR5_01
 62
    94
370
    20
100
AcDbCircle
 10
249.9455868299332
 20
156.4442105798886
 30
0.0
 40
1.5
  0
LINE
  5
423
330
1F
100
AcDbEntity
  8
GR5_01
 62
    94
370
    20
100
AcDbLine
 10
235.9455868299331
 20
235.4442105798887
 30
0.0
 11
235.9455868299331
 21
241.4442105798889
 31
0.0
  0
LINE
  5
424
330
1F
100
AcDbEntity
  8
GR5_01
 62
    94
370
    20
100
AcDbLine
 10
244.5455868299333
 20
241.4442105798889
 30
0.0
 11
244.5455868299333
 21
233.0542105798883
 31
0.0
  0
LINE
  5
425
330
1F
100
AcDbEntity
  8
GR5_01
 62
    94
370
    20
100
AcDbLine
 10
254.6455868299332
 20
148.9442105798889
 30
0.0
 11
227.2455868299332
 21
148.9442105798889
 31
0.0
  0
LINE
  5
426
330
1F
100
AcDbEntity
  8
GR5_01
 62
    94
370
    20
100
AcDbLine
 10
228.6455868299331
 20
167.1442105798889
 30
0.0
 11
227.2455868299332
 21
167.1442105798889
 31
0.0
  0
INSERT
  5
42A
330
1F
100
AcDbEntity
  8
GR5_01
 62
    94
370
    20
100
AcDbBlockReference
  2
BLKF032
 10
0.0
 20
0.0
 30
0.0
  0
LINE
  5
434
330
1F
100
AcDbEntity
  8
GR5_01
 62
    94
370
    20
100
AcDbLine
 10
240.9455868299331
 20
233.0442105798884
 30
0.0
 11
245.7455868299333
 21
233.0442105798884
 31
0.0
  0
LINE
  5
435
330
1F
100
AcDbEntity
  8
GR5_01
 62
    94
370
    20
100
AcDbLine
 10
245.7455868299333
 20
161.4442105798889
 30
0.0
 11
245.7455868299333
 21
233.0442105798884
 31
0.0
  0
LINE
  5
436
330
1F
100
AcDbEntity
  8
GR5_01
 62
    94
370
    20
100
AcDbLine
 10
233.9455868299331
 20
235.4442105798887
 30
0.0
 11
233.9455868299331
 21
161.4442105798889
 31
0.0
  0
LINE
  5
437
330
1F
100
AcDbEntity
  8
GR5_01
 62
    94
370
    20
100
AcDbLine
 10
237.0455868299331
 20
235.4442105798887
 30
0.0
 11
233.9455868299331
 21
235.4442105798887
 31
0.0
  0
LINE
  5
438
330
1F
100
AcDbEntity
  8
GR5_01
 62
    94
370
    20
100
AcDbLine
 10
245.7455868299333
 20
161.4442105798889
 30
0.0
 11
233.9455868299331
 21
161.4442105798889
 31
0.0
  0
ARC
  5
439
330
1F
100
AcDbEntity
  8
GR5_01
 62
    94
370
    20
100
AcDbCircle
 10
240.9647704183861
 20
237.4442105798887
 30
0.0
 40
4.4
100
AcDbArc
 50
207.0356917894131
 51
270.0
  0
LINE
  5
43A
330
1F
100
AcDbEntity
  8
GR5_01
 62
    94
370
    20
100
AcDbLine
 10
243.3455868299331
 20
161.4442105798889
 30
0.0
 11
243.3455868299331
 21
148.9442105798889
 31
0.0
  0
LINE
  5
43B
330
1F
100
AcDbEntity
  8
GR5_01
 62
    94
370
    20
100
AcDbLine
 10
228.6455868299331
 20
167.7442105798889
 30
0.0
 11
228.6455868299331
 21
159.1442105798889
 31
0.0
  0
LINE
  5
43C
330
1F
100
AcDbEntity
  8
GR5_01
 62
    94
370
    20
100
AcDbLine
 10
236.2455868299331
 20
158.944210579889
 30
0.0
 11
228.845586829933
 21
158.9442105798889
 31
0.0
  0
LINE
  5
43D
330
1F
100
AcDbEntity
  8
GR5_01
 62
    94
370
    20
100
AcDbLine
 10
236.4455868299331
 20
159.144210579889
 30
0.0
 11
236.4455868299331
 21
161.4442105798889
 31
0.0
  0
LINE
  5
43E
330
1F
100
AcDbEntity
  8
GR5_01
 62
    94
370
    20
100
AcDbLine
 10
233.9455868299331
 20
167.9442105798889
 30
0.0
 11
228.8455868299331
 21
167.9442105798889
 31
0.0
  0
ARC
  5
43F
330
1F
100
AcDbEntity
  8
GR5_01
 62
    94
370
    20
100
AcDbCircle
 10
228.8455868299331
 20
167.7442105798889
 30
0.0
 40
0.2
100
AcDbArc
 50
90.0
 51
180.0
  0
ARC
  5
440
330
1F
100
AcDbEntity
  8
GR5_01
 62
    94
370
    20
100
AcDbCircle
 10
228.845586829933
 20
159.1442105798889
 30
0.0
 40
0.2
100
AcDbArc
 50
180.0
 51
270.0
  0
ARC
  5
441
330
1F
100
AcDbEntity
  8
GR5_01
 62
    94
370
    20
100
AcDbCircle
 10
236.2455868299331
 20
159.144210579889
 30
0.0
 40
0.2
100
AcDbArc
 50
270.0
 51
0.0
  0
ARC
  5
442
330
1F
100
AcDbEntity
  8
GR5_01
 62
    94
370
    20
100
AcDbCircle
 10
253.6455868299332
 20
140.4442105798887
 30
0.0
 40
1.0
100
AcDbArc
 50
270.0
 51
0.0
  0
ARC
  5
443
330
1F
100
AcDbEntity
  8
GR5_01
 62
    94
370
    20
100
AcDbCircle
 10
228.2455868299332
 20
140.4442105798888
 30
0.0
 40
1.0
100
AcDbArc
 50
180.0
 51
270.0
  0
CIRCLE
  5
444
330
1F
100
AcDbEntity
  8
GR5_01
 62
    94
370
    20
100
AcDbCircle
 10
248.9264032414801
 20
144.4442105798887
 30
0.0
 40
3.25
  0
INSERT
  5
448
330
1F
100
AcDbEntity
  8
GR5_01
 62
    94
370
    20
100
AcDbBlockReference
  2
BLKF033
 10
0.0
 20
0.0
 30
0.0
  0
LINE
  5
452
330
1F
100
AcDbEntity
  8
GR5_01
 62
    94
370
    20
100
AcDbLine
 10
204.5985145164412
 20
139.9442105798888
 30
0.0
 11
204.5985145164413
 21
148.9442105798892
 31
0.0
  0
LINE
  5
453
330
1F
100
AcDbEntity
  8
GR5_01
 62
    94
370
    20
100
AcDbLine
 10
187.5985145164412
 20
241.4442105798889
 30
0.0
 11
187.5985145164412
 21
139.4442105798893
 31
0.0
  0
LINE
  5
454
330
1F
100
AcDbEntity
  8
GR5_01
 62
    94
370
    20
100
AcDbLine
 10
187.0985145164413
 20
240.5504605798889
 30
0.0
 11
187.5985145164412
 21
240.6442105798889
 31
0.0
  0
LINE
  5
455
330
1F
100
AcDbEntity
  8
GR5_01
 62
    94
370
    20
100
AcDbLine
 10
187.0985145164412
 20
174.9442105798894
 30
0.0
 11
187.5985145164412
 21
174.9442105798893
 31
0.0
  0
LINE
  5
456
330
1F
100
AcDbEntity
  8
GR5_01
 62
    94
370
    20
100
AcDbLine
 10
187.0985145164412
 20
183.9442105798894
 30
0.0
 11
187.5985145164412
 21
183.9442105798893
 31
0.0
  0
LINE
  5
457
330
1F
100
AcDbEntity
  8
GR5_01
 62
    94
370
    20
100
AcDbLine
 10
187.0985145164412
 20
198.4442105798894
 30
0.0
 11
187.5985145164412
 21
198.4442105798894
 31
0.0
  0
LINE
  5
458
330
1F
100
AcDbEntity
  8
GR5_01
 62
    94
370
    20
100
AcDbLine
 10
187.0985145164412
 20
207.4442105798894
 30
0.0
 11
187.5985145164412
 21
207.4442105798894
 31
0.0
  0
LINE
  5
459
330
1F
100
AcDbEntity
  8
GR5_01
 62
    94
370
    20
100
AcDbLine
 10
204.5985145164413
 20
148.9442105798892
 30
0.0
 11
202.9985145164412
 21
148.9442105798892
 31
0.0
  0
LINE
  5
45A
330
1F
100
AcDbEntity
  8
GR5_01
 62
    94
370
    20
100
AcDbLine
 10
202.9985145164413
 20
148.9442105798892
 30
0.0
 11
202.9985145164413
 21
167.1442105798895
 31
0.0
  0
LINE
  5
45B
330
1F
100
AcDbEntity
  8
GR5_01
 62
    94
370
    20
100
AcDbLine
 10
204.5985145164413
 20
167.1442105798895
 30
0.0
 11
202.9985145164413
 21
167.1442105798895
 31
0.0
  0
LINE
  5
45C
330
1F
100
AcDbEntity
  8
GR5_01
 62
    94
370
    20
100
AcDbLine
 10
204.5985145164413
 20
167.1442105798894
 30
0.0
 11
204.5985145164413
 21
240.9442105798889
 31
0.0
  0
LINE
  5
45D
330
1F
100
AcDbEntity
  8
GR5_01
 62
    94
370
    20
100
AcDbLine
 10
187.0985145164412
 20
140.3379605798893
 30
0.0
 11
187.5985145164412
 21
140.2442105798893
 31
0.0
  0
LINE
  5
45E
330
1F
100
AcDbEntity
  8
GR5_01
 62
    94
370
    20
100
AcDbLine
 10
187.5985145164412
 20
162.4442105798891
 30
0.0
 11
187.0985145164412
 21
162.4442105798891
 31
0.0
  0
LINE
  5
45F
330
1F
100
AcDbEntity
  8
GR5_01
 62
    94
370
    20
100
AcDbLine
 10
187.5985145164412
 20
153.4442105798891
 30
0.0
 11
187.0985145164412
 21
153.4442105798891
 31
0.0
  0
LINE
  5
460
330
1F
100
AcDbEntity
  8
GR5_01
 62
    94
370
    20
100
AcDbLine
 10
187.5985145164412
 20
227.4442105798892
 30
0.0
 11
187.0985145164413
 21
227.4442105798892
 31
0.0
  0
LINE
  5
461
330
1F
100
AcDbEntity
  8
GR5_01
 62
    94
370
    20
100
AcDbLine
 10
187.5985145164412
 20
218.4442105798891
 30
0.0
 11
187.0985145164413
 21
218.4442105798891
 31
0.0
  0
ARC
  5
462
330
1F
100
AcDbEntity
  8
GR5_01
 62
    94
370
    20
100
AcDbCircle
 10
204.0985145164413
 20
240.9442105798889
 30
0.0
 40
0.5
100
AcDbArc
 50
0.0
 51
90.0
  0
ARC
  5
463
330
1F
100
AcDbEntity
  8
GR5_01
 62
    94
370
    20
100
AcDbCircle
 10
204.0985145164412
 20
139.9442105798888
 30
0.0
 40
0.5
100
AcDbArc
 50
270.0
 51
0.0
  0
LINE
  5
464
330
1F
100
AcDbEntity
  8
GR5_01
 62
    94
370
    20
100
AcDbLine
 10
168.1785145164408
 20
152.4642105798889
 30
0.0
 11
168.1785145164419
 21
234.4642105798889
 31
0.0
  0
LINE
  5
465
330
1F
100
AcDbEntity
  8
GR5_01
 62
    94
370
    20
100
AcDbLine
 10
170.1785145164419
 20
236.4642105798889
 30
0.0
 11
168.1785145164419
 21
234.4642105798889
 31
0.0
  0
LINE
  5
466
330
1F
100
AcDbEntity
  8
GR5_01
 62
    94
370
    20
100
AcDbLine
 10
170.1785145164408
 20
150.4642105798889
 30
0.0
 11
168.1785145164408
 21
152.4642105798889
 31
0.0
  0
LINE
  5
467
330
1F
100
AcDbEntity
  8
GR5_01
 62
    94
370
    20
100
AcDbLine
 10
170.5985145164412
 20
236.4642105798889
 30
0.0
 11
170.1785145164419
 21
236.4642105798889
 31
0.0
  0
LINE
  5
468
330
1F
100
AcDbEntity
  8
GR5_01
 62
    94
370
    20
100
AcDbLine
 10
170.5985145164412
 20
150.4642105798889
 30
0.0
 11
170.1785145164408
 21
150.4642105798889
 31
0.0
  0
LINE
  5
469
330
1F
100
AcDbEntity
  8
GR5_01
 62
    94
370
    20
100
AcDbLine
 10
170.5985145164412
 20
240.9442105798889
 30
0.0
 11
170.5985145164412
 21
139.944210579889
 31
0.0
  0
LINE
  5
46A
330
1F
100
AcDbEntity
  8
GR5_01
 62
    94
370
    20
100
AcDbLine
 10
187.0985145164412
 20
241.4442105798889
 30
0.0
 11
187.0985145164412
 21
139.444210579889
 31
0.0
  0
LINE
  5
46B
330
1F
100
AcDbEntity
  8
GR5_01
 62
    94
370
    20
100
AcDbLine
 10
171.0985145164411
 20
139.444210579889
 30
0.0
 11
187.0985145164412
 21
139.444210579889
 31
0.0
  0
LINE
  5
46C
330
1F
100
AcDbEntity
  8
GR5_01
 62
    94
370
    20
100
AcDbLine
 10
187.0985145164412
 20
241.4442105798889
 30
0.0
 11
171.0985145164412
 21
241.4442105798889
 31
0.0
  0
ARC
  5
46D
330
1F
100
AcDbEntity
  8
GR5_01
 62
    94
370
    20
100
AcDbCircle
 10
171.0985145164412
 20
240.9442105798889
 30
0.0
 40
0.5
100
AcDbArc
 50
90.0
 51
180.0
  0
ARC
  5
46E
330
1F
100
AcDbEntity
  8
GR5_01
 62
    94
370
    20
100
AcDbCircle
 10
171.0985145164411
 20
139.944210579889
 30
0.0
 40
0.5
100
AcDbArc
 50
180.0
 51
270.0
  0
LINE
  5
470
330
1F
100
AcDbEntity
  8
GR1_01
 62
    94
370
    20
100
AcDbLine
 10
101.5622138583839
 20
79.6897778899636
 30
0.0
 11
91.5622138583839
 21
79.6897778899636
 31
0.0
  0
LINE
  5
471
330
1F
100
AcDbEntity
  8
GR1_01
 62
    94
370
    20
100
AcDbLine
 10
91.5622138583839
 20
91.88977788996323
 30
0.0
 11
91.5622138583839
 21
79.6897778899636
 31
0.0
  0
LINE
  5
472
330
1F
100
AcDbEntity
  8
GR1_01
 62
    94
370
    20
100
AcDbLine
 10
101.5622138583839
 20
79.6897778899636
 30
0.0
 11
101.5622138583839
 21
91.88977788996323
 31
0.0
  0
LINE
  5
473
330
1F
100
AcDbEntity
  8
GR1_01
 62
    94
370
    20
100
AcDbLine
 10
101.0622138583839
 20
80.18977788996358
 30
0.0
 11
92.0622138583839
 21
80.1897778899636
 31
0.0
  0
LINE
  5
474
330
1F
100
AcDbEntity
  8
GR1_01
 62
    94
370
    20
100
AcDbLine
 10
92.0622138583839
 20
80.1897778899636
 30
0.0
 11
92.0622138583839
 21
91.88977788996323
 31
0.0
  0
LINE
  5
475
330
1F
100
AcDbEntity
  8
GR1_01
 62
    94
370
    20
100
AcDbLine
 10
95.5622138583839
 20
80.18977788996358
 30
0.0
 11
95.5622138583839
 21
79.68977788996358
 31
0.0
  0
LINE
  5
476
330
1F
100
AcDbEntity
  8
GR1_01
 62
    94
370
    20
100
AcDbLine
 10
97.5622138583839
 20
79.68977788996358
 30
0.0
 11
97.5622138583839
 21
80.18977788996358
 31
0.0
  0
LINE
  5
477
330
1F
100
AcDbEntity
  8
GR1_01
 62
    94
370
    20
100
AcDbLine
 10
101.0622138583839
 20
91.8897778899632
 30
0.0
 11
101.0622138583839
 21
80.18977788996355
 31
0.0
  0
LINE
  5
478
330
1F
100
AcDbEntity
  8
GR1_01
 62
    94
370
    20
100
AcDbLine
 10
129.3622138583839
 20
79.6897778899636
 30
0.0
 11
119.3622138583839
 21
79.6897778899636
 31
0.0
  0
LINE
  5
479
330
1F
100
AcDbEntity
  8
GR1_01
 62
    94
370
    20
100
AcDbLine
 10
119.3622138583839
 20
91.88977788996323
 30
0.0
 11
119.3622138583839
 21
79.6897778899636
 31
0.0
  0
LINE
  5
47A
330
1F
100
AcDbEntity
  8
GR1_01
 62
    94
370
    20
100
AcDbLine
 10
129.3622138583839
 20
79.6897778899636
 30
0.0
 11
129.3622138583839
 21
91.88977788996323
 31
0.0
  0
LINE
  5
47B
330
1F
100
AcDbEntity
  8
GR1_01
 62
    94
370
    20
100
AcDbLine
 10
128.8622138583839
 20
80.18977788996358
 30
0.0
 11
119.8622138583839
 21
80.1897778899636
 31
0.0
  0
LINE
  5
47C
330
1F
100
AcDbEntity
  8
GR1_01
 62
    94
370
    20
100
AcDbLine
 10
119.8622138583839
 20
80.1897778899636
 30
0.0
 11
119.8622138583839
 21
91.88977788996323
 31
0.0
  0
LINE
  5
47D
330
1F
100
AcDbEntity
  8
GR1_01
 62
    94
370
    20
100
AcDbLine
 10
123.3622138583839
 20
80.18977788996358
 30
0.0
 11
123.3622138583839
 21
79.68977788996358
 31
0.0
  0
LINE
  5
47E
330
1F
100
AcDbEntity
  8
GR1_01
 62
    94
370
    20
100
AcDbLine
 10
125.3622138583839
 20
79.68977788996358
 30
0.0
 11
125.3622138583839
 21
80.18977788996358
 31
0.0
  0
LINE
  5
47F
330
1F
100
AcDbEntity
  8
GR1_01
 62
    94
370
    20
100
AcDbLine
 10
128.8622138583839
 20
91.8897778899632
 30
0.0
 11
128.8622138583839
 21
80.18977788996355
 31
0.0
  0
ENDSEC
  0
SECTION
  2
OBJECTS
  0
DICTIONARY
  5
C
330
0
100
AcDbDictionary
281
     1
  3
ACAD_GROUP
350
D
  3
ACAD_LAYOUT
350
1A
  3
ACAD_MATERIAL
350
43
  3
ACAD_MLEADERSTYLE
350
482
  3
ACAD_MLINESTYLE
350
17
  3
ACAD_PLOTSETTINGS
350
19
  3
ACAD_PLOTSTYLENAME
350
E
  3
ACAD_SCALELIST
350
47
  3
ACAD_VISUALSTYLE
350
2A
  3
AcDbVariableDictionary
350
480
  0
DICTIONARY
  5
D
102
{ACAD_REACTORS
330
C
102
}
330
C
100
AcDbDictionary
281
     1
  0
DICTIONARY
  5
1A
102
{ACAD_REACTORS
330
C
102
}
330
C
100
AcDbDictionary
281
     1
  3
Layout1
350
1E
  3
Layout2
350
26
  3
Model
350
22
  0
DICTIONARY
  5
43
102
{ACAD_REACTORS
330
C
102
}
330
C
100
AcDbDictionary
281
     1
  3
ByBlock
350
45
  3
ByLayer
350
44
  3
Global
350
46
  0
DICTIONARY
  5
482
102
{ACAD_REACTORS
330
C
102
}
330
C
100
AcDbDictionary
281
     1
  0
DICTIONARY
  5
17
102
{ACAD_REACTORS
330
C
102
}
330
C
100
AcDbDictionary
281
     1
  3
Standard
350
18
  0
DICTIONARY
  5
19
102
{ACAD_REACTORS
330
C
102
}
330
C
100
AcDbDictionary
281
     1
  0
ACDBDICTIONARYWDFLT
  5
E
102
{ACAD_REACTORS
330
C
102
}
330
C
100
AcDbDictionary
281
     1
  3
Normal
350
F
100
AcDbDictionaryWithDefault
340
F
  0
DICTIONARY
  5
47
102
{ACAD_REACTORS
330
C
102
}
330
C
100
AcDbDictionary
281
     1
  3
A0
350
48
  3
A1
350
49
  3
A2
350
4A
  3
A3
350
4B
  3
A4
350
4C
  3
A5
350
4D
  3
A6
350
4E
  3
A7
350
4F
  3
A8
350
50
  3
A9
350
51
  3
B0
350
52
  3
B1
350
53
  3
B2
350
54
  3
B3
350
55
  3
B4
350
56
  3
B5
350
57
  3
B6
350
58
  3
B7
350
59
  3
B8
350
5A
  3
B9
350
5B
  3
C0
350
5C
  3
C1
350
5D
  3
C2
350
5E
  3
C3
350
5F
  3
C4
350
60
  3
C5
350
61
  3
C6
350
62
  3
C7
350
63
  3
C8
350
64
  3
C9
350
65
  3
D0
350
66
  3
D1
350
67
  3
D2
350
68
  0
DICTIONARY
  5
2A
102
{ACAD_REACTORS
330
C
102
}
330
C
100
AcDbDictionary
281
     1
  3
2dWireframe
350
2F
  3
Basic
350
32
  3
Brighten
350
36
  3
ColorChange
350
3A
  3
Conceptual
350
34
  3
Dim
350
35
  3
EdgeColorOff
350
3D
  3
Facepattern
350
39
  3
Flat
350
2B
  3
FlatWithEdges
350
2C
  3
Gouraud
350
2D
  3
GouraudWithEdges
350
2E
  3
Hidden
350
31
  3
JitterOff
350
3B
  3
Linepattern
350
38
  3
OverhangOff
350
3C
  3
Realistic
350
33
  3
Shaded
350
42
  3
Shaded with edges
350
41
  3
Shades of Gray
350
3E
  3
Sketchy
350
3F
  3
Thicken
350
37
  3
Wireframe
350
30
  3
X-Ray
350
40
  0
DICTIONARY
  5
480
102
{ACAD_REACTORS
330
C
102
}
330
C
100
AcDbDictionary
281
     1
  3
CANNOSCALE
350
489
  3
DIMASSOC
350
487
  3
HIDETEXT
350
488
  3
MSLTSCALE
350
48A
  3
PSOLHEIGHT
350
484
  3
PSOLWIDTH
350
483
  0
LAYOUT
  5
1E
102
{ACAD_REACTORS
330
1A
102
}
330
1A
100
AcDbPlotSettings
  1

  2
none_device
  4

  6

 40
0.0
 41
0.0
 42
0.0
 43
0.0
 44
0.0
 45
0.0
 46
0.0
 47
0.0
 48
0.0
 49
0.0
140
0.0
141
0.0
142
1.0
143
1.0
 70
   688
 72
     1
 73
     0
 74
     5
  7

 75
    16
147
1.0
148
0.0
149
0.0
100
AcDbLayout
  1
Layout1
 70
     1
 71
     1
 10
0.0
 20
0.0
 11
420.0
 21
297.0
 12
0.0
 22
0.0
 32
0.0
 14
1.000000000000000E+20
 24
1.000000000000000E+20
 34
1.000000000000000E+20
 15
-1.000000000000000E+20
 25
-1.000000000000000E+20
 35
-1.000000000000000E+20
146
0.0
 13
0.0
 23
0.0
 33
0.0
 16
1.0
 26
0.0
 36
0.0
 17
0.0
 27
1.0
 37
0.0
 76
     0
330
1B
  0
LAYOUT
  5
26
102
{ACAD_REACTORS
330
1A
102
}
330
1A
100
AcDbPlotSettings
  1

  2
none_device
  4

  6

 40
0.0
 41
0.0
 42
0.0
 43
0.0
 44
0.0
 45
0.0
 46
0.0
 47
0.0
 48
0.0
 49
0.0
140
0.0
141
0.0
142
1.0
143
1.0
 70
   688
 72
     1
 73
     0
 74
     5
  7

 75
    16
147
1.0
148
0.0
149
0.0
100
AcDbLayout
  1
Layout2
 70
     1
 71
     2
 10
0.0
 20
0.0
 11
0.0
 21
0.0
 12
0.0
 22
0.0
 32
0.0
 14
0.0
 24
0.0
 34
0.0
 15
0.0
 25
0.0
 35
0.0
146
0.0
 13
0.0
 23
0.0
 33
0.0
 16
1.0
 26
0.0
 36
0.0
 17
0.0
 27
1.0
 37
0.0
 76
     0
330
23
  0
LAYOUT
  5
22
102
{ACAD_REACTORS
330
1A
102
}
330
1A
100
AcDbPlotSettings
  1

  2
none_device
  4
Letter_(8.50_x_11.00_Inches)
  6

 40
6.35
 41
6.35
 42
6.35000508
 43
6.35000508
 44
215.9
 45
279.4
 46
0.0
 47
0.0
 48
0.0
 49
0.0
140
0.0
141
0.0
142
1.0
143
1.0
 70
  1712
 72
     1
 73
     0
 74
     0
  7

 75
     0
147
1.0
148
0.0
149
0.0
100
AcDbLayout
  1
Model
 70
     1
 71
     0
 10
0.0
 20
0.0
 11
420.0
 21
297.0
 12
0.0
 22
0.0
 32
0.0
 14
0.0
 24
0.0
 34
0.0
 15
420.0
 25
297.0
 35
0.0
146
0.0
 13
0.0
 23
0.0
 33
0.0
 16
1.0
 26
0.0
 36
0.0
 17
0.0
 27
1.0
 37
0.0
 76
     0
330
1F
331
29
  0
MATERIAL
  5
45
102
{ACAD_REACTORS
330
43
102
}
102
{ACAD_XDICTIONARY
360
4BD
102
}
330
43
100
AcDbMaterial
  1
ByBlock
  0
MATERIAL
  5
44
102
{ACAD_REACTORS
330
43
102
}
102
{ACAD_XDICTIONARY
360
4BB
102
}
330
43
100
AcDbMaterial
  1
ByLayer
  0
MATERIAL
  5
46
102
{ACAD_REACTORS
330
43
102
}
102
{ACAD_XDICTIONARY
360
4BF
102
}
330
43
100
AcDbMaterial
  1
Global
  0
MLINESTYLE
  5
18
102
{ACAD_REACTORS
330
17
102
}
330
17
100
AcDbMlineStyle
  2
Standard
 70
     0
  3

 62
   256
 51
90.0
 52
90.0
 71
     2
 49
0.5
 62
   256
  6
BYLAYER
 49
-0.5
 62
   256
  6
BYLAYER
  0
ACDBPLACEHOLDER
  5
F
102
{ACAD_REACTORS
330
E
102
}
330
E
  0
SCALE
  5
48
102
{ACAD_REACTORS
330
47
102
}
330
47
100
AcDbScale
 70
     0
300
1:1
140
1.0
141
1.0
290
     1
  0
SCALE
  5
49
102
{ACAD_REACTORS
330
47
102
}
330
47
100
AcDbScale
 70
     0
300
1:2
140
1.0
141
2.0
290
     0
  0
SCALE
  5
4A
102
{ACAD_REACTORS
330
47
102
}
330
47
100
AcDbScale
 70
     0
300
1:4
140
1.0
141
4.0
290
     0
  0
SCALE
  5
4B
102
{ACAD_REACTORS
330
47
102
}
330
47
100
AcDbScale
 70
     0
300
1:5
140
1.0
141
5.0
290
     0
  0
SCALE
  5
4C
102
{ACAD_REACTORS
330
47
102
}
330
47
100
AcDbScale
 70
     0
300
1:8
140
1.0
141
8.0
290
     0
  0
SCALE
  5
4D
102
{ACAD_REACTORS
330
47
102
}
330
47
100
AcDbScale
 70
     0
300
1:10
140
1.0
141
10.0
290
     0
  0
SCALE
  5
4E
102
{ACAD_REACTORS
330
47
102
}
330
47
100
AcDbScale
 70
     0
300
1:16
140
1.0
141
16.0
290
     0
  0
SCALE
  5
4F
102
{ACAD_REACTORS
330
47
102
}
330
47
100
AcDbScale
 70
     0
300
1:20
140
1.0
141
20.0
290
     0
  0
SCALE
  5
50
102
{ACAD_REACTORS
330
47
102
}
330
47
100
AcDbScale
 70
     0
300
1:30
140
1.0
141
30.0
290
     0
  0
SCALE
  5
51
102
{ACAD_REACTORS
330
47
102
}
330
47
100
AcDbScale
 70
     0
300
1:40
140
1.0
141
40.0
290
     0
  0
SCALE
  5
52
102
{ACAD_REACTORS
330
47
102
}
330
47
100
AcDbScale
 70
     0
300
1:50
140
1.0
141
50.0
290
     0
  0
SCALE
  5
53
102
{ACAD_REACTORS
330
47
102
}
330
47
100
AcDbScale
 70
     0
300
1:100
140
1.0
141
100.0
290
     0
  0
SCALE
  5
54
102
{ACAD_REACTORS
330
47
102
}
330
47
100
AcDbScale
 70
     0
300
2:1
140
2.0
141
1.0
290
     0
  0
SCALE
  5
55
102
{ACAD_REACTORS
330
47
102
}
330
47
100
AcDbScale
 70
     0
300
4:1
140
4.0
141
1.0
290
     0
  0
SCALE
  5
56
102
{ACAD_REACTORS
330
47
102
}
330
47
100
AcDbScale
 70
     0
300
8:1
140
8.0
141
1.0
290
     0
  0
SCALE
  5
57
102
{ACAD_REACTORS
330
47
102
}
330
47
100
AcDbScale
 70
     0
300
10:1
140
10.0
141
1.0
290
     0
  0
SCALE
  5
58
102
{ACAD_REACTORS
330
47
102
}
330
47
100
AcDbScale
 70
     0
300
100:1
140
100.0
141
1.0
290
     0
  0
SCALE
  5
59
102
{ACAD_REACTORS
330
47
102
}
330
47
100
AcDbScale
 70
     0
300
1/128" = 1'-0"
140
0.0078125
141
12.0
290
     0
  0
SCALE
  5
5A
102
{ACAD_REACTORS
330
47
102
}
330
47
100
AcDbScale
 70
     0
300
1/64" = 1'-0"
140
0.015625
141
12.0
290
     0
  0
SCALE
  5
5B
102
{ACAD_REACTORS
330
47
102
}
330
47
100
AcDbScale
 70
     0
300
1/32" = 1'-0"
140
0.03125
141
12.0
290
     0
  0
SCALE
  5
5C
102
{ACAD_REACTORS
330
47
102
}
330
47
100
AcDbScale
 70
     0
300
1/16" = 1'-0"
140
0.0625
141
12.0
290
     0
  0
SCALE
  5
5D
102
{ACAD_REACTORS
330
47
102
}
330
47
100
AcDbScale
 70
     0
300
3/32" = 1'-0"
140
0.09375
141
12.0
290
     0
  0
SCALE
  5
5E
102
{ACAD_REACTORS
330
47
102
}
330
47
100
AcDbScale
 70
     0
300
1/8" = 1'-0"
140
0.125
141
12.0
290
     0
  0
SCALE
  5
5F
102
{ACAD_REACTORS
330
47
102
}
330
47
100
AcDbScale
 70
     0
300
3/16" = 1'-0"
140
0.1875
141
12.0
290
     0
  0
SCALE
  5
60
102
{ACAD_REACTORS
330
47
102
}
330
47
100
AcDbScale
 70
     0
300
1/4" = 1'-0"
140
0.25
141
12.0
290
     0
  0
SCALE
  5
61
102
{ACAD_REACTORS
330
47
102
}
330
47
100
AcDbScale
 70
     0
300
3/8" = 1'-0"
140
0.375
141
12.0
290
     0
  0
SCALE
  5
62
102
{ACAD_REACTORS
330
47
102
}
330
47
100
AcDbScale
 70
     0
300
1/2" = 1'-0"
140
0.5
141
12.0
290
     0
  0
SCALE
  5
63
102
{ACAD_REACTORS
330
47
102
}
330
47
100
AcDbScale
 70
     0
300
3/4" = 1'-0"
140
0.75
141
12.0
290
     0
  0
SCALE
  5
64
102
{ACAD_REACTORS
330
47
102
}
330
47
100
AcDbScale
 70
     0
300
1" = 1'-0"
140
1.0
141
12.0
290
     0
  0
SCALE
  5
65
102
{ACAD_REACTORS
330
47
102
}
330
47
100
AcDbScale
 70
     0
300
1-1/2" = 1'-0"
140
1.5
141
12.0
290
     0
  0
SCALE
  5
66
102
{ACAD_REACTORS
330
47
102
}
330
47
100
AcDbScale
 70
     0
300
3" = 1'-0"
140
3.0
141
12.0
290
     0
  0
SCALE
  5
67
102
{ACAD_REACTORS
330
47
102
}
330
47
100
AcDbScale
 70
     0
300
6" = 1'-0"
140
6.0
141
12.0
290
     0
  0
SCALE
  5
68
102
{ACAD_REACTORS
330
47
102
}
330
47
100
AcDbScale
 70
     0
300
1'-0" = 1'-0"
140
12.0
141
12.0
290
     0
  0
VISUALSTYLE
  5
2F
102
{ACAD_REACTORS
330
2A
102
}
102
{ACAD_XDICTIONARY
360
493
102
}
330
2A
100
AcDbVisualStyle
  2
2dWireframe
 70
     4
 71
     0
 72
     2
 73
     0
 90
        0
 40
0.6
 41
30.0
 62
     5
 63
     7
 74
     1
 91
        4
 64
     7
 65
   257
 75
     1
175
     1
 42
1.0
 92
        0
 66
   257
 43
1.0
 76
     1
 77
     6
 78
     2
 67
     7
 79
     5
170
     0
171
     0
290
     0
174
     0
 93
        1
 44
0.0
173
     0
291
     0
 45
0.0
1001
ACAD
1000
AcDbSavedByObjectVersion
1070
     0
  0
VISUALSTYLE
  5
32
102
{ACAD_REACTORS
330
2A
102
}
102
{ACAD_XDICTIONARY
360
499
102
}
330
2A
100
AcDbVisualStyle
  2
Basic
 70
     7
 71
     1
 72
     0
 73
     1
 90
        0
 40
0.6
 41
30.0
 62
     5
 63
     7
 74
     0
 91
        4
 64
     7
 65
   257
 75
     1
175
     1
 42
1.0
 92
        8
 66
     7
 43
1.0
 76
     1
 77
     6
 78
     2
 67
     7
 79
     5
170
     0
171
     0
290
     0
174
     0
 93
        1
 44
0.0
173
     0
291
     1
 45
0.0
1001
ACAD
1000
AcDbSavedByObjectVersion
1070
     0
  0
VISUALSTYLE
  5
36
102
{ACAD_REACTORS
330
2A
102
}
102
{ACAD_XDICTIONARY
360
4A1
102
}
330
2A
100
AcDbVisualStyle
  2
Brighten
 70
    12
 71
     2
 72
     2
 73
     0
 90
        0
 40
0.6
 41
30.0
 62
     5
 63
     7
 74
     1
 91
        4
 64
     7
 65
   257
 75
     1
175
     1
 42
1.0
 92
        8
 66
     7
 43
1.0
 76
     1
 77
     6
 78
     2
 67
     7
 79
     5
170
     0
171
     0
290
     0
174
     0
 93
        1
 44
50.0
173
     0
291
     1
 45
0.0
1001
ACAD
1000
AcDbSavedByObjectVersion
1070
     0
  0
VISUALSTYLE
  5
3A
102
{ACAD_REACTORS
330
2A
102
}
102
{ACAD_XDICTIONARY
360
4A9
102
}
330
2A
100
AcDbVisualStyle
  2
ColorChange
 70
    16
 71
     2
 72
     2
 73
     3
 90
        0
 40
0.6
 41
30.0
 62
     5
 63
     8
 74
     1
 91
        4
 64
     7
 65
   257
 75
     1
175
     1
 42
1.0
 92
        8
 66
     8
 43
1.0
 76
     1
 77
     6
 78
     2
 67
     7
 79
     5
170
     0
171
     0
290
     0
174
     0
 93
        1
 44
0.0
173
     0
291
     1
 45
0.0
1001
ACAD
1000
AcDbSavedByObjectVersion
1070
     0
  0
VISUALSTYLE
  5
34
102
{ACAD_REACTORS
330
2A
102
}
102
{ACAD_XDICTIONARY
360
49D
102
}
330
2A
100
AcDbVisualStyle
  2
Conceptual
 70
     9
 71
     3
 72
     2
 73
     0
 90
        0
 40
0.6
 41
30.0
 62
     5
 63
     7
 74
     2
 91
        2
 64
     7
 65
   257
 75
     1
175
     1
 42
179.0
 92
        8
 66
     7
 43
1.0
 76
     1
 77
     6
 78
     2
 67
     7
 79
     3
170
     0
171
     0
290
     0
174
     0
 93
        1
 44
0.0
173
     0
291
     0
 45
0.0
1001
ACAD
1000
AcDbSavedByObjectVersion
1070
     0
  0
VISUALSTYLE
  5
35
102
{ACAD_REACTORS
330
2A
102
}
102
{ACAD_XDICTIONARY
360
49F
102
}
330
2A
100
AcDbVisualStyle
  2
Dim
 70
    11
 71
     2
 72
     2
 73
     0
 90
        0
 40
0.6
 41
30.0
 62
     5
 63
     7
 74
     1
 91
        4
 64
     7
 65
   257
 75
     1
175
     1
 42
1.0
 92
        8
 66
     7
 43
1.0
 76
     1
 77
     6
 78
     2
 67
     7
 79
     5
170
     0
171
     0
290
     0
174
     0
 93
        1
 44
-50.0
173
     0
291
     1
 45
0.0
1001
ACAD
1000
AcDbSavedByObjectVersion
1070
     0
  0
VISUALSTYLE
  5
3D
102
{ACAD_REACTORS
330
2A
102
}
102
{ACAD_XDICTIONARY
360
4AF
102
}
330
2A
100
AcDbVisualStyle
  2
EdgeColorOff
 70
    22
 71
     2
 72
     2
 73
     0
 90
        0
 40
0.6
 41
30.0
 62
     5
 63
     7
 74
     1
 91
        4
 64
     7
 65
   257
 75
     1
175
     1
 42
1.0
 92
        8
 66
     7
 43
1.0
 76
     1
 77
     6
 78
     2
 67
     7
 79
     5
170
     0
171
     0
290
     0
174
     0
 93
        1
 44
0.0
173
     0
291
     1
 45
0.0
1001
ACAD
1000
AcDbSavedByObjectVersion
1070
     0
  0
VISUALSTYLE
  5
39
102
{ACAD_REACTORS
330
2A
102
}
102
{ACAD_XDICTIONARY
360
4A7
102
}
330
2A
100
AcDbVisualStyle
  2
Facepattern
 70
    15
 71
     2
 72
     2
 73
     0
 90
        0
 40
0.6
 41
30.0
 62
     5
 63
     7
 74
     1
 91
        4
 64
     7
 65
   257
 75
     1
175
     1
 42
1.0
 92
        8
 66
     7
 43
1.0
 76
     1
 77
     6
 78
     2
 67
     7
 79
     5
170
     0
171
     0
290
     0
174
     0
 93
        1
 44
0.0
173
     0
291
     1
 45
0.0
1001
ACAD
1000
AcDbSavedByObjectVersion
1070
     0
  0
VISUALSTYLE
  5
2B
102
{ACAD_REACTORS
330
2A
102
}
102
{ACAD_XDICTIONARY
360
48B
102
}
330
2A
100
AcDbVisualStyle
  2
Flat
 70
     0
 71
     2
 72
     1
 73
     1
 90
        2
 40
0.6
 41
30.0
 62
     5
 63
     7
 74
     0
 91
        0
 64
     7
 65
   257
 75
     1
175
     1
 42
1.0
 92
        8
 66
     7
 43
1.0
 76
     1
 77
     6
 78
     2
 67
     7
 79
     5
170
     0
171
     0
290
     0
174
     0
 93
       13
 44
0.0
173
     0
291
     1
 45
0.0
1001
ACAD
1000
AcDbSavedByObjectVersion
1070
     0
  0
VISUALSTYLE
  5
2C
102
{ACAD_REACTORS
330
2A
102
}
102
{ACAD_XDICTIONARY
360
48D
102
}
330
2A
100
AcDbVisualStyle
  2
FlatWithEdges
 70
     1
 71
     2
 72
     1
 73
     1
 90
        2
 40
0.6
 41
30.0
 62
     5
 63
     7
 74
     1
 91
        0
 64
     7
 65
   257
 75
     1
175
     1
 42
1.0
 92
        0
 66
   257
 43
1.0
 76
     1
 77
     6
 78
     2
 67
     7
 79
     5
170
     0
171
     0
290
     0
174
     0
 93
       13
 44
0.0
173
     0
291
     1
 45
0.0
1001
ACAD
1000
AcDbSavedByObjectVersion
1070
     0
  0
VISUALSTYLE
  5
2D
102
{ACAD_REACTORS
330
2A
102
}
102
{ACAD_XDICTIONARY
360
48F
102
}
330
2A
100
AcDbVisualStyle
  2
Gouraud
 70
     2
 71
     2
 72
     2
 73
     1
 90
        2
 40
0.6
 41
30.0
 62
     5
 63
     7
 74
     0
 91
        0
 64
     7
 65
   257
 75
     1
175
     1
 42
1.0
 92
        0
 66
     7
 43
1.0
 76
     1
 77
     6
 78
     2
 67
     7
 79
     5
170
     0
171
     0
290
     0
174
     0
 93
       13
 44
0.0
173
     0
291
     1
 45
0.0
1001
ACAD
1000
AcDbSavedByObjectVersion
1070
     0
  0
VISUALSTYLE
  5
2E
102
{ACAD_REACTORS
330
2A
102
}
102
{ACAD_XDICTIONARY
360
491
102
}
330
2A
100
AcDbVisualStyle
  2
GouraudWithEdges
 70
     3
 71
     2
 72
     2
 73
     1
 90
        2
 40
0.6
 41
30.0
 62
     5
 63
     7
 74
     1
 91
        0
 64
     7
 65
   257
 75
     1
175
     1
 42
1.0
 92
        0
 66
   257
 43
1.0
 76
     1
 77
     6
 78
     2
 67
     7
 79
     5
170
     0
171
     0
290
     0
174
     0
 93
       13
 44
0.0
173
     0
291
     1
 45
0.0
1001
ACAD
1000
AcDbSavedByObjectVersion
1070
     0
  0
VISUALSTYLE
  5
31
102
{ACAD_REACTORS
330
2A
102
}
102
{ACAD_XDICTIONARY
360
497
102
}
330
2A
100
AcDbVisualStyle
  2
Hidden
 70
     6
 71
     1
 72
     2
 73
     2
 90
        0
 40
0.6
 41
30.0
 62
     5
 63
     7
 74
     2
 91
        2
 64
     7
 65
   257
 75
     2
175
     1
 42
40.0
 92
        0
 66
   257
 43
1.0
 76
     1
 77
     6
 78
     2
 67
     7
 79
     3
170
     0
171
     0
290
     0
174
     0
 93
        1
 44
0.0
173
     0
291
     0
 45
0.0
1001
ACAD
1000
AcDbSavedByObjectVersion
1070
     0
  0
VISUALSTYLE
  5
3B
102
{ACAD_REACTORS
330
2A
102
}
102
{ACAD_XDICTIONARY
360
4AB
102
}
330
2A
100
AcDbVisualStyle
  2
JitterOff
 70
    20
 71
     2
 72
     2
 73
     0
 90
        0
 40
0.6
 41
30.0
 62
     5
 63
     7
 74
     1
 91
        4
 64
     7
 65
   257
 75
     1
175
     1
 42
1.0
 92
       10
 66
     7
 43
1.0
 76
     1
 77
     6
 78
     2
 67
     7
 79
     5
170
     0
171
     0
290
     0
174
     0
 93
        1
 44
0.0
173
     0
291
     1
 45
0.0
1001
ACAD
1000
AcDbSavedByObjectVersion
1070
     0
  0
VISUALSTYLE
  5
38
102
{ACAD_REACTORS
330
2A
102
}
102
{ACAD_XDICTIONARY
360
4A5
102
}
330
2A
100
AcDbVisualStyle
  2
Linepattern
 70
    14
 71
     2
 72
     2
 73
     0
 90
        0
 40
0.6
 41
30.0
 62
     5
 63
     7
 74
     1
 91
        4
 64
     7
 65
   257
 75
     7
175
     7
 42
1.0
 92
        8
 66
     7
 43
1.0
 76
     1
 77
     6
 78
     2
 67
     7
 79
     5
170
     0
171
     0
290
     0
174
     0
 93
        1
 44
0.0
173
     0
291
     1
 45
0.0
1001
ACAD
1000
AcDbSavedByObjectVersion
1070
     0
  0
VISUALSTYLE
  5
3C
102
{ACAD_REACTORS
330
2A
102
}
102
{ACAD_XDICTIONARY
360
4AD
102
}
330
2A
100
AcDbVisualStyle
  2
OverhangOff
 70
    21
 71
     2
 72
     2
 73
     0
 90
        0
 40
0.6
 41
30.0
 62
     5
 63
     7
 74
     1
 91
        4
 64
     7
 65
   257
 75
     1
175
     1
 42
1.0
 92
        9
 66
     7
 43
1.0
 76
     1
 77
     6
 78
     2
 67
     7
 79
     5
170
     0
171
     0
290
     0
174
     0
 93
        1
 44
0.0
173
     0
291
     1
 45
0.0
1001
ACAD
1000
AcDbSavedByObjectVersion
1070
     0
  0
VISUALSTYLE
  5
33
102
{ACAD_REACTORS
330
2A
102
}
102
{ACAD_XDICTIONARY
360
49B
102
}
330
2A
100
AcDbVisualStyle
  2
Realistic
 70
     8
 71
     2
 72
     3
 73
     0
 90
        2
 40
0.6
 41
30.0
 62
     5
 63
     7
 74
     0
 91
        0
 64
     7
 65
   257
 75
     1
175
     1
 42
1.0
 92
        8
 66
   257
 43
1.0
 76
     1
 77
     6
 78
     2
 67
     7
 79
     3
170
     0
171
     0
290
     0
174
     0
 93
       13
 44
0.0
173
     0
291
     0
 45
0.0
1001
ACAD
1000
AcDbSavedByObjectVersion
1070
     0
  0
VISUALSTYLE
  5
42
102
{ACAD_REACTORS
330
2A
102
}
102
{ACAD_XDICTIONARY
360
4B9
102
}
330
2A
100
AcDbVisualStyle
  2
Shaded
 70
    27
 71
     2
 72
     2
 73
     1
 90
        2
 40
0.6
 41
30.0
 62
     5
 63
     7
 74
     0
 91
        4
 64
     7
 65
   257
 75
     1
175
     1
 42
1.0
 92
        8
 66
   257
 43
1.0
 76
     1
 77
     6
 78
     2
 67
     8
 79
     3
170
     0
171
     0
290
     0
174
     0
 93
        5
 44
0.0
173
     0
291
     0
 45
0.0
1001
ACAD
1000
AcDbSavedByObjectVersion
1070
     0
  0
VISUALSTYLE
  5
41
102
{ACAD_REACTORS
330
2A
102
}
102
{ACAD_XDICTIONARY
360
4B7
102
}
330
2A
100
AcDbVisualStyle
  2
Shaded with edges
 70
    26
 71
     2
 72
     2
 73
     1
 90
        2
 40
0.6
 41
30.0
 62
     5
 63
     7
 74
     1
 91
       10
 64
     7
 65
   257
 75
     2
175
     1
 42
1.0
 92
        8
 66
   257
 43
1.0
 76
     1
 77
     6
 78
     2
 67
     7
 79
     3
170
     0
171
     0
290
     0
174
     0
 93
        5
 44
0.0
173
     0
291
     0
 45
0.0
1001
ACAD
1000
AcDbSavedByObjectVersion
1070
     0
  0
VISUALSTYLE
  5
3E
102
{ACAD_REACTORS
330
2A
102
}
102
{ACAD_XDICTIONARY
360
4B1
102
}
330
2A
100
AcDbVisualStyle
  2
Shades of Gray
 70
    23
 71
     2
 72
     2
 73
     3
 90
        0
 40
0.6
 41
30.0
 62
     5
 63
     7
 74
     2
 91
        2
 64
     7
 65
     7
 75
     1
175
     1
 42
40.0
 92
        8
 66
     7
 43
1.0
 76
     1
 77
     6
 78
     2
 67
     7
 79
     3
170
     0
171
     0
290
     0
174
     0
 93
        1
 44
0.0
173
     0
291
     0
 45
0.0
1001
ACAD
1000
AcDbSavedByObjectVersion
1070
     0
  0
VISUALSTYLE
  5
3F
102
{ACAD_REACTORS
330
2A
102
}
102
{ACAD_XDICTIONARY
360
4B3
102
}
330
2A
100
AcDbVisualStyle
  2
Sketchy
 70
    24
 71
     1
 72
     2
 73
     2
 90
        0
 40
0.6
 41
30.0
 62
     5
 63
     7
 74
     2
 91
        2
 64
     7
 65
     7
 75
     1
175
     1
 42
40.0
 92
       11
 66
     7
 43
1.0
 76
     1
 77
     6
 78
     2
 67
     7
 79
     6
170
     0
171
     0
290
     0
174
     0
 93
        1
 44
0.0
173
     0
291
     0
 45
0.0
1001
ACAD
1000
AcDbSavedByObjectVersion
1070
     0
  0
VISUALSTYLE
  5
37
102
{ACAD_REACTORS
330
2A
102
}
102
{ACAD_XDICTIONARY
360
4A3
102
}
330
2A
100
AcDbVisualStyle
  2
Thicken
 70
    13
 71
     2
 72
     2
 73
     0
 90
        0
 40
0.6
 41
30.0
 62
     5
 63
     7
 74
     1
 91
        4
 64
     7
 65
   257
 75
     1
175
     1
 42
1.0
 92
       12
 66
     7
 43
1.0
 76
     1
 77
     6
 78
     2
 67
     7
 79
     5
170
     0
171
     0
290
     0
174
     0
 93
        1
 44
0.0
173
     0
291
     1
 45
0.0
1001
ACAD
1000
AcDbSavedByObjectVersion
1070
     0
  0
VISUALSTYLE
  5
30
102
{ACAD_REACTORS
330
2A
102
}
102
{ACAD_XDICTIONARY
360
495
102
}
330
2A
100
AcDbVisualStyle
  2
Wireframe
 70
     5
 71
     0
 72
     2
 73
     0
 90
        0
 40
0.6
 41
30.0
 62
     5
 63
     7
 74
     1
 91
        4
 64
     7
 65
   257
 75
     1
175
     1
 42
1.0
 92
        0
 66
   257
 43
1.0
 76
     1
 77
     6
 78
     2
 67
     7
 79
     3
170
     0
171
     0
290
     0
174
     0
 93
        1
 44
0.0
173
     0
291
     0
 45
0.0
1001
ACAD
1000
AcDbSavedByObjectVersion
1070
     0
  0
VISUALSTYLE
  5
40
102
{ACAD_REACTORS
330
2A
102
}
102
{ACAD_XDICTIONARY
360
4B5
102
}
330
2A
100
AcDbVisualStyle
  2
X-Ray
 70
    25
 71
     2
 72
     2
 73
     1
 90
        1
 40
0.5
 41
30.0
 62
     5
 63
     7
 74
     1
 91
        0
 64
     7
 65
   257
 75
     1
175
     1
 42
1.0
 92
        8
 66
     7
 43
1.0
 76
     1
 77
     6
 78
     2
 67
     7
 79
     3
170
     0
171
     0
290
     0
174
     0
 93
       13
 44
0.0
173
     0
291
     0
 45
0.0
1001
ACAD
1000
AcDbSavedByObjectVersion
1070
     0
  0
DICTIONARYVAR
  5
489
102
{ACAD_REACTORS
330
480
102
}
330
480
100
DictionaryVariables
280
     0
  1
1:1
  0
DICTIONARYVAR
  5
487
102
{ACAD_REACTORS
330
480
102
}
330
480
100
DictionaryVariables
280
     0
  1
2
  0
DICTIONARYVAR
  5
488
102
{ACAD_REACTORS
330
480
102
}
330
480
100
DictionaryVariables
280
     0
  1
1
  0
DICTIONARYVAR
  5
48A
102
{ACAD_REACTORS
330
480
102
}
330
480
100
DictionaryVariables
280
     0
  1
1
  0
DICTIONARYVAR
  5
484
102
{ACAD_REACTORS
330
480
102
}
330
480
100
DictionaryVariables
280
     0
  1
80.000000
  0
DICTIONARYVAR
  5
483
102
{ACAD_REACTORS
330
480
102
}
330
480
100
DictionaryVariables
280
     0
  1
5.000000
  0
DICTIONARY
  5
4BD
330
45
100
AcDbDictionary
280
     1
281
     1
  3
ACAD_XREC_ROUNDTRIP
360
4BE
  0
DICTIONARY
  5
4BB
330
44
100
AcDbDictionary
280
     1
281
     1
  3
ACAD_XREC_ROUNDTRIP
360
4BC
  0
DICTIONARY
  5
4BF
330
46
100
AcDbDictionary
280
     1
281
     1
  3
ACAD_XREC_ROUNDTRIP
360
4C0
  0
DICTIONARY
  5
493
330
2F
100
AcDbDictionary
280
     1
281
     1
  3
ACAD_XREC_ROUNDTRIP
360
494
  0
DICTIONARY
  5
499
330
32
100
AcDbDictionary
280
     1
281
     1
  3
ACAD_XREC_ROUNDTRIP
360
49A
  0
DICTIONARY
  5
4A1
330
36
100
AcDbDictionary
280
     1
281
     1
  3
ACAD_XREC_ROUNDTRIP
360
4A2
  0
DICTIONARY
  5
4A9
330
3A
100
AcDbDictionary
280
     1
281
     1
  3
ACAD_XREC_ROUNDTRIP
360
4AA
  0
DICTIONARY
  5
49D
330
34
100
AcDbDictionary
280
     1
281
     1
  3
ACAD_XREC_ROUNDTRIP
360
49E
  0
DICTIONARY
  5
49F
330
35
100
AcDbDictionary
280
     1
281
     1
  3
ACAD_XREC_ROUNDTRIP
360
4A0
  0
DICTIONARY
  5
4AF
330
3D
100
AcDbDictionary
280
     1
281
     1
  3
ACAD_XREC_ROUNDTRIP
360
4B0
  0
DICTIONARY
  5
4A7
330
39
100
AcDbDictionary
280
     1
281
     1
  3
ACAD_XREC_ROUNDTRIP
360
4A8
  0
DICTIONARY
  5
48B
330
2B
100
AcDbDictionary
280
     1
281
     1
  3
ACAD_XREC_ROUNDTRIP
360
48C
  0
DICTIONARY
  5
48D
330
2C
100
AcDbDictionary
280
     1
281
     1
  3
ACAD_XREC_ROUNDTRIP
360
48E
  0
DICTIONARY
  5
48F
330
2D
100
AcDbDictionary
280
     1
281
     1
  3
ACAD_XREC_ROUNDTRIP
360
490
  0
DICTIONARY
  5
491
330
2E
100
AcDbDictionary
280
     1
281
     1
  3
ACAD_XREC_ROUNDTRIP
360
492
  0
DICTIONARY
  5
497
330
31
100
AcDbDictionary
280
     1
281
     1
  3
ACAD_XREC_ROUNDTRIP
360
498
  0
DICTIONARY
  5
4AB
330
3B
100
AcDbDictionary
280
     1
281
     1
  3
ACAD_XREC_ROUNDTRIP
360
4AC
  0
DICTIONARY
  5
4A5
330
38
100
AcDbDictionary
280
     1
281
     1
  3
ACAD_XREC_ROUNDTRIP
360
4A6
  0
DICTIONARY
  5
4AD
330
3C
100
AcDbDictionary
280
     1
281
     1
  3
ACAD_XREC_ROUNDTRIP
360
4AE
  0
DICTIONARY
  5
49B
330
33
100
AcDbDictionary
280
     1
281
     1
  3
ACAD_XREC_ROUNDTRIP
360
49C
  0
DICTIONARY
  5
4B9
330
42
100
AcDbDictionary
280
     1
281
     1
  3
ACAD_XREC_ROUNDTRIP
360
4BA
  0
DICTIONARY
  5
4B7
330
41
100
AcDbDictionary
280
     1
281
     1
  3
ACAD_XREC_ROUNDTRIP
360
4B8
  0
DICTIONARY
  5
4B1
330
3E
100
AcDbDictionary
280
     1
281
     1
  3
ACAD_XREC_ROUNDTRIP
360
4B2
  0
DICTIONARY
  5
4B3
330
3F
100
AcDbDictionary
280
     1
281
     1
  3
ACAD_XREC_ROUNDTRIP
360
4B4
  0
DICTIONARY
  5
4A3
330
37
100
AcDbDictionary
280
     1
281
     1
  3
ACAD_XREC_ROUNDTRIP
360
4A4
  0
DICTIONARY
  5
495
330
30
100
AcDbDictionary
280
     1
281
     1
  3
ACAD_XREC_ROUNDTRIP
360
496
  0
DICTIONARY
  5
4B5
330
40
100
AcDbDictionary
280
     1
281
     1
  3
ACAD_XREC_ROUNDTRIP
360
4B6
  0
XRECORD
  5
4BE
102
{ACAD_REACTORS
330
4BD
102
}
330
4BD
100
AcDbXrecord
280
     1
102
MATERIAL
148
0.0
149
0.0
149
0.0
 93
        0
 94
      127
282
     0
 72
     1
 77
     1
171
     1
175
     1
179
     1
273
     0
  0
XRECORD
  5
4BC
102
{ACAD_REACTORS
330
4BB
102
}
330
4BB
100
AcDbXrecord
280
     1
102
MATERIAL
148
0.0
149
0.0
149
0.0
 93
        0
 94
      127
282
     0
 72
     1
 77
     1
171
     1
175
     1
179
     1
273
     0
  0
XRECORD
  5
4C0
102
{ACAD_REACTORS
330
4BF
102
}
330
4BF
100
AcDbXrecord
280
     1
102
MATERIAL
148
0.0
149
0.0
149
0.0
 93
        0
 94
      127
282
     0
 72
     1
 77
     1
171
     1
175
     1
179
     1
273
     0
  0
XRECORD
  5
494
102
{ACAD_REACTORS
330
493
102
}
330
493
100
AcDbXrecord
280
     1
102
RTVSPropertyOp0
 70
     1
102
RTVSPropertyOp1
 70
     1
102
RTVSPropertyOp2
 70
     1
102
RTVSPropertyOp3
 70
     1
102
RTVSPropertyOp4
 70
     1
102
RTVSPropertyOp5
 70
     1
102
RTVSPropertyOp6
 70
     1
102
RTVSPropertyOp7
 70
     1
102
RTVSPropertyOp8
 70
     1
102
RTVSPropertyOp9
 70
     1
102
RTVSPropertyOp10
 70
     1
102
RTVSPropertyOp11
 70
     1
102
RTVSPropertyOp12
 70
     1
102
RTVSPropertyOp13
 70
     1
102
RTVSPropertyOp14
 70
     1
102
RTVSPropertyOp15
 70
     1
102
RTVSPropertyOp16
 70
     1
102
RTVSPropertyOp17
 70
     1
102
RTVSPropertyOp18
 70
     1
102
RTVSPropertyOp19
 70
     1
102
RTVSPropertyOp20
 70
     1
102
RTVSPropertyOp21
 70
     1
102
RTVSPropertyOp22
 70
     1
102
RTVSPropertyOp23
 70
     1
102
RTVSPropertyOp24
 70
     1
102
RTVSPropertyOp25
 70
     1
102
RTVSPropertyOp26
 70
     1
102
RTVSPropertyOp27
 70
     1
102
RTVSPropertyOp28
 70
     1
102
RTVSPropertyOp29
 70
     1
102
RTVSPropertyOp30
 70
     1
102
RTVSPropertyOp31
 70
     1
102
RTVSPropertyOp32
 70
     1
102
RTVSPropertyOp33
 70
     1
102
RTVSPropertyOp34
 70
     1
102
RTVSPropertyOp35
 70
     1
102
RTVSPropertyOp36
 70
     1
102
RTVSPropertyOp37
 70
     1
102
RTVSPropertyOp38
 70
     1
102
RTVSPropertyOp39
 70
     1
102
RTVSPropertyOp40
 70
     1
102
RTVSPropertyOp41
 70
     1
102
RTVSPropertyOp42
 70
     1
102
RTVSPropertyOp43
 70
     1
102
RTVSPropertyOp44
 70
     1
102
RTVSPropertyOp45
 70
     1
102
RTVSPropertyOp46
 70
     1
102
RTVSPropertyOp47
 70
     1
102
RTVSPropertyOp48
 70
     1
102
RTVSPropertyOp49
 70
     1
102
RTVSPropertyOp50
 70
     1
102
RTVSPropertyOp51
 70
     0
102
RTVSPropertyOp52
 70
     0
102
RTVSPropertyOp53
 70
     1
102
RTVSPropertyOp54
 70
     1
102
RTVSPropertyOp55
 70
     1
102
RTVSPropertyOp56
 70
     1
102
RTVSPropertyOp57
 70
     1
102
RTVSPost2010Prop28
280
     1
102
RTVSPost2010PropOp28
 70
     1
102
RTVSPost2010Prop29
280
     1
102
RTVSPost2010PropOp29
 70
     1
102
RTVSPost2010Prop30
280
     0
102
RTVSPost2010PropOp30
 70
     1
102
RTVSPost2010Prop31
280
     0
102
RTVSPost2010PropOp31
 70
     1
102
RTVSPost2010Prop32
280
     0
102
RTVSPost2010PropOp32
 70
     1
102
RTVSPost2010Prop33
280
     0
102
RTVSPost2010PropOp33
 70
     1
102
RTVSPost2010Prop34
280
     0
102
RTVSPost2010PropOp34
 70
     1
102
RTVSPost2010Prop35
280
     0
102
RTVSPost2010PropOp35
 70
     1
102
RTVSPost2010Prop36
280
     0
102
RTVSPost2010PropOp36
 70
     1
102
RTVSPost2010Prop37
 90
       50
102
RTVSPost2010PropOp37
 70
     1
102
RTVSPost2010Prop38
140
0.0
102
RTVSPost2010PropOp38
 70
     1
102
RTVSPost2010Prop39
140
1.0
102
RTVSPost2010PropOp39
 70
     1
102
RTVSPost2010Prop40
 90
        0
102
RTVSPost2010PropOp40
 70
     1
102
RTVSPost2010Prop41ColorIndex
 90
       18
102
RTVSPost2010Prop41ColorRGB
 90
        0
102
RTVSPost2010PropOp41
 70
     1
102
RTVSPost2010Prop42
 90
       50
102
RTVSPost2010PropOp42
 70
     1
102
RTVSPost2010Prop43
 90
        3
102
RTVSPost2010PropOp43
 70
     1
102
RTVSPost2010Prop44ColorIndex
 90
        5
102
RTVSPost2010Prop44ColorRGB
 90
      255
102
RTVSPost2010PropOp44
 70
     1
102
RTVSPost2010Prop45
280
     0
102
RTVSPost2010PropOp45
 70
     1
102
RTVSPost2010Prop46
 90
       50
102
RTVSPost2010PropOp46
 70
     1
102
RTVSPost2010Prop47
 90
       50
102
RTVSPost2010PropOp47
 70
     1
102
RTVSPost2010Prop48
 90
       50
102
RTVSPost2010PropOp48
 70
     1
102
RTVSPost2010Prop49
280
     0
102
RTVSPost2010PropOp49
 70
     1
102
RTVSPost2010Prop50
 90
       50
102
RTVSPost2010PropOp50
 70
     1
102
RTVSPost2010Prop51ColorIndex
 90
      256
102
RTVSPost2010Prop51ColorRGB
 90
-16777216
102
RTVSPost2010PropOp51
 70
     0
102
RTVSPost2010Prop52
140
1.0
102
RTVSPost2010PropOp52
 70
     0
102
RTVSPost2010Prop53
 90
        2
102
RTVSPost2010PropOp53
 70
     1
102
RTVSPost2010Prop54
  1
strokes_ogs.tif
102
RTVSPost2010PropOp54
 70
     1
102
RTVSPost2010Prop55
280
     0
102
RTVSPost2010PropOp55
 70
     1
102
RTVSPost2010Prop56
140
1.0
102
RTVSPost2010PropOp56
 70
     1
102
RTVSPost2010Prop57
140
1.0
102
RTVSPost2010PropOp57
 70
     1
  0
XRECORD
  5
49A
102
{ACAD_REACTORS
330
499
102
}
330
499
100
AcDbXrecord
280
     1
102
RTVSPropertyOp0
 70
     1
102
RTVSPropertyOp1
 70
     1
102
RTVSPropertyOp2
 70
     1
102
RTVSPropertyOp3
 70
     1
102
RTVSPropertyOp4
 70
     1
102
RTVSPropertyOp5
 70
     1
102
RTVSPropertyOp6
 70
     1
102
RTVSPropertyOp7
 70
     1
102
RTVSPropertyOp8
 70
     1
102
RTVSPropertyOp9
 70
     1
102
RTVSPropertyOp10
 70
     1
102
RTVSPropertyOp11
 70
     1
102
RTVSPropertyOp12
 70
     1
102
RTVSPropertyOp13
 70
     1
102
RTVSPropertyOp14
 70
     1
102
RTVSPropertyOp15
 70
     1
102
RTVSPropertyOp16
 70
     1
102
RTVSPropertyOp17
 70
     1
102
RTVSPropertyOp18
 70
     1
102
RTVSPropertyOp19
 70
     1
102
RTVSPropertyOp20
 70
     1
102
RTVSPropertyOp21
 70
     1
102
RTVSPropertyOp22
 70
     1
102
RTVSPropertyOp23
 70
     1
102
RTVSPropertyOp24
 70
     1
102
RTVSPropertyOp25
 70
     1
102
RTVSPropertyOp26
 70
     1
102
RTVSPropertyOp27
 70
     1
102
RTVSPropertyOp28
 70
     1
102
RTVSPropertyOp29
 70
     1
102
RTVSPropertyOp30
 70
     1
102
RTVSPropertyOp31
 70
     1
102
RTVSPropertyOp32
 70
     1
102
RTVSPropertyOp33
 70
     1
102
RTVSPropertyOp34
 70
     1
102
RTVSPropertyOp35
 70
     1
102
RTVSPropertyOp36
 70
     1
102
RTVSPropertyOp37
 70
     1
102
RTVSPropertyOp38
 70
     1
102
RTVSPropertyOp39
 70
     1
102
RTVSPropertyOp40
 70
     1
102
RTVSPropertyOp41
 70
     1
102
RTVSPropertyOp42
 70
     1
102
RTVSPropertyOp43
 70
     1
102
RTVSPropertyOp44
 70
     1
102
RTVSPropertyOp45
 70
     1
102
RTVSPropertyOp46
 70
     1
102
RTVSPropertyOp47
 70
     1
102
RTVSPropertyOp48
 70
     1
102
RTVSPropertyOp49
 70
     1
102
RTVSPropertyOp50
 70
     1
102
RTVSPropertyOp51
 70
     0
102
RTVSPropertyOp52
 70
     0
102
RTVSPropertyOp53
 70
     1
102
RTVSPropertyOp54
 70
     1
102
RTVSPropertyOp55
 70
     1
102
RTVSPropertyOp56
 70
     1
102
RTVSPropertyOp57
 70
     1
102
RTVSPost2010Prop28
280
     0
102
RTVSPost2010PropOp28
 70
     1
102
RTVSPost2010Prop29
280
     1
102
RTVSPost2010PropOp29
 70
     1
102
RTVSPost2010Prop30
280
     1
102
RTVSPost2010PropOp30
 70
     1
102
RTVSPost2010Prop31
280
     0
102
RTVSPost2010PropOp31
 70
     1
102
RTVSPost2010Prop32
280
     0
102
RTVSPost2010PropOp32
 70
     1
102
RTVSPost2010Prop33
280
     0
102
RTVSPost2010PropOp33
 70
     1
102
RTVSPost2010Prop34
280
     0
102
RTVSPost2010PropOp34
 70
     1
102
RTVSPost2010Prop35
280
     0
102
RTVSPost2010PropOp35
 70
     1
102
RTVSPost2010Prop36
280
     0
102
RTVSPost2010PropOp36
 70
     1
102
RTVSPost2010Prop37
 90
       50
102
RTVSPost2010PropOp37
 70
     1
102
RTVSPost2010Prop38
140
0.0
102
RTVSPost2010PropOp38
 70
     1
102
RTVSPost2010Prop39
140
1.0
102
RTVSPost2010PropOp39
 70
     1
102
RTVSPost2010Prop40
 90
        0
102
RTVSPost2010PropOp40
 70
     1
102
RTVSPost2010Prop41ColorIndex
 90
       18
102
RTVSPost2010Prop41ColorRGB
 90
        0
102
RTVSPost2010PropOp41
 70
     1
102
RTVSPost2010Prop42
 90
       50
102
RTVSPost2010PropOp42
 70
     1
102
RTVSPost2010Prop43
 90
        3
102
RTVSPost2010PropOp43
 70
     1
102
RTVSPost2010Prop44ColorIndex
 90
        5
102
RTVSPost2010Prop44ColorRGB
 90
      255
102
RTVSPost2010PropOp44
 70
     1
102
RTVSPost2010Prop45
280
     0
102
RTVSPost2010PropOp45
 70
     1
102
RTVSPost2010Prop46
 90
       50
102
RTVSPost2010PropOp46
 70
     1
102
RTVSPost2010Prop47
 90
       50
102
RTVSPost2010PropOp47
 70
     1
102
RTVSPost2010Prop48
 90
       50
102
RTVSPost2010PropOp48
 70
     1
102
RTVSPost2010Prop49
280
     0
102
RTVSPost2010PropOp49
 70
     1
102
RTVSPost2010Prop50
 90
       50
102
RTVSPost2010PropOp50
 70
     1
102
RTVSPost2010Prop51ColorIndex
 90
      256
102
RTVSPost2010Prop51ColorRGB
 90
-16777216
102
RTVSPost2010PropOp51
 70
     0
102
RTVSPost2010Prop52
140
1.0
102
RTVSPost2010PropOp52
 70
     0
102
RTVSPost2010Prop53
 90
        2
102
RTVSPost2010PropOp53
 70
     1
102
RTVSPost2010Prop54
  1
strokes_ogs.tif
102
RTVSPost2010PropOp54
 70
     1
102
RTVSPost2010Prop55
280
     0
102
RTVSPost2010PropOp55
 70
     1
102
RTVSPost2010Prop56
140
1.0
102
RTVSPost2010PropOp56
 70
     1
102
RTVSPost2010Prop57
140
1.0
102
RTVSPost2010PropOp57
 70
     1
  0
XRECORD
  5
4A2
102
{ACAD_REACTORS
330
4A1
102
}
330
4A1
100
AcDbXrecord
280
     1
102
RTVSPropertyOp0
 70
     1
102
RTVSPropertyOp1
 70
     1
102
RTVSPropertyOp2
 70
     1
102
RTVSPropertyOp3
 70
     1
102
RTVSPropertyOp4
 70
     1
102
RTVSPropertyOp5
 70
     1
102
RTVSPropertyOp6
 70
     1
102
RTVSPropertyOp7
 70
     1
102
RTVSPropertyOp8
 70
     1
102
RTVSPropertyOp9
 70
     1
102
RTVSPropertyOp10
 70
     1
102
RTVSPropertyOp11
 70
     1
102
RTVSPropertyOp12
 70
     1
102
RTVSPropertyOp13
 70
     1
102
RTVSPropertyOp14
 70
     1
102
RTVSPropertyOp15
 70
     1
102
RTVSPropertyOp16
 70
     1
102
RTVSPropertyOp17
 70
     1
102
RTVSPropertyOp18
 70
     1
102
RTVSPropertyOp19
 70
     1
102
RTVSPropertyOp20
 70
     1
102
RTVSPropertyOp21
 70
     1
102
RTVSPropertyOp22
 70
     1
102
RTVSPropertyOp23
 70
     1
102
RTVSPropertyOp24
 70
     1
102
RTVSPropertyOp25
 70
     1
102
RTVSPropertyOp26
 70
     1
102
RTVSPropertyOp27
 70
     1
102
RTVSPropertyOp28
 70
     1
102
RTVSPropertyOp29
 70
     1
102
RTVSPropertyOp30
 70
     1
102
RTVSPropertyOp31
 70
     1
102
RTVSPropertyOp32
 70
     1
102
RTVSPropertyOp33
 70
     1
102
RTVSPropertyOp34
 70
     1
102
RTVSPropertyOp35
 70
     1
102
RTVSPropertyOp36
 70
     1
102
RTVSPropertyOp37
 70
     1
102
RTVSPropertyOp38
 70
     1
102
RTVSPropertyOp39
 70
     1
102
RTVSPropertyOp40
 70
     1
102
RTVSPropertyOp41
 70
     1
102
RTVSPropertyOp42
 70
     1
102
RTVSPropertyOp43
 70
     1
102
RTVSPropertyOp44
 70
     1
102
RTVSPropertyOp45
 70
     1
102
RTVSPropertyOp46
 70
     1
102
RTVSPropertyOp47
 70
     1
102
RTVSPropertyOp48
 70
     1
102
RTVSPropertyOp49
 70
     1
102
RTVSPropertyOp50
 70
     1
102
RTVSPropertyOp51
 70
     0
102
RTVSPropertyOp52
 70
     0
102
RTVSPropertyOp53
 70
     1
102
RTVSPropertyOp54
 70
     1
102
RTVSPropertyOp55
 70
     1
102
RTVSPropertyOp56
 70
     1
102
RTVSPropertyOp57
 70
     1
102
RTVSPost2010Prop28
280
     0
102
RTVSPost2010PropOp28
 70
     1
102
RTVSPost2010Prop29
280
     1
102
RTVSPost2010PropOp29
 70
     1
102
RTVSPost2010Prop30
280
     1
102
RTVSPost2010PropOp30
 70
     1
102
RTVSPost2010Prop31
280
     0
102
RTVSPost2010PropOp31
 70
     1
102
RTVSPost2010Prop32
280
     0
102
RTVSPost2010PropOp32
 70
     1
102
RTVSPost2010Prop33
280
     0
102
RTVSPost2010PropOp33
 70
     1
102
RTVSPost2010Prop34
280
     0
102
RTVSPost2010PropOp34
 70
     1
102
RTVSPost2010Prop35
280
     0
102
RTVSPost2010PropOp35
 70
     1
102
RTVSPost2010Prop36
280
     0
102
RTVSPost2010PropOp36
 70
     1
102
RTVSPost2010Prop37
 90
       50
102
RTVSPost2010PropOp37
 70
     1
102
RTVSPost2010Prop38
140
0.0
102
RTVSPost2010PropOp38
 70
     1
102
RTVSPost2010Prop39
140
1.0
102
RTVSPost2010PropOp39
 70
     1
102
RTVSPost2010Prop40
 90
        0
102
RTVSPost2010PropOp40
 70
     1
102
RTVSPost2010Prop41ColorIndex
 90
       18
102
RTVSPost2010Prop41ColorRGB
 90
        0
102
RTVSPost2010PropOp41
 70
     1
102
RTVSPost2010Prop42
 90
       50
102
RTVSPost2010PropOp42
 70
     1
102
RTVSPost2010Prop43
 90
        3
102
RTVSPost2010PropOp43
 70
     1
102
RTVSPost2010Prop44ColorIndex
 90
        5
102
RTVSPost2010Prop44ColorRGB
 90
      255
102
RTVSPost2010PropOp44
 70
     1
102
RTVSPost2010Prop45
280
     0
102
RTVSPost2010PropOp45
 70
     1
102
RTVSPost2010Prop46
 90
       50
102
RTVSPost2010PropOp46
 70
     1
102
RTVSPost2010Prop47
 90
       50
102
RTVSPost2010PropOp47
 70
     1
102
RTVSPost2010Prop48
 90
       50
102
RTVSPost2010PropOp48
 70
     1
102
RTVSPost2010Prop49
280
     0
102
RTVSPost2010PropOp49
 70
     1
102
RTVSPost2010Prop50
 90
       50
102
RTVSPost2010PropOp50
 70
     1
102
RTVSPost2010Prop51ColorIndex
 90
      256
102
RTVSPost2010Prop51ColorRGB
 90
-16777216
102
RTVSPost2010PropOp51
 70
     0
102
RTVSPost2010Prop52
140
1.0
102
RTVSPost2010PropOp52
 70
     0
102
RTVSPost2010Prop53
 90
        2
102
RTVSPost2010PropOp53
 70
     1
102
RTVSPost2010Prop54
  1
strokes_ogs.tif
102
RTVSPost2010PropOp54
 70
     1
102
RTVSPost2010Prop55
280
     0
102
RTVSPost2010PropOp55
 70
     1
102
RTVSPost2010Prop56
140
1.0
102
RTVSPost2010PropOp56
 70
     1
102
RTVSPost2010Prop57
140
1.0
102
RTVSPost2010PropOp57
 70
     1
  0
XRECORD
  5
4AA
102
{ACAD_REACTORS
330
4A9
102
}
330
4A9
100
AcDbXrecord
280
     1
102
RTVSPropertyOp0
 70
     1
102
RTVSPropertyOp1
 70
     1
102
RTVSPropertyOp2
 70
     1
102
RTVSPropertyOp3
 70
     1
102
RTVSPropertyOp4
 70
     1
102
RTVSPropertyOp5
 70
     1
102
RTVSPropertyOp6
 70
     1
102
RTVSPropertyOp7
 70
     1
102
RTVSPropertyOp8
 70
     1
102
RTVSPropertyOp9
 70
     1
102
RTVSPropertyOp10
 70
     1
102
RTVSPropertyOp11
 70
     1
102
RTVSPropertyOp12
 70
     1
102
RTVSPropertyOp13
 70
     1
102
RTVSPropertyOp14
 70
     1
102
RTVSPropertyOp15
 70
     1
102
RTVSPropertyOp16
 70
     1
102
RTVSPropertyOp17
 70
     1
102
RTVSPropertyOp18
 70
     1
102
RTVSPropertyOp19
 70
     1
102
RTVSPropertyOp20
 70
     1
102
RTVSPropertyOp21
 70
     1
102
RTVSPropertyOp22
 70
     1
102
RTVSPropertyOp23
 70
     1
102
RTVSPropertyOp24
 70
     1
102
RTVSPropertyOp25
 70
     1
102
RTVSPropertyOp26
 70
     1
102
RTVSPropertyOp27
 70
     1
102
RTVSPropertyOp28
 70
     1
102
RTVSPropertyOp29
 70
     1
102
RTVSPropertyOp30
 70
     1
102
RTVSPropertyOp31
 70
     1
102
RTVSPropertyOp32
 70
     1
102
RTVSPropertyOp33
 70
     1
102
RTVSPropertyOp34
 70
     1
102
RTVSPropertyOp35
 70
     1
102
RTVSPropertyOp36
 70
     1
102
RTVSPropertyOp37
 70
     1
102
RTVSPropertyOp38
 70
     1
102
RTVSPropertyOp39
 70
     1
102
RTVSPropertyOp40
 70
     1
102
RTVSPropertyOp41
 70
     1
102
RTVSPropertyOp42
 70
     1
102
RTVSPropertyOp43
 70
     1
102
RTVSPropertyOp44
 70
     1
102
RTVSPropertyOp45
 70
     1
102
RTVSPropertyOp46
 70
     1
102
RTVSPropertyOp47
 70
     1
102
RTVSPropertyOp48
 70
     1
102
RTVSPropertyOp49
 70
     1
102
RTVSPropertyOp50
 70
     1
102
RTVSPropertyOp51
 70
     0
102
RTVSPropertyOp52
 70
     0
102
RTVSPropertyOp53
 70
     1
102
RTVSPropertyOp54
 70
     1
102
RTVSPropertyOp55
 70
     1
102
RTVSPropertyOp56
 70
     1
102
RTVSPropertyOp57
 70
     1
102
RTVSPost2010Prop28
280
     0
102
RTVSPost2010PropOp28
 70
     1
102
RTVSPost2010Prop29
280
     1
102
RTVSPost2010PropOp29
 70
     1
102
RTVSPost2010Prop30
280
     1
102
RTVSPost2010PropOp30
 70
     1
102
RTVSPost2010Prop31
280
     0
102
RTVSPost2010PropOp31
 70
     1
102
RTVSPost2010Prop32
280
     0
102
RTVSPost2010PropOp32
 70
     1
102
RTVSPost2010Prop33
280
     0
102
RTVSPost2010PropOp33
 70
     1
102
RTVSPost2010Prop34
280
     0
102
RTVSPost2010PropOp34
 70
     1
102
RTVSPost2010Prop35
280
     0
102
RTVSPost2010PropOp35
 70
     1
102
RTVSPost2010Prop36
280
     0
102
RTVSPost2010PropOp36
 70
     1
102
RTVSPost2010Prop37
 90
       50
102
RTVSPost2010PropOp37
 70
     1
102
RTVSPost2010Prop38
140
0.0
102
RTVSPost2010PropOp38
 70
     1
102
RTVSPost2010Prop39
140
1.0
102
RTVSPost2010PropOp39
 70
     1
102
RTVSPost2010Prop40
 90
        0
102
RTVSPost2010PropOp40
 70
     1
102
RTVSPost2010Prop41ColorIndex
 90
       18
102
RTVSPost2010Prop41ColorRGB
 90
        0
102
RTVSPost2010PropOp41
 70
     1
102
RTVSPost2010Prop42
 90
       50
102
RTVSPost2010PropOp42
 70
     1
102
RTVSPost2010Prop43
 90
        3
102
RTVSPost2010PropOp43
 70
     1
102
RTVSPost2010Prop44ColorIndex
 90
        5
102
RTVSPost2010Prop44ColorRGB
 90
      255
102
RTVSPost2010PropOp44
 70
     1
102
RTVSPost2010Prop45
280
     0
102
RTVSPost2010PropOp45
 70
     1
102
RTVSPost2010Prop46
 90
       50
102
RTVSPost2010PropOp46
 70
     1
102
RTVSPost2010Prop47
 90
       50
102
RTVSPost2010PropOp47
 70
     1
102
RTVSPost2010Prop48
 90
       50
102
RTVSPost2010PropOp48
 70
     1
102
RTVSPost2010Prop49
280
     0
102
RTVSPost2010PropOp49
 70
     1
102
RTVSPost2010Prop50
 90
       50
102
RTVSPost2010PropOp50
 70
     1
102
RTVSPost2010Prop51ColorIndex
 90
      256
102
RTVSPost2010Prop51ColorRGB
 90
-16777216
102
RTVSPost2010PropOp51
 70
     0
102
RTVSPost2010Prop52
140
1.0
102
RTVSPost2010PropOp52
 70
     0
102
RTVSPost2010Prop53
 90
        2
102
RTVSPost2010PropOp53
 70
     1
102
RTVSPost2010Prop54
  1
strokes_ogs.tif
102
RTVSPost2010PropOp54
 70
     1
102
RTVSPost2010Prop55
280
     0
102
RTVSPost2010PropOp55
 70
     1
102
RTVSPost2010Prop56
140
1.0
102
RTVSPost2010PropOp56
 70
     1
102
RTVSPost2010Prop57
140
1.0
102
RTVSPost2010PropOp57
 70
     1
  0
XRECORD
  5
49E
102
{ACAD_REACTORS
330
49D
102
}
330
49D
100
AcDbXrecord
280
     1
102
RTVSPropertyOp0
 70
     1
102
RTVSPropertyOp1
 70
     1
102
RTVSPropertyOp2
 70
     1
102
RTVSPropertyOp3
 70
     1
102
RTVSPropertyOp4
 70
     1
102
RTVSPropertyOp5
 70
     1
102
RTVSPropertyOp6
 70
     1
102
RTVSPropertyOp7
 70
     1
102
RTVSPropertyOp8
 70
     1
102
RTVSPropertyOp9
 70
     1
102
RTVSPropertyOp10
 70
     1
102
RTVSPropertyOp11
 70
     1
102
RTVSPropertyOp12
 70
     1
102
RTVSPropertyOp13
 70
     1
102
RTVSPropertyOp14
 70
     1
102
RTVSPropertyOp15
 70
     1
102
RTVSPropertyOp16
 70
     1
102
RTVSPropertyOp17
 70
     1
102
RTVSPropertyOp18
 70
     1
102
RTVSPropertyOp19
 70
     1
102
RTVSPropertyOp20
 70
     1
102
RTVSPropertyOp21
 70
     1
102
RTVSPropertyOp22
 70
     1
102
RTVSPropertyOp23
 70
     1
102
RTVSPropertyOp24
 70
     1
102
RTVSPropertyOp25
 70
     1
102
RTVSPropertyOp26
 70
     1
102
RTVSPropertyOp27
 70
     1
102
RTVSPropertyOp28
 70
     1
102
RTVSPropertyOp29
 70
     1
102
RTVSPropertyOp30
 70
     1
102
RTVSPropertyOp31
 70
     1
102
RTVSPropertyOp32
 70
     1
102
RTVSPropertyOp33
 70
     1
102
RTVSPropertyOp34
 70
     1
102
RTVSPropertyOp35
 70
     1
102
RTVSPropertyOp36
 70
     1
102
RTVSPropertyOp37
 70
     1
102
RTVSPropertyOp38
 70
     1
102
RTVSPropertyOp39
 70
     1
102
RTVSPropertyOp40
 70
     1
102
RTVSPropertyOp41
 70
     1
102
RTVSPropertyOp42
 70
     1
102
RTVSPropertyOp43
 70
     1
102
RTVSPropertyOp44
 70
     1
102
RTVSPropertyOp45
 70
     1
102
RTVSPropertyOp46
 70
     1
102
RTVSPropertyOp47
 70
     1
102
RTVSPropertyOp48
 70
     1
102
RTVSPropertyOp49
 70
     1
102
RTVSPropertyOp50
 70
     1
102
RTVSPropertyOp51
 70
     0
102
RTVSPropertyOp52
 70
     0
102
RTVSPropertyOp53
 70
     1
102
RTVSPropertyOp54
 70
     1
102
RTVSPropertyOp55
 70
     1
102
RTVSPropertyOp56
 70
     1
102
RTVSPropertyOp57
 70
     1
102
RTVSPost2010Prop28
280
     0
102
RTVSPost2010PropOp28
 70
     1
102
RTVSPost2010Prop29
280
     1
102
RTVSPost2010PropOp29
 70
     1
102
RTVSPost2010Prop30
280
     1
102
RTVSPost2010PropOp30
 70
     1
102
RTVSPost2010Prop31
280
     0
102
RTVSPost2010PropOp31
 70
     1
102
RTVSPost2010Prop32
280
     0
102
RTVSPost2010PropOp32
 70
     1
102
RTVSPost2010Prop33
280
     0
102
RTVSPost2010PropOp33
 70
     1
102
RTVSPost2010Prop34
280
     0
102
RTVSPost2010PropOp34
 70
     1
102
RTVSPost2010Prop35
280
     0
102
RTVSPost2010PropOp35
 70
     1
102
RTVSPost2010Prop36
280
     0
102
RTVSPost2010PropOp36
 70
     1
102
RTVSPost2010Prop37
 90
       50
102
RTVSPost2010PropOp37
 70
     1
102
RTVSPost2010Prop38
140
0.0
102
RTVSPost2010PropOp38
 70
     1
102
RTVSPost2010Prop39
140
1.0
102
RTVSPost2010PropOp39
 70
     1
102
RTVSPost2010Prop40
 90
        0
102
RTVSPost2010PropOp40
 70
     1
102
RTVSPost2010Prop41ColorIndex
 90
       18
102
RTVSPost2010Prop41ColorRGB
 90
        0
102
RTVSPost2010PropOp41
 70
     1
102
RTVSPost2010Prop42
 90
       50
102
RTVSPost2010PropOp42
 70
     1
102
RTVSPost2010Prop43
 90
        3
102
RTVSPost2010PropOp43
 70
     1
102
RTVSPost2010Prop44ColorIndex
 90
        5
102
RTVSPost2010Prop44ColorRGB
 90
      255
102
RTVSPost2010PropOp44
 70
     1
102
RTVSPost2010Prop45
280
     0
102
RTVSPost2010PropOp45
 70
     1
102
RTVSPost2010Prop46
 90
       50
102
RTVSPost2010PropOp46
 70
     1
102
RTVSPost2010Prop47
 90
       50
102
RTVSPost2010PropOp47
 70
     1
102
RTVSPost2010Prop48
 90
       50
102
RTVSPost2010PropOp48
 70
     1
102
RTVSPost2010Prop49
280
     0
102
RTVSPost2010PropOp49
 70
     1
102
RTVSPost2010Prop50
 90
       50
102
RTVSPost2010PropOp50
 70
     1
102
RTVSPost2010Prop51ColorIndex
 90
      256
102
RTVSPost2010Prop51ColorRGB
 90
-16777216
102
RTVSPost2010PropOp51
 70
     0
102
RTVSPost2010Prop52
140
1.0
102
RTVSPost2010PropOp52
 70
     0
102
RTVSPost2010Prop53
 90
        2
102
RTVSPost2010PropOp53
 70
     1
102
RTVSPost2010Prop54
  1
strokes_ogs.tif
102
RTVSPost2010PropOp54
 70
     1
102
RTVSPost2010Prop55
280
     0
102
RTVSPost2010PropOp55
 70
     1
102
RTVSPost2010Prop56
140
1.0
102
RTVSPost2010PropOp56
 70
     1
102
RTVSPost2010Prop57
140
1.0
102
RTVSPost2010PropOp57
 70
     1
  0
XRECORD
  5
4A0
102
{ACAD_REACTORS
330
49F
102
}
330
49F
100
AcDbXrecord
280
     1
102
RTVSPropertyOp0
 70
     1
102
RTVSPropertyOp1
 70
     1
102
RTVSPropertyOp2
 70
     1
102
RTVSPropertyOp3
 70
     1
102
RTVSPropertyOp4
 70
     1
102
RTVSPropertyOp5
 70
     1
102
RTVSPropertyOp6
 70
     1
102
RTVSPropertyOp7
 70
     1
102
RTVSPropertyOp8
 70
     1
102
RTVSPropertyOp9
 70
     1
102
RTVSPropertyOp10
 70
     1
102
RTVSPropertyOp11
 70
     1
102
RTVSPropertyOp12
 70
     1
102
RTVSPropertyOp13
 70
     1
102
RTVSPropertyOp14
 70
     1
102
RTVSPropertyOp15
 70
     1
102
RTVSPropertyOp16
 70
     1
102
RTVSPropertyOp17
 70
     1
102
RTVSPropertyOp18
 70
     1
102
RTVSPropertyOp19
 70
     1
102
RTVSPropertyOp20
 70
     1
102
RTVSPropertyOp21
 70
     1
102
RTVSPropertyOp22
 70
     1
102
RTVSPropertyOp23
 70
     1
102
RTVSPropertyOp24
 70
     1
102
RTVSPropertyOp25
 70
     1
102
RTVSPropertyOp26
 70
     1
102
RTVSPropertyOp27
 70
     1
102
RTVSPropertyOp28
 70
     1
102
RTVSPropertyOp29
 70
     1
102
RTVSPropertyOp30
 70
     1
102
RTVSPropertyOp31
 70
     1
102
RTVSPropertyOp32
 70
     1
102
RTVSPropertyOp33
 70
     1
102
RTVSPropertyOp34
 70
     1
102
RTVSPropertyOp35
 70
     1
102
RTVSPropertyOp36
 70
     1
102
RTVSPropertyOp37
 70
     1
102
RTVSPropertyOp38
 70
     1
102
RTVSPropertyOp39
 70
     1
102
RTVSPropertyOp40
 70
     1
102
RTVSPropertyOp41
 70
     1
102
RTVSPropertyOp42
 70
     1
102
RTVSPropertyOp43
 70
     1
102
RTVSPropertyOp44
 70
     1
102
RTVSPropertyOp45
 70
     1
102
RTVSPropertyOp46
 70
     1
102
RTVSPropertyOp47
 70
     1
102
RTVSPropertyOp48
 70
     1
102
RTVSPropertyOp49
 70
     1
102
RTVSPropertyOp50
 70
     1
102
RTVSPropertyOp51
 70
     0
102
RTVSPropertyOp52
 70
     0
102
RTVSPropertyOp53
 70
     1
102
RTVSPropertyOp54
 70
     1
102
RTVSPropertyOp55
 70
     1
102
RTVSPropertyOp56
 70
     1
102
RTVSPropertyOp57
 70
     1
102
RTVSPost2010Prop28
280
     0
102
RTVSPost2010PropOp28
 70
     1
102
RTVSPost2010Prop29
280
     1
102
RTVSPost2010PropOp29
 70
     1
102
RTVSPost2010Prop30
280
     1
102
RTVSPost2010PropOp30
 70
     1
102
RTVSPost2010Prop31
280
     0
102
RTVSPost2010PropOp31
 70
     1
102
RTVSPost2010Prop32
280
     0
102
RTVSPost2010PropOp32
 70
     1
102
RTVSPost2010Prop33
280
     0
102
RTVSPost2010PropOp33
 70
     1
102
RTVSPost2010Prop34
280
     0
102
RTVSPost2010PropOp34
 70
     1
102
RTVSPost2010Prop35
280
     0
102
RTVSPost2010PropOp35
 70
     1
102
RTVSPost2010Prop36
280
     0
102
RTVSPost2010PropOp36
 70
     1
102
RTVSPost2010Prop37
 90
       50
102
RTVSPost2010PropOp37
 70
     1
102
RTVSPost2010Prop38
140
0.0
102
RTVSPost2010PropOp38
 70
     1
102
RTVSPost2010Prop39
140
1.0
102
RTVSPost2010PropOp39
 70
     1
102
RTVSPost2010Prop40
 90
        0
102
RTVSPost2010PropOp40
 70
     1
102
RTVSPost2010Prop41ColorIndex
 90
       18
102
RTVSPost2010Prop41ColorRGB
 90
        0
102
RTVSPost2010PropOp41
 70
     1
102
RTVSPost2010Prop42
 90
       50
102
RTVSPost2010PropOp42
 70
     1
102
RTVSPost2010Prop43
 90
        3
102
RTVSPost2010PropOp43
 70
     1
102
RTVSPost2010Prop44ColorIndex
 90
        5
102
RTVSPost2010Prop44ColorRGB
 90
      255
102
RTVSPost2010PropOp44
 70
     1
102
RTVSPost2010Prop45
280
     0
102
RTVSPost2010PropOp45
 70
     1
102
RTVSPost2010Prop46
 90
       50
102
RTVSPost2010PropOp46
 70
     1
102
RTVSPost2010Prop47
 90
       50
102
RTVSPost2010PropOp47
 70
     1
102
RTVSPost2010Prop48
 90
       50
102
RTVSPost2010PropOp48
 70
     1
102
RTVSPost2010Prop49
280
     0
102
RTVSPost2010PropOp49
 70
     1
102
RTVSPost2010Prop50
 90
       50
102
RTVSPost2010PropOp50
 70
     1
102
RTVSPost2010Prop51ColorIndex
 90
      256
102
RTVSPost2010Prop51ColorRGB
 90
-16777216
102
RTVSPost2010PropOp51
 70
     0
102
RTVSPost2010Prop52
140
1.0
102
RTVSPost2010PropOp52
 70
     0
102
RTVSPost2010Prop53
 90
        2
102
RTVSPost2010PropOp53
 70
     1
102
RTVSPost2010Prop54
  1
strokes_ogs.tif
102
RTVSPost2010PropOp54
 70
     1
102
RTVSPost2010Prop55
280
     0
102
RTVSPost2010PropOp55
 70
     1
102
RTVSPost2010Prop56
140
1.0
102
RTVSPost2010PropOp56
 70
     1
102
RTVSPost2010Prop57
140
1.0
102
RTVSPost2010PropOp57
 70
     1
  0
XRECORD
  5
4B0
102
{ACAD_REACTORS
330
4AF
102
}
330
4AF
100
AcDbXrecord
280
     1
102
RTVSPropertyOp0
 70
     0
102
RTVSPropertyOp1
 70
     0
102
RTVSPropertyOp2
 70
     0
102
RTVSPropertyOp3
 70
     0
102
RTVSPropertyOp4
 70
     0
102
RTVSPropertyOp5
 70
     0
102
RTVSPropertyOp6
 70
     0
102
RTVSPropertyOp7
 70
     0
102
RTVSPropertyOp8
 70
     0
102
RTVSPropertyOp9
 70
     0
102
RTVSPropertyOp10
 70
     0
102
RTVSPropertyOp11
 70
     0
102
RTVSPropertyOp12
 70
     0
102
RTVSPropertyOp13
 70
     0
102
RTVSPropertyOp14
 70
     2
102
RTVSPropertyOp15
 70
     0
102
RTVSPropertyOp16
 70
     0
102
RTVSPropertyOp17
 70
     0
102
RTVSPropertyOp18
 70
     0
102
RTVSPropertyOp19
 70
     0
102
RTVSPropertyOp20
 70
     0
102
RTVSPropertyOp21
 70
     0
102
RTVSPropertyOp22
 70
     0
102
RTVSPropertyOp23
 70
     0
102
RTVSPropertyOp24
 70
     0
102
RTVSPropertyOp25
 70
     0
102
RTVSPropertyOp26
 70
     0
102
RTVSPropertyOp27
 70
     0
102
RTVSPropertyOp28
 70
     0
102
RTVSPropertyOp29
 70
     0
102
RTVSPropertyOp30
 70
     0
102
RTVSPropertyOp31
 70
     0
102
RTVSPropertyOp32
 70
     0
102
RTVSPropertyOp33
 70
     0
102
RTVSPropertyOp34
 70
     0
102
RTVSPropertyOp35
 70
     0
102
RTVSPropertyOp36
 70
     0
102
RTVSPropertyOp37
 70
     0
102
RTVSPropertyOp38
 70
     0
102
RTVSPropertyOp39
 70
     0
102
RTVSPropertyOp40
 70
     0
102
RTVSPropertyOp41
 70
     0
102
RTVSPropertyOp42
 70
     0
102
RTVSPropertyOp43
 70
     0
102
RTVSPropertyOp44
 70
     0
102
RTVSPropertyOp45
 70
     0
102
RTVSPropertyOp46
 70
     0
102
RTVSPropertyOp47
 70
     0
102
RTVSPropertyOp48
 70
     0
102
RTVSPropertyOp49
 70
     0
102
RTVSPropertyOp50
 70
     0
102
RTVSPropertyOp51
 70
     0
102
RTVSPropertyOp52
 70
     0
102
RTVSPropertyOp53
 70
     0
102
RTVSPropertyOp54
 70
     0
102
RTVSPropertyOp55
 70
     0
102
RTVSPropertyOp56
 70
     0
102
RTVSPropertyOp57
 70
     0
102
RTVSPost2010Prop28
280
     0
102
RTVSPost2010PropOp28
 70
     0
102
RTVSPost2010Prop29
280
     1
102
RTVSPost2010PropOp29
 70
     0
102
RTVSPost2010Prop30
280
     1
102
RTVSPost2010PropOp30
 70
     0
102
RTVSPost2010Prop31
280
     0
102
RTVSPost2010PropOp31
 70
     0
102
RTVSPost2010Prop32
280
     0
102
RTVSPost2010PropOp32
 70
     0
102
RTVSPost2010Prop33
280
     0
102
RTVSPost2010PropOp33
 70
     0
102
RTVSPost2010Prop34
280
     0
102
RTVSPost2010PropOp34
 70
     0
102
RTVSPost2010Prop35
280
     0
102
RTVSPost2010PropOp35
 70
     0
102
RTVSPost2010Prop36
280
     0
102
RTVSPost2010PropOp36
 70
     0
102
RTVSPost2010Prop37
 90
       50
102
RTVSPost2010PropOp37
 70
     0
102
RTVSPost2010Prop38
140
0.0
102
RTVSPost2010PropOp38
 70
     0
102
RTVSPost2010Prop39
140
1.0
102
RTVSPost2010PropOp39
 70
     0
102
RTVSPost2010Prop40
 90
        0
102
RTVSPost2010PropOp40
 70
     0
102
RTVSPost2010Prop41ColorIndex
 90
       18
102
RTVSPost2010Prop41ColorRGB
 90
        0
102
RTVSPost2010PropOp41
 70
     0
102
RTVSPost2010Prop42
 90
       50
102
RTVSPost2010PropOp42
 70
     0
102
RTVSPost2010Prop43
 90
        3
102
RTVSPost2010PropOp43
 70
     0
102
RTVSPost2010Prop44ColorIndex
 90
        5
102
RTVSPost2010Prop44ColorRGB
 90
      255
102
RTVSPost2010PropOp44
 70
     0
102
RTVSPost2010Prop45
280
     0
102
RTVSPost2010PropOp45
 70
     0
102
RTVSPost2010Prop46
 90
       50
102
RTVSPost2010PropOp46
 70
     0
102
RTVSPost2010Prop47
 90
       50
102
RTVSPost2010PropOp47
 70
     0
102
RTVSPost2010Prop48
 90
       50
102
RTVSPost2010PropOp48
 70
     0
102
RTVSPost2010Prop49
280
     0
102
RTVSPost2010PropOp49
 70
     0
102
RTVSPost2010Prop50
 90
       50
102
RTVSPost2010PropOp50
 70
     0
102
RTVSPost2010Prop51ColorIndex
 90
      256
102
RTVSPost2010Prop51ColorRGB
 90
-16777216
102
RTVSPost2010PropOp51
 70
     0
102
RTVSPost2010Prop52
140
1.0
102
RTVSPost2010PropOp52
 70
     0
102
RTVSPost2010Prop53
 90
        2
102
RTVSPost2010PropOp53
 70
     0
102
RTVSPost2010Prop54
  1
strokes_ogs.tif
102
RTVSPost2010PropOp54
 70
     0
102
RTVSPost2010Prop55
280
     0
102
RTVSPost2010PropOp55
 70
     0
102
RTVSPost2010Prop56
140
1.0
102
RTVSPost2010PropOp56
 70
     0
102
RTVSPost2010Prop57
140
1.0
102
RTVSPost2010PropOp57
 70
     0
  0
XRECORD
  5
4A8
102
{ACAD_REACTORS
330
4A7
102
}
330
4A7
100
AcDbXrecord
280
     1
102
RTVSPropertyOp0
 70
     1
102
RTVSPropertyOp1
 70
     1
102
RTVSPropertyOp2
 70
     1
102
RTVSPropertyOp3
 70
     1
102
RTVSPropertyOp4
 70
     1
102
RTVSPropertyOp5
 70
     1
102
RTVSPropertyOp6
 70
     1
102
RTVSPropertyOp7
 70
     1
102
RTVSPropertyOp8
 70
     1
102
RTVSPropertyOp9
 70
     1
102
RTVSPropertyOp10
 70
     1
102
RTVSPropertyOp11
 70
     1
102
RTVSPropertyOp12
 70
     1
102
RTVSPropertyOp13
 70
     1
102
RTVSPropertyOp14
 70
     1
102
RTVSPropertyOp15
 70
     1
102
RTVSPropertyOp16
 70
     1
102
RTVSPropertyOp17
 70
     1
102
RTVSPropertyOp18
 70
     1
102
RTVSPropertyOp19
 70
     1
102
RTVSPropertyOp20
 70
     1
102
RTVSPropertyOp21
 70
     1
102
RTVSPropertyOp22
 70
     1
102
RTVSPropertyOp23
 70
     1
102
RTVSPropertyOp24
 70
     1
102
RTVSPropertyOp25
 70
     1
102
RTVSPropertyOp26
 70
     1
102
RTVSPropertyOp27
 70
     1
102
RTVSPropertyOp28
 70
     1
102
RTVSPropertyOp29
 70
     1
102
RTVSPropertyOp30
 70
     1
102
RTVSPropertyOp31
 70
     1
102
RTVSPropertyOp32
 70
     1
102
RTVSPropertyOp33
 70
     1
102
RTVSPropertyOp34
 70
     1
102
RTVSPropertyOp35
 70
     1
102
RTVSPropertyOp36
 70
     1
102
RTVSPropertyOp37
 70
     1
102
RTVSPropertyOp38
 70
     1
102
RTVSPropertyOp39
 70
     1
102
RTVSPropertyOp40
 70
     1
102
RTVSPropertyOp41
 70
     1
102
RTVSPropertyOp42
 70
     1
102
RTVSPropertyOp43
 70
     1
102
RTVSPropertyOp44
 70
     1
102
RTVSPropertyOp45
 70
     1
102
RTVSPropertyOp46
 70
     1
102
RTVSPropertyOp47
 70
     1
102
RTVSPropertyOp48
 70
     1
102
RTVSPropertyOp49
 70
     1
102
RTVSPropertyOp50
 70
     1
102
RTVSPropertyOp51
 70
     0
102
RTVSPropertyOp52
 70
     0
102
RTVSPropertyOp53
 70
     1
102
RTVSPropertyOp54
 70
     1
102
RTVSPropertyOp55
 70
     1
102
RTVSPropertyOp56
 70
     1
102
RTVSPropertyOp57
 70
     1
102
RTVSPost2010Prop28
280
     0
102
RTVSPost2010PropOp28
 70
     1
102
RTVSPost2010Prop29
280
     1
102
RTVSPost2010PropOp29
 70
     1
102
RTVSPost2010Prop30
280
     1
102
RTVSPost2010PropOp30
 70
     1
102
RTVSPost2010Prop31
280
     0
102
RTVSPost2010PropOp31
 70
     1
102
RTVSPost2010Prop32
280
     0
102
RTVSPost2010PropOp32
 70
     1
102
RTVSPost2010Prop33
280
     0
102
RTVSPost2010PropOp33
 70
     1
102
RTVSPost2010Prop34
280
     0
102
RTVSPost2010PropOp34
 70
     1
102
RTVSPost2010Prop35
280
     0
102
RTVSPost2010PropOp35
 70
     1
102
RTVSPost2010Prop36
280
     0
102
RTVSPost2010PropOp36
 70
     1
102
RTVSPost2010Prop37
 90
       50
102
RTVSPost2010PropOp37
 70
     1
102
RTVSPost2010Prop38
140
0.0
102
RTVSPost2010PropOp38
 70
     1
102
RTVSPost2010Prop39
140
1.0
102
RTVSPost2010PropOp39
 70
     1
102
RTVSPost2010Prop40
 90
        0
102
RTVSPost2010PropOp40
 70
     1
102
RTVSPost2010Prop41ColorIndex
 90
       18
102
RTVSPost2010Prop41ColorRGB
 90
        0
102
RTVSPost2010PropOp41
 70
     1
102
RTVSPost2010Prop42
 90
       50
102
RTVSPost2010PropOp42
 70
     1
102
RTVSPost2010Prop43
 90
        3
102
RTVSPost2010PropOp43
 70
     1
102
RTVSPost2010Prop44ColorIndex
 90
        5
102
RTVSPost2010Prop44ColorRGB
 90
      255
102
RTVSPost2010PropOp44
 70
     1
102
RTVSPost2010Prop45
280
     0
102
RTVSPost2010PropOp45
 70
     1
102
RTVSPost2010Prop46
 90
       50
102
RTVSPost2010PropOp46
 70
     1
102
RTVSPost2010Prop47
 90
       50
102
RTVSPost2010PropOp47
 70
     1
102
RTVSPost2010Prop48
 90
       50
102
RTVSPost2010PropOp48
 70
     1
102
RTVSPost2010Prop49
280
     0
102
RTVSPost2010PropOp49
 70
     1
102
RTVSPost2010Prop50
 90
       50
102
RTVSPost2010PropOp50
 70
     1
102
RTVSPost2010Prop51ColorIndex
 90
      256
102
RTVSPost2010Prop51ColorRGB
 90
-16777216
102
RTVSPost2010PropOp51
 70
     0
102
RTVSPost2010Prop52
140
1.0
102
RTVSPost2010PropOp52
 70
     0
102
RTVSPost2010Prop53
 90
        2
102
RTVSPost2010PropOp53
 70
     1
102
RTVSPost2010Prop54
  1
strokes_ogs.tif
102
RTVSPost2010PropOp54
 70
     1
102
RTVSPost2010Prop55
280
     0
102
RTVSPost2010PropOp55
 70
     1
102
RTVSPost2010Prop56
140
1.0
102
RTVSPost2010PropOp56
 70
     1
102
RTVSPost2010Prop57
140
1.0
102
RTVSPost2010PropOp57
 70
     1
  0
XRECORD
  5
48C
102
{ACAD_REACTORS
330
48B
102
}
330
48B
100
AcDbXrecord
280
     1
102
RTVSPropertyOp0
 70
     1
102
RTVSPropertyOp1
 70
     1
102
RTVSPropertyOp2
 70
     1
102
RTVSPropertyOp3
 70
     1
102
RTVSPropertyOp4
 70
     1
102
RTVSPropertyOp5
 70
     1
102
RTVSPropertyOp6
 70
     1
102
RTVSPropertyOp7
 70
     1
102
RTVSPropertyOp8
 70
     1
102
RTVSPropertyOp9
 70
     1
102
RTVSPropertyOp10
 70
     1
102
RTVSPropertyOp11
 70
     1
102
RTVSPropertyOp12
 70
     1
102
RTVSPropertyOp13
 70
     1
102
RTVSPropertyOp14
 70
     1
102
RTVSPropertyOp15
 70
     1
102
RTVSPropertyOp16
 70
     1
102
RTVSPropertyOp17
 70
     1
102
RTVSPropertyOp18
 70
     1
102
RTVSPropertyOp19
 70
     1
102
RTVSPropertyOp20
 70
     1
102
RTVSPropertyOp21
 70
     1
102
RTVSPropertyOp22
 70
     1
102
RTVSPropertyOp23
 70
     1
102
RTVSPropertyOp24
 70
     1
102
RTVSPropertyOp25
 70
     1
102
RTVSPropertyOp26
 70
     1
102
RTVSPropertyOp27
 70
     1
102
RTVSPropertyOp28
 70
     1
102
RTVSPropertyOp29
 70
     1
102
RTVSPropertyOp30
 70
     1
102
RTVSPropertyOp31
 70
     1
102
RTVSPropertyOp32
 70
     1
102
RTVSPropertyOp33
 70
     1
102
RTVSPropertyOp34
 70
     1
102
RTVSPropertyOp35
 70
     1
102
RTVSPropertyOp36
 70
     1
102
RTVSPropertyOp37
 70
     1
102
RTVSPropertyOp38
 70
     1
102
RTVSPropertyOp39
 70
     1
102
RTVSPropertyOp40
 70
     1
102
RTVSPropertyOp41
 70
     1
102
RTVSPropertyOp42
 70
     1
102
RTVSPropertyOp43
 70
     1
102
RTVSPropertyOp44
 70
     1
102
RTVSPropertyOp45
 70
     1
102
RTVSPropertyOp46
 70
     1
102
RTVSPropertyOp47
 70
     1
102
RTVSPropertyOp48
 70
     1
102
RTVSPropertyOp49
 70
     1
102
RTVSPropertyOp50
 70
     1
102
RTVSPropertyOp51
 70
     0
102
RTVSPropertyOp52
 70
     0
102
RTVSPropertyOp53
 70
     1
102
RTVSPropertyOp54
 70
     1
102
RTVSPropertyOp55
 70
     1
102
RTVSPropertyOp56
 70
     1
102
RTVSPropertyOp57
 70
     1
102
RTVSPost2010Prop28
280
     0
102
RTVSPost2010PropOp28
 70
     1
102
RTVSPost2010Prop29
280
     1
102
RTVSPost2010PropOp29
 70
     1
102
RTVSPost2010Prop30
280
     1
102
RTVSPost2010PropOp30
 70
     1
102
RTVSPost2010Prop31
280
     0
102
RTVSPost2010PropOp31
 70
     1
102
RTVSPost2010Prop32
280
     0
102
RTVSPost2010PropOp32
 70
     1
102
RTVSPost2010Prop33
280
     0
102
RTVSPost2010PropOp33
 70
     1
102
RTVSPost2010Prop34
280
     0
102
RTVSPost2010PropOp34
 70
     1
102
RTVSPost2010Prop35
280
     0
102
RTVSPost2010PropOp35
 70
     1
102
RTVSPost2010Prop36
280
     0
102
RTVSPost2010PropOp36
 70
     1
102
RTVSPost2010Prop37
 90
       50
102
RTVSPost2010PropOp37
 70
     1
102
RTVSPost2010Prop38
140
0.0
102
RTVSPost2010PropOp38
 70
     1
102
RTVSPost2010Prop39
140
1.0
102
RTVSPost2010PropOp39
 70
     1
102
RTVSPost2010Prop40
 90
        0
102
RTVSPost2010PropOp40
 70
     1
102
RTVSPost2010Prop41ColorIndex
 90
       18
102
RTVSPost2010Prop41ColorRGB
 90
        0
102
RTVSPost2010PropOp41
 70
     1
102
RTVSPost2010Prop42
 90
       50
102
RTVSPost2010PropOp42
 70
     1
102
RTVSPost2010Prop43
 90
        3
102
RTVSPost2010PropOp43
 70
     1
102
RTVSPost2010Prop44ColorIndex
 90
        5
102
RTVSPost2010Prop44ColorRGB
 90
      255
102
RTVSPost2010PropOp44
 70
     1
102
RTVSPost2010Prop45
280
     0
102
RTVSPost2010PropOp45
 70
     1
102
RTVSPost2010Prop46
 90
       50
102
RTVSPost2010PropOp46
 70
     1
102
RTVSPost2010Prop47
 90
       50
102
RTVSPost2010PropOp47
 70
     1
102
RTVSPost2010Prop48
 90
       50
102
RTVSPost2010PropOp48
 70
     1
102
RTVSPost2010Prop49
280
     0
102
RTVSPost2010PropOp49
 70
     1
102
RTVSPost2010Prop50
 90
       50
102
RTVSPost2010PropOp50
 70
     1
102
RTVSPost2010Prop51ColorIndex
 90
      256
102
RTVSPost2010Prop51ColorRGB
 90
-16777216
102
RTVSPost2010PropOp51
 70
     0
102
RTVSPost2010Prop52
140
1.0
102
RTVSPost2010PropOp52
 70
     0
102
RTVSPost2010Prop53
 90
        2
102
RTVSPost2010PropOp53
 70
     1
102
RTVSPost2010Prop54
  1
strokes_ogs.tif
102
RTVSPost2010PropOp54
 70
     1
102
RTVSPost2010Prop55
280
     0
102
RTVSPost2010PropOp55
 70
     1
102
RTVSPost2010Prop56
140
1.0
102
RTVSPost2010PropOp56
 70
     1
102
RTVSPost2010Prop57
140
1.0
102
RTVSPost2010PropOp57
 70
     1
  0
XRECORD
  5
48E
102
{ACAD_REACTORS
330
48D
102
}
330
48D
100
AcDbXrecord
280
     1
102
RTVSPropertyOp0
 70
     1
102
RTVSPropertyOp1
 70
     1
102
RTVSPropertyOp2
 70
     1
102
RTVSPropertyOp3
 70
     1
102
RTVSPropertyOp4
 70
     1
102
RTVSPropertyOp5
 70
     1
102
RTVSPropertyOp6
 70
     1
102
RTVSPropertyOp7
 70
     1
102
RTVSPropertyOp8
 70
     1
102
RTVSPropertyOp9
 70
     1
102
RTVSPropertyOp10
 70
     1
102
RTVSPropertyOp11
 70
     1
102
RTVSPropertyOp12
 70
     1
102
RTVSPropertyOp13
 70
     1
102
RTVSPropertyOp14
 70
     1
102
RTVSPropertyOp15
 70
     1
102
RTVSPropertyOp16
 70
     1
102
RTVSPropertyOp17
 70
     1
102
RTVSPropertyOp18
 70
     1
102
RTVSPropertyOp19
 70
     1
102
RTVSPropertyOp20
 70
     1
102
RTVSPropertyOp21
 70
     1
102
RTVSPropertyOp22
 70
     1
102
RTVSPropertyOp23
 70
     1
102
RTVSPropertyOp24
 70
     1
102
RTVSPropertyOp25
 70
     1
102
RTVSPropertyOp26
 70
     1
102
RTVSPropertyOp27
 70
     1
102
RTVSPropertyOp28
 70
     1
102
RTVSPropertyOp29
 70
     1
102
RTVSPropertyOp30
 70
     1
102
RTVSPropertyOp31
 70
     1
102
RTVSPropertyOp32
 70
     1
102
RTVSPropertyOp33
 70
     1
102
RTVSPropertyOp34
 70
     1
102
RTVSPropertyOp35
 70
     1
102
RTVSPropertyOp36
 70
     1
102
RTVSPropertyOp37
 70
     1
102
RTVSPropertyOp38
 70
     1
102
RTVSPropertyOp39
 70
     1
102
RTVSPropertyOp40
 70
     1
102
RTVSPropertyOp41
 70
     1
102
RTVSPropertyOp42
 70
     1
102
RTVSPropertyOp43
 70
     1
102
RTVSPropertyOp44
 70
     1
102
RTVSPropertyOp45
 70
     1
102
RTVSPropertyOp46
 70
     1
102
RTVSPropertyOp47
 70
     1
102
RTVSPropertyOp48
 70
     1
102
RTVSPropertyOp49
 70
     1
102
RTVSPropertyOp50
 70
     1
102
RTVSPropertyOp51
 70
     0
102
RTVSPropertyOp52
 70
     0
102
RTVSPropertyOp53
 70
     1
102
RTVSPropertyOp54
 70
     1
102
RTVSPropertyOp55
 70
     1
102
RTVSPropertyOp56
 70
     1
102
RTVSPropertyOp57
 70
     1
102
RTVSPost2010Prop28
280
     0
102
RTVSPost2010PropOp28
 70
     1
102
RTVSPost2010Prop29
280
     1
102
RTVSPost2010PropOp29
 70
     1
102
RTVSPost2010Prop30
280
     1
102
RTVSPost2010PropOp30
 70
     1
102
RTVSPost2010Prop31
280
     0
102
RTVSPost2010PropOp31
 70
     1
102
RTVSPost2010Prop32
280
     0
102
RTVSPost2010PropOp32
 70
     1
102
RTVSPost2010Prop33
280
     0
102
RTVSPost2010PropOp33
 70
     1
102
RTVSPost2010Prop34
280
     0
102
RTVSPost2010PropOp34
 70
     1
102
RTVSPost2010Prop35
280
     0
102
RTVSPost2010PropOp35
 70
     1
102
RTVSPost2010Prop36
280
     0
102
RTVSPost2010PropOp36
 70
     1
102
RTVSPost2010Prop37
 90
       50
102
RTVSPost2010PropOp37
 70
     1
102
RTVSPost2010Prop38
140
0.0
102
RTVSPost2010PropOp38
 70
     1
102
RTVSPost2010Prop39
140
1.0
102
RTVSPost2010PropOp39
 70
     1
102
RTVSPost2010Prop40
 90
        0
102
RTVSPost2010PropOp40
 70
     1
102
RTVSPost2010Prop41ColorIndex
 90
       18
102
RTVSPost2010Prop41ColorRGB
 90
        0
102
RTVSPost2010PropOp41
 70
     1
102
RTVSPost2010Prop42
 90
       50
102
RTVSPost2010PropOp42
 70
     1
102
RTVSPost2010Prop43
 90
        3
102
RTVSPost2010PropOp43
 70
     1
102
RTVSPost2010Prop44ColorIndex
 90
        5
102
RTVSPost2010Prop44ColorRGB
 90
      255
102
RTVSPost2010PropOp44
 70
     1
102
RTVSPost2010Prop45
280
     0
102
RTVSPost2010PropOp45
 70
     1
102
RTVSPost2010Prop46
 90
       50
102
RTVSPost2010PropOp46
 70
     1
102
RTVSPost2010Prop47
 90
       50
102
RTVSPost2010PropOp47
 70
     1
102
RTVSPost2010Prop48
 90
       50
102
RTVSPost2010PropOp48
 70
     1
102
RTVSPost2010Prop49
280
     0
102
RTVSPost2010PropOp49
 70
     1
102
RTVSPost2010Prop50
 90
       50
102
RTVSPost2010PropOp50
 70
     1
102
RTVSPost2010Prop51ColorIndex
 90
      256
102
RTVSPost2010Prop51ColorRGB
 90
-16777216
102
RTVSPost2010PropOp51
 70
     0
102
RTVSPost2010Prop52
140
1.0
102
RTVSPost2010PropOp52
 70
     0
102
RTVSPost2010Prop53
 90
        2
102
RTVSPost2010PropOp53
 70
     1
102
RTVSPost2010Prop54
  1
strokes_ogs.tif
102
RTVSPost2010PropOp54
 70
     1
102
RTVSPost2010Prop55
280
     0
102
RTVSPost2010PropOp55
 70
     1
102
RTVSPost2010Prop56
140
1.0
102
RTVSPost2010PropOp56
 70
     1
102
RTVSPost2010Prop57
140
1.0
102
RTVSPost2010PropOp57
 70
     1
  0
XRECORD
  5
490
102
{ACAD_REACTORS
330
48F
102
}
330
48F
100
AcDbXrecord
280
     1
102
RTVSPropertyOp0
 70
     1
102
RTVSPropertyOp1
 70
     1
102
RTVSPropertyOp2
 70
     1
102
RTVSPropertyOp3
 70
     1
102
RTVSPropertyOp4
 70
     1
102
RTVSPropertyOp5
 70
     1
102
RTVSPropertyOp6
 70
     1
102
RTVSPropertyOp7
 70
     1
102
RTVSPropertyOp8
 70
     1
102
RTVSPropertyOp9
 70
     1
102
RTVSPropertyOp10
 70
     1
102
RTVSPropertyOp11
 70
     1
102
RTVSPropertyOp12
 70
     1
102
RTVSPropertyOp13
 70
     1
102
RTVSPropertyOp14
 70
     1
102
RTVSPropertyOp15
 70
     1
102
RTVSPropertyOp16
 70
     1
102
RTVSPropertyOp17
 70
     1
102
RTVSPropertyOp18
 70
     1
102
RTVSPropertyOp19
 70
     1
102
RTVSPropertyOp20
 70
     1
102
RTVSPropertyOp21
 70
     1
102
RTVSPropertyOp22
 70
     1
102
RTVSPropertyOp23
 70
     1
102
RTVSPropertyOp24
 70
     1
102
RTVSPropertyOp25
 70
     1
102
RTVSPropertyOp26
 70
     1
102
RTVSPropertyOp27
 70
     1
102
RTVSPropertyOp28
 70
     1
102
RTVSPropertyOp29
 70
     1
102
RTVSPropertyOp30
 70
     1
102
RTVSPropertyOp31
 70
     1
102
RTVSPropertyOp32
 70
     1
102
RTVSPropertyOp33
 70
     1
102
RTVSPropertyOp34
 70
     1
102
RTVSPropertyOp35
 70
     1
102
RTVSPropertyOp36
 70
     1
102
RTVSPropertyOp37
 70
     1
102
RTVSPropertyOp38
 70
     1
102
RTVSPropertyOp39
 70
     1
102
RTVSPropertyOp40
 70
     1
102
RTVSPropertyOp41
 70
     1
102
RTVSPropertyOp42
 70
     1
102
RTVSPropertyOp43
 70
     1
102
RTVSPropertyOp44
 70
     1
102
RTVSPropertyOp45
 70
     1
102
RTVSPropertyOp46
 70
     1
102
RTVSPropertyOp47
 70
     1
102
RTVSPropertyOp48
 70
     1
102
RTVSPropertyOp49
 70
     1
102
RTVSPropertyOp50
 70
     1
102
RTVSPropertyOp51
 70
     0
102
RTVSPropertyOp52
 70
     0
102
RTVSPropertyOp53
 70
     1
102
RTVSPropertyOp54
 70
     1
102
RTVSPropertyOp55
 70
     1
102
RTVSPropertyOp56
 70
     1
102
RTVSPropertyOp57
 70
     1
102
RTVSPost2010Prop28
280
     0
102
RTVSPost2010PropOp28
 70
     1
102
RTVSPost2010Prop29
280
     1
102
RTVSPost2010PropOp29
 70
     1
102
RTVSPost2010Prop30
280
     1
102
RTVSPost2010PropOp30
 70
     1
102
RTVSPost2010Prop31
280
     0
102
RTVSPost2010PropOp31
 70
     1
102
RTVSPost2010Prop32
280
     0
102
RTVSPost2010PropOp32
 70
     1
102
RTVSPost2010Prop33
280
     0
102
RTVSPost2010PropOp33
 70
     1
102
RTVSPost2010Prop34
280
     0
102
RTVSPost2010PropOp34
 70
     1
102
RTVSPost2010Prop35
280
     0
102
RTVSPost2010PropOp35
 70
     1
102
RTVSPost2010Prop36
280
     0
102
RTVSPost2010PropOp36
 70
     1
102
RTVSPost2010Prop37
 90
       50
102
RTVSPost2010PropOp37
 70
     1
102
RTVSPost2010Prop38
140
0.0
102
RTVSPost2010PropOp38
 70
     1
102
RTVSPost2010Prop39
140
1.0
102
RTVSPost2010PropOp39
 70
     1
102
RTVSPost2010Prop40
 90
        0
102
RTVSPost2010PropOp40
 70
     1
102
RTVSPost2010Prop41ColorIndex
 90
       18
102
RTVSPost2010Prop41ColorRGB
 90
        0
102
RTVSPost2010PropOp41
 70
     1
102
RTVSPost2010Prop42
 90
       50
102
RTVSPost2010PropOp42
 70
     1
102
RTVSPost2010Prop43
 90
        3
102
RTVSPost2010PropOp43
 70
     1
102
RTVSPost2010Prop44ColorIndex
 90
        5
102
RTVSPost2010Prop44ColorRGB
 90
      255
102
RTVSPost2010PropOp44
 70
     1
102
RTVSPost2010Prop45
280
     0
102
RTVSPost2010PropOp45
 70
     1
102
RTVSPost2010Prop46
 90
       50
102
RTVSPost2010PropOp46
 70
     1
102
RTVSPost2010Prop47
 90
       50
102
RTVSPost2010PropOp47
 70
     1
102
RTVSPost2010Prop48
 90
       50
102
RTVSPost2010PropOp48
 70
     1
102
RTVSPost2010Prop49
280
     0
102
RTVSPost2010PropOp49
 70
     1
102
RTVSPost2010Prop50
 90
       50
102
RTVSPost2010PropOp50
 70
     1
102
RTVSPost2010Prop51ColorIndex
 90
      256
102
RTVSPost2010Prop51ColorRGB
 90
-16777216
102
RTVSPost2010PropOp51
 70
     0
102
RTVSPost2010Prop52
140
1.0
102
RTVSPost2010PropOp52
 70
     0
102
RTVSPost2010Prop53
 90
        2
102
RTVSPost2010PropOp53
 70
     1
102
RTVSPost2010Prop54
  1
strokes_ogs.tif
102
RTVSPost2010PropOp54
 70
     1
102
RTVSPost2010Prop55
280
     0
102
RTVSPost2010PropOp55
 70
     1
102
RTVSPost2010Prop56
140
1.0
102
RTVSPost2010PropOp56
 70
     1
102
RTVSPost2010Prop57
140
1.0
102
RTVSPost2010PropOp57
 70
     1
  0
XRECORD
  5
492
102
{ACAD_REACTORS
330
491
102
}
330
491
100
AcDbXrecord
280
     1
102
RTVSPropertyOp0
 70
     1
102
RTVSPropertyOp1
 70
     1
102
RTVSPropertyOp2
 70
     1
102
RTVSPropertyOp3
 70
     1
102
RTVSPropertyOp4
 70
     1
102
RTVSPropertyOp5
 70
     1
102
RTVSPropertyOp6
 70
     1
102
RTVSPropertyOp7
 70
     1
102
RTVSPropertyOp8
 70
     1
102
RTVSPropertyOp9
 70
     1
102
RTVSPropertyOp10
 70
     1
102
RTVSPropertyOp11
 70
     1
102
RTVSPropertyOp12
 70
     1
102
RTVSPropertyOp13
 70
     1
102
RTVSPropertyOp14
 70
     1
102
RTVSPropertyOp15
 70
     1
102
RTVSPropertyOp16
 70
     1
102
RTVSPropertyOp17
 70
     1
102
RTVSPropertyOp18
 70
     1
102
RTVSPropertyOp19
 70
     1
102
RTVSPropertyOp20
 70
     1
102
RTVSPropertyOp21
 70
     1
102
RTVSPropertyOp22
 70
     1
102
RTVSPropertyOp23
 70
     1
102
RTVSPropertyOp24
 70
     1
102
RTVSPropertyOp25
 70
     1
102
RTVSPropertyOp26
 70
     1
102
RTVSPropertyOp27
 70
     1
102
RTVSPropertyOp28
 70
     1
102
RTVSPropertyOp29
 70
     1
102
RTVSPropertyOp30
 70
     1
102
RTVSPropertyOp31
 70
     1
102
RTVSPropertyOp32
 70
     1
102
RTVSPropertyOp33
 70
     1
102
RTVSPropertyOp34
 70
     1
102
RTVSPropertyOp35
 70
     1
102
RTVSPropertyOp36
 70
     1
102
RTVSPropertyOp37
 70
     1
102
RTVSPropertyOp38
 70
     1
102
RTVSPropertyOp39
 70
     1
102
RTVSPropertyOp40
 70
     1
102
RTVSPropertyOp41
 70
     1
102
RTVSPropertyOp42
 70
     1
102
RTVSPropertyOp43
 70
     1
102
RTVSPropertyOp44
 70
     1
102
RTVSPropertyOp45
 70
     1
102
RTVSPropertyOp46
 70
     1
102
RTVSPropertyOp47
 70
     1
102
RTVSPropertyOp48
 70
     1
102
RTVSPropertyOp49
 70
     1
102
RTVSPropertyOp50
 70
     1
102
RTVSPropertyOp51
 70
     0
102
RTVSPropertyOp52
 70
     0
102
RTVSPropertyOp53
 70
     1
102
RTVSPropertyOp54
 70
     1
102
RTVSPropertyOp55
 70
     1
102
RTVSPropertyOp56
 70
     1
102
RTVSPropertyOp57
 70
     1
102
RTVSPost2010Prop28
280
     0
102
RTVSPost2010PropOp28
 70
     1
102
RTVSPost2010Prop29
280
     1
102
RTVSPost2010PropOp29
 70
     1
102
RTVSPost2010Prop30
280
     1
102
RTVSPost2010PropOp30
 70
     1
102
RTVSPost2010Prop31
280
     0
102
RTVSPost2010PropOp31
 70
     1
102
RTVSPost2010Prop32
280
     0
102
RTVSPost2010PropOp32
 70
     1
102
RTVSPost2010Prop33
280
     0
102
RTVSPost2010PropOp33
 70
     1
102
RTVSPost2010Prop34
280
     0
102
RTVSPost2010PropOp34
 70
     1
102
RTVSPost2010Prop35
280
     0
102
RTVSPost2010PropOp35
 70
     1
102
RTVSPost2010Prop36
280
     0
102
RTVSPost2010PropOp36
 70
     1
102
RTVSPost2010Prop37
 90
       50
102
RTVSPost2010PropOp37
 70
     1
102
RTVSPost2010Prop38
140
0.0
102
RTVSPost2010PropOp38
 70
     1
102
RTVSPost2010Prop39
140
1.0
102
RTVSPost2010PropOp39
 70
     1
102
RTVSPost2010Prop40
 90
        0
102
RTVSPost2010PropOp40
 70
     1
102
RTVSPost2010Prop41ColorIndex
 90
       18
102
RTVSPost2010Prop41ColorRGB
 90
        0
102
RTVSPost2010PropOp41
 70
     1
102
RTVSPost2010Prop42
 90
       50
102
RTVSPost2010PropOp42
 70
     1
102
RTVSPost2010Prop43
 90
        3
102
RTVSPost2010PropOp43
 70
     1
102
RTVSPost2010Prop44ColorIndex
 90
        5
102
RTVSPost2010Prop44ColorRGB
 90
      255
102
RTVSPost2010PropOp44
 70
     1
102
RTVSPost2010Prop45
280
     0
102
RTVSPost2010PropOp45
 70
     1
102
RTVSPost2010Prop46
 90
       50
102
RTVSPost2010PropOp46
 70
     1
102
RTVSPost2010Prop47
 90
       50
102
RTVSPost2010PropOp47
 70
     1
102
RTVSPost2010Prop48
 90
       50
102
RTVSPost2010PropOp48
 70
     1
102
RTVSPost2010Prop49
280
     0
102
RTVSPost2010PropOp49
 70
     1
102
RTVSPost2010Prop50
 90
       50
102
RTVSPost2010PropOp50
 70
     1
102
RTVSPost2010Prop51ColorIndex
 90
      256
102
RTVSPost2010Prop51ColorRGB
 90
-16777216
102
RTVSPost2010PropOp51
 70
     0
102
RTVSPost2010Prop52
140
1.0
102
RTVSPost2010PropOp52
 70
     0
102
RTVSPost2010Prop53
 90
        2
102
RTVSPost2010PropOp53
 70
     1
102
RTVSPost2010Prop54
  1
strokes_ogs.tif
102
RTVSPost2010PropOp54
 70
     1
102
RTVSPost2010Prop55
280
     0
102
RTVSPost2010PropOp55
 70
     1
102
RTVSPost2010Prop56
140
1.0
102
RTVSPost2010PropOp56
 70
     1
102
RTVSPost2010Prop57
140
1.0
102
RTVSPost2010PropOp57
 70
     1
  0
XRECORD
  5
498
102
{ACAD_REACTORS
330
497
102
}
330
497
100
AcDbXrecord
280
     1
102
RTVSPropertyOp0
 70
     1
102
RTVSPropertyOp1
 70
     1
102
RTVSPropertyOp2
 70
     1
102
RTVSPropertyOp3
 70
     1
102
RTVSPropertyOp4
 70
     1
102
RTVSPropertyOp5
 70
     1
102
RTVSPropertyOp6
 70
     1
102
RTVSPropertyOp7
 70
     1
102
RTVSPropertyOp8
 70
     1
102
RTVSPropertyOp9
 70
     1
102
RTVSPropertyOp10
 70
     1
102
RTVSPropertyOp11
 70
     1
102
RTVSPropertyOp12
 70
     1
102
RTVSPropertyOp13
 70
     1
102
RTVSPropertyOp14
 70
     1
102
RTVSPropertyOp15
 70
     1
102
RTVSPropertyOp16
 70
     1
102
RTVSPropertyOp17
 70
     1
102
RTVSPropertyOp18
 70
     1
102
RTVSPropertyOp19
 70
     1
102
RTVSPropertyOp20
 70
     1
102
RTVSPropertyOp21
 70
     1
102
RTVSPropertyOp22
 70
     1
102
RTVSPropertyOp23
 70
     1
102
RTVSPropertyOp24
 70
     1
102
RTVSPropertyOp25
 70
     1
102
RTVSPropertyOp26
 70
     1
102
RTVSPropertyOp27
 70
     1
102
RTVSPropertyOp28
 70
     1
102
RTVSPropertyOp29
 70
     1
102
RTVSPropertyOp30
 70
     1
102
RTVSPropertyOp31
 70
     1
102
RTVSPropertyOp32
 70
     1
102
RTVSPropertyOp33
 70
     1
102
RTVSPropertyOp34
 70
     1
102
RTVSPropertyOp35
 70
     1
102
RTVSPropertyOp36
 70
     1
102
RTVSPropertyOp37
 70
     1
102
RTVSPropertyOp38
 70
     1
102
RTVSPropertyOp39
 70
     1
102
RTVSPropertyOp40
 70
     1
102
RTVSPropertyOp41
 70
     1
102
RTVSPropertyOp42
 70
     1
102
RTVSPropertyOp43
 70
     1
102
RTVSPropertyOp44
 70
     1
102
RTVSPropertyOp45
 70
     1
102
RTVSPropertyOp46
 70
     1
102
RTVSPropertyOp47
 70
     1
102
RTVSPropertyOp48
 70
     1
102
RTVSPropertyOp49
 70
     1
102
RTVSPropertyOp50
 70
     1
102
RTVSPropertyOp51
 70
     0
102
RTVSPropertyOp52
 70
     0
102
RTVSPropertyOp53
 70
     1
102
RTVSPropertyOp54
 70
     1
102
RTVSPropertyOp55
 70
     1
102
RTVSPropertyOp56
 70
     1
102
RTVSPropertyOp57
 70
     1
102
RTVSPost2010Prop28
280
     0
102
RTVSPost2010PropOp28
 70
     1
102
RTVSPost2010Prop29
280
     1
102
RTVSPost2010PropOp29
 70
     1
102
RTVSPost2010Prop30
280
     1
102
RTVSPost2010PropOp30
 70
     1
102
RTVSPost2010Prop31
280
     0
102
RTVSPost2010PropOp31
 70
     1
102
RTVSPost2010Prop32
280
     0
102
RTVSPost2010PropOp32
 70
     1
102
RTVSPost2010Prop33
280
     0
102
RTVSPost2010PropOp33
 70
     1
102
RTVSPost2010Prop34
280
     0
102
RTVSPost2010PropOp34
 70
     1
102
RTVSPost2010Prop35
280
     0
102
RTVSPost2010PropOp35
 70
     1
102
RTVSPost2010Prop36
280
     0
102
RTVSPost2010PropOp36
 70
     1
102
RTVSPost2010Prop37
 90
       50
102
RTVSPost2010PropOp37
 70
     1
102
RTVSPost2010Prop38
140
0.0
102
RTVSPost2010PropOp38
 70
     1
102
RTVSPost2010Prop39
140
1.0
102
RTVSPost2010PropOp39
 70
     1
102
RTVSPost2010Prop40
 90
        0
102
RTVSPost2010PropOp40
 70
     1
102
RTVSPost2010Prop41ColorIndex
 90
       18
102
RTVSPost2010Prop41ColorRGB
 90
        0
102
RTVSPost2010PropOp41
 70
     1
102
RTVSPost2010Prop42
 90
       50
102
RTVSPost2010PropOp42
 70
     1
102
RTVSPost2010Prop43
 90
        3
102
RTVSPost2010PropOp43
 70
     1
102
RTVSPost2010Prop44ColorIndex
 90
        5
102
RTVSPost2010Prop44ColorRGB
 90
      255
102
RTVSPost2010PropOp44
 70
     1
102
RTVSPost2010Prop45
280
     0
102
RTVSPost2010PropOp45
 70
     1
102
RTVSPost2010Prop46
 90
       50
102
RTVSPost2010PropOp46
 70
     1
102
RTVSPost2010Prop47
 90
       50
102
RTVSPost2010PropOp47
 70
     1
102
RTVSPost2010Prop48
 90
       50
102
RTVSPost2010PropOp48
 70
     1
102
RTVSPost2010Prop49
280
     0
102
RTVSPost2010PropOp49
 70
     1
102
RTVSPost2010Prop50
 90
       50
102
RTVSPost2010PropOp50
 70
     1
102
RTVSPost2010Prop51ColorIndex
 90
      256
102
RTVSPost2010Prop51ColorRGB
 90
-16777216
102
RTVSPost2010PropOp51
 70
     0
102
RTVSPost2010Prop52
140
1.0
102
RTVSPost2010PropOp52
 70
     0
102
RTVSPost2010Prop53
 90
        2
102
RTVSPost2010PropOp53
 70
     1
102
RTVSPost2010Prop54
  1
strokes_ogs.tif
102
RTVSPost2010PropOp54
 70
     1
102
RTVSPost2010Prop55
280
     0
102
RTVSPost2010PropOp55
 70
     1
102
RTVSPost2010Prop56
140
1.0
102
RTVSPost2010PropOp56
 70
     1
102
RTVSPost2010Prop57
140
1.0
102
RTVSPost2010PropOp57
 70
     1
  0
XRECORD
  5
4AC
102
{ACAD_REACTORS
330
4AB
102
}
330
4AB
100
AcDbXrecord
280
     1
102
RTVSPropertyOp0
 70
     0
102
RTVSPropertyOp1
 70
     0
102
RTVSPropertyOp2
 70
     0
102
RTVSPropertyOp3
 70
     0
102
RTVSPropertyOp4
 70
     0
102
RTVSPropertyOp5
 70
     0
102
RTVSPropertyOp6
 70
     0
102
RTVSPropertyOp7
 70
     0
102
RTVSPropertyOp8
 70
     0
102
RTVSPropertyOp9
 70
     0
102
RTVSPropertyOp10
 70
     0
102
RTVSPropertyOp11
 70
     0
102
RTVSPropertyOp12
 70
     0
102
RTVSPropertyOp13
 70
     0
102
RTVSPropertyOp14
 70
     2
102
RTVSPropertyOp15
 70
     0
102
RTVSPropertyOp16
 70
     0
102
RTVSPropertyOp17
 70
     0
102
RTVSPropertyOp18
 70
     0
102
RTVSPropertyOp19
 70
     0
102
RTVSPropertyOp20
 70
     0
102
RTVSPropertyOp21
 70
     0
102
RTVSPropertyOp22
 70
     0
102
RTVSPropertyOp23
 70
     0
102
RTVSPropertyOp24
 70
     0
102
RTVSPropertyOp25
 70
     0
102
RTVSPropertyOp26
 70
     0
102
RTVSPropertyOp27
 70
     0
102
RTVSPropertyOp28
 70
     0
102
RTVSPropertyOp29
 70
     0
102
RTVSPropertyOp30
 70
     0
102
RTVSPropertyOp31
 70
     0
102
RTVSPropertyOp32
 70
     0
102
RTVSPropertyOp33
 70
     0
102
RTVSPropertyOp34
 70
     0
102
RTVSPropertyOp35
 70
     0
102
RTVSPropertyOp36
 70
     0
102
RTVSPropertyOp37
 70
     0
102
RTVSPropertyOp38
 70
     0
102
RTVSPropertyOp39
 70
     0
102
RTVSPropertyOp40
 70
     0
102
RTVSPropertyOp41
 70
     0
102
RTVSPropertyOp42
 70
     0
102
RTVSPropertyOp43
 70
     0
102
RTVSPropertyOp44
 70
     0
102
RTVSPropertyOp45
 70
     0
102
RTVSPropertyOp46
 70
     0
102
RTVSPropertyOp47
 70
     0
102
RTVSPropertyOp48
 70
     0
102
RTVSPropertyOp49
 70
     0
102
RTVSPropertyOp50
 70
     0
102
RTVSPropertyOp51
 70
     0
102
RTVSPropertyOp52
 70
     0
102
RTVSPropertyOp53
 70
     0
102
RTVSPropertyOp54
 70
     0
102
RTVSPropertyOp55
 70
     0
102
RTVSPropertyOp56
 70
     0
102
RTVSPropertyOp57
 70
     0
102
RTVSPost2010Prop28
280
     0
102
RTVSPost2010PropOp28
 70
     0
102
RTVSPost2010Prop29
280
     1
102
RTVSPost2010PropOp29
 70
     0
102
RTVSPost2010Prop30
280
     1
102
RTVSPost2010PropOp30
 70
     0
102
RTVSPost2010Prop31
280
     0
102
RTVSPost2010PropOp31
 70
     0
102
RTVSPost2010Prop32
280
     0
102
RTVSPost2010PropOp32
 70
     0
102
RTVSPost2010Prop33
280
     0
102
RTVSPost2010PropOp33
 70
     0
102
RTVSPost2010Prop34
280
     0
102
RTVSPost2010PropOp34
 70
     0
102
RTVSPost2010Prop35
280
     0
102
RTVSPost2010PropOp35
 70
     0
102
RTVSPost2010Prop36
280
     0
102
RTVSPost2010PropOp36
 70
     0
102
RTVSPost2010Prop37
 90
       50
102
RTVSPost2010PropOp37
 70
     0
102
RTVSPost2010Prop38
140
0.0
102
RTVSPost2010PropOp38
 70
     0
102
RTVSPost2010Prop39
140
1.0
102
RTVSPost2010PropOp39
 70
     0
102
RTVSPost2010Prop40
 90
        0
102
RTVSPost2010PropOp40
 70
     0
102
RTVSPost2010Prop41ColorIndex
 90
       18
102
RTVSPost2010Prop41ColorRGB
 90
        0
102
RTVSPost2010PropOp41
 70
     0
102
RTVSPost2010Prop42
 90
       50
102
RTVSPost2010PropOp42
 70
     0
102
RTVSPost2010Prop43
 90
        3
102
RTVSPost2010PropOp43
 70
     0
102
RTVSPost2010Prop44ColorIndex
 90
        5
102
RTVSPost2010Prop44ColorRGB
 90
      255
102
RTVSPost2010PropOp44
 70
     0
102
RTVSPost2010Prop45
280
     0
102
RTVSPost2010PropOp45
 70
     0
102
RTVSPost2010Prop46
 90
       50
102
RTVSPost2010PropOp46
 70
     0
102
RTVSPost2010Prop47
 90
       50
102
RTVSPost2010PropOp47
 70
     0
102
RTVSPost2010Prop48
 90
       50
102
RTVSPost2010PropOp48
 70
     0
102
RTVSPost2010Prop49
280
     0
102
RTVSPost2010PropOp49
 70
     0
102
RTVSPost2010Prop50
 90
       50
102
RTVSPost2010PropOp50
 70
     0
102
RTVSPost2010Prop51ColorIndex
 90
      256
102
RTVSPost2010Prop51ColorRGB
 90
-16777216
102
RTVSPost2010PropOp51
 70
     0
102
RTVSPost2010Prop52
140
1.0
102
RTVSPost2010PropOp52
 70
     0
102
RTVSPost2010Prop53
 90
        2
102
RTVSPost2010PropOp53
 70
     0
102
RTVSPost2010Prop54
  1
strokes_ogs.tif
102
RTVSPost2010PropOp54
 70
     0
102
RTVSPost2010Prop55
280
     0
102
RTVSPost2010PropOp55
 70
     0
102
RTVSPost2010Prop56
140
1.0
102
RTVSPost2010PropOp56
 70
     0
102
RTVSPost2010Prop57
140
1.0
102
RTVSPost2010PropOp57
 70
     0
  0
XRECORD
  5
4A6
102
{ACAD_REACTORS
330
4A5
102
}
330
4A5
100
AcDbXrecord
280
     1
102
RTVSPropertyOp0
 70
     1
102
RTVSPropertyOp1
 70
     1
102
RTVSPropertyOp2
 70
     1
102
RTVSPropertyOp3
 70
     1
102
RTVSPropertyOp4
 70
     1
102
RTVSPropertyOp5
 70
     1
102
RTVSPropertyOp6
 70
     1
102
RTVSPropertyOp7
 70
     1
102
RTVSPropertyOp8
 70
     1
102
RTVSPropertyOp9
 70
     1
102
RTVSPropertyOp10
 70
     1
102
RTVSPropertyOp11
 70
     1
102
RTVSPropertyOp12
 70
     1
102
RTVSPropertyOp13
 70
     1
102
RTVSPropertyOp14
 70
     1
102
RTVSPropertyOp15
 70
     1
102
RTVSPropertyOp16
 70
     1
102
RTVSPropertyOp17
 70
     1
102
RTVSPropertyOp18
 70
     1
102
RTVSPropertyOp19
 70
     1
102
RTVSPropertyOp20
 70
     1
102
RTVSPropertyOp21
 70
     1
102
RTVSPropertyOp22
 70
     1
102
RTVSPropertyOp23
 70
     1
102
RTVSPropertyOp24
 70
     1
102
RTVSPropertyOp25
 70
     1
102
RTVSPropertyOp26
 70
     1
102
RTVSPropertyOp27
 70
     1
102
RTVSPropertyOp28
 70
     1
102
RTVSPropertyOp29
 70
     1
102
RTVSPropertyOp30
 70
     1
102
RTVSPropertyOp31
 70
     1
102
RTVSPropertyOp32
 70
     1
102
RTVSPropertyOp33
 70
     1
102
RTVSPropertyOp34
 70
     1
102
RTVSPropertyOp35
 70
     1
102
RTVSPropertyOp36
 70
     1
102
RTVSPropertyOp37
 70
     1
102
RTVSPropertyOp38
 70
     1
102
RTVSPropertyOp39
 70
     1
102
RTVSPropertyOp40
 70
     1
102
RTVSPropertyOp41
 70
     1
102
RTVSPropertyOp42
 70
     1
102
RTVSPropertyOp43
 70
     1
102
RTVSPropertyOp44
 70
     1
102
RTVSPropertyOp45
 70
     1
102
RTVSPropertyOp46
 70
     1
102
RTVSPropertyOp47
 70
     1
102
RTVSPropertyOp48
 70
     1
102
RTVSPropertyOp49
 70
     1
102
RTVSPropertyOp50
 70
     1
102
RTVSPropertyOp51
 70
     0
102
RTVSPropertyOp52
 70
     0
102
RTVSPropertyOp53
 70
     1
102
RTVSPropertyOp54
 70
     1
102
RTVSPropertyOp55
 70
     1
102
RTVSPropertyOp56
 70
     1
102
RTVSPropertyOp57
 70
     1
102
RTVSPost2010Prop28
280
     0
102
RTVSPost2010PropOp28
 70
     1
102
RTVSPost2010Prop29
280
     1
102
RTVSPost2010PropOp29
 70
     1
102
RTVSPost2010Prop30
280
     1
102
RTVSPost2010PropOp30
 70
     1
102
RTVSPost2010Prop31
280
     0
102
RTVSPost2010PropOp31
 70
     1
102
RTVSPost2010Prop32
280
     0
102
RTVSPost2010PropOp32
 70
     1
102
RTVSPost2010Prop33
280
     0
102
RTVSPost2010PropOp33
 70
     1
102
RTVSPost2010Prop34
280
     0
102
RTVSPost2010PropOp34
 70
     1
102
RTVSPost2010Prop35
280
     0
102
RTVSPost2010PropOp35
 70
     1
102
RTVSPost2010Prop36
280
     0
102
RTVSPost2010PropOp36
 70
     1
102
RTVSPost2010Prop37
 90
       50
102
RTVSPost2010PropOp37
 70
     1
102
RTVSPost2010Prop38
140
0.0
102
RTVSPost2010PropOp38
 70
     1
102
RTVSPost2010Prop39
140
1.0
102
RTVSPost2010PropOp39
 70
     1
102
RTVSPost2010Prop40
 90
        0
102
RTVSPost2010PropOp40
 70
     1
102
RTVSPost2010Prop41ColorIndex
 90
       18
102
RTVSPost2010Prop41ColorRGB
 90
        0
102
RTVSPost2010PropOp41
 70
     1
102
RTVSPost2010Prop42
 90
       50
102
RTVSPost2010PropOp42
 70
     1
102
RTVSPost2010Prop43
 90
        3
102
RTVSPost2010PropOp43
 70
     1
102
RTVSPost2010Prop44ColorIndex
 90
        5
102
RTVSPost2010Prop44ColorRGB
 90
      255
102
RTVSPost2010PropOp44
 70
     1
102
RTVSPost2010Prop45
280
     0
102
RTVSPost2010PropOp45
 70
     1
102
RTVSPost2010Prop46
 90
       50
102
RTVSPost2010PropOp46
 70
     1
102
RTVSPost2010Prop47
 90
       50
102
RTVSPost2010PropOp47
 70
     1
102
RTVSPost2010Prop48
 90
       50
102
RTVSPost2010PropOp48
 70
     1
102
RTVSPost2010Prop49
280
     0
102
RTVSPost2010PropOp49
 70
     1
102
RTVSPost2010Prop50
 90
       50
102
RTVSPost2010PropOp50
 70
     1
102
RTVSPost2010Prop51ColorIndex
 90
      256
102
RTVSPost2010Prop51ColorRGB
 90
-16777216
102
RTVSPost2010PropOp51
 70
     0
102
RTVSPost2010Prop52
140
1.0
102
RTVSPost2010PropOp52
 70
     0
102
RTVSPost2010Prop53
 90
        2
102
RTVSPost2010PropOp53
 70
     1
102
RTVSPost2010Prop54
  1
strokes_ogs.tif
102
RTVSPost2010PropOp54
 70
     1
102
RTVSPost2010Prop55
280
     0
102
RTVSPost2010PropOp55
 70
     1
102
RTVSPost2010Prop56
140
1.0
102
RTVSPost2010PropOp56
 70
     1
102
RTVSPost2010Prop57
140
1.0
102
RTVSPost2010PropOp57
 70
     1
  0
XRECORD
  5
4AE
102
{ACAD_REACTORS
330
4AD
102
}
330
4AD
100
AcDbXrecord
280
     1
102
RTVSPropertyOp0
 70
     0
102
RTVSPropertyOp1
 70
     0
102
RTVSPropertyOp2
 70
     0
102
RTVSPropertyOp3
 70
     0
102
RTVSPropertyOp4
 70
     0
102
RTVSPropertyOp5
 70
     0
102
RTVSPropertyOp6
 70
     0
102
RTVSPropertyOp7
 70
     0
102
RTVSPropertyOp8
 70
     0
102
RTVSPropertyOp9
 70
     0
102
RTVSPropertyOp10
 70
     0
102
RTVSPropertyOp11
 70
     0
102
RTVSPropertyOp12
 70
     0
102
RTVSPropertyOp13
 70
     0
102
RTVSPropertyOp14
 70
     2
102
RTVSPropertyOp15
 70
     0
102
RTVSPropertyOp16
 70
     0
102
RTVSPropertyOp17
 70
     0
102
RTVSPropertyOp18
 70
     0
102
RTVSPropertyOp19
 70
     0
102
RTVSPropertyOp20
 70
     0
102
RTVSPropertyOp21
 70
     0
102
RTVSPropertyOp22
 70
     0
102
RTVSPropertyOp23
 70
     0
102
RTVSPropertyOp24
 70
     0
102
RTVSPropertyOp25
 70
     0
102
RTVSPropertyOp26
 70
     0
102
RTVSPropertyOp27
 70
     0
102
RTVSPropertyOp28
 70
     0
102
RTVSPropertyOp29
 70
     0
102
RTVSPropertyOp30
 70
     0
102
RTVSPropertyOp31
 70
     0
102
RTVSPropertyOp32
 70
     0
102
RTVSPropertyOp33
 70
     0
102
RTVSPropertyOp34
 70
     0
102
RTVSPropertyOp35
 70
     0
102
RTVSPropertyOp36
 70
     0
102
RTVSPropertyOp37
 70
     0
102
RTVSPropertyOp38
 70
     0
102
RTVSPropertyOp39
 70
     0
102
RTVSPropertyOp40
 70
     0
102
RTVSPropertyOp41
 70
     0
102
RTVSPropertyOp42
 70
     0
102
RTVSPropertyOp43
 70
     0
102
RTVSPropertyOp44
 70
     0
102
RTVSPropertyOp45
 70
     0
102
RTVSPropertyOp46
 70
     0
102
RTVSPropertyOp47
 70
     0
102
RTVSPropertyOp48
 70
     0
102
RTVSPropertyOp49
 70
     0
102
RTVSPropertyOp50
 70
     0
102
RTVSPropertyOp51
 70
     0
102
RTVSPropertyOp52
 70
     0
102
RTVSPropertyOp53
 70
     0
102
RTVSPropertyOp54
 70
     0
102
RTVSPropertyOp55
 70
     0
102
RTVSPropertyOp56
 70
     0
102
RTVSPropertyOp57
 70
     0
102
RTVSPost2010Prop28
280
     0
102
RTVSPost2010PropOp28
 70
     0
102
RTVSPost2010Prop29
280
     1
102
RTVSPost2010PropOp29
 70
     0
102
RTVSPost2010Prop30
280
     1
102
RTVSPost2010PropOp30
 70
     0
102
RTVSPost2010Prop31
280
     0
102
RTVSPost2010PropOp31
 70
     0
102
RTVSPost2010Prop32
280
     0
102
RTVSPost2010PropOp32
 70
     0
102
RTVSPost2010Prop33
280
     0
102
RTVSPost2010PropOp33
 70
     0
102
RTVSPost2010Prop34
280
     0
102
RTVSPost2010PropOp34
 70
     0
102
RTVSPost2010Prop35
280
     0
102
RTVSPost2010PropOp35
 70
     0
102
RTVSPost2010Prop36
280
     0
102
RTVSPost2010PropOp36
 70
     0
102
RTVSPost2010Prop37
 90
       50
102
RTVSPost2010PropOp37
 70
     0
102
RTVSPost2010Prop38
140
0.0
102
RTVSPost2010PropOp38
 70
     0
102
RTVSPost2010Prop39
140
1.0
102
RTVSPost2010PropOp39
 70
     0
102
RTVSPost2010Prop40
 90
        0
102
RTVSPost2010PropOp40
 70
     0
102
RTVSPost2010Prop41ColorIndex
 90
       18
102
RTVSPost2010Prop41ColorRGB
 90
        0
102
RTVSPost2010PropOp41
 70
     0
102
RTVSPost2010Prop42
 90
       50
102
RTVSPost2010PropOp42
 70
     0
102
RTVSPost2010Prop43
 90
        3
102
RTVSPost2010PropOp43
 70
     0
102
RTVSPost2010Prop44ColorIndex
 90
        5
102
RTVSPost2010Prop44ColorRGB
 90
      255
102
RTVSPost2010PropOp44
 70
     0
102
RTVSPost2010Prop45
280
     0
102
RTVSPost2010PropOp45
 70
     0
102
RTVSPost2010Prop46
 90
       50
102
RTVSPost2010PropOp46
 70
     0
102
RTVSPost2010Prop47
 90
       50
102
RTVSPost2010PropOp47
 70
     0
102
RTVSPost2010Prop48
 90
       50
102
RTVSPost2010PropOp48
 70
     0
102
RTVSPost2010Prop49
280
     0
102
RTVSPost2010PropOp49
 70
     0
102
RTVSPost2010Prop50
 90
       50
102
RTVSPost2010PropOp50
 70
     0
102
RTVSPost2010Prop51ColorIndex
 90
      256
102
RTVSPost2010Prop51ColorRGB
 90
-16777216
102
RTVSPost2010PropOp51
 70
     0
102
RTVSPost2010Prop52
140
1.0
102
RTVSPost2010PropOp52
 70
     0
102
RTVSPost2010Prop53
 90
        2
102
RTVSPost2010PropOp53
 70
     0
102
RTVSPost2010Prop54
  1
strokes_ogs.tif
102
RTVSPost2010PropOp54
 70
     0
102
RTVSPost2010Prop55
280
     0
102
RTVSPost2010PropOp55
 70
     0
102
RTVSPost2010Prop56
140
1.0
102
RTVSPost2010PropOp56
 70
     0
102
RTVSPost2010Prop57
140
1.0
102
RTVSPost2010PropOp57
 70
     0
  0
XRECORD
  5
49C
102
{ACAD_REACTORS
330
49B
102
}
330
49B
100
AcDbXrecord
280
     1
102
RTVSPropertyOp0
 70
     1
102
RTVSPropertyOp1
 70
     1
102
RTVSPropertyOp2
 70
     1
102
RTVSPropertyOp3
 70
     1
102
RTVSPropertyOp4
 70
     1
102
RTVSPropertyOp5
 70
     1
102
RTVSPropertyOp6
 70
     1
102
RTVSPropertyOp7
 70
     1
102
RTVSPropertyOp8
 70
     1
102
RTVSPropertyOp9
 70
     1
102
RTVSPropertyOp10
 70
     1
102
RTVSPropertyOp11
 70
     1
102
RTVSPropertyOp12
 70
     1
102
RTVSPropertyOp13
 70
     1
102
RTVSPropertyOp14
 70
     1
102
RTVSPropertyOp15
 70
     1
102
RTVSPropertyOp16
 70
     1
102
RTVSPropertyOp17
 70
     1
102
RTVSPropertyOp18
 70
     1
102
RTVSPropertyOp19
 70
     1
102
RTVSPropertyOp20
 70
     1
102
RTVSPropertyOp21
 70
     1
102
RTVSPropertyOp22
 70
     1
102
RTVSPropertyOp23
 70
     1
102
RTVSPropertyOp24
 70
     1
102
RTVSPropertyOp25
 70
     1
102
RTVSPropertyOp26
 70
     1
102
RTVSPropertyOp27
 70
     1
102
RTVSPropertyOp28
 70
     1
102
RTVSPropertyOp29
 70
     1
102
RTVSPropertyOp30
 70
     1
102
RTVSPropertyOp31
 70
     1
102
RTVSPropertyOp32
 70
     1
102
RTVSPropertyOp33
 70
     1
102
RTVSPropertyOp34
 70
     1
102
RTVSPropertyOp35
 70
     1
102
RTVSPropertyOp36
 70
     1
102
RTVSPropertyOp37
 70
     1
102
RTVSPropertyOp38
 70
     1
102
RTVSPropertyOp39
 70
     1
102
RTVSPropertyOp40
 70
     1
102
RTVSPropertyOp41
 70
     1
102
RTVSPropertyOp42
 70
     1
102
RTVSPropertyOp43
 70
     1
102
RTVSPropertyOp44
 70
     1
102
RTVSPropertyOp45
 70
     1
102
RTVSPropertyOp46
 70
     1
102
RTVSPropertyOp47
 70
     1
102
RTVSPropertyOp48
 70
     1
102
RTVSPropertyOp49
 70
     1
102
RTVSPropertyOp50
 70
     1
102
RTVSPropertyOp51
 70
     0
102
RTVSPropertyOp52
 70
     0
102
RTVSPropertyOp53
 70
     1
102
RTVSPropertyOp54
 70
     1
102
RTVSPropertyOp55
 70
     1
102
RTVSPropertyOp56
 70
     1
102
RTVSPropertyOp57
 70
     1
102
RTVSPost2010Prop28
280
     0
102
RTVSPost2010PropOp28
 70
     1
102
RTVSPost2010Prop29
280
     1
102
RTVSPost2010PropOp29
 70
     1
102
RTVSPost2010Prop30
280
     1
102
RTVSPost2010PropOp30
 70
     1
102
RTVSPost2010Prop31
280
     0
102
RTVSPost2010PropOp31
 70
     1
102
RTVSPost2010Prop32
280
     0
102
RTVSPost2010PropOp32
 70
     1
102
RTVSPost2010Prop33
280
     0
102
RTVSPost2010PropOp33
 70
     1
102
RTVSPost2010Prop34
280
     0
102
RTVSPost2010PropOp34
 70
     1
102
RTVSPost2010Prop35
280
     0
102
RTVSPost2010PropOp35
 70
     1
102
RTVSPost2010Prop36
280
     0
102
RTVSPost2010PropOp36
 70
     1
102
RTVSPost2010Prop37
 90
       50
102
RTVSPost2010PropOp37
 70
     1
102
RTVSPost2010Prop38
140
0.0
102
RTVSPost2010PropOp38
 70
     1
102
RTVSPost2010Prop39
140
1.0
102
RTVSPost2010PropOp39
 70
     1
102
RTVSPost2010Prop40
 90
        0
102
RTVSPost2010PropOp40
 70
     1
102
RTVSPost2010Prop41ColorIndex
 90
       18
102
RTVSPost2010Prop41ColorRGB
 90
        0
102
RTVSPost2010PropOp41
 70
     1
102
RTVSPost2010Prop42
 90
       50
102
RTVSPost2010PropOp42
 70
     1
102
RTVSPost2010Prop43
 90
        3
102
RTVSPost2010PropOp43
 70
     1
102
RTVSPost2010Prop44ColorIndex
 90
        5
102
RTVSPost2010Prop44ColorRGB
 90
      255
102
RTVSPost2010PropOp44
 70
     1
102
RTVSPost2010Prop45
280
     0
102
RTVSPost2010PropOp45
 70
     1
102
RTVSPost2010Prop46
 90
       50
102
RTVSPost2010PropOp46
 70
     1
102
RTVSPost2010Prop47
 90
       50
102
RTVSPost2010PropOp47
 70
     1
102
RTVSPost2010Prop48
 90
       50
102
RTVSPost2010PropOp48
 70
     1
102
RTVSPost2010Prop49
280
     0
102
RTVSPost2010PropOp49
 70
     1
102
RTVSPost2010Prop50
 90
       50
102
RTVSPost2010PropOp50
 70
     1
102
RTVSPost2010Prop51ColorIndex
 90
      256
102
RTVSPost2010Prop51ColorRGB
 90
-16777216
102
RTVSPost2010PropOp51
 70
     0
102
RTVSPost2010Prop52
140
1.0
102
RTVSPost2010PropOp52
 70
     0
102
RTVSPost2010Prop53
 90
        2
102
RTVSPost2010PropOp53
 70
     1
102
RTVSPost2010Prop54
  1
strokes_ogs.tif
102
RTVSPost2010PropOp54
 70
     1
102
RTVSPost2010Prop55
280
     0
102
RTVSPost2010PropOp55
 70
     1
102
RTVSPost2010Prop56
140
1.0
102
RTVSPost2010PropOp56
 70
     1
102
RTVSPost2010Prop57
140
1.0
102
RTVSPost2010PropOp57
 70
     1
  0
XRECORD
  5
4BA
102
{ACAD_REACTORS
330
4B9
102
}
330
4B9
100
AcDbXrecord
280
     1
102
RTVSPropertyOp0
 70
     1
102
RTVSPropertyOp1
 70
     1
102
RTVSPropertyOp2
 70
     1
102
RTVSPropertyOp3
 70
     1
102
RTVSPropertyOp4
 70
     1
102
RTVSPropertyOp5
 70
     1
102
RTVSPropertyOp6
 70
     1
102
RTVSPropertyOp7
 70
     1
102
RTVSPropertyOp8
 70
     1
102
RTVSPropertyOp9
 70
     1
102
RTVSPropertyOp10
 70
     1
102
RTVSPropertyOp11
 70
     1
102
RTVSPropertyOp12
 70
     1
102
RTVSPropertyOp13
 70
     1
102
RTVSPropertyOp14
 70
     1
102
RTVSPropertyOp15
 70
     1
102
RTVSPropertyOp16
 70
     1
102
RTVSPropertyOp17
 70
     1
102
RTVSPropertyOp18
 70
     1
102
RTVSPropertyOp19
 70
     1
102
RTVSPropertyOp20
 70
     1
102
RTVSPropertyOp21
 70
     1
102
RTVSPropertyOp22
 70
     1
102
RTVSPropertyOp23
 70
     1
102
RTVSPropertyOp24
 70
     1
102
RTVSPropertyOp25
 70
     1
102
RTVSPropertyOp26
 70
     1
102
RTVSPropertyOp27
 70
     1
102
RTVSPropertyOp28
 70
     1
102
RTVSPropertyOp29
 70
     1
102
RTVSPropertyOp30
 70
     1
102
RTVSPropertyOp31
 70
     1
102
RTVSPropertyOp32
 70
     1
102
RTVSPropertyOp33
 70
     1
102
RTVSPropertyOp34
 70
     1
102
RTVSPropertyOp35
 70
     1
102
RTVSPropertyOp36
 70
     1
102
RTVSPropertyOp37
 70
     1
102
RTVSPropertyOp38
 70
     1
102
RTVSPropertyOp39
 70
     1
102
RTVSPropertyOp40
 70
     1
102
RTVSPropertyOp41
 70
     1
102
RTVSPropertyOp42
 70
     1
102
RTVSPropertyOp43
 70
     1
102
RTVSPropertyOp44
 70
     1
102
RTVSPropertyOp45
 70
     1
102
RTVSPropertyOp46
 70
     1
102
RTVSPropertyOp47
 70
     1
102
RTVSPropertyOp48
 70
     1
102
RTVSPropertyOp49
 70
     1
102
RTVSPropertyOp50
 70
     1
102
RTVSPropertyOp51
 70
     0
102
RTVSPropertyOp52
 70
     0
102
RTVSPropertyOp53
 70
     1
102
RTVSPropertyOp54
 70
     1
102
RTVSPropertyOp55
 70
     1
102
RTVSPropertyOp56
 70
     1
102
RTVSPropertyOp57
 70
     1
102
RTVSPost2010Prop28
280
     0
102
RTVSPost2010PropOp28
 70
     1
102
RTVSPost2010Prop29
280
     1
102
RTVSPost2010PropOp29
 70
     1
102
RTVSPost2010Prop30
280
     1
102
RTVSPost2010PropOp30
 70
     1
102
RTVSPost2010Prop31
280
     0
102
RTVSPost2010PropOp31
 70
     1
102
RTVSPost2010Prop32
280
     0
102
RTVSPost2010PropOp32
 70
     1
102
RTVSPost2010Prop33
280
     0
102
RTVSPost2010PropOp33
 70
     1
102
RTVSPost2010Prop34
280
     0
102
RTVSPost2010PropOp34
 70
     1
102
RTVSPost2010Prop35
280
     0
102
RTVSPost2010PropOp35
 70
     1
102
RTVSPost2010Prop36
280
     0
102
RTVSPost2010PropOp36
 70
     1
102
RTVSPost2010Prop37
 90
       50
102
RTVSPost2010PropOp37
 70
     1
102
RTVSPost2010Prop38
140
0.0
102
RTVSPost2010PropOp38
 70
     1
102
RTVSPost2010Prop39
140
1.0
102
RTVSPost2010PropOp39
 70
     1
102
RTVSPost2010Prop40
 90
        0
102
RTVSPost2010PropOp40
 70
     1
102
RTVSPost2010Prop41ColorIndex
 90
       18
102
RTVSPost2010Prop41ColorRGB
 90
        0
102
RTVSPost2010PropOp41
 70
     1
102
RTVSPost2010Prop42
 90
       50
102
RTVSPost2010PropOp42
 70
     1
102
RTVSPost2010Prop43
 90
        3
102
RTVSPost2010PropOp43
 70
     1
102
RTVSPost2010Prop44ColorIndex
 90
        5
102
RTVSPost2010Prop44ColorRGB
 90
      255
102
RTVSPost2010PropOp44
 70
     1
102
RTVSPost2010Prop45
280
     0
102
RTVSPost2010PropOp45
 70
     1
102
RTVSPost2010Prop46
 90
       50
102
RTVSPost2010PropOp46
 70
     1
102
RTVSPost2010Prop47
 90
       50
102
RTVSPost2010PropOp47
 70
     1
102
RTVSPost2010Prop48
 90
       50
102
RTVSPost2010PropOp48
 70
     1
102
RTVSPost2010Prop49
280
     0
102
RTVSPost2010PropOp49
 70
     1
102
RTVSPost2010Prop50
 90
       50
102
RTVSPost2010PropOp50
 70
     1
102
RTVSPost2010Prop51ColorIndex
 90
      256
102
RTVSPost2010Prop51ColorRGB
 90
-16777216
102
RTVSPost2010PropOp51
 70
     0
102
RTVSPost2010Prop52
140
1.0
102
RTVSPost2010PropOp52
 70
     0
102
RTVSPost2010Prop53
 90
        2
102
RTVSPost2010PropOp53
 70
     1
102
RTVSPost2010Prop54
  1
strokes_ogs.tif
102
RTVSPost2010PropOp54
 70
     1
102
RTVSPost2010Prop55
280
     0
102
RTVSPost2010PropOp55
 70
     1
102
RTVSPost2010Prop56
140
1.0
102
RTVSPost2010PropOp56
 70
     1
102
RTVSPost2010Prop57
140
1.0
102
RTVSPost2010PropOp57
 70
     1
  0
XRECORD
  5
4B8
102
{ACAD_REACTORS
330
4B7
102
}
330
4B7
100
AcDbXrecord
280
     1
102
RTVSPropertyOp0
 70
     1
102
RTVSPropertyOp1
 70
     1
102
RTVSPropertyOp2
 70
     1
102
RTVSPropertyOp3
 70
     1
102
RTVSPropertyOp4
 70
     1
102
RTVSPropertyOp5
 70
     1
102
RTVSPropertyOp6
 70
     1
102
RTVSPropertyOp7
 70
     1
102
RTVSPropertyOp8
 70
     1
102
RTVSPropertyOp9
 70
     1
102
RTVSPropertyOp10
 70
     1
102
RTVSPropertyOp11
 70
     1
102
RTVSPropertyOp12
 70
     1
102
RTVSPropertyOp13
 70
     1
102
RTVSPropertyOp14
 70
     1
102
RTVSPropertyOp15
 70
     1
102
RTVSPropertyOp16
 70
     1
102
RTVSPropertyOp17
 70
     1
102
RTVSPropertyOp18
 70
     1
102
RTVSPropertyOp19
 70
     1
102
RTVSPropertyOp20
 70
     1
102
RTVSPropertyOp21
 70
     1
102
RTVSPropertyOp22
 70
     1
102
RTVSPropertyOp23
 70
     1
102
RTVSPropertyOp24
 70
     1
102
RTVSPropertyOp25
 70
     1
102
RTVSPropertyOp26
 70
     1
102
RTVSPropertyOp27
 70
     1
102
RTVSPropertyOp28
 70
     1
102
RTVSPropertyOp29
 70
     1
102
RTVSPropertyOp30
 70
     1
102
RTVSPropertyOp31
 70
     1
102
RTVSPropertyOp32
 70
     1
102
RTVSPropertyOp33
 70
     1
102
RTVSPropertyOp34
 70
     1
102
RTVSPropertyOp35
 70
     1
102
RTVSPropertyOp36
 70
     1
102
RTVSPropertyOp37
 70
     1
102
RTVSPropertyOp38
 70
     1
102
RTVSPropertyOp39
 70
     1
102
RTVSPropertyOp40
 70
     1
102
RTVSPropertyOp41
 70
     1
102
RTVSPropertyOp42
 70
     1
102
RTVSPropertyOp43
 70
     1
102
RTVSPropertyOp44
 70
     1
102
RTVSPropertyOp45
 70
     1
102
RTVSPropertyOp46
 70
     1
102
RTVSPropertyOp47
 70
     1
102
RTVSPropertyOp48
 70
     1
102
RTVSPropertyOp49
 70
     1
102
RTVSPropertyOp50
 70
     1
102
RTVSPropertyOp51
 70
     0
102
RTVSPropertyOp52
 70
     0
102
RTVSPropertyOp53
 70
     1
102
RTVSPropertyOp54
 70
     1
102
RTVSPropertyOp55
 70
     1
102
RTVSPropertyOp56
 70
     1
102
RTVSPropertyOp57
 70
     1
102
RTVSPost2010Prop28
280
     0
102
RTVSPost2010PropOp28
 70
     1
102
RTVSPost2010Prop29
280
     1
102
RTVSPost2010PropOp29
 70
     1
102
RTVSPost2010Prop30
280
     1
102
RTVSPost2010PropOp30
 70
     1
102
RTVSPost2010Prop31
280
     0
102
RTVSPost2010PropOp31
 70
     1
102
RTVSPost2010Prop32
280
     0
102
RTVSPost2010PropOp32
 70
     1
102
RTVSPost2010Prop33
280
     0
102
RTVSPost2010PropOp33
 70
     1
102
RTVSPost2010Prop34
280
     0
102
RTVSPost2010PropOp34
 70
     1
102
RTVSPost2010Prop35
280
     0
102
RTVSPost2010PropOp35
 70
     1
102
RTVSPost2010Prop36
280
     0
102
RTVSPost2010PropOp36
 70
     1
102
RTVSPost2010Prop37
 90
       50
102
RTVSPost2010PropOp37
 70
     1
102
RTVSPost2010Prop38
140
0.0
102
RTVSPost2010PropOp38
 70
     1
102
RTVSPost2010Prop39
140
1.0
102
RTVSPost2010PropOp39
 70
     1
102
RTVSPost2010Prop40
 90
        0
102
RTVSPost2010PropOp40
 70
     1
102
RTVSPost2010Prop41ColorIndex
 90
       18
102
RTVSPost2010Prop41ColorRGB
 90
        0
102
RTVSPost2010PropOp41
 70
     1
102
RTVSPost2010Prop42
 90
       50
102
RTVSPost2010PropOp42
 70
     1
102
RTVSPost2010Prop43
 90
        3
102
RTVSPost2010PropOp43
 70
     1
102
RTVSPost2010Prop44ColorIndex
 90
        5
102
RTVSPost2010Prop44ColorRGB
 90
      255
102
RTVSPost2010PropOp44
 70
     1
102
RTVSPost2010Prop45
280
     0
102
RTVSPost2010PropOp45
 70
     1
102
RTVSPost2010Prop46
 90
       50
102
RTVSPost2010PropOp46
 70
     1
102
RTVSPost2010Prop47
 90
       50
102
RTVSPost2010PropOp47
 70
     1
102
RTVSPost2010Prop48
 90
       50
102
RTVSPost2010PropOp48
 70
     1
102
RTVSPost2010Prop49
280
     0
102
RTVSPost2010PropOp49
 70
     1
102
RTVSPost2010Prop50
 90
       50
102
RTVSPost2010PropOp50
 70
     1
102
RTVSPost2010Prop51ColorIndex
 90
      256
102
RTVSPost2010Prop51ColorRGB
 90
-16777216
102
RTVSPost2010PropOp51
 70
     0
102
RTVSPost2010Prop52
140
1.0
102
RTVSPost2010PropOp52
 70
     0
102
RTVSPost2010Prop53
 90
        2
102
RTVSPost2010PropOp53
 70
     1
102
RTVSPost2010Prop54
  1
strokes_ogs.tif
102
RTVSPost2010PropOp54
 70
     1
102
RTVSPost2010Prop55
280
     0
102
RTVSPost2010PropOp55
 70
     1
102
RTVSPost2010Prop56
140
1.0
102
RTVSPost2010PropOp56
 70
     1
102
RTVSPost2010Prop57
140
1.0
102
RTVSPost2010PropOp57
 70
     1
  0
XRECORD
  5
4B2
102
{ACAD_REACTORS
330
4B1
102
}
330
4B1
100
AcDbXrecord
280
     1
102
RTVSPropertyOp0
 70
     1
102
RTVSPropertyOp1
 70
     1
102
RTVSPropertyOp2
 70
     1
102
RTVSPropertyOp3
 70
     1
102
RTVSPropertyOp4
 70
     1
102
RTVSPropertyOp5
 70
     1
102
RTVSPropertyOp6
 70
     1
102
RTVSPropertyOp7
 70
     1
102
RTVSPropertyOp8
 70
     1
102
RTVSPropertyOp9
 70
     1
102
RTVSPropertyOp10
 70
     1
102
RTVSPropertyOp11
 70
     1
102
RTVSPropertyOp12
 70
     1
102
RTVSPropertyOp13
 70
     1
102
RTVSPropertyOp14
 70
     1
102
RTVSPropertyOp15
 70
     1
102
RTVSPropertyOp16
 70
     1
102
RTVSPropertyOp17
 70
     1
102
RTVSPropertyOp18
 70
     1
102
RTVSPropertyOp19
 70
     1
102
RTVSPropertyOp20
 70
     1
102
RTVSPropertyOp21
 70
     1
102
RTVSPropertyOp22
 70
     1
102
RTVSPropertyOp23
 70
     1
102
RTVSPropertyOp24
 70
     1
102
RTVSPropertyOp25
 70
     1
102
RTVSPropertyOp26
 70
     1
102
RTVSPropertyOp27
 70
     1
102
RTVSPropertyOp28
 70
     1
102
RTVSPropertyOp29
 70
     1
102
RTVSPropertyOp30
 70
     1
102
RTVSPropertyOp31
 70
     1
102
RTVSPropertyOp32
 70
     1
102
RTVSPropertyOp33
 70
     1
102
RTVSPropertyOp34
 70
     1
102
RTVSPropertyOp35
 70
     1
102
RTVSPropertyOp36
 70
     1
102
RTVSPropertyOp37
 70
     1
102
RTVSPropertyOp38
 70
     1
102
RTVSPropertyOp39
 70
     1
102
RTVSPropertyOp40
 70
     1
102
RTVSPropertyOp41
 70
     1
102
RTVSPropertyOp42
 70
     1
102
RTVSPropertyOp43
 70
     1
102
RTVSPropertyOp44
 70
     1
102
RTVSPropertyOp45
 70
     1
102
RTVSPropertyOp46
 70
     1
102
RTVSPropertyOp47
 70
     1
102
RTVSPropertyOp48
 70
     1
102
RTVSPropertyOp49
 70
     1
102
RTVSPropertyOp50
 70
     1
102
RTVSPropertyOp51
 70
     0
102
RTVSPropertyOp52
 70
     0
102
RTVSPropertyOp53
 70
     1
102
RTVSPropertyOp54
 70
     1
102
RTVSPropertyOp55
 70
     1
102
RTVSPropertyOp56
 70
     1
102
RTVSPropertyOp57
 70
     1
102
RTVSPost2010Prop28
280
     0
102
RTVSPost2010PropOp28
 70
     1
102
RTVSPost2010Prop29
280
     1
102
RTVSPost2010PropOp29
 70
     1
102
RTVSPost2010Prop30
280
     1
102
RTVSPost2010PropOp30
 70
     1
102
RTVSPost2010Prop31
280
     0
102
RTVSPost2010PropOp31
 70
     1
102
RTVSPost2010Prop32
280
     0
102
RTVSPost2010PropOp32
 70
     1
102
RTVSPost2010Prop33
280
     0
102
RTVSPost2010PropOp33
 70
     1
102
RTVSPost2010Prop34
280
     0
102
RTVSPost2010PropOp34
 70
     1
102
RTVSPost2010Prop35
280
     0
102
RTVSPost2010PropOp35
 70
     1
102
RTVSPost2010Prop36
280
     0
102
RTVSPost2010PropOp36
 70
     1
102
RTVSPost2010Prop37
 90
       50
102
RTVSPost2010PropOp37
 70
     1
102
RTVSPost2010Prop38
140
0.0
102
RTVSPost2010PropOp38
 70
     1
102
RTVSPost2010Prop39
140
1.0
102
RTVSPost2010PropOp39
 70
     1
102
RTVSPost2010Prop40
 90
        0
102
RTVSPost2010PropOp40
 70
     1
102
RTVSPost2010Prop41ColorIndex
 90
       18
102
RTVSPost2010Prop41ColorRGB
 90
        0
102
RTVSPost2010PropOp41
 70
     1
102
RTVSPost2010Prop42
 90
       50
102
RTVSPost2010PropOp42
 70
     1
102
RTVSPost2010Prop43
 90
        3
102
RTVSPost2010PropOp43
 70
     1
102
RTVSPost2010Prop44ColorIndex
 90
        5
102
RTVSPost2010Prop44ColorRGB
 90
      255
102
RTVSPost2010PropOp44
 70
     1
102
RTVSPost2010Prop45
280
     0
102
RTVSPost2010PropOp45
 70
     1
102
RTVSPost2010Prop46
 90
       50
102
RTVSPost2010PropOp46
 70
     1
102
RTVSPost2010Prop47
 90
       50
102
RTVSPost2010PropOp47
 70
     1
102
RTVSPost2010Prop48
 90
       50
102
RTVSPost2010PropOp48
 70
     1
102
RTVSPost2010Prop49
280
     0
102
RTVSPost2010PropOp49
 70
     1
102
RTVSPost2010Prop50
 90
       50
102
RTVSPost2010PropOp50
 70
     1
102
RTVSPost2010Prop51ColorIndex
 90
      256
102
RTVSPost2010Prop51ColorRGB
 90
-16777216
102
RTVSPost2010PropOp51
 70
     0
102
RTVSPost2010Prop52
140
1.0
102
RTVSPost2010PropOp52
 70
     0
102
RTVSPost2010Prop53
 90
        2
102
RTVSPost2010PropOp53
 70
     1
102
RTVSPost2010Prop54
  1
strokes_ogs.tif
102
RTVSPost2010PropOp54
 70
     1
102
RTVSPost2010Prop55
280
     0
102
RTVSPost2010PropOp55
 70
     1
102
RTVSPost2010Prop56
140
1.0
102
RTVSPost2010PropOp56
 70
     1
102
RTVSPost2010Prop57
140
1.0
102
RTVSPost2010PropOp57
 70
     1
  0
XRECORD
  5
4B4
102
{ACAD_REACTORS
330
4B3
102
}
330
4B3
100
AcDbXrecord
280
     1
102
RTVSPropertyOp0
 70
     1
102
RTVSPropertyOp1
 70
     1
102
RTVSPropertyOp2
 70
     1
102
RTVSPropertyOp3
 70
     1
102
RTVSPropertyOp4
 70
     1
102
RTVSPropertyOp5
 70
     1
102
RTVSPropertyOp6
 70
     1
102
RTVSPropertyOp7
 70
     1
102
RTVSPropertyOp8
 70
     1
102
RTVSPropertyOp9
 70
     1
102
RTVSPropertyOp10
 70
     1
102
RTVSPropertyOp11
 70
     1
102
RTVSPropertyOp12
 70
     1
102
RTVSPropertyOp13
 70
     1
102
RTVSPropertyOp14
 70
     1
102
RTVSPropertyOp15
 70
     1
102
RTVSPropertyOp16
 70
     1
102
RTVSPropertyOp17
 70
     1
102
RTVSPropertyOp18
 70
     1
102
RTVSPropertyOp19
 70
     1
102
RTVSPropertyOp20
 70
     1
102
RTVSPropertyOp21
 70
     1
102
RTVSPropertyOp22
 70
     1
102
RTVSPropertyOp23
 70
     1
102
RTVSPropertyOp24
 70
     1
102
RTVSPropertyOp25
 70
     1
102
RTVSPropertyOp26
 70
     1
102
RTVSPropertyOp27
 70
     1
102
RTVSPropertyOp28
 70
     1
102
RTVSPropertyOp29
 70
     1
102
RTVSPropertyOp30
 70
     1
102
RTVSPropertyOp31
 70
     1
102
RTVSPropertyOp32
 70
     1
102
RTVSPropertyOp33
 70
     1
102
RTVSPropertyOp34
 70
     1
102
RTVSPropertyOp35
 70
     1
102
RTVSPropertyOp36
 70
     1
102
RTVSPropertyOp37
 70
     1
102
RTVSPropertyOp38
 70
     1
102
RTVSPropertyOp39
 70
     1
102
RTVSPropertyOp40
 70
     1
102
RTVSPropertyOp41
 70
     1
102
RTVSPropertyOp42
 70
     1
102
RTVSPropertyOp43
 70
     1
102
RTVSPropertyOp44
 70
     1
102
RTVSPropertyOp45
 70
     1
102
RTVSPropertyOp46
 70
     1
102
RTVSPropertyOp47
 70
     1
102
RTVSPropertyOp48
 70
     1
102
RTVSPropertyOp49
 70
     1
102
RTVSPropertyOp50
 70
     1
102
RTVSPropertyOp51
 70
     0
102
RTVSPropertyOp52
 70
     0
102
RTVSPropertyOp53
 70
     1
102
RTVSPropertyOp54
 70
     1
102
RTVSPropertyOp55
 70
     1
102
RTVSPropertyOp56
 70
     1
102
RTVSPropertyOp57
 70
     1
102
RTVSPost2010Prop28
280
     0
102
RTVSPost2010PropOp28
 70
     1
102
RTVSPost2010Prop29
280
     1
102
RTVSPost2010PropOp29
 70
     1
102
RTVSPost2010Prop30
280
     1
102
RTVSPost2010PropOp30
 70
     1
102
RTVSPost2010Prop31
280
     0
102
RTVSPost2010PropOp31
 70
     1
102
RTVSPost2010Prop32
280
     0
102
RTVSPost2010PropOp32
 70
     1
102
RTVSPost2010Prop33
280
     0
102
RTVSPost2010PropOp33
 70
     1
102
RTVSPost2010Prop34
280
     0
102
RTVSPost2010PropOp34
 70
     1
102
RTVSPost2010Prop35
280
     0
102
RTVSPost2010PropOp35
 70
     1
102
RTVSPost2010Prop36
280
     0
102
RTVSPost2010PropOp36
 70
     1
102
RTVSPost2010Prop37
 90
       50
102
RTVSPost2010PropOp37
 70
     1
102
RTVSPost2010Prop38
140
0.0
102
RTVSPost2010PropOp38
 70
     1
102
RTVSPost2010Prop39
140
1.0
102
RTVSPost2010PropOp39
 70
     1
102
RTVSPost2010Prop40
 90
        0
102
RTVSPost2010PropOp40
 70
     1
102
RTVSPost2010Prop41ColorIndex
 90
       18
102
RTVSPost2010Prop41ColorRGB
 90
        0
102
RTVSPost2010PropOp41
 70
     1
102
RTVSPost2010Prop42
 90
       50
102
RTVSPost2010PropOp42
 70
     1
102
RTVSPost2010Prop43
 90
        3
102
RTVSPost2010PropOp43
 70
     1
102
RTVSPost2010Prop44ColorIndex
 90
        5
102
RTVSPost2010Prop44ColorRGB
 90
      255
102
RTVSPost2010PropOp44
 70
     1
102
RTVSPost2010Prop45
280
     0
102
RTVSPost2010PropOp45
 70
     1
102
RTVSPost2010Prop46
 90
       50
102
RTVSPost2010PropOp46
 70
     1
102
RTVSPost2010Prop47
 90
       50
102
RTVSPost2010PropOp47
 70
     1
102
RTVSPost2010Prop48
 90
       50
102
RTVSPost2010PropOp48
 70
     1
102
RTVSPost2010Prop49
280
     0
102
RTVSPost2010PropOp49
 70
     1
102
RTVSPost2010Prop50
 90
       50
102
RTVSPost2010PropOp50
 70
     1
102
RTVSPost2010Prop51ColorIndex
 90
      256
102
RTVSPost2010Prop51ColorRGB
 90
-16777216
102
RTVSPost2010PropOp51
 70
     0
102
RTVSPost2010Prop52
140
1.0
102
RTVSPost2010PropOp52
 70
     0
102
RTVSPost2010Prop53
 90
        2
102
RTVSPost2010PropOp53
 70
     1
102
RTVSPost2010Prop54
  1
strokes_ogs.tif
102
RTVSPost2010PropOp54
 70
     1
102
RTVSPost2010Prop55
280
     0
102
RTVSPost2010PropOp55
 70
     1
102
RTVSPost2010Prop56
140
1.0
102
RTVSPost2010PropOp56
 70
     1
102
RTVSPost2010Prop57
140
1.0
102
RTVSPost2010PropOp57
 70
     1
  0
XRECORD
  5
4A4
102
{ACAD_REACTORS
330
4A3
102
}
330
4A3
100
AcDbXrecord
280
     1
102
RTVSPropertyOp0
 70
     1
102
RTVSPropertyOp1
 70
     1
102
RTVSPropertyOp2
 70
     1
102
RTVSPropertyOp3
 70
     1
102
RTVSPropertyOp4
 70
     1
102
RTVSPropertyOp5
 70
     1
102
RTVSPropertyOp6
 70
     1
102
RTVSPropertyOp7
 70
     1
102
RTVSPropertyOp8
 70
     1
102
RTVSPropertyOp9
 70
     1
102
RTVSPropertyOp10
 70
     1
102
RTVSPropertyOp11
 70
     1
102
RTVSPropertyOp12
 70
     1
102
RTVSPropertyOp13
 70
     1
102
RTVSPropertyOp14
 70
     1
102
RTVSPropertyOp15
 70
     1
102
RTVSPropertyOp16
 70
     1
102
RTVSPropertyOp17
 70
     1
102
RTVSPropertyOp18
 70
     1
102
RTVSPropertyOp19
 70
     1
102
RTVSPropertyOp20
 70
     1
102
RTVSPropertyOp21
 70
     1
102
RTVSPropertyOp22
 70
     1
102
RTVSPropertyOp23
 70
     1
102
RTVSPropertyOp24
 70
     1
102
RTVSPropertyOp25
 70
     1
102
RTVSPropertyOp26
 70
     1
102
RTVSPropertyOp27
 70
     1
102
RTVSPropertyOp28
 70
     1
102
RTVSPropertyOp29
 70
     1
102
RTVSPropertyOp30
 70
     1
102
RTVSPropertyOp31
 70
     1
102
RTVSPropertyOp32
 70
     1
102
RTVSPropertyOp33
 70
     1
102
RTVSPropertyOp34
 70
     1
102
RTVSPropertyOp35
 70
     1
102
RTVSPropertyOp36
 70
     1
102
RTVSPropertyOp37
 70
     1
102
RTVSPropertyOp38
 70
     1
102
RTVSPropertyOp39
 70
     1
102
RTVSPropertyOp40
 70
     1
102
RTVSPropertyOp41
 70
     1
102
RTVSPropertyOp42
 70
     1
102
RTVSPropertyOp43
 70
     1
102
RTVSPropertyOp44
 70
     1
102
RTVSPropertyOp45
 70
     1
102
RTVSPropertyOp46
 70
     1
102
RTVSPropertyOp47
 70
     1
102
RTVSPropertyOp48
 70
     1
102
RTVSPropertyOp49
 70
     1
102
RTVSPropertyOp50
 70
     1
102
RTVSPropertyOp51
 70
     0
102
RTVSPropertyOp52
 70
     0
102
RTVSPropertyOp53
 70
     1
102
RTVSPropertyOp54
 70
     1
102
RTVSPropertyOp55
 70
     1
102
RTVSPropertyOp56
 70
     1
102
RTVSPropertyOp57
 70
     1
102
RTVSPost2010Prop28
280
     0
102
RTVSPost2010PropOp28
 70
     1
102
RTVSPost2010Prop29
280
     1
102
RTVSPost2010PropOp29
 70
     1
102
RTVSPost2010Prop30
280
     1
102
RTVSPost2010PropOp30
 70
     1
102
RTVSPost2010Prop31
280
     0
102
RTVSPost2010PropOp31
 70
     1
102
RTVSPost2010Prop32
280
     0
102
RTVSPost2010PropOp32
 70
     1
102
RTVSPost2010Prop33
280
     0
102
RTVSPost2010PropOp33
 70
     1
102
RTVSPost2010Prop34
280
     0
102
RTVSPost2010PropOp34
 70
     1
102
RTVSPost2010Prop35
280
     0
102
RTVSPost2010PropOp35
 70
     1
102
RTVSPost2010Prop36
280
     0
102
RTVSPost2010PropOp36
 70
     1
102
RTVSPost2010Prop37
 90
       50
102
RTVSPost2010PropOp37
 70
     1
102
RTVSPost2010Prop38
140
0.0
102
RTVSPost2010PropOp38
 70
     1
102
RTVSPost2010Prop39
140
1.0
102
RTVSPost2010PropOp39
 70
     1
102
RTVSPost2010Prop40
 90
        0
102
RTVSPost2010PropOp40
 70
     1
102
RTVSPost2010Prop41ColorIndex
 90
       18
102
RTVSPost2010Prop41ColorRGB
 90
        0
102
RTVSPost2010PropOp41
 70
     1
102
RTVSPost2010Prop42
 90
       50
102
RTVSPost2010PropOp42
 70
     1
102
RTVSPost2010Prop43
 90
        3
102
RTVSPost2010PropOp43
 70
     1
102
RTVSPost2010Prop44ColorIndex
 90
        5
102
RTVSPost2010Prop44ColorRGB
 90
      255
102
RTVSPost2010PropOp44
 70
     1
102
RTVSPost2010Prop45
280
     0
102
RTVSPost2010PropOp45
 70
     1
102
RTVSPost2010Prop46
 90
       50
102
RTVSPost2010PropOp46
 70
     1
102
RTVSPost2010Prop47
 90
       50
102
RTVSPost2010PropOp47
 70
     1
102
RTVSPost2010Prop48
 90
       50
102
RTVSPost2010PropOp48
 70
     1
102
RTVSPost2010Prop49
280
     0
102
RTVSPost2010PropOp49
 70
     1
102
RTVSPost2010Prop50
 90
       50
102
RTVSPost2010PropOp50
 70
     1
102
RTVSPost2010Prop51ColorIndex
 90
      256
102
RTVSPost2010Prop51ColorRGB
 90
-16777216
102
RTVSPost2010PropOp51
 70
     0
102
RTVSPost2010Prop52
140
1.0
102
RTVSPost2010PropOp52
 70
     0
102
RTVSPost2010Prop53
 90
        2
102
RTVSPost2010PropOp53
 70
     1
102
RTVSPost2010Prop54
  1
strokes_ogs.tif
102
RTVSPost2010PropOp54
 70
     1
102
RTVSPost2010Prop55
280
     0
102
RTVSPost2010PropOp55
 70
     1
102
RTVSPost2010Prop56
140
1.0
102
RTVSPost2010PropOp56
 70
     1
102
RTVSPost2010Prop57
140
1.0
102
RTVSPost2010PropOp57
 70
     1
  0
XRECORD
  5
496
102
{ACAD_REACTORS
330
495
102
}
330
495
100
AcDbXrecord
280
     1
102
RTVSPropertyOp0
 70
     1
102
RTVSPropertyOp1
 70
     1
102
RTVSPropertyOp2
 70
     1
102
RTVSPropertyOp3
 70
     1
102
RTVSPropertyOp4
 70
     1
102
RTVSPropertyOp5
 70
     1
102
RTVSPropertyOp6
 70
     1
102
RTVSPropertyOp7
 70
     1
102
RTVSPropertyOp8
 70
     1
102
RTVSPropertyOp9
 70
     1
102
RTVSPropertyOp10
 70
     1
102
RTVSPropertyOp11
 70
     1
102
RTVSPropertyOp12
 70
     1
102
RTVSPropertyOp13
 70
     1
102
RTVSPropertyOp14
 70
     1
102
RTVSPropertyOp15
 70
     1
102
RTVSPropertyOp16
 70
     1
102
RTVSPropertyOp17
 70
     1
102
RTVSPropertyOp18
 70
     1
102
RTVSPropertyOp19
 70
     1
102
RTVSPropertyOp20
 70
     1
102
RTVSPropertyOp21
 70
     1
102
RTVSPropertyOp22
 70
     1
102
RTVSPropertyOp23
 70
     1
102
RTVSPropertyOp24
 70
     1
102
RTVSPropertyOp25
 70
     1
102
RTVSPropertyOp26
 70
     1
102
RTVSPropertyOp27
 70
     1
102
RTVSPropertyOp28
 70
     1
102
RTVSPropertyOp29
 70
     1
102
RTVSPropertyOp30
 70
     1
102
RTVSPropertyOp31
 70
     1
102
RTVSPropertyOp32
 70
     1
102
RTVSPropertyOp33
 70
     1
102
RTVSPropertyOp34
 70
     1
102
RTVSPropertyOp35
 70
     1
102
RTVSPropertyOp36
 70
     1
102
RTVSPropertyOp37
 70
     1
102
RTVSPropertyOp38
 70
     1
102
RTVSPropertyOp39
 70
     1
102
RTVSPropertyOp40
 70
     1
102
RTVSPropertyOp41
 70
     1
102
RTVSPropertyOp42
 70
     1
102
RTVSPropertyOp43
 70
     1
102
RTVSPropertyOp44
 70
     1
102
RTVSPropertyOp45
 70
     1
102
RTVSPropertyOp46
 70
     1
102
RTVSPropertyOp47
 70
     1
102
RTVSPropertyOp48
 70
     1
102
RTVSPropertyOp49
 70
     1
102
RTVSPropertyOp50
 70
     1
102
RTVSPropertyOp51
 70
     0
102
RTVSPropertyOp52
 70
     0
102
RTVSPropertyOp53
 70
     1
102
RTVSPropertyOp54
 70
     1
102
RTVSPropertyOp55
 70
     1
102
RTVSPropertyOp56
 70
     1
102
RTVSPropertyOp57
 70
     1
102
RTVSPost2010Prop28
280
     0
102
RTVSPost2010PropOp28
 70
     1
102
RTVSPost2010Prop29
280
     1
102
RTVSPost2010PropOp29
 70
     1
102
RTVSPost2010Prop30
280
     1
102
RTVSPost2010PropOp30
 70
     1
102
RTVSPost2010Prop31
280
     0
102
RTVSPost2010PropOp31
 70
     1
102
RTVSPost2010Prop32
280
     0
102
RTVSPost2010PropOp32
 70
     1
102
RTVSPost2010Prop33
280
     0
102
RTVSPost2010PropOp33
 70
     1
102
RTVSPost2010Prop34
280
     0
102
RTVSPost2010PropOp34
 70
     1
102
RTVSPost2010Prop35
280
     0
102
RTVSPost2010PropOp35
 70
     1
102
RTVSPost2010Prop36
280
     0
102
RTVSPost2010PropOp36
 70
     1
102
RTVSPost2010Prop37
 90
       50
102
RTVSPost2010PropOp37
 70
     1
102
RTVSPost2010Prop38
140
0.0
102
RTVSPost2010PropOp38
 70
     1
102
RTVSPost2010Prop39
140
1.0
102
RTVSPost2010PropOp39
 70
     1
102
RTVSPost2010Prop40
 90
        0
102
RTVSPost2010PropOp40
 70
     1
102
RTVSPost2010Prop41ColorIndex
 90
       18
102
RTVSPost2010Prop41ColorRGB
 90
        0
102
RTVSPost2010PropOp41
 70
     1
102
RTVSPost2010Prop42
 90
       50
102
RTVSPost2010PropOp42
 70
     1
102
RTVSPost2010Prop43
 90
        3
102
RTVSPost2010PropOp43
 70
     1
102
RTVSPost2010Prop44ColorIndex
 90
        5
102
RTVSPost2010Prop44ColorRGB
 90
      255
102
RTVSPost2010PropOp44
 70
     1
102
RTVSPost2010Prop45
280
     0
102
RTVSPost2010PropOp45
 70
     1
102
RTVSPost2010Prop46
 90
       50
102
RTVSPost2010PropOp46
 70
     1
102
RTVSPost2010Prop47
 90
       50
102
RTVSPost2010PropOp47
 70
     1
102
RTVSPost2010Prop48
 90
       50
102
RTVSPost2010PropOp48
 70
     1
102
RTVSPost2010Prop49
280
     0
102
RTVSPost2010PropOp49
 70
     1
102
RTVSPost2010Prop50
 90
       50
102
RTVSPost2010PropOp50
 70
     1
102
RTVSPost2010Prop51ColorIndex
 90
      256
102
RTVSPost2010Prop51ColorRGB
 90
-16777216
102
RTVSPost2010PropOp51
 70
     0
102
RTVSPost2010Prop52
140
1.0
102
RTVSPost2010PropOp52
 70
     0
102
RTVSPost2010Prop53
 90
        2
102
RTVSPost2010PropOp53
 70
     1
102
RTVSPost2010Prop54
  1
strokes_ogs.tif
102
RTVSPost2010PropOp54
 70
     1
102
RTVSPost2010Prop55
280
     0
102
RTVSPost2010PropOp55
 70
     1
102
RTVSPost2010Prop56
140
1.0
102
RTVSPost2010PropOp56
 70
     1
102
RTVSPost2010Prop57
140
1.0
102
RTVSPost2010PropOp57
 70
     1
  0
XRECORD
  5
4B6
102
{ACAD_REACTORS
330
4B5
102
}
330
4B5
100
AcDbXrecord
280
     1
102
RTVSPropertyOp0
 70
     1
102
RTVSPropertyOp1
 70
     1
102
RTVSPropertyOp2
 70
     1
102
RTVSPropertyOp3
 70
     1
102
RTVSPropertyOp4
 70
     1
102
RTVSPropertyOp5
 70
     1
102
RTVSPropertyOp6
 70
     1
102
RTVSPropertyOp7
 70
     1
102
RTVSPropertyOp8
 70
     1
102
RTVSPropertyOp9
 70
     1
102
RTVSPropertyOp10
 70
     1
102
RTVSPropertyOp11
 70
     1
102
RTVSPropertyOp12
 70
     1
102
RTVSPropertyOp13
 70
     1
102
RTVSPropertyOp14
 70
     1
102
RTVSPropertyOp15
 70
     1
102
RTVSPropertyOp16
 70
     1
102
RTVSPropertyOp17
 70
     1
102
RTVSPropertyOp18
 70
     1
102
RTVSPropertyOp19
 70
     1
102
RTVSPropertyOp20
 70
     1
102
RTVSPropertyOp21
 70
     1
102
RTVSPropertyOp22
 70
     1
102
RTVSPropertyOp23
 70
     1
102
RTVSPropertyOp24
 70
     1
102
RTVSPropertyOp25
 70
     1
102
RTVSPropertyOp26
 70
     1
102
RTVSPropertyOp27
 70
     1
102
RTVSPropertyOp28
 70
     1
102
RTVSPropertyOp29
 70
     1
102
RTVSPropertyOp30
 70
     1
102
RTVSPropertyOp31
 70
     1
102
RTVSPropertyOp32
 70
     1
102
RTVSPropertyOp33
 70
     1
102
RTVSPropertyOp34
 70
     1
102
RTVSPropertyOp35
 70
     1
102
RTVSPropertyOp36
 70
     1
102
RTVSPropertyOp37
 70
     1
102
RTVSPropertyOp38
 70
     1
102
RTVSPropertyOp39
 70
     1
102
RTVSPropertyOp40
 70
     1
102
RTVSPropertyOp41
 70
     1
102
RTVSPropertyOp42
 70
     1
102
RTVSPropertyOp43
 70
     1
102
RTVSPropertyOp44
 70
     1
102
RTVSPropertyOp45
 70
     1
102
RTVSPropertyOp46
 70
     1
102
RTVSPropertyOp47
 70
     1
102
RTVSPropertyOp48
 70
     1
102
RTVSPropertyOp49
 70
     1
102
RTVSPropertyOp50
 70
     1
102
RTVSPropertyOp51
 70
     0
102
RTVSPropertyOp52
 70
     0
102
RTVSPropertyOp53
 70
     1
102
RTVSPropertyOp54
 70
     1
102
RTVSPropertyOp55
 70
     1
102
RTVSPropertyOp56
 70
     1
102
RTVSPropertyOp57
 70
     1
102
RTVSPost2010Prop28
280
     0
102
RTVSPost2010PropOp28
 70
     1
102
RTVSPost2010Prop29
280
     1
102
RTVSPost2010PropOp29
 70
     1
102
RTVSPost2010Prop30
280
     1
102
RTVSPost2010PropOp30
 70
     1
102
RTVSPost2010Prop31
280
     0
102
RTVSPost2010PropOp31
 70
     1
102
RTVSPost2010Prop32
280
     0
102
RTVSPost2010PropOp32
 70
     1
102
RTVSPost2010Prop33
280
     0
102
RTVSPost2010PropOp33
 70
     1
102
RTVSPost2010Prop34
280
     0
102
RTVSPost2010PropOp34
 70
     1
102
RTVSPost2010Prop35
280
     0
102
RTVSPost2010PropOp35
 70
     1
102
RTVSPost2010Prop36
280
     0
102
RTVSPost2010PropOp36
 70
     1
102
RTVSPost2010Prop37
 90
       50
102
RTVSPost2010PropOp37
 70
     1
102
RTVSPost2010Prop38
140
0.0
102
RTVSPost2010PropOp38
 70
     1
102
RTVSPost2010Prop39
140
1.0
102
RTVSPost2010PropOp39
 70
     1
102
RTVSPost2010Prop40
 90
        0
102
RTVSPost2010PropOp40
 70
     1
102
RTVSPost2010Prop41ColorIndex
 90
       18
102
RTVSPost2010Prop41ColorRGB
 90
        0
102
RTVSPost2010PropOp41
 70
     1
102
RTVSPost2010Prop42
 90
       50
102
RTVSPost2010PropOp42
 70
     1
102
RTVSPost2010Prop43
 90
        3
102
RTVSPost2010PropOp43
 70
     1
102
RTVSPost2010Prop44ColorIndex
 90
        5
102
RTVSPost2010Prop44ColorRGB
 90
      255
102
RTVSPost2010PropOp44
 70
     1
102
RTVSPost2010Prop45
280
     0
102
RTVSPost2010PropOp45
 70
     1
102
RTVSPost2010Prop46
 90
       50
102
RTVSPost2010PropOp46
 70
     1
102
RTVSPost2010Prop47
 90
       50
102
RTVSPost2010PropOp47
 70
     1
102
RTVSPost2010Prop48
 90
       50
102
RTVSPost2010PropOp48
 70
     1
102
RTVSPost2010Prop49
280
     0
102
RTVSPost2010PropOp49
 70
     1
102
RTVSPost2010Prop50
 90
       50
102
RTVSPost2010PropOp50
 70
     1
102
RTVSPost2010Prop51ColorIndex
 90
      256
102
RTVSPost2010Prop51ColorRGB
 90
-16777216
102
RTVSPost2010PropOp51
 70
     0
102
RTVSPost2010Prop52
140
1.0
102
RTVSPost2010PropOp52
 70
     0
102
RTVSPost2010Prop53
 90
        2
102
RTVSPost2010PropOp53
 70
     1
102
RTVSPost2010Prop54
  1
strokes_ogs.tif
102
RTVSPost2010PropOp54
 70
     1
102
RTVSPost2010Prop55
280
     0
102
RTVSPost2010PropOp55
 70
     1
102
RTVSPost2010Prop56
140
1.0
102
RTVSPost2010PropOp56
 70
     1
102
RTVSPost2010Prop57
140
1.0
102
RTVSPost2010PropOp57
 70
     1
  0
ENDSEC
  0
EOF
