  0
SECTION
  2
HEADER
  9
$ACADVER
  1
AC1015
  9
$ACADMAINTVER
 70
     6
  9
$DWGCODEPAGE
  3
ANSI_932
  9
$INSBASE
 10
0.0
 20
0.0
 30
0.0
  9
$EXTMIN
 10
0.0
 20
0.0
 30
0.0
  9
$EXTMAX
 10
420.0
 20
297.0
 30
0.0
  9
$LIMMIN
 10
0.0
 20
0.0
  9
$LIMMAX
 10
420.0
 20
297.0
  9
$ORTHOMODE
 70
     0
  9
$REGENMODE
 70
     1
  9
$FILLMODE
 70
     1
  9
$QTEXTMODE
 70
     0
  9
$MIRRTEXT
 70
     1
  9
$LTSCALE
 40
1.0
  9
$ATTMODE
 70
     1
  9
$TEXTSIZE
 40
2.5
  9
$TRACEWID
 40
1.0
  9
$TEXTSTYLE
  7
ＭＳ ゴシック
  9
$CLAYER
  8
0
  9
$CELTYPE
  6
ByLayer
  9
$CECOLOR
 62
   256
  9
$CELTSCALE
 40
1.0
  9
$DISPSILH
 70
     0
  9
$DIMSCALE
 40
1.0
  9
$DIMASZ
 40
2.5
  9
$DIMEXO
 40
1.0
  9
$DIMDLI
 40
8.0
  9
$DIMRND
 40
0.0
  9
$DIMDLE
 40
4.0
  9
$DIMEXE
 40
1.0
  9
$DIMTP
 40
0.0
  9
$DIMTM
 40
0.0
  9
$DIMTXT
 40
3.5
  9
$DIMCEN
 40
2.5
  9
$DIMTSZ
 40
0.0
  9
$DIMTOL
 70
     0
  9
$DIMLIM
 70
     0
  9
$DIMTIH
 70
     0
  9
$DIMTOH
 70
     0
  9
$DIMSE1
 70
     0
  9
$DIMSE2
 70
     0
  9
$DIMTAD
 70
     1
  9
$DIMZIN
 70
     8
  9
$DIMBLK
  1

  9
$DIMASO
 70
     1
  9
$DIMSHO
 70
     1
  9
$DIMPOST
  1

  9
$DIMAPOST
  1

  9
$DIMALT
 70
     0
  9
$DIMALTD
 70
     3
  9
$DIMALTF
 40
0.03937
  9
$DIMLFAC
 40
1.0
  9
$DIMTOFL
 70
     1
  9
$DIMTVP
 40
0.0
  9
$DIMTIX
 70
     0
  9
$DIMSOXD
 70
     0
  9
$DIMSAH
 70
     1
  9
$DIMBLK1
  1
FXTIP_ARROW_S
  9
$DIMBLK2
  1
FXTIP_ARROW_E
  9
$DIMSTYLE
  2
FX_DIMINFO
  9
$DIMCLRD
 70
     5
  9
$DIMCLRE
 70
     5
  9
$DIMCLRT
 70
    94
  9
$DIMTFAC
 40
1.0
  9
$DIMGAP
 40
1.0
  9
$DIMJUST
 70
     0
  9
$DIMSD1
 70
     0
  9
$DIMSD2
 70
     0
  9
$DIMTOLJ
 70
     1
  9
$DIMTZIN
 70
     8
  9
$DIMALTZ
 70
     0
  9
$DIMALTTZ
 70
     0
  9
$DIMUPT
 70
     0
  9
$DIMDEC
 70
     2
  9
$DIMTDEC
 70
     2
  9
$DIMALTU
 70
     2
  9
$DIMALTTD
 70
     3
  9
$DIMTXSTY
  7
ＭＳ ゴシック
  9
$DIMAUNIT
 70
     0
  9
$DIMADEC
 70
     2
  9
$DIMALTRND
 40
0.0
  9
$DIMAZIN
 70
     2
  9
$DIMDSEP
 70
    46
  9
$DIMATFIT
 70
     3
  9
$DIMFRAC
 70
     0
  9
$DIMLDRBLK
  1
FXTIP_ARROW_S
  9
$DIMLUNIT
 70
     2
  9
$DIMLWD
 70
    -2
  9
$DIMLWE
 70
    -2
  9
$DIMTMOVE
 70
     0
  9
$LUNITS
 70
     2
  9
$LUPREC
 70
     4
  9
$SKETCHINC
 40
1.0
  9
$FILLETRAD
 40
10.0
  9
$AUNITS
 70
     0
  9
$AUPREC
 70
     0
  9
$MENU
  1
.
  9
$ELEVATION
 40
0.0
  9
$PELEVATION
 40
0.0
  9
$THICKNESS
 40
0.0
  9
$LIMCHECK
 70
     0
  9
$CHAMFERA
 40
0.0
  9
$CHAMFERB
 40
0.0
  9
$CHAMFERC
 40
0.0
  9
$CHAMFERD
 40
0.0
  9
$SKPOLY
 70
     0
  9
$TDCREATE
 40
2456828.561486933
  9
$TDUCREATE
 40
2456828.186486933
  9
$TDUPDATE
 40
2456828.561487836
  9
$TDUUPDATE
 40
2456828.186487836
  9
$TDINDWG
 40
0.0000000116
  9
$TDUSRTIMER
 40
0.0000000116
  9
$USRTIMER
 70
     1
  9
$ANGBASE
 50
0.0
  9
$ANGDIR
 70
     0
  9
$PDMODE
 70
     0
  9
$PDSIZE
 40
0.0
  9
$PLINEWID
 40
0.0
  9
$SPLFRAME
 70
     0
  9
$SPLINETYPE
 70
     6
  9
$SPLINESEGS
 70
     8
  9
$HANDSEED
  5
40D
  9
$SURFTAB1
 70
     6
  9
$SURFTAB2
 70
     6
  9
$SURFTYPE
 70
     6
  9
$SURFU
 70
     6
  9
$SURFV
 70
     6
  9
$UCSBASE
  2

  9
$UCSNAME
  2

  9
$UCSORG
 10
0.0
 20
0.0
 30
0.0
  9
$UCSXDIR
 10
1.0
 20
0.0
 30
0.0
  9
$UCSYDIR
 10
0.0
 20
1.0
 30
0.0
  9
$UCSORTHOREF
  2

  9
$UCSORTHOVIEW
 70
     0
  9
$UCSORGTOP
 10
0.0
 20
0.0
 30
0.0
  9
$UCSORGBOTTOM
 10
0.0
 20
0.0
 30
0.0
  9
$UCSORGLEFT
 10
0.0
 20
0.0
 30
0.0
  9
$UCSORGRIGHT
 10
0.0
 20
0.0
 30
0.0
  9
$UCSORGFRONT
 10
0.0
 20
0.0
 30
0.0
  9
$UCSORGBACK
 10
0.0
 20
0.0
 30
0.0
  9
$PUCSBASE
  2

  9
$PUCSNAME
  2

  9
$PUCSORG
 10
0.0
 20
0.0
 30
0.0
  9
$PUCSXDIR
 10
1.0
 20
0.0
 30
0.0
  9
$PUCSYDIR
 10
0.0
 20
1.0
 30
0.0
  9
$PUCSORTHOREF
  2

  9
$PUCSORTHOVIEW
 70
     0
  9
$PUCSORGTOP
 10
0.0
 20
0.0
 30
0.0
  9
$PUCSORGBOTTOM
 10
0.0
 20
0.0
 30
0.0
  9
$PUCSORGLEFT
 10
0.0
 20
0.0
 30
0.0
  9
$PUCSORGRIGHT
 10
0.0
 20
0.0
 30
0.0
  9
$PUCSORGFRONT
 10
0.0
 20
0.0
 30
0.0
  9
$PUCSORGBACK
 10
0.0
 20
0.0
 30
0.0
  9
$USERI1
 70
     0
  9
$USERI2
 70
     0
  9
$USERI3
 70
     0
  9
$USERI4
 70
     0
  9
$USERI5
 70
     0
  9
$USERR1
 40
0.0
  9
$USERR2
 40
0.0
  9
$USERR3
 40
0.0
  9
$USERR4
 40
0.0
  9
$USERR5
 40
0.0
  9
$WORLDVIEW
 70
     1
  9
$SHADEDGE
 70
     3
  9
$SHADEDIF
 70
    70
  9
$TILEMODE
 70
     1
  9
$MAXACTVP
 70
    64
  9
$PINSBASE
 10
0.0
 20
0.0
 30
0.0
  9
$PLIMCHECK
 70
     0
  9
$PEXTMIN
 10
1.000000000000000E+20
 20
1.000000000000000E+20
 30
1.000000000000000E+20
  9
$PEXTMAX
 10
-1.000000000000000E+20
 20
-1.000000000000000E+20
 30
-1.000000000000000E+20
  9
$PLIMMIN
 10
0.0
 20
0.0
  9
$PLIMMAX
 10
420.0
 20
297.0
  9
$UNITMODE
 70
     0
  9
$VISRETAIN
 70
     1
  9
$PLINEGEN
 70
     0
  9
$PSLTSCALE
 70
     1
  9
$TREEDEPTH
 70
  3020
  9
$CMLSTYLE
  2
Standard
  9
$CMLJUST
 70
     0
  9
$CMLSCALE
 40
20.0
  9
$PROXYGRAPHICS
 70
     1
  9
$MEASUREMENT
 70
     1
  9
$CELWEIGHT
370
    -1
  9
$ENDCAPS
280
     0
  9
$JOINSTYLE
280
     0
  9
$LWDISPLAY
290
     0
  9
$INSUNITS
 70
     4
  9
$HYPERLINKBASE
  1

  9
$STYLESHEET
  1

  9
$XEDIT
290
     1
  9
$CEPSNTYPE
380
     0
  9
$PSTYLEMODE
290
     1
  9
$FINGERPRINTGUID
  2
{E7DD42E8-3769-4371-AD64-EAEA79969906}
  9
$VERSIONGUID
  2
{FAEB1C32-E019-11D5-929B-00C0DF256EC4}
  9
$EXTNAMES
290
     1
  9
$PSVPSCALE
 40
0.0
  9
$OLESTARTUP
290
     0
  0
ENDSEC
  0
SECTION
  2
CLASSES
  0
CLASS
  1
ACDBDICTIONARYWDFLT
  2
AcDbDictionaryWithDefault
  3
ObjectDBX Classes
 90
        0
280
     0
281
     0
  0
CLASS
  1
VISUALSTYLE
  2
AcDbVisualStyle
  3
ObjectDBX Classes
 90
     4095
280
     0
281
     0
  0
CLASS
  1
MATERIAL
  2
AcDbMaterial
  3
ObjectDBX Classes
 90
     1153
280
     0
281
     0
  0
CLASS
  1
SCALE
  2
AcDbScale
  3
ObjectDBX Classes
 90
     1153
280
     0
281
     0
  0
CLASS
  1
SUN
  2
AcDbSun
  3
SCENEOE
 90
     1153
280
     0
281
     0
  0
CLASS
  1
DICTIONARYVAR
  2
AcDbDictionaryVar
  3
ObjectDBX Classes
 90
        0
280
     0
281
     0
  0
CLASS
  1
ACDBPLACEHOLDER
  2
AcDbPlaceHolder
  3
ObjectDBX Classes
 90
        0
280
     0
281
     0
  0
CLASS
  1
LAYOUT
  2
AcDbLayout
  3
ObjectDBX Classes
 90
        0
280
     0
281
     0
  0
ENDSEC
  0
SECTION
  2
TABLES
  0
TABLE
  2
VPORT
  5
8
330
0
100
AcDbSymbolTable
 70
     1
  0
VPORT
  5
29
330
8
100
AcDbSymbolTableRecord
100
AcDbViewportTableRecord
  2
*Active
 70
     0
 10
0.0
 20
0.0
 11
1.0
 21
1.0
 12
210.0
 22
148.5
 13
0.0
 23
0.0
 14
10.0
 24
10.0
 15
10.0
 25
10.0
 16
0.0
 26
0.0
 36
1.0
 17
0.0
 27
0.0
 37
0.0
 40
297.0
 41
1.414141414141414
 42
50.0
 43
0.0
 44
0.0
 50
0.0
 51
0.0
 71
     0
 72
   100
 73
     1
 74
     3
 75
     0
 76
     0
 77
     0
 78
     0
281
     0
 65
     1
110
0.0
120
0.0
130
0.0
111
1.0
121
0.0
131
0.0
112
0.0
122
1.0
132
0.0
 79
     0
146
0.0
  0
ENDTAB
  0
TABLE
  2
LTYPE
  5
5
330
0
100
AcDbSymbolTable
 70
     2
  0
LTYPE
  5
14
330
5
100
AcDbSymbolTableRecord
100
AcDbLinetypeTableRecord
  2
ByBlock
 70
     0
  3

 72
    65
 73
     0
 40
0.0
  0
LTYPE
  5
15
330
5
100
AcDbSymbolTableRecord
100
AcDbLinetypeTableRecord
  2
ByLayer
 70
     0
  3

 72
    65
 73
     0
 40
0.0
  0
LTYPE
  5
16
330
5
100
AcDbSymbolTableRecord
100
AcDbLinetypeTableRecord
  2
Continuous
 70
     0
  3
Solid line
 72
    65
 73
     0
 40
0.0
  0
LTYPE
  5
DA
330
5
100
AcDbSymbolTableRecord
100
AcDbLinetypeTableRecord
  2
0.5実線
 70
     0
  3

 72
    65
 73
     0
 40
0.0
  0
ENDTAB
  0
TABLE
  2
LAYER
  5
2
330
0
100
AcDbSymbolTable
 70
     6
  0
LAYER
  5
10
330
2
100
AcDbSymbolTableRecord
100
AcDbLayerTableRecord
  2
0
 70
     0
 62
     7
  6
Continuous
370
    -3
390
F
  0
LAYER
  5
D6
330
2
100
AcDbSymbolTableRecord
100
AcDbLayerTableRecord
  2
Defpoints
 70
     0
 62
     7
  6
Continuous
290
     0
370
    -3
390
F
  0
LAYER
  5
D9
330
2
100
AcDbSymbolTableRecord
100
AcDbLayerTableRecord
  2
GR2_01
 70
     0
 62
     1
  6
0.5実線
370
    30
390
F
  0
LAYER
  5
1DB
330
2
100
AcDbSymbolTableRecord
100
AcDbLayerTableRecord
  2
GR1_01
 70
     0
 62
     1
  6
0.5実線
370
    30
390
F
  0
LAYER
  5
1F0
330
2
100
AcDbSymbolTableRecord
100
AcDbLayerTableRecord
  2
GR5_01
 70
     0
 62
     1
  6
0.5実線
370
    30
390
F
  0
LAYER
  5
27F
330
2
100
AcDbSymbolTableRecord
100
AcDbLayerTableRecord
  2
-
 70
     0
 62
     7
  6
Continuous
370
    -3
390
F
  0
ENDTAB
  0
TABLE
  2
STYLE
  5
3
330
0
100
AcDbSymbolTable
 70
     4
  0
STYLE
  5
11
330
3
100
AcDbSymbolTableRecord
100
AcDbTextStyleTableRecord
  2
Standard
 70
     0
 40
0.0
 41
1.0
 50
0.0
 71
     0
 42
2.5
  3
txt
  4

  0
STYLE
  5
6A
330
3
100
AcDbSymbolTableRecord
100
AcDbTextStyleTableRecord
  2
FX_VECTOR
 70
     0
 40
0.0
 41
1.0
 50
0.0
 71
     0
 42
2.5
  3
MONOTXT.SHX
  4
BigFont.shx
  0
STYLE
  5
D5
330
3
100
AcDbSymbolTableRecord
100
AcDbTextStyleTableRecord
  2
ＭＳ ゴシック
 70
     0
 40
0.0
 41
1.0
 50
0.0
 71
     0
 42
2.5
  3

  4

1001
ACAD
1000
ＭＳ ゴシック
1071
    32817
  0
STYLE
  5
D7
330
3
100
AcDbSymbolTableRecord
100
AcDbTextStyleTableRecord
  2
DEFAULT
 70
     0
 40
0.0
 41
1.0
 50
0.0
 71
     0
 42
2.5
  3

  4

1001
ACAD
1000
ＭＳ ゴシック
1071
    32817
  0
ENDTAB
  0
TABLE
  2
VIEW
  5
6
330
0
100
AcDbSymbolTable
 70
     0
  0
ENDTAB
  0
TABLE
  2
UCS
  5
7
330
0
100
AcDbSymbolTable
 70
     0
  0
ENDTAB
  0
TABLE
  2
APPID
  5
9
330
0
100
AcDbSymbolTable
 70
     1
  0
APPID
  5
12
330
9
100
AcDbSymbolTableRecord
100
AcDbRegAppTableRecord
  2
ACAD
 70
     0
  0
ENDTAB
  0
TABLE
  2
DIMSTYLE
  5
A
330
0
100
AcDbSymbolTable
 70
     2
100
AcDbDimStyleTable
  0
DIMSTYLE
105
27
330
A
100
AcDbSymbolTableRecord
100
AcDbDimStyleTableRecord
  2
ISO-25
 70
     0
 41
2.5
 42
0.625
 43
3.75
 44
1.25
 73
     0
 74
     0
 77
     1
 78
     8
140
2.5
141
2.5
143
0.03937007874016
147
0.625
171
     3
172
     1
178
     0
271
     2
272
     2
274
     3
278
    44
283
     0
284
     8
340
11
  0
DIMSTYLE
105
D4
102
{ACAD_REACTORS
330
D8
330
125
330
12F
330
1D1
102
}
330
A
100
AcDbSymbolTableRecord
100
AcDbDimStyleTableRecord
  2
FX_DIMINFO
 70
     0
 41
2.5
 42
1.0
 43
8.0
 44
1.0
 46
4.0
 73
     0
 74
     0
 77
     1
 78
     8
 79
     2
140
3.5
141
2.5
143
0.03937
147
1.0
171
     3
172
     1
173
     1
176
     5
177
     5
271
     2
178
    94
179
     2
271
     2
272
     2
274
     3
284
     8
340
D5
341
6E
343
6E
344
74
  0
ENDTAB
  0
TABLE
  2
BLOCK_RECORD
  5
1
330
0
100
AcDbSymbolTable
 70
    30
  0
BLOCK_RECORD
  5
1F
330
1
100
AcDbSymbolTableRecord
100
AcDbBlockTableRecord
  2
*Model_Space
340
22
  0
BLOCK_RECORD
  5
1B
330
1
100
AcDbSymbolTableRecord
100
AcDbBlockTableRecord
  2
*Paper_Space
340
1E
  0
BLOCK_RECORD
  5
23
330
1
100
AcDbSymbolTableRecord
100
AcDbBlockTableRecord
  2
*Paper_Space0
340
26
  0
BLOCK_RECORD
  5
6B
330
1
100
AcDbSymbolTableRecord
100
AcDbBlockTableRecord
  2
FXTIP_NONE
340
0
  0
BLOCK_RECORD
  5
6E
330
1
100
AcDbSymbolTableRecord
100
AcDbBlockTableRecord
  2
FXTIP_ARROW_S
340
0
102
{BLKREFS
331
E0
331
12B
331
135
331
1D7
102
}
  0
BLOCK_RECORD
  5
74
330
1
100
AcDbSymbolTableRecord
100
AcDbBlockTableRecord
  2
FXTIP_ARROW_E
340
0
102
{BLKREFS
331
E1
331
12C
331
136
331
1D8
331
283
102
}
  0
BLOCK_RECORD
  5
7A
330
1
100
AcDbSymbolTableRecord
100
AcDbBlockTableRecord
  2
FXTIP_BLACKDOT_S
340
0
  0
BLOCK_RECORD
  5
80
330
1
100
AcDbSymbolTableRecord
100
AcDbBlockTableRecord
  2
FXTIP_BLACKDOT_E
340
0
  0
BLOCK_RECORD
  5
86
330
1
100
AcDbSymbolTableRecord
100
AcDbBlockTableRecord
  2
FXTIP_TRIANGLE_S
340
0
  0
BLOCK_RECORD
  5
8D
330
1
100
AcDbSymbolTableRecord
100
AcDbBlockTableRecord
  2
FXTIP_TRIANGLE_E
340
0
  0
BLOCK_RECORD
  5
94
330
1
100
AcDbSymbolTableRecord
100
AcDbBlockTableRecord
  2
FXTIP_ARCHITECT_S
340
0
  0
BLOCK_RECORD
  5
9A
330
1
100
AcDbSymbolTableRecord
100
AcDbBlockTableRecord
  2
FXTIP_ARCHITECT_E
340
0
  0
BLOCK_RECORD
  5
A0
330
1
100
AcDbSymbolTableRecord
100
AcDbBlockTableRecord
  2
FXTIP_CIVIL_S
340
0
  0
BLOCK_RECORD
  5
A6
330
1
100
AcDbSymbolTableRecord
100
AcDbBlockTableRecord
  2
FXTIP_CIVIL_E
340
0
  0
BLOCK_RECORD
  5
AC
330
1
100
AcDbSymbolTableRecord
100
AcDbBlockTableRecord
  2
FXTIP_WHITEDOT_S
340
0
  0
BLOCK_RECORD
  5
B1
330
1
100
AcDbSymbolTableRecord
100
AcDbBlockTableRecord
  2
FXTIP_WHITEDOT_E
340
0
  0
BLOCK_RECORD
  5
B6
330
1
100
AcDbSymbolTableRecord
100
AcDbBlockTableRecord
  2
FXTIP_UPARROW_S
340
0
  0
BLOCK_RECORD
  5
BB
330
1
100
AcDbSymbolTableRecord
100
AcDbBlockTableRecord
  2
FXTIP_UPARROW_E
340
0
  0
BLOCK_RECORD
  5
C0
330
1
100
AcDbSymbolTableRecord
100
AcDbBlockTableRecord
  2
FXTIP_DOWNARROW_S
340
0
  0
BLOCK_RECORD
  5
C5
330
1
100
AcDbSymbolTableRecord
100
AcDbBlockTableRecord
  2
FXTIP_DOWNARROW_E
340
0
  0
BLOCK_RECORD
  5
CA
330
1
100
AcDbSymbolTableRecord
100
AcDbBlockTableRecord
  2
FXTIP_BLACKTRIANGLE_S
340
0
  0
BLOCK_RECORD
  5
CF
330
1
100
AcDbSymbolTableRecord
100
AcDbBlockTableRecord
  2
FXTIP_BLACKTRIANGLE_E
340
0
  0
BLOCK_RECORD
  5
DB
330
1
100
AcDbSymbolTableRecord
100
AcDbBlockTableRecord
  2
*D20
340
0
  0
BLOCK_RECORD
  5
109
330
1
100
AcDbSymbolTableRecord
100
AcDbBlockTableRecord
  2
BLKF024
340
0
102
{BLKREFS
331
10C
102
}
  0
BLOCK_RECORD
  5
126
330
1
100
AcDbSymbolTableRecord
100
AcDbBlockTableRecord
  2
*D22
340
0
  0
BLOCK_RECORD
  5
130
330
1
100
AcDbSymbolTableRecord
100
AcDbBlockTableRecord
  2
*D23
340
0
  0
BLOCK_RECORD
  5
13F
330
1
100
AcDbSymbolTableRecord
100
AcDbBlockTableRecord
  2
BLKF027
340
0
102
{BLKREFS
331
142
102
}
  0
BLOCK_RECORD
  5
14C
330
1
100
AcDbSymbolTableRecord
100
AcDbBlockTableRecord
  2
BLKF028
340
0
102
{BLKREFS
331
14F
102
}
  0
BLOCK_RECORD
  5
1A0
330
1
100
AcDbSymbolTableRecord
100
AcDbBlockTableRecord
  2
BLKF029
340
0
102
{BLKREFS
331
1A3
102
}
  0
BLOCK_RECORD
  5
1AC
330
1
100
AcDbSymbolTableRecord
100
AcDbBlockTableRecord
  2
BLKF030
340
0
102
{BLKREFS
331
1AF
102
}
  0
BLOCK_RECORD
  5
1D2
330
1
100
AcDbSymbolTableRecord
100
AcDbBlockTableRecord
  2
*D28
340
0
  0
BLOCK_RECORD
  5
27C
330
1
100
AcDbSymbolTableRecord
100
AcDbBlockTableRecord
  2
FXDIM032
340
0
102
{BLKREFS
331
280
102
}
  0
ENDTAB
  0
ENDSEC
  0
SECTION
  2
BLOCKS
  0
BLOCK
  5
20
330
1F
100
AcDbEntity
  8
0
100
AcDbBlockBegin
  2
*Model_Space
 70
     0
 10
0.0
 20
0.0
 30
0.0
  3
*Model_Space
  1
*Model_Space
  0
ENDBLK
  5
21
330
1F
100
AcDbEntity
  8
0
100
AcDbBlockEnd
  0
BLOCK
  5
1C
330
1B
100
AcDbEntity
 67
     1
  8
0
100
AcDbBlockBegin
  2
*Paper_Space
 70
     0
 10
0.0
 20
0.0
 30
0.0
  3
*Paper_Space
  1
*Paper_Space
  0
ENDBLK
  5
1D
330
1B
100
AcDbEntity
 67
     1
  8
0
100
AcDbBlockEnd
  0
BLOCK
  5
24
330
23
100
AcDbEntity
  8
0
100
AcDbBlockBegin
  2
*Paper_Space0
 70
     0
 10
0.0
 20
0.0
 30
0.0
  3
*Paper_Space0
  1
*Paper_Space0
  0
ENDBLK
  5
25
330
23
100
AcDbEntity
  8
0
100
AcDbBlockEnd
  0
BLOCK
  5
6C
330
6B
100
AcDbEntity
  8
0
100
AcDbBlockBegin
  2
FXTIP_NONE
 70
     0
 10
0.0
 20
0.0
 30
0.0
  3
FXTIP_NONE
  1
FXTIP_NONE
  0
ENDBLK
  5
6D
330
6B
100
AcDbEntity
  8
0
100
AcDbBlockEnd
  0
BLOCK
  5
6F
330
6E
100
AcDbEntity
  8
0
100
AcDbBlockBegin
  2
FXTIP_ARROW_S
 70
     0
 10
0.0
 20
0.0
 30
0.0
  3
FXTIP_ARROW_S
  1
FXTIP_ARROW_S
  0
LINE
  5
71
330
6E
100
AcDbEntity
  8
0
  6
Continuous
 62
     0
370
    -2
100
AcDbLine
 10
0.0
 20
0.0
 30
0.0
 11
-1.0
 21
0.0000000000000001
 31
0.0
  0
LINE
  5
72
330
6E
100
AcDbEntity
  8
0
  6
Continuous
 62
     0
370
    -2
100
AcDbLine
 10
0.0
 20
0.0
 30
0.0
 11
-0.9659258262890683
 21
-0.2588190451025206
 31
0.0
  0
LINE
  5
73
330
6E
100
AcDbEntity
  8
0
  6
Continuous
 62
     0
370
    -2
100
AcDbLine
 10
0.0
 20
0.0
 30
0.0
 11
-0.9659258262890683
 21
0.2588190451025209
 31
0.0
  0
ENDBLK
  5
70
330
6E
100
AcDbEntity
  8
0
100
AcDbBlockEnd
  0
BLOCK
  5
75
330
74
100
AcDbEntity
  8
0
100
AcDbBlockBegin
  2
FXTIP_ARROW_E
 70
     0
 10
0.0
 20
0.0
 30
0.0
  3
FXTIP_ARROW_E
  1
FXTIP_ARROW_E
  0
LINE
  5
77
330
74
100
AcDbEntity
  8
0
  6
Continuous
 62
     0
370
    -2
100
AcDbLine
 10
0.0
 20
0.0
 30
0.0
 11
-1.0
 21
0.0
 31
0.0
  0
LINE
  5
78
330
74
100
AcDbEntity
  8
0
  6
Continuous
 62
     0
370
    -2
100
AcDbLine
 10
0.0
 20
0.0
 30
0.0
 11
-0.9659258262890683
 21
0.2588190451025207
 31
0.0
  0
LINE
  5
79
330
74
100
AcDbEntity
  8
0
  6
Continuous
 62
     0
370
    -2
100
AcDbLine
 10
0.0
 20
0.0
 30
0.0
 11
-0.9659258262890683
 21
-0.2588190451025207
 31
0.0
  0
ENDBLK
  5
76
330
74
100
AcDbEntity
  8
0
100
AcDbBlockEnd
  0
BLOCK
  5
7B
330
7A
100
AcDbEntity
  8
0
100
AcDbBlockBegin
  2
FXTIP_BLACKDOT_S
 70
     0
 10
0.0
 20
0.0
 30
0.0
  3
FXTIP_BLACKDOT_S
  1
FXTIP_BLACKDOT_S
  0
LINE
  5
7D
330
7A
100
AcDbEntity
  8
0
  6
Continuous
 62
     0
370
    -2
100
AcDbLine
 10
0.0
 20
0.0
 30
0.0
 11
-1.0
 21
0.0000000000000001
 31
0.0
  0
LWPOLYLINE
  5
7E
330
7A
100
AcDbEntity
  8
0
  6
Continuous
 62
     0
370
    -2
100
AcDbPolyline
 90
        2
 70
     1
 43
0.2
 10
-0.1
 20
0.0
 42
1.0
 10
0.1
 20
0.0
 42
1.0
  0
CIRCLE
  5
7F
330
7A
100
AcDbEntity
  8
0
  6
Continuous
 62
     0
370
    -2
100
AcDbCircle
 10
0.0
 20
0.0
 30
0.0
 40
0.2
  0
ENDBLK
  5
7C
330
7A
100
AcDbEntity
  8
0
100
AcDbBlockEnd
  0
BLOCK
  5
81
330
80
100
AcDbEntity
  8
0
100
AcDbBlockBegin
  2
FXTIP_BLACKDOT_E
 70
     0
 10
0.0
 20
0.0
 30
0.0
  3
FXTIP_BLACKDOT_E
  1
FXTIP_BLACKDOT_E
  0
LINE
  5
83
330
80
100
AcDbEntity
  8
0
  6
Continuous
 62
     0
370
    -2
100
AcDbLine
 10
0.0
 20
0.0
 30
0.0
 11
-1.0
 21
0.0
 31
0.0
  0
LWPOLYLINE
  5
84
330
80
100
AcDbEntity
  8
0
  6
Continuous
 62
     0
370
    -2
100
AcDbPolyline
 90
        2
 70
     1
 43
0.2
 10
-0.1
 20
0.0
 42
1.0
 10
0.1
 20
0.0
 42
1.0
  0
CIRCLE
  5
85
330
80
100
AcDbEntity
  8
0
  6
Continuous
 62
     0
370
    -2
100
AcDbCircle
 10
0.0
 20
0.0
 30
0.0
 40
0.2
  0
ENDBLK
  5
82
330
80
100
AcDbEntity
  8
0
100
AcDbBlockEnd
  0
BLOCK
  5
87
330
86
100
AcDbEntity
  8
0
100
AcDbBlockBegin
  2
FXTIP_TRIANGLE_S
 70
     0
 10
0.0
 20
0.0
 30
0.0
  3
FXTIP_TRIANGLE_S
  1
FXTIP_TRIANGLE_S
  0
LINE
  5
89
330
86
100
AcDbEntity
  8
0
  6
Continuous
 62
     0
370
    -2
100
AcDbLine
 10
0.0
 20
0.0
 30
0.0
 11
-1.0
 21
0.0000000000000001
 31
0.0
  0
LINE
  5
8A
330
86
100
AcDbEntity
  8
0
  6
Continuous
 62
     0
370
    -2
100
AcDbLine
 10
0.0
 20
0.0
 30
0.0
 11
-0.9659258262890683
 21
-0.2588190451025206
 31
0.0
  0
LINE
  5
8B
330
86
100
AcDbEntity
  8
0
  6
Continuous
 62
     0
370
    -2
100
AcDbLine
 10
0.0
 20
0.0
 30
0.0
 11
-0.9659258262890683
 21
0.2588190451025209
 31
0.0
  0
LINE
  5
8C
330
86
100
AcDbEntity
  8
0
  6
Continuous
 62
     0
370
    -2
100
AcDbLine
 10
-0.9659258262890683
 20
-0.2588190451025206
 30
0.0
 11
-0.9659258262890683
 21
0.2588190451025209
 31
0.0
  0
ENDBLK
  5
88
330
86
100
AcDbEntity
  8
0
100
AcDbBlockEnd
  0
BLOCK
  5
8E
330
8D
100
AcDbEntity
  8
0
100
AcDbBlockBegin
  2
FXTIP_TRIANGLE_E
 70
     0
 10
0.0
 20
0.0
 30
0.0
  3
FXTIP_TRIANGLE_E
  1
FXTIP_TRIANGLE_E
  0
LINE
  5
90
330
8D
100
AcDbEntity
  8
0
  6
Continuous
 62
     0
370
    -2
100
AcDbLine
 10
0.0
 20
0.0
 30
0.0
 11
-1.0
 21
0.0
 31
0.0
  0
LINE
  5
91
330
8D
100
AcDbEntity
  8
0
  6
Continuous
 62
     0
370
    -2
100
AcDbLine
 10
0.0
 20
0.0
 30
0.0
 11
-0.9659258262890683
 21
0.2588190451025207
 31
0.0
  0
LINE
  5
92
330
8D
100
AcDbEntity
  8
0
  6
Continuous
 62
     0
370
    -2
100
AcDbLine
 10
0.0
 20
0.0
 30
0.0
 11
-0.9659258262890683
 21
-0.2588190451025207
 31
0.0
  0
LINE
  5
93
330
8D
100
AcDbEntity
  8
0
  6
Continuous
 62
     0
370
    -2
100
AcDbLine
 10
-0.9659258262890683
 20
0.2588190451025207
 30
0.0
 11
-0.9659258262890683
 21
-0.2588190451025207
 31
0.0
  0
ENDBLK
  5
8F
330
8D
100
AcDbEntity
  8
0
100
AcDbBlockEnd
  0
BLOCK
  5
95
330
94
100
AcDbEntity
  8
0
100
AcDbBlockBegin
  2
FXTIP_ARCHITECT_S
 70
     0
 10
0.0
 20
0.0
 30
0.0
  3
FXTIP_ARCHITECT_S
  1
FXTIP_ARCHITECT_S
  0
LINE
  5
97
330
94
100
AcDbEntity
  8
0
  6
Continuous
 62
     0
370
    -2
100
AcDbLine
 10
0.0
 20
0.0
 30
0.0
 11
-1.0
 21
0.0000000000000001
 31
0.0
  0
LINE
  5
98
330
94
100
AcDbEntity
  8
0
  6
Continuous
 62
     0
370
    -2
100
AcDbLine
 10
0.0
 20
0.0
 30
0.0
 11
-0.7071067811865476
 21
-0.7071067811865474
 31
0.0
  0
LINE
  5
99
330
94
100
AcDbEntity
  8
0
  6
Continuous
 62
     0
370
    -2
100
AcDbLine
 10
0.0
 20
0.0
 30
0.0
 11
0.7071067811865476
 21
0.7071067811865474
 31
0.0
  0
ENDBLK
  5
96
330
94
100
AcDbEntity
  8
0
100
AcDbBlockEnd
  0
BLOCK
  5
9B
330
9A
100
AcDbEntity
  8
0
100
AcDbBlockBegin
  2
FXTIP_ARCHITECT_E
 70
     0
 10
0.0
 20
0.0
 30
0.0
  3
FXTIP_ARCHITECT_E
  1
FXTIP_ARCHITECT_E
  0
LINE
  5
9D
330
9A
100
AcDbEntity
  8
0
  6
Continuous
 62
     0
370
    -2
100
AcDbLine
 10
0.0
 20
0.0
 30
0.0
 11
-1.0
 21
0.0
 31
0.0
  0
LINE
  5
9E
330
9A
100
AcDbEntity
  8
0
  6
Continuous
 62
     0
370
    -2
100
AcDbLine
 10
0.0
 20
0.0
 30
0.0
 11
0.7071067811865475
 21
0.7071067811865475
 31
0.0
  0
LINE
  5
9F
330
9A
100
AcDbEntity
  8
0
  6
Continuous
 62
     0
370
    -2
100
AcDbLine
 10
0.0
 20
0.0
 30
0.0
 11
-0.7071067811865475
 21
-0.7071067811865475
 31
0.0
  0
ENDBLK
  5
9C
330
9A
100
AcDbEntity
  8
0
100
AcDbBlockEnd
  0
BLOCK
  5
A1
330
A0
100
AcDbEntity
  8
0
100
AcDbBlockBegin
  2
FXTIP_CIVIL_S
 70
     0
 10
0.0
 20
0.0
 30
0.0
  3
FXTIP_CIVIL_S
  1
FXTIP_CIVIL_S
  0
LINE
  5
A3
330
A0
100
AcDbEntity
  8
0
  6
Continuous
 62
     0
370
    -2
100
AcDbLine
 10
0.0
 20
0.0
 30
0.0
 11
-1.0
 21
0.0000000000000001
 31
0.0
  0
LINE
  5
A4
330
A0
100
AcDbEntity
  8
0
  6
Continuous
 62
     0
370
    -2
100
AcDbLine
 10
0.0
 20
-0.1
 30
0.0
 11
-1.0
 21
-0.0999999999999999
 31
0.0
  0
LINE
  5
A5
330
A0
100
AcDbEntity
  8
0
  6
Continuous
 62
     0
370
    -2
100
AcDbLine
 10
0.0
 20
-0.2
 30
0.0
 11
-1.0
 21
-0.1999999999999999
 31
0.0
  0
ENDBLK
  5
A2
330
A0
100
AcDbEntity
  8
0
100
AcDbBlockEnd
  0
BLOCK
  5
A7
330
A6
100
AcDbEntity
  8
0
100
AcDbBlockBegin
  2
FXTIP_CIVIL_E
 70
     0
 10
0.0
 20
0.0
 30
0.0
  3
FXTIP_CIVIL_E
  1
FXTIP_CIVIL_E
  0
LINE
  5
A9
330
A6
100
AcDbEntity
  8
0
  6
Continuous
 62
     0
370
    -2
100
AcDbLine
 10
0.0
 20
0.0
 30
0.0
 11
-1.0
 21
0.0
 31
0.0
  0
LINE
  5
AA
330
A6
100
AcDbEntity
  8
0
  6
Continuous
 62
     0
370
    -2
100
AcDbLine
 10
0.0
 20
0.1
 30
0.0
 11
-1.0
 21
0.1
 31
0.0
  0
LINE
  5
AB
330
A6
100
AcDbEntity
  8
0
  6
Continuous
 62
     0
370
    -2
100
AcDbLine
 10
0.0
 20
0.2
 30
0.0
 11
-1.0
 21
0.2
 31
0.0
  0
ENDBLK
  5
A8
330
A6
100
AcDbEntity
  8
0
100
AcDbBlockEnd
  0
BLOCK
  5
AD
330
AC
100
AcDbEntity
  8
0
100
AcDbBlockBegin
  2
FXTIP_WHITEDOT_S
 70
     0
 10
0.0
 20
0.0
 30
0.0
  3
FXTIP_WHITEDOT_S
  1
FXTIP_WHITEDOT_S
  0
LINE
  5
AF
330
AC
100
AcDbEntity
  8
0
  6
Continuous
 62
     0
370
    -2
100
AcDbLine
 10
0.0
 20
0.0
 30
0.0
 11
-1.0
 21
0.0000000000000001
 31
0.0
  0
CIRCLE
  5
B0
330
AC
100
AcDbEntity
  8
0
  6
Continuous
 62
     0
370
    -2
100
AcDbCircle
 10
0.0
 20
0.0
 30
0.0
 40
0.2
  0
ENDBLK
  5
AE
330
AC
100
AcDbEntity
  8
0
100
AcDbBlockEnd
  0
BLOCK
  5
B2
330
B1
100
AcDbEntity
  8
0
100
AcDbBlockBegin
  2
FXTIP_WHITEDOT_E
 70
     0
 10
0.0
 20
0.0
 30
0.0
  3
FXTIP_WHITEDOT_E
  1
FXTIP_WHITEDOT_E
  0
LINE
  5
B4
330
B1
100
AcDbEntity
  8
0
  6
Continuous
 62
     0
370
    -2
100
AcDbLine
 10
0.0
 20
0.0
 30
0.0
 11
-1.0
 21
0.0
 31
0.0
  0
CIRCLE
  5
B5
330
B1
100
AcDbEntity
  8
0
  6
Continuous
 62
     0
370
    -2
100
AcDbCircle
 10
0.0
 20
0.0
 30
0.0
 40
0.2
  0
ENDBLK
  5
B3
330
B1
100
AcDbEntity
  8
0
100
AcDbBlockEnd
  0
BLOCK
  5
B7
330
B6
100
AcDbEntity
  8
0
100
AcDbBlockBegin
  2
FXTIP_UPARROW_S
 70
     0
 10
0.0
 20
0.0
 30
0.0
  3
FXTIP_UPARROW_S
  1
FXTIP_UPARROW_S
  0
LINE
  5
B9
330
B6
100
AcDbEntity
  8
0
  6
Continuous
 62
     0
370
    -2
100
AcDbLine
 10
0.0
 20
0.0
 30
0.0
 11
-1.0
 21
0.0000000000000001
 31
0.0
  0
LINE
  5
BA
330
B6
100
AcDbEntity
  8
0
  6
Continuous
 62
     0
370
    -2
100
AcDbLine
 10
0.0
 20
0.0
 30
0.0
 11
-0.9659258262890683
 21
-0.2588190451025206
 31
0.0
  0
ENDBLK
  5
B8
330
B6
100
AcDbEntity
  8
0
100
AcDbBlockEnd
  0
BLOCK
  5
BC
330
BB
100
AcDbEntity
  8
0
100
AcDbBlockBegin
  2
FXTIP_UPARROW_E
 70
     0
 10
0.0
 20
0.0
 30
0.0
  3
FXTIP_UPARROW_E
  1
FXTIP_UPARROW_E
  0
LINE
  5
BE
330
BB
100
AcDbEntity
  8
0
  6
Continuous
 62
     0
370
    -2
100
AcDbLine
 10
0.0
 20
0.0
 30
0.0
 11
-1.0
 21
0.0
 31
0.0
  0
LINE
  5
BF
330
BB
100
AcDbEntity
  8
0
  6
Continuous
 62
     0
370
    -2
100
AcDbLine
 10
0.0
 20
0.0
 30
0.0
 11
-0.9659258262890683
 21
0.2588190451025207
 31
0.0
  0
ENDBLK
  5
BD
330
BB
100
AcDbEntity
  8
0
100
AcDbBlockEnd
  0
BLOCK
  5
C1
330
C0
100
AcDbEntity
  8
0
100
AcDbBlockBegin
  2
FXTIP_DOWNARROW_S
 70
     0
 10
0.0
 20
0.0
 30
0.0
  3
FXTIP_DOWNARROW_S
  1
FXTIP_DOWNARROW_S
  0
LINE
  5
C3
330
C0
100
AcDbEntity
  8
0
  6
Continuous
 62
     0
370
    -2
100
AcDbLine
 10
0.0
 20
0.0
 30
0.0
 11
-1.0
 21
0.0000000000000001
 31
0.0
  0
LINE
  5
C4
330
C0
100
AcDbEntity
  8
0
  6
Continuous
 62
     0
370
    -2
100
AcDbLine
 10
0.0
 20
0.0
 30
0.0
 11
-0.9659258262890683
 21
0.2588190451025209
 31
0.0
  0
ENDBLK
  5
C2
330
C0
100
AcDbEntity
  8
0
100
AcDbBlockEnd
  0
BLOCK
  5
C6
330
C5
100
AcDbEntity
  8
0
100
AcDbBlockBegin
  2
FXTIP_DOWNARROW_E
 70
     0
 10
0.0
 20
0.0
 30
0.0
  3
FXTIP_DOWNARROW_E
  1
FXTIP_DOWNARROW_E
  0
LINE
  5
C8
330
C5
100
AcDbEntity
  8
0
  6
Continuous
 62
     0
370
    -2
100
AcDbLine
 10
0.0
 20
0.0
 30
0.0
 11
-1.0
 21
0.0
 31
0.0
  0
LINE
  5
C9
330
C5
100
AcDbEntity
  8
0
  6
Continuous
 62
     0
370
    -2
100
AcDbLine
 10
0.0
 20
0.0
 30
0.0
 11
-0.9659258262890683
 21
-0.2588190451025207
 31
0.0
  0
ENDBLK
  5
C7
330
C5
100
AcDbEntity
  8
0
100
AcDbBlockEnd
  0
BLOCK
  5
CB
330
CA
100
AcDbEntity
  8
0
100
AcDbBlockBegin
  2
FXTIP_BLACKTRIANGLE_S
 70
     0
 10
0.0
 20
0.0
 30
0.0
  3
FXTIP_BLACKTRIANGLE_S
  1
FXTIP_BLACKTRIANGLE_S
  0
LINE
  5
CD
330
CA
100
AcDbEntity
  8
0
  6
Continuous
 62
     0
370
    -2
100
AcDbLine
 10
0.0
 20
0.0
 30
0.0
 11
-1.0
 21
0.0000000000000001
 31
0.0
  0
SOLID
  5
CE
330
CA
100
AcDbEntity
  8
0
  6
Continuous
 62
     0
370
    -2
100
AcDbTrace
 10
0.0
 20
0.0
 30
0.0
 11
-0.9659258262890683
 21
-0.2588190451025206
 31
0.0
 12
-0.9659258262890683
 22
0.2588190451025209
 32
0.0
 13
-0.9659258262890683
 23
0.2588190451025209
 33
0.0
  0
ENDBLK
  5
CC
330
CA
100
AcDbEntity
  8
0
100
AcDbBlockEnd
  0
BLOCK
  5
D0
330
CF
100
AcDbEntity
  8
0
100
AcDbBlockBegin
  2
FXTIP_BLACKTRIANGLE_E
 70
     0
 10
0.0
 20
0.0
 30
0.0
  3
FXTIP_BLACKTRIANGLE_E
  1
FXTIP_BLACKTRIANGLE_E
  0
LINE
  5
D2
330
CF
100
AcDbEntity
  8
0
  6
Continuous
 62
     0
370
    -2
100
AcDbLine
 10
0.0
 20
0.0
 30
0.0
 11
-1.0
 21
0.0
 31
0.0
  0
SOLID
  5
D3
330
CF
100
AcDbEntity
  8
0
  6
Continuous
 62
     0
370
    -2
100
AcDbTrace
 10
0.0
 20
0.0
 30
0.0
 11
-0.9659258262890683
 21
0.2588190451025207
 31
0.0
 12
-0.9659258262890683
 22
-0.2588190451025207
 32
0.0
 13
-0.9659258262890683
 23
-0.2588190451025207
 33
0.0
  0
ENDBLK
  5
D1
330
CF
100
AcDbEntity
  8
0
100
AcDbBlockEnd
  0
BLOCK
  5
DC
330
DB
100
AcDbEntity
  8
0
100
AcDbBlockBegin
  2
*D20
 70
     1
 10
0.0
 20
0.0
 30
0.0
  3
*D20
  1
*D20
  0
TEXT
  5
DE
330
DB
100
AcDbEntity
  8
0
  6
ByBlock
 62
    94
370
    -2
100
AcDbText
 10
206.9227625066584
 20
126.1046752929688
 30
0.0
 40
2.651515151515151
  1
３１．５
 50
90.0
 41
0.8703296703296703
  7
ＭＳ ゴシック
 72
     1
 11
207.4071197509766
 21
132.1046752929688
 31
0.0
100
AcDbText
 73
     1
  0
LINE
  5
DF
330
DB
100
AcDbEntity
  8
0
  6
ByBlock
 62
     0
370
    -2
100
AcDbLine
 10
208.4071380543437
 20
115.8046833056159
 30
0.0
 11
208.4071380543437
 21
147.3046833056159
 31
0.0
  0
INSERT
  5
E0
330
DB
100
AcDbEntity
  8
0
  6
ByBlock
 62
     0
370
    -2
100
AcDbBlockReference
  2
FXTIP_ARROW_S
 10
208.4071380543437
 20
115.8046833056159
 30
0.0
 41
2.5
 42
2.5
 50
270.0
  0
INSERT
  5
E1
330
DB
100
AcDbEntity
  8
0
  6
ByBlock
 62
     0
370
    -2
100
AcDbBlockReference
  2
FXTIP_ARROW_E
 10
208.4071380543437
 20
147.3046833056159
 30
0.0
 41
2.5
 42
2.5
 50
90.0
  0
LINE
  5
E2
330
DB
100
AcDbEntity
  8
0
  6
ByBlock
 62
     0
370
    -2
100
AcDbLine
 10
196.885468045264
 20
115.8046833056159
 30
0.0
 11
209.4071380543437
 21
115.8046833056159
 31
0.0
  0
LINE
  5
E3
330
DB
100
AcDbEntity
  8
0
  6
ByBlock
 62
     0
370
    -2
100
AcDbLine
 10
196.885468045264
 20
147.3046833056158
 30
0.0
 11
209.4071380543437
 21
147.3046833056159
 31
0.0
  0
ENDBLK
  5
DD
330
DB
100
AcDbEntity
  8
0
100
AcDbBlockEnd
  0
BLOCK
  5
10A
330
109
100
AcDbEntity
  8
0
100
AcDbBlockBegin
  2
BLKF024
 70
     0
 10
0.0
 20
0.0
 30
0.0
  3
BLKF024
  1
BLKF024
  0
CIRCLE
  5
10D
330
109
100
AcDbEntity
  8
0
  6
ByBlock
 62
     0
370
    -2
100
AcDbCircle
 10
367.4286298909291
 20
269.1013334279634
 30
0.0
 40
2.25
  0
LINE
  5
10E
330
109
100
AcDbEntity
  8
0
  6
ByBlock
 62
     0
370
    -2
100
AcDbLine
 10
366.1286298909291
 20
268.7013334279636
 30
0.0
 11
366.1286298909291
 21
269.5013334279635
 31
0.0
  0
LINE
  5
10F
330
109
100
AcDbEntity
  8
0
  6
ByBlock
 62
     0
370
    -2
100
AcDbLine
 10
367.0286298909291
 20
270.4013334279636
 30
0.0
 11
367.8286298909291
 21
270.4013334279636
 31
0.0
  0
LINE
  5
110
330
109
100
AcDbEntity
  8
0
  6
ByBlock
 62
     0
370
    -2
100
AcDbLine
 10
368.7286298909291
 20
268.7013334279636
 30
0.0
 11
368.7286298909291
 21
269.5013334279635
 31
0.0
  0
LINE
  5
111
330
109
100
AcDbEntity
  8
0
  6
ByBlock
 62
     0
370
    -2
100
AcDbLine
 10
367.0286298909291
 20
267.8013334279635
 30
0.0
 11
367.8286298909291
 21
267.8013334279635
 31
0.0
  0
ARC
  5
112
330
109
100
AcDbEntity
  8
0
  6
ByBlock
 62
     0
370
    -2
100
AcDbCircle
 10
366.1286298909291
 20
270.4013334279636
 30
0.0
 40
0.9000000000000341
100
AcDbArc
 50
270.0
 51
0.0
  0
ARC
  5
113
330
109
100
AcDbEntity
  8
0
  6
ByBlock
 62
     0
370
    -2
100
AcDbCircle
 10
366.1286298909291
 20
267.8013334279635
 30
0.0
 40
0.9000000000000341
100
AcDbArc
 50
0.0
 51
90.0
  0
ARC
  5
114
330
109
100
AcDbEntity
  8
0
  6
ByBlock
 62
     0
370
    -2
100
AcDbCircle
 10
368.7286298909291
 20
267.8013334279635
 30
0.0
 40
0.9000000000000341
100
AcDbArc
 50
90.0
 51
180.0
  0
ARC
  5
115
330
109
100
AcDbEntity
  8
0
  6
ByBlock
 62
     0
370
    -2
100
AcDbCircle
 10
368.7286298909291
 20
270.4013334279636
 30
0.0
 40
0.9000000000000341
100
AcDbArc
 50
180.0
 51
270.0
  0
ENDBLK
  5
10B
330
109
100
AcDbEntity
  8
0
100
AcDbBlockEnd
  0
BLOCK
  5
127
330
126
100
AcDbEntity
  8
0
100
AcDbBlockBegin
  2
*D22
 70
     1
 10
0.0
 20
0.0
 30
0.0
  3
*D22
  1
*D22
  0
TEXT
  5
129
330
126
100
AcDbEntity
  8
0
  6
ByBlock
 62
    94
370
    -2
100
AcDbText
 10
206.9227625066584
 20
218.101318359375
 30
0.0
 40
2.651515151515151
  1
１０２
 50
90.0
 41
0.8703296703296705
  7
ＭＳ ゴシック
 72
     1
 11
207.4071197509766
 21
222.601318359375
 31
0.0
100
AcDbText
 73
     1
  0
LINE
  5
12A
330
126
100
AcDbEntity
  8
0
  6
ByBlock
 62
     0
370
    -2
100
AcDbLine
 10
208.4071380543438
 20
171.6013334279636
 30
0.0
 11
208.4071380543438
 21
273.6013334279635
 31
0.0
  0
INSERT
  5
12B
330
126
100
AcDbEntity
  8
0
  6
ByBlock
 62
     0
370
    -2
100
AcDbBlockReference
  2
FXTIP_ARROW_S
 10
208.4071380543438
 20
171.6013334279636
 30
0.0
 41
2.5
 42
2.5
 50
270.0
  0
INSERT
  5
12C
330
126
100
AcDbEntity
  8
0
  6
ByBlock
 62
     0
370
    -2
100
AcDbBlockReference
  2
FXTIP_ARROW_E
 10
208.4071380543438
 20
273.6013334279635
 30
0.0
 41
2.5
 42
2.5
 50
90.0
  0
LINE
  5
12D
330
126
100
AcDbEntity
  8
0
  6
ByBlock
 62
     0
370
    -2
100
AcDbLine
 10
196.385468045264
 20
171.6013334279635
 30
0.0
 11
209.4071380543438
 21
171.6013334279635
 31
0.0
  0
LINE
  5
12E
330
126
100
AcDbEntity
  8
0
  6
ByBlock
 62
     0
370
    -2
100
AcDbLine
 10
196.385468045264
 20
273.6013334279635
 30
0.0
 11
209.4071380543438
 21
273.6013334279636
 31
0.0
  0
ENDBLK
  5
128
330
126
100
AcDbEntity
  8
0
100
AcDbBlockEnd
  0
BLOCK
  5
131
330
130
100
AcDbEntity
  8
0
100
AcDbBlockBegin
  2
*D23
 70
     1
 10
0.0
 20
0.0
 30
0.0
  3
*D23
  1
*D23
  0
TEXT
  5
133
330
130
100
AcDbEntity
  8
0
  6
ByBlock
 62
    94
370
    -2
100
AcDbText
 10
176.6854705810547
 20
160.4929479425604
 30
0.0
 40
2.651515151515151
  1
２７．４
 41
0.8703296703296703
  7
ＭＳ ゴシック
 72
     1
 11
182.6854705810547
 21
160.0085906982422
 31
0.0
100
AcDbText
 73
     1
  0
LINE
  5
134
330
130
100
AcDbEntity
  8
0
  6
ByBlock
 62
     0
370
    -2
100
AcDbLine
 10
168.9854680452639
 20
159.0086115876968
 30
0.0
 11
196.385468045264
 21
159.0086115876968
 31
0.0
  0
INSERT
  5
135
330
130
100
AcDbEntity
  8
0
  6
ByBlock
 62
     0
370
    -2
100
AcDbBlockReference
  2
FXTIP_ARROW_S
 10
168.9854680452639
 20
159.0086115876968
 30
0.0
 41
2.5
 42
2.5
 50
180.0
  0
INSERT
  5
136
330
130
100
AcDbEntity
  8
0
  6
ByBlock
 62
     0
370
    -2
100
AcDbBlockReference
  2
FXTIP_ARROW_E
 10
196.385468045264
 20
159.0086115876968
 30
0.0
 41
2.5
 42
2.5
 50
360.0
  0
LINE
  5
137
330
130
100
AcDbEntity
  8
0
  6
ByBlock
 62
     0
370
    -2
100
AcDbLine
 10
168.9854680452639
 20
171.6013334279635
 30
0.0
 11
168.9854680452639
 21
158.0086115876968
 31
0.0
  0
LINE
  5
138
330
130
100
AcDbEntity
  8
0
  6
ByBlock
 62
     0
370
    -2
100
AcDbLine
 10
196.385468045264
 20
171.6013334279635
 30
0.0
 11
196.385468045264
 21
158.0086115876968
 31
0.0
  0
ENDBLK
  5
132
330
130
100
AcDbEntity
  8
0
100
AcDbBlockEnd
  0
BLOCK
  5
140
330
13F
100
AcDbEntity
  8
0
100
AcDbBlockBegin
  2
BLKF027
 70
     0
 10
0.0
 20
0.0
 30
0.0
  3
BLKF027
  1
BLKF027
  0
CIRCLE
  5
143
330
13F
100
AcDbEntity
  8
0
  6
ByBlock
 62
     0
370
    -2
100
AcDbCircle
 10
176.9054680452639
 20
259.1013334279636
 30
0.0
 40
2.75
  0
LINE
  5
144
330
13F
100
AcDbEntity
  8
0
  6
ByBlock
 62
     0
370
    -2
100
AcDbLine
 10
175.1054680452639
 20
258.7013334279636
 30
0.0
 11
175.1054680452639
 21
259.5013334279636
 31
0.0
  0
LINE
  5
145
330
13F
100
AcDbEntity
  8
0
  6
ByBlock
 62
     0
370
    -2
100
AcDbLine
 10
176.505468045264
 20
260.9013334279636
 30
0.0
 11
177.3054680452639
 21
260.9013334279636
 31
0.0
  0
LINE
  5
146
330
13F
100
AcDbEntity
  8
0
  6
ByBlock
 62
     0
370
    -2
100
AcDbLine
 10
178.705468045264
 20
258.7013334279636
 30
0.0
 11
178.705468045264
 21
259.5013334279636
 31
0.0
  0
LINE
  5
147
330
13F
100
AcDbEntity
  8
0
  6
ByBlock
 62
     0
370
    -2
100
AcDbLine
 10
176.505468045264
 20
257.3013334279636
 30
0.0
 11
177.3054680452639
 21
257.3013334279636
 31
0.0
  0
ARC
  5
148
330
13F
100
AcDbEntity
  8
0
  6
ByBlock
 62
     0
370
    -2
100
AcDbCircle
 10
175.1054680452639
 20
260.9013334279636
 30
0.0
 40
1.399999999999999
100
AcDbArc
 50
270.0
 51
0.0
  0
ARC
  5
149
330
13F
100
AcDbEntity
  8
0
  6
ByBlock
 62
     0
370
    -2
100
AcDbCircle
 10
175.1054680452639
 20
257.3013334279636
 30
0.0
 40
1.399999999999999
100
AcDbArc
 50
0.0
 51
90.0
  0
ARC
  5
14A
330
13F
100
AcDbEntity
  8
0
  6
ByBlock
 62
     0
370
    -2
100
AcDbCircle
 10
178.705468045264
 20
257.3013334279636
 30
0.0
 40
1.399999999999999
100
AcDbArc
 50
90.0
 51
180.0
  0
ARC
  5
14B
330
13F
100
AcDbEntity
  8
0
  6
ByBlock
 62
     0
370
    -2
100
AcDbCircle
 10
178.705468045264
 20
260.9013334279636
 30
0.0
 40
1.399999999999999
100
AcDbArc
 50
180.0
 51
270.0
  0
ENDBLK
  5
141
330
13F
100
AcDbEntity
  8
0
100
AcDbBlockEnd
  0
BLOCK
  5
14D
330
14C
100
AcDbEntity
  8
0
100
AcDbBlockBegin
  2
BLKF028
 70
     0
 10
0.0
 20
0.0
 30
0.0
  3
BLKF028
  1
BLKF028
  0
CIRCLE
  5
150
330
14C
100
AcDbEntity
  8
0
  6
ByBlock
 62
     0
370
    -2
100
AcDbCircle
 10
176.9054680452639
 20
199.1013334279636
 30
0.0
 40
2.75
  0
LINE
  5
151
330
14C
100
AcDbEntity
  8
0
  6
ByBlock
 62
     0
370
    -2
100
AcDbLine
 10
175.1054680452639
 20
198.7013334279636
 30
0.0
 11
175.1054680452639
 21
199.5013334279636
 31
0.0
  0
LINE
  5
152
330
14C
100
AcDbEntity
  8
0
  6
ByBlock
 62
     0
370
    -2
100
AcDbLine
 10
176.5054680452639
 20
200.9013334279636
 30
0.0
 11
177.3054680452639
 21
200.9013334279636
 31
0.0
  0
LINE
  5
153
330
14C
100
AcDbEntity
  8
0
  6
ByBlock
 62
     0
370
    -2
100
AcDbLine
 10
178.705468045264
 20
198.7013334279636
 30
0.0
 11
178.705468045264
 21
199.5013334279636
 31
0.0
  0
LINE
  5
154
330
14C
100
AcDbEntity
  8
0
  6
ByBlock
 62
     0
370
    -2
100
AcDbLine
 10
176.5054680452639
 20
197.3013334279636
 30
0.0
 11
177.3054680452639
 21
197.3013334279636
 31
0.0
  0
ARC
  5
155
330
14C
100
AcDbEntity
  8
0
  6
ByBlock
 62
     0
370
    -2
100
AcDbCircle
 10
175.1054680452639
 20
200.9013334279636
 30
0.0
 40
1.399999999999999
100
AcDbArc
 50
270.0
 51
0.0
  0
ARC
  5
156
330
14C
100
AcDbEntity
  8
0
  6
ByBlock
 62
     0
370
    -2
100
AcDbCircle
 10
175.1054680452639
 20
197.3013334279636
 30
0.0
 40
1.399999999999999
100
AcDbArc
 50
0.0
 51
90.0
  0
ARC
  5
157
330
14C
100
AcDbEntity
  8
0
  6
ByBlock
 62
     0
370
    -2
100
AcDbCircle
 10
178.705468045264
 20
197.3013334279636
 30
0.0
 40
1.399999999999999
100
AcDbArc
 50
90.0
 51
180.0
  0
ARC
  5
158
330
14C
100
AcDbEntity
  8
0
  6
ByBlock
 62
     0
370
    -2
100
AcDbCircle
 10
178.705468045264
 20
200.9013334279636
 30
0.0
 40
1.399999999999999
100
AcDbArc
 50
180.0
 51
270.0
  0
ENDBLK
  5
14E
330
14C
100
AcDbEntity
  8
0
100
AcDbBlockEnd
  0
BLOCK
  5
1A1
330
1A0
100
AcDbEntity
  8
0
100
AcDbBlockBegin
  2
BLKF029
 70
     0
 10
0.0
 20
0.0
 30
0.0
  3
BLKF029
  1
BLKF029
  0
LINE
  5
1A4
330
1A0
100
AcDbEntity
  8
0
  6
ByBlock
 62
     0
370
    -2
100
AcDbLine
 10
366.3478134793821
 20
183.9013334279636
 30
0.0
 11
366.3478134793821
 21
184.7013334279636
 31
0.0
  0
LINE
  5
1A5
330
1A0
100
AcDbEntity
  8
0
  6
ByBlock
 62
     0
370
    -2
100
AcDbLine
 10
367.2478134793822
 20
185.6013334279636
 30
0.0
 11
368.0478134793822
 21
185.6013334279636
 31
0.0
  0
LINE
  5
1A6
330
1A0
100
AcDbEntity
  8
0
  6
ByBlock
 62
     0
370
    -2
100
AcDbLine
 10
368.9478134793821
 20
183.9013334279636
 30
0.0
 11
368.9478134793821
 21
184.7013334279636
 31
0.0
  0
LINE
  5
1A7
330
1A0
100
AcDbEntity
  8
0
  6
ByBlock
 62
     0
370
    -2
100
AcDbLine
 10
367.2478134793821
 20
183.0013334279636
 30
0.0
 11
368.0478134793821
 21
183.0013334279636
 31
0.0
  0
ARC
  5
1A8
330
1A0
100
AcDbEntity
  8
0
  6
ByBlock
 62
     0
370
    -2
100
AcDbCircle
 10
366.3478134793821
 20
185.6013334279636
 30
0.0
 40
0.9000000000000341
100
AcDbArc
 50
270.0
 51
0.0
  0
ARC
  5
1A9
330
1A0
100
AcDbEntity
  8
0
  6
ByBlock
 62
     0
370
    -2
100
AcDbCircle
 10
366.3478134793821
 20
183.0013334279636
 30
0.0
 40
0.9000000000000341
100
AcDbArc
 50
0.0
 51
90.0
  0
ARC
  5
1AA
330
1A0
100
AcDbEntity
  8
0
  6
ByBlock
 62
     0
370
    -2
100
AcDbCircle
 10
368.9478134793821
 20
183.0013334279636
 30
0.0
 40
0.9000000000000341
100
AcDbArc
 50
90.0
 51
180.0
  0
ARC
  5
1AB
330
1A0
100
AcDbEntity
  8
0
  6
ByBlock
 62
     0
370
    -2
100
AcDbCircle
 10
368.9478134793821
 20
185.6013334279636
 30
0.0
 40
0.9000000000000341
100
AcDbArc
 50
180.0
 51
270.0
  0
ENDBLK
  5
1A2
330
1A0
100
AcDbEntity
  8
0
100
AcDbBlockEnd
  0
BLOCK
  5
1AD
330
1AC
100
AcDbEntity
  8
0
100
AcDbBlockBegin
  2
BLKF030
 70
     0
 10
0.0
 20
0.0
 30
0.0
  3
BLKF030
  1
BLKF030
  0
LINE
  5
1B0
330
1AC
100
AcDbEntity
  8
0
  6
ByBlock
 62
     0
370
    -2
100
AcDbLine
 10
349.9478134793821
 20
183.9013334279636
 30
0.0
 11
349.9478134793821
 21
184.7013334279636
 31
0.0
  0
LINE
  5
1B1
330
1AC
100
AcDbEntity
  8
0
  6
ByBlock
 62
     0
370
    -2
100
AcDbLine
 10
350.8478134793822
 20
185.6013334279636
 30
0.0
 11
351.6478134793822
 21
185.6013334279636
 31
0.0
  0
LINE
  5
1B2
330
1AC
100
AcDbEntity
  8
0
  6
ByBlock
 62
     0
370
    -2
100
AcDbLine
 10
352.5478134793822
 20
183.9013334279636
 30
0.0
 11
352.5478134793822
 21
184.7013334279636
 31
0.0
  0
LINE
  5
1B3
330
1AC
100
AcDbEntity
  8
0
  6
ByBlock
 62
     0
370
    -2
100
AcDbLine
 10
350.8478134793821
 20
183.0013334279636
 30
0.0
 11
351.6478134793821
 21
183.0013334279636
 31
0.0
  0
ARC
  5
1B4
330
1AC
100
AcDbEntity
  8
0
  6
ByBlock
 62
     0
370
    -2
100
AcDbCircle
 10
349.9478134793821
 20
185.6013334279636
 30
0.0
 40
0.9000000000000341
100
AcDbArc
 50
270.0
 51
0.0
  0
ARC
  5
1B5
330
1AC
100
AcDbEntity
  8
0
  6
ByBlock
 62
     0
370
    -2
100
AcDbCircle
 10
349.9478134793821
 20
183.0013334279636
 30
0.0
 40
0.9000000000000341
100
AcDbArc
 50
0.0
 51
90.0
  0
ARC
  5
1B6
330
1AC
100
AcDbEntity
  8
0
  6
ByBlock
 62
     0
370
    -2
100
AcDbCircle
 10
352.5478134793822
 20
183.0013334279636
 30
0.0
 40
0.9000000000000341
100
AcDbArc
 50
90.0
 51
180.0
  0
ARC
  5
1B7
330
1AC
100
AcDbEntity
  8
0
  6
ByBlock
 62
     0
370
    -2
100
AcDbCircle
 10
352.5478134793822
 20
185.6013334279636
 30
0.0
 40
0.9000000000000341
100
AcDbArc
 50
180.0
 51
270.0
  0
ENDBLK
  5
1AE
330
1AC
100
AcDbEntity
  8
0
100
AcDbBlockEnd
  0
BLOCK
  5
1D3
330
1D2
100
AcDbEntity
  8
0
100
AcDbBlockBegin
  2
*D28
 70
     1
 10
0.0
 20
0.0
 30
0.0
  3
*D28
  1
*D28
  0
TEXT
  5
1D5
330
1D2
100
AcDbEntity
  8
0
  6
ByBlock
 62
    94
370
    -2
100
AcDbText
 10
206.9227777654474
 20
68.75468444824219
 30
0.0
 40
2.651515151515151
  1
８２．１
 50
90.0
 41
0.8703296703296703
  7
ＭＳ ゴシック
 72
     1
 11
207.4071350097656
 21
74.75468444824219
 31
0.0
100
AcDbText
 73
     1
  0
LINE
  5
1D6
330
1D2
100
AcDbEntity
  8
0
  6
ByBlock
 62
     0
370
    -2
100
AcDbLine
 10
208.4071380543438
 20
33.70468330561583
 30
0.0
 11
208.4071380543438
 21
115.8046833056161
 31
0.0
  0
INSERT
  5
1D7
330
1D2
100
AcDbEntity
  8
0
  6
ByBlock
 62
     0
370
    -2
100
AcDbBlockReference
  2
FXTIP_ARROW_S
 10
208.4071380543438
 20
33.70468330561583
 30
0.0
 41
2.5
 42
2.5
 50
270.0
  0
INSERT
  5
1D8
330
1D2
100
AcDbEntity
  8
0
  6
ByBlock
 62
     0
370
    -2
100
AcDbBlockReference
  2
FXTIP_ARROW_E
 10
208.4071380543438
 20
115.8046833056161
 30
0.0
 41
2.5
 42
2.5
 50
90.0
  0
LINE
  5
1D9
330
1D2
100
AcDbEntity
  8
0
  6
ByBlock
 62
     0
370
    -2
100
AcDbLine
 10
197.3854680452637
 20
33.70468330561583
 30
0.0
 11
209.4071380543438
 21
33.70468330561583
 31
0.0
  0
LINE
  5
1DA
330
1D2
100
AcDbEntity
  8
0
  6
ByBlock
 62
     0
370
    -2
100
AcDbLine
 10
197.3854680452637
 20
115.8046833056161
 30
0.0
 11
209.4071380543438
 21
115.8046833056161
 31
0.0
  0
ENDBLK
  5
1D4
330
1D2
100
AcDbEntity
  8
0
100
AcDbBlockEnd
  0
BLOCK
  5
27D
330
27C
100
AcDbEntity
  8
0
100
AcDbBlockBegin
  2
FXDIM032
 70
     0
 10
0.0
 20
0.0
 30
0.0
  3
FXDIM032
  1
FXDIM032
  0
TEXT
  5
281
330
27C
100
AcDbEntity
  8
GR1_01
  6
0.5実線
 62
    94
370
    20
100
AcDbText
 10
279.8135375976562
 20
160.968198186701
 30
0.0
 40
2.651515151515151
  1
（固定台）
 41
0.8703296703296703
  7
ＭＳ ゴシック
 72
     1
 11
287.3135375976562
 21
160.4838409423828
 31
0.0
100
AcDbText
 73
     1
  0
ENDBLK
  5
27E
330
27C
100
AcDbEntity
  8
0
100
AcDbBlockEnd
  0
ENDSEC
  0
SECTION
  2
ENTITIES
  0
DIMENSION
  5
D8
330
1F
100
AcDbEntity
  8
GR2_01
 62
     5
370
    20
100
AcDbDimension
  2
*D20
 10
208.4071380543437
 20
147.3046833056159
 30
0.0
 11
207.4071197509766
 21
132.1046752929688
 31
0.0
 70
    33
 71
     5
 42
-1.0
  3
FX_DIMINFO
100
AcDbAlignedDimension
 13
195.885468045264
 23
115.8046833056159
 33
0.0
 14
195.885468045264
 24
147.3046833056158
 34
0.0
1001
ACAD
1000
DSTYLE
1002
{
1070
   173
1070
     1
1070
   344
1005
74
1070
   343
1005
6E
1070
   178
1070
    94
1002
}
  0
LINE
  5
E4
330
1F
100
AcDbEntity
  8
GR2_01
 62
    94
370
    20
100
AcDbLine
 10
169.985468045264
 20
273.6013334279637
 30
0.0
 11
195.385468045264
 21
273.6013334279635
 31
0.0
  0
ARC
  5
E5
330
1F
100
AcDbEntity
  8
GR2_01
 62
    94
370
    20
100
AcDbCircle
 10
195.385468045264
 20
272.6013334279635
 30
0.0
 40
1.0
100
AcDbArc
 50
0.0
 51
90.0
  0
ARC
  5
E6
330
1F
100
AcDbEntity
  8
GR2_01
 62
    94
370
    20
100
AcDbCircle
 10
169.9854680452639
 20
272.6013334279637
 30
0.0
 40
1.0
100
AcDbArc
 50
89.99999999999962
 51
180.0
  0
LINE
  5
E7
330
1F
100
AcDbEntity
  8
GR2_01
 62
    94
370
    20
100
AcDbLine
 10
196.385468045264
 20
272.6013334279635
 30
0.0
 11
196.385468045264
 21
172.6013334279635
 31
0.0
  0
LINE
  5
E8
330
1F
100
AcDbEntity
  8
GR2_01
 62
    94
370
    20
100
AcDbLine
 10
168.9854680452639
 20
272.6013334279637
 30
0.0
 11
168.9854680452639
 21
172.6013334279635
 31
0.0
  0
LINE
  5
E9
330
1F
100
AcDbEntity
  8
GR2_01
 62
    94
370
    20
100
AcDbLine
 10
169.9854680452639
 20
171.6013334279635
 30
0.0
 11
195.385468045264
 21
171.6013334279635
 31
0.0
  0
ARC
  5
EA
330
1F
100
AcDbEntity
  8
GR2_01
 62
    94
370
    20
100
AcDbCircle
 10
195.385468045264
 20
172.6013334279635
 30
0.0
 40
1.0
100
AcDbArc
 50
270.0
 51
0.0
  0
ARC
  5
EB
330
1F
100
AcDbEntity
  8
GR2_01
 62
    94
370
    20
100
AcDbCircle
 10
169.9854680452639
 20
172.6013334279635
 30
0.0
 40
1.0
100
AcDbArc
 50
180.0
 51
270.0
  0
LINE
  5
EC
330
1F
100
AcDbEntity
  8
GR2_01
 62
    94
370
    20
100
AcDbLine
 10
178.3854680452642
 20
173.4013334279635
 30
0.0
 11
185.6354680452641
 21
173.4013334279636
 31
0.0
  0
LINE
  5
ED
330
1F
100
AcDbEntity
  8
GR2_01
 62
    94
370
    20
100
AcDbLine
 10
187.985468045264
 20
270.6013334279635
 30
0.0
 11
190.985468045264
 21
270.6013334279635
 31
0.0
  0
ARC
  5
EE
330
1F
100
AcDbEntity
  8
GR2_01
 62
    94
370
    20
100
AcDbCircle
 10
190.435468045264
 20
176.6013334279635
 30
0.0
 40
4.5
100
AcDbArc
 50
90.0
 51
180.0
  0
LINE
  5
EF
330
1F
100
AcDbEntity
  8
GR2_01
 62
    94
370
    20
100
AcDbLine
 10
190.435468045264
 20
181.1013334279635
 30
0.0
 11
194.3854680452639
 21
181.1013334279635
 31
0.0
  0
LINE
  5
F0
330
1F
100
AcDbEntity
  8
GR2_01
 62
    94
370
    20
100
AcDbLine
 10
185.935468045264
 20
176.6013334279635
 30
0.0
 11
185.935468045264
 21
173.7013334279636
 31
0.0
  0
CIRCLE
  5
F1
330
1F
100
AcDbEntity
  8
GR2_01
 62
    94
370
    20
100
AcDbCircle
 10
190.435468045264
 20
176.6013334279635
 30
0.0
 40
2.0
  0
CIRCLE
  5
F2
330
1F
100
AcDbEntity
  8
GR2_01
 62
    94
370
    20
100
AcDbCircle
 10
190.435468045264
 20
176.6013334279635
 30
0.0
 40
1.6
  0
CIRCLE
  5
F3
330
1F
100
AcDbEntity
  8
GR2_01
 62
    94
370
    20
100
AcDbCircle
 10
181.935468045264
 20
268.6013334279635
 30
0.0
 40
2.0
  0
CIRCLE
  5
F4
330
1F
100
AcDbEntity
  8
GR2_01
 62
    94
370
    20
100
AcDbCircle
 10
181.935468045264
 20
268.6013334279635
 30
0.0
 40
1.6
  0
ARC
  5
F5
330
1F
100
AcDbEntity
  8
GR2_01
 62
    94
370
    20
100
AcDbCircle
 10
181.935468045264
 20
268.6013334279635
 30
0.0
 40
4.3
100
AcDbArc
 50
270.0
 51
0.0
  0
LINE
  5
F6
330
1F
100
AcDbEntity
  8
GR2_01
 62
    94
370
    20
100
AcDbLine
 10
186.235468045264
 20
268.6013334279635
 30
0.0
 11
186.235468045264
 21
271.5013334279635
 31
0.0
  0
LINE
  5
F7
330
1F
100
AcDbEntity
  8
GR2_01
 62
    94
370
    20
100
AcDbLine
 10
181.935468045264
 20
264.3013334279635
 30
0.0
 11
178.385468045264
 21
264.3013334279635
 31
0.0
  0
ARC
  5
F8
330
1F
100
AcDbEntity
  8
GR2_01
 62
    94
370
    20
100
AcDbCircle
 10
178.385468045264
 20
264.0013334279635
 30
0.0
 40
0.3
100
AcDbArc
 50
90.0
 51
180.0
  0
ARC
  5
F9
330
1F
100
AcDbEntity
  8
GR2_01
 62
    94
370
    20
100
AcDbCircle
 10
194.3854680452639
 20
181.4013334279635
 30
0.0
 40
0.3
100
AcDbArc
 50
270.0
 51
0.0
  0
ARC
  5
FA
330
1F
100
AcDbEntity
  8
GR2_01
 62
    94
370
    20
100
AcDbCircle
 10
185.6354680452641
 20
173.7013334279636
 30
0.0
 40
0.3
100
AcDbArc
 50
270.0
 51
0.0
  0
ARC
  5
FB
330
1F
100
AcDbEntity
  8
GR2_01
 62
    94
370
    20
100
AcDbCircle
 10
178.3854680452642
 20
173.7013334279635
 30
0.0
 40
0.3
100
AcDbArc
 50
180.0
 51
270.0
  0
CIRCLE
  5
FC
330
1F
100
AcDbEntity
  8
GR2_01
 62
    94
370
    20
100
AcDbCircle
 10
190.435468045264
 20
176.6013334279635
 30
0.0
 40
3.15
  0
CIRCLE
  5
FD
330
1F
100
AcDbEntity
  8
GR2_01
 62
    94
370
    20
100
AcDbCircle
 10
181.9354680452638
 20
268.6013334279634
 30
0.0
 40
3.15
  0
LINE
  5
FE
330
1F
100
AcDbEntity
  8
GR2_01
 62
    94
370
    20
100
AcDbLine
 10
187.985468045264
 20
180.375919497985
 30
0.0
 11
187.985468045264
 21
203.2013334279634
 31
0.0
  0
LINE
  5
FF
330
1F
100
AcDbEntity
  8
GR2_01
 62
    94
370
    20
100
AcDbLine
 10
178.0854680452641
 20
264.0013334279635
 30
0.0
 11
178.0854680452641
 21
262.5024508913864
 31
0.0
  0
LINE
  5
100
330
1F
100
AcDbEntity
  8
GR2_01
 62
    94
370
    20
100
AcDbLine
 10
186.535468045264
 20
271.8013334279636
 30
0.0
 11
191.6854680452642
 21
271.8013334279635
 31
0.0
  0
ARC
  5
101
330
1F
100
AcDbEntity
  8
GR2_01
 62
    94
370
    20
100
AcDbCircle
 10
191.6854680452642
 20
271.5013334279634
 30
0.0
 40
0.3
100
AcDbArc
 50
359.9999999999946
 51
90.0
  0
ARC
  5
102
330
1F
100
AcDbEntity
  8
GR2_01
 62
    94
370
    20
100
AcDbCircle
 10
186.535468045264
 20
271.5013334279635
 30
0.0
 40
0.3
100
AcDbArc
 50
89.99999999999726
 51
180.0
  0
LINE
  5
103
330
1F
100
AcDbEntity
  8
GR2_01
 62
    94
370
    20
100
AcDbLine
 10
345.7286298909291
 20
272.6013334279634
 30
0.0
 11
345.7286298909291
 21
172.6013334279636
 31
0.0
  0
LINE
  5
104
330
1F
100
AcDbEntity
  8
GR2_01
 62
    94
370
    20
100
AcDbLine
 10
373.1286298909291
 20
272.6013334279634
 30
0.0
 11
373.1286298909291
 21
172.6013334279635
 31
0.0
  0
CIRCLE
  5
105
330
1F
100
AcDbEntity
  8
GR2_01
 62
    94
370
    20
100
AcDbCircle
 10
367.4286298909291
 20
269.1013334279634
 30
0.0
 40
3.25
  0
ARC
  5
106
330
1F
100
AcDbEntity
  8
GR2_01
 62
    94
370
    20
100
AcDbCircle
 10
372.1286298909291
 20
272.6013334279634
 30
0.0
 40
1.0
100
AcDbArc
 50
0.0
 51
90.0
  0
ARC
  5
107
330
1F
100
AcDbEntity
  8
GR2_01
 62
    94
370
    20
100
AcDbCircle
 10
346.7286298909291
 20
272.6013334279634
 30
0.0
 40
1.0
100
AcDbArc
 50
90.0
 51
180.0
  0
LINE
  5
108
330
1F
100
AcDbEntity
  8
GR2_01
 62
    94
370
    20
100
AcDbLine
 10
346.7286298909291
 20
273.6013334279634
 30
0.0
 11
372.1286298909291
 21
273.6013334279634
 31
0.0
  0
INSERT
  5
10C
330
1F
100
AcDbEntity
  8
GR2_01
 62
    94
370
    20
100
AcDbBlockReference
  2
BLKF024
 10
0.0
 20
0.0
 30
0.0
  0
LINE
  5
116
330
1F
100
AcDbEntity
  8
GR2_01
 62
    94
370
    20
100
AcDbLine
 10
168.985468045264
 20
127.8446833056159
 30
0.0
 11
168.985468045264
 21
146.8046833056159
 31
0.0
  0
LINE
  5
117
330
1F
100
AcDbEntity
  8
GR2_01
 62
    94
370
    20
100
AcDbLine
 10
169.485468045264
 20
147.3046833056159
 30
0.0
 11
195.885468045264
 21
147.3046833056158
 31
0.0
  0
LINE
  5
118
330
1F
100
AcDbEntity
  8
GR2_01
 62
    94
370
    20
100
AcDbLine
 10
196.385468045264
 20
127.8446833056158
 30
0.0
 11
196.385468045264
 21
146.8046833056158
 31
0.0
  0
ARC
  5
119
330
1F
100
AcDbEntity
  8
GR2_01
 62
    94
370
    20
100
AcDbCircle
 10
195.885468045264
 20
146.8046833056158
 30
0.0
 40
0.5
100
AcDbArc
 50
0.0
 51
90.0
  0
ARC
  5
11A
330
1F
100
AcDbEntity
  8
GR2_01
 62
    94
370
    20
100
AcDbCircle
 10
169.485468045264
 20
146.8046833056159
 30
0.0
 40
0.5
100
AcDbArc
 50
90.0
 51
180.0
  0
LINE
  5
11B
330
1F
100
AcDbEntity
  8
GR2_01
 62
    94
370
    20
100
AcDbLine
 10
168.9854680452639
 20
127.8446833056159
 30
0.0
 11
196.385468045264
 21
127.8446833056158
 31
0.0
  0
LINE
  5
11C
330
1F
100
AcDbEntity
  8
GR2_01
 62
    94
370
    20
100
AcDbLine
 10
168.9854680452637
 20
115.8046833056161
 30
0.0
 11
196.3854680452637
 21
115.8046833056161
 31
0.0
  0
LINE
  5
11D
330
1F
100
AcDbEntity
  8
GR2_01
 62
    94
370
    20
100
AcDbLine
 10
195.491718045264
 20
127.8446833056158
 30
0.0
 11
195.5742180452639
 21
127.404683305616
 31
0.0
  0
LINE
  5
11E
330
1F
100
AcDbEntity
  8
GR2_01
 62
    94
370
    20
100
AcDbLine
 10
188.685468045264
 20
182.6213334279635
 30
0.0
 11
188.6854680452641
 21
268.6213334279636
 31
0.0
  0
LINE
  5
11F
330
1F
100
AcDbEntity
  8
GR2_01
 62
    94
370
    20
100
AcDbLine
 10
190.2854680452641
 20
182.6213334279635
 30
0.0
 11
190.2854680452641
 21
268.6213334279636
 31
0.0
  0
LINE
  5
120
330
1F
100
AcDbEntity
  8
GR2_01
 62
    94
370
    20
100
AcDbLine
 10
190.2854680452641
 20
268.6213334279635
 30
0.0
 11
188.685468045264
 21
268.6213334279635
 31
0.0
  0
LINE
  5
121
330
1F
100
AcDbEntity
  8
GR2_01
 62
    94
370
    20
100
AcDbLine
 10
170.4854680452639
 20
272.1013334279637
 30
0.0
 11
176.4854680452639
 21
272.1013334279637
 31
0.0
  0
LINE
  5
122
330
1F
100
AcDbEntity
  8
GR2_01
 62
    94
370
    20
100
AcDbLine
 10
176.4854680452639
 20
272.1013334279637
 30
0.0
 11
176.4854680452639
 21
264.1013334279637
 31
0.0
  0
LINE
  5
123
330
1F
100
AcDbEntity
  8
GR2_01
 62
    94
370
    20
100
AcDbLine
 10
176.4854680452639
 20
264.1013334279637
 30
0.0
 11
170.4854680452639
 21
264.1013334279637
 31
0.0
  0
LINE
  5
124
330
1F
100
AcDbEntity
  8
GR2_01
 62
    94
370
    20
100
AcDbLine
 10
170.4854680452639
 20
272.1013334279637
 30
0.0
 11
170.4854680452639
 21
264.1013334279637
 31
0.0
  0
DIMENSION
  5
125
330
1F
100
AcDbEntity
  8
GR2_01
 62
     5
370
    20
100
AcDbDimension
  2
*D22
 10
208.4071380543438
 20
273.6013334279635
 30
0.0
 11
207.4071197509766
 21
222.601318359375
 31
0.0
 70
    33
 71
     5
 42
-1.0
  3
FX_DIMINFO
100
AcDbAlignedDimension
 13
195.385468045264
 23
171.6013334279635
 33
0.0
 14
195.385468045264
 24
273.6013334279635
 34
0.0
1001
ACAD
1000
DSTYLE
1002
{
1070
   173
1070
     1
1070
   344
1005
74
1070
   343
1005
6E
1070
   178
1070
    94
1002
}
  0
DIMENSION
  5
12F
330
1F
100
AcDbEntity
  8
GR2_01
 62
     5
370
    20
100
AcDbDimension
  2
*D23
 10
196.385468045264
 20
159.0086115876968
 30
0.0
 11
182.6854705810547
 21
160.0085906982422
 31
0.0
 70
    33
 71
     5
 42
-1.0
  3
FX_DIMINFO
100
AcDbAlignedDimension
 13
168.9854680452639
 23
172.6013334279635
 33
0.0
 14
196.385468045264
 24
172.6013334279635
 34
0.0
1001
ACAD
1000
DSTYLE
1002
{
1070
   173
1070
     1
1070
   344
1005
74
1070
   343
1005
6E
1070
   178
1070
    94
1002
}
  0
LINE
  5
139
330
1F
100
AcDbEntity
  8
GR2_01
 62
    94
370
    20
100
AcDbLine
 10
180.985468045264
 20
205.4013334279635
 30
0.0
 11
180.985468045264
 21
252.8013334279635
 31
0.0
  0
LINE
  5
13A
330
1F
100
AcDbEntity
  8
GR2_01
 62
    94
370
    20
100
AcDbLine
 10
187.985468045264
 20
255.0013334279635
 30
0.0
 11
187.985468045264
 21
270.6013334279635
 31
0.0
  0
ARC
  5
13B
330
1F
100
AcDbEntity
  8
GR2_01
 62
    94
370
    20
100
AcDbCircle
 10
185.985468045264
 20
255.0013334279635
 30
0.0
 40
2.0
100
AcDbArc
 50
270.0
 51
0.0
  0
ARC
  5
13C
330
1F
100
AcDbEntity
  8
GR2_01
 62
    94
370
    20
100
AcDbCircle
 10
185.985468045264
 20
203.2013334279634
 30
0.0
 40
2.0
100
AcDbArc
 50
0.0
 51
90.0
  0
CIRCLE
  5
13D
330
1F
100
AcDbEntity
  8
GR2_01
 62
    94
370
    20
100
AcDbCircle
 10
176.9054680452639
 20
259.1013334279636
 30
0.0
 40
3.6
  0
CIRCLE
  5
13E
330
1F
100
AcDbEntity
  8
GR2_01
 62
    94
370
    20
100
AcDbCircle
 10
176.9054680452639
 20
199.1013334279635
 30
0.0
 40
3.6
  0
INSERT
  5
142
330
1F
100
AcDbEntity
  8
GR2_01
 62
    94
370
    20
100
AcDbBlockReference
  2
BLKF027
 10
0.0
 20
0.0
 30
0.0
  0
INSERT
  5
14F
330
1F
100
AcDbEntity
  8
GR2_01
 62
    94
370
    20
100
AcDbBlockReference
  2
BLKF028
 10
0.0
 20
0.0
 30
0.0
  0
CIRCLE
  5
159
330
1F
100
AcDbEntity
  8
GR2_01
 62
    94
370
    20
100
AcDbCircle
 10
176.9054680452639
 20
259.1013334279636
 30
0.0
 40
3.0
  0
CIRCLE
  5
15A
330
1F
100
AcDbEntity
  8
GR2_01
 62
    94
370
    20
100
AcDbCircle
 10
176.9054680452639
 20
199.1013334279636
 30
0.0
 40
3.0
  0
LINE
  5
15B
330
1F
100
AcDbEntity
  8
GR2_01
 62
    94
370
    20
100
AcDbLine
 10
350.6778134793822
 20
193.6013334279635
 30
0.0
 11
350.6778134793822
 21
264.6013334279635
 31
0.0
  0
LINE
  5
15C
330
1F
100
AcDbEntity
  8
GR2_01
 62
    94
370
    20
100
AcDbLine
 10
369.6278134793821
 20
193.6013334279636
 30
0.0
 11
350.6778134793822
 21
193.6013334279635
 31
0.0
  0
LINE
  5
15D
330
1F
100
AcDbEntity
  8
GR2_01
 62
    94
370
    20
100
AcDbLine
 10
369.6278134793821
 20
264.6013334279635
 30
0.0
 11
350.6778134793822
 21
264.6013334279635
 31
0.0
  0
CIRCLE
  5
15E
330
1F
100
AcDbEntity
  8
GR2_01
 62
    94
370
    20
100
AcDbCircle
 10
365.2278134793821
 20
259.1013334279635
 30
0.0
 40
1.5
  0
CIRCLE
  5
15F
330
1F
100
AcDbEntity
  8
GR2_01
 62
    94
370
    20
100
AcDbCircle
 10
365.2278134793821
 20
199.1013334279635
 30
0.0
 40
1.5
  0
LINE
  5
160
330
1F
100
AcDbEntity
  8
GR2_01
 62
    94
370
    20
100
AcDbLine
 10
369.6278134793821
 20
264.6013334279635
 30
0.0
 11
369.6278134793821
 21
193.6013334279636
 31
0.0
  0
CIRCLE
  5
161
330
1F
100
AcDbEntity
  8
GR2_01
 62
    94
370
    20
100
AcDbCircle
 10
365.2278134793821
 20
259.1013334279635
 30
0.0
 40
3.5
  0
CIRCLE
  5
162
330
1F
100
AcDbEntity
  8
GR2_01
 62
    94
370
    20
100
AcDbCircle
 10
365.2278134793821
 20
199.1013334279635
 30
0.0
 40
3.5
  0
LINE
  5
163
330
1F
100
AcDbEntity
  8
GR2_01
 62
    94
370
    20
100
AcDbLine
 10
168.9854680452639
 20
254.0013334279636
 30
0.0
 11
178.0854680452641
 21
254.0013334279636
 31
0.0
  0
LINE
  5
164
330
1F
100
AcDbEntity
  8
GR2_01
 62
    94
370
    20
100
AcDbLine
 10
168.9854680452639
 20
204.2013334279635
 30
0.0
 11
178.0854680452642
 21
204.2013334279635
 31
0.0
  0
LINE
  5
165
330
1F
100
AcDbEntity
  8
GR2_01
 62
    94
370
    20
100
AcDbLine
 10
168.9854680452639
 20
254.2013334279636
 30
0.0
 11
178.0854680452641
 21
254.2013334279636
 31
0.0
  0
LINE
  5
166
330
1F
100
AcDbEntity
  8
GR2_01
 62
    94
370
    20
100
AcDbLine
 10
168.9854680452639
 20
204.0013334279635
 30
0.0
 11
178.0854680452642
 21
204.0013334279635
 31
0.0
  0
LINE
  5
167
330
1F
100
AcDbEntity
  8
GR2_01
 62
    94
370
    20
100
AcDbLine
 10
178.0854680452641
 20
255.7002159645408
 30
0.0
 11
178.0854680452642
 21
202.5024508913863
 31
0.0
  0
LINE
  5
168
330
1F
100
AcDbEntity
  8
GR2_01
 62
    94
370
    20
100
AcDbLine
 10
178.0854680452642
 20
195.7002159645407
 30
0.0
 11
178.0854680452643
 21
173.7013334279635
 31
0.0
  0
LINE
  5
169
330
1F
100
AcDbEntity
  8
GR2_01
 62
    94
370
    20
100
AcDbLine
 10
239.7923139272298
 20
265.1013334279639
 30
0.0
 11
239.7923139272298
 21
255.1013334279639
 31
0.0
  0
LINE
  5
16A
330
1F
100
AcDbEntity
  8
GR2_01
 62
    94
370
    20
100
AcDbLine
 10
239.7923139272298
 20
255.1013334279639
 30
0.0
 11
237.7923139272298
 21
255.1013334279639
 31
0.0
  0
LINE
  5
16B
330
1F
100
AcDbEntity
  8
GR2_01
 62
    94
370
    20
100
AcDbLine
 10
237.7923139272298
 20
255.1013334279639
 30
0.0
 11
237.7923139272298
 21
265.1013334279639
 31
0.0
  0
LINE
  5
16C
330
1F
100
AcDbEntity
  8
GR2_01
 62
    94
370
    20
100
AcDbLine
 10
237.7923139272298
 20
265.1013334279639
 30
0.0
 11
239.7923139272298
 21
265.1013334279639
 31
0.0
  0
LINE
  5
16D
330
1F
100
AcDbEntity
  8
GR2_01
 62
    94
370
    20
100
AcDbLine
 10
239.7923139272298
 20
190.1013334279639
 30
0.0
 11
239.7923139272298
 21
180.1013334279639
 31
0.0
  0
LINE
  5
16E
330
1F
100
AcDbEntity
  8
GR2_01
 62
    94
370
    20
100
AcDbLine
 10
239.7923139272298
 20
180.1013334279639
 30
0.0
 11
237.7923139272298
 21
180.1013334279639
 31
0.0
  0
LINE
  5
16F
330
1F
100
AcDbEntity
  8
GR2_01
 62
    94
370
    20
100
AcDbLine
 10
237.7923139272298
 20
180.1013334279639
 30
0.0
 11
237.7923139272298
 21
190.1013334279639
 31
0.0
  0
LINE
  5
170
330
1F
100
AcDbEntity
  8
GR2_01
 62
    94
370
    20
100
AcDbLine
 10
237.7923139272298
 20
190.1013334279639
 30
0.0
 11
239.7923139272298
 21
190.1013334279639
 31
0.0
  0
LINE
  5
171
330
1F
100
AcDbEntity
  8
GR2_01
 62
    94
370
    20
100
AcDbLine
 10
257.6523139272295
 20
256.1495798353694
 30
0.0
 11
253.3923139272296
 21
256.1495798353694
 31
0.0
  0
LINE
  5
172
330
1F
100
AcDbEntity
  8
GR2_01
 62
    94
370
    20
100
AcDbLine
 10
257.6523139272295
 20
202.0530870205577
 30
0.0
 11
253.3923139272296
 21
202.0530870205577
 31
0.0
  0
LINE
  5
173
330
1F
100
AcDbEntity
  8
GR2_01
 62
    94
370
    20
100
AcDbLine
 10
257.6523139272295
 20
256.1495798353694
 30
0.0
 11
257.6523139272295
 21
202.0530870205577
 31
0.0
  0
LINE
  5
174
330
1F
100
AcDbEntity
  8
GR2_01
 62
    94
370
    20
100
AcDbLine
 10
178.0854680452641
 20
253.0013334279636
 30
0.0
 11
185.985468045264
 21
253.0013334279636
 31
0.0
  0
LINE
  5
175
330
1F
100
AcDbEntity
  8
GR2_01
 62
    94
370
    20
100
AcDbLine
 10
178.0854680452641
 20
252.8013334279636
 30
0.0
 11
180.985468045264
 21
252.8013334279636
 31
0.0
  0
LINE
  5
176
330
1F
100
AcDbEntity
  8
GR2_01
 62
    94
370
    20
100
AcDbLine
 10
178.0854680452642
 20
205.4013334279635
 30
0.0
 11
180.985468045264
 21
205.4013334279635
 31
0.0
  0
LINE
  5
177
330
1F
100
AcDbEntity
  8
GR2_01
 62
    94
370
    20
100
AcDbLine
 10
178.0854680452642
 20
205.2013334279635
 30
0.0
 11
185.985468045264
 21
205.2013334279635
 31
0.0
  0
LINE
  5
178
330
1F
100
AcDbEntity
  8
GR2_01
 62
    94
370
    20
100
AcDbLine
 10
254.9923139272296
 20
188.1013334279632
 30
0.0
 11
253.3923139272296
 21
188.1013334279632
 31
0.0
  0
LINE
  5
179
330
1F
100
AcDbEntity
  8
GR2_01
 62
    94
370
    20
100
AcDbLine
 10
253.3923139272297
 20
172.4892587414715
 30
0.0
 11
253.3923139272296
 21
222.9249637479587
 31
0.0
  0
LINE
  5
17A
330
1F
100
AcDbEntity
  8
GR2_01
 62
    94
370
    20
100
AcDbLine
 10
254.9923139272295
 20
180.1013334279632
 30
0.0
 11
334.2923139272296
 21
180.1013334279627
 31
0.0
  0
LINE
  5
17B
330
1F
100
AcDbEntity
  8
GR2_01
 62
    94
370
    20
100
AcDbLine
 10
335.4923139272295
 20
171.1013334279623
 30
0.0
 11
335.4923139272295
 21
178.9013334279625
 31
0.0
  0
LINE
  5
17C
330
1F
100
AcDbEntity
  8
GR2_01
 62
    94
370
    20
100
AcDbLine
 10
254.3801345626888
 20
172.0893015079211
 30
0.0
 11
335.4923139272295
 21
171.1013334279623
 31
0.0
  0
ARC
  5
17D
330
1F
100
AcDbEntity
  8
GR2_01
 62
    94
370
    20
100
AcDbCircle
 10
334.2923139272296
 20
178.9013334279625
 30
0.0
 40
1.2
100
AcDbArc
 50
0.0
 51
90.0
  0
LINE
  5
17E
330
1F
100
AcDbEntity
  8
GR2_01
 62
    94
370
    20
100
AcDbLine
 10
254.9923139272295
 20
180.1013334279632
 30
0.0
 11
254.9923139272296
 21
188.1013334279632
 31
0.0
  0
ARC
  5
17F
330
1F
100
AcDbEntity
  8
GR2_01
 62
    94
370
    20
100
AcDbCircle
 10
254.3923139272295
 20
173.0892273367101
 30
0.0
 40
1.0
100
AcDbArc
 50
179.9999999999992
 51
269.3021565612861
  0
ARC
  5
180
330
1F
100
AcDbEntity
  8
GR2_01
 62
    94
370
    20
100
AcDbCircle
 10
253.3923139272295
 20
180.1013334279634
 30
0.0
 40
1.6
100
AcDbArc
 50
270.0
 51
90.0
  0
LINE
  5
181
330
1F
100
AcDbEntity
  8
GR2_01
 62
    94
370
    20
100
AcDbLine
 10
242.2923139272297
 20
171.6187938127095
 30
0.0
 11
252.909763675581
 21
171.9895633279619
 31
0.0
  0
LINE
  5
182
330
1F
100
AcDbEntity
  8
GR2_01
 62
    94
370
    20
100
AcDbLine
 10
242.2923139272298
 20
273.5838730432174
 30
0.0
 11
252.9097636755808
 21
273.213103527965
 31
0.0
  0
ARC
  5
183
330
1F
100
AcDbEntity
  8
GR2_01
 62
    94
370
    20
100
AcDbCircle
 10
252.8923139272297
 20
172.4892587414715
 30
0.0
 40
0.5
100
AcDbArc
 50
272.0000000000003
 51
0.0
  0
ARC
  5
184
330
1F
100
AcDbEntity
  8
GR2_01
 62
    94
370
    20
100
AcDbCircle
 10
252.8923139272296
 20
272.7134081144554
 30
0.0
 40
0.5
100
AcDbArc
 50
0.0
 51
87.99999999999977
  0
LINE
  5
185
330
1F
100
AcDbEntity
  8
GR2_01
 62
    94
370
    20
100
AcDbLine
 10
254.9923139272296
 20
186.2513334279631
 30
0.0
 11
253.3923139272296
 21
186.2513334279631
 31
0.0
  0
LINE
  5
186
330
1F
100
AcDbEntity
  8
GR2_01
 62
    94
370
    20
100
AcDbLine
 10
254.9923139272296
 20
182.3513334279631
 30
0.0
 11
253.3923139272296
 21
182.3513334279631
 31
0.0
  0
LINE
  5
187
330
1F
100
AcDbEntity
  8
GR2_01
 62
    94
370
    20
100
AcDbLine
 10
253.2987709025257
 20
172.19806683356
 30
0.0
 11
253.8995796033475
 21
172.21904753571
 31
0.0
  0
LINE
  5
188
330
1F
100
AcDbEntity
  8
GR2_01
 62
    94
370
    20
100
AcDbLine
 10
242.2923139272298
 20
171.6187938127095
 30
0.0
 11
242.2923139272298
 21
219.9652748208025
 31
0.0
  0
ARC
  5
189
330
1F
100
AcDbEntity
  8
GR2_01
 62
    94
370
    20
100
AcDbCircle
 10
254.8423139272297
 20
184.3013334279632
 30
0.0
 40
2.25
100
AcDbArc
 50
282.2844938563465
 51
77.71550614365222
  0
LINE
  5
18A
330
1F
100
AcDbEntity
  8
GR2_01
 62
    94
370
    20
100
AcDbLine
 10
254.9923139272296
 20
187.5513334279633
 30
0.0
 11
255.2423139272297
 21
187.5513334279633
 31
0.0
  0
LINE
  5
18B
330
1F
100
AcDbEntity
  8
GR2_01
 62
    94
370
    20
100
AcDbLine
 10
254.9923139272296
 20
181.0513334279631
 30
0.0
 11
255.2423139272296
 21
181.0513334279631
 31
0.0
  0
LINE
  5
18C
330
1F
100
AcDbEntity
  8
GR2_01
 62
    94
370
    20
100
AcDbLine
 10
345.747813479382
 20
171.1013334279639
 30
0.0
 11
345.7478134793821
 21
178.9013334279639
 31
0.0
  0
LINE
  5
18D
330
1F
100
AcDbEntity
  8
GR2_01
 62
    94
370
    20
100
AcDbLine
 10
373.1478134793819
 20
171.1013334279636
 30
0.0
 11
373.147813479382
 21
178.9013334279635
 31
0.0
  0
LINE
  5
18E
330
1F
100
AcDbEntity
  8
GR2_01
 62
    94
370
    20
100
AcDbLine
 10
345.747813479382
 20
171.1013334279639
 30
0.0
 11
373.1478134793819
 21
171.1013334279635
 31
0.0
  0
CIRCLE
  5
18F
330
1F
100
AcDbEntity
  8
GR2_01
 62
    94
370
    20
100
AcDbCircle
 10
359.447813479382
 20
174.3013334279637
 30
0.0
 40
1.65
  0
ARC
  5
190
330
1F
100
AcDbEntity
  8
GR2_01
 62
    94
370
    20
100
AcDbCircle
 10
371.947813479382
 20
178.9013334279636
 30
0.0
 40
1.2
100
AcDbArc
 50
359.9999999999972
 51
89.99999999999726
  0
ARC
  5
191
330
1F
100
AcDbEntity
  8
GR2_01
 62
    94
370
    20
100
AcDbCircle
 10
346.9478134793821
 20
178.9013334279638
 30
0.0
 40
1.2
100
AcDbArc
 50
89.99999999999726
 51
179.9999999999972
  0
LINE
  5
192
330
1F
100
AcDbEntity
  8
GR2_01
 62
    94
370
    20
100
AcDbLine
 10
346.7478134793823
 20
188.1013334279639
 30
0.0
 11
372.1478134793821
 21
188.1013334279635
 31
0.0
  0
LINE
  5
193
330
1F
100
AcDbEntity
  8
GR2_01
 62
    94
370
    20
100
AcDbLine
 10
371.947813479382
 20
180.1013334279636
 30
0.0
 11
346.9478134793821
 21
180.1013334279638
 31
0.0
  0
LINE
  5
194
330
1F
100
AcDbEntity
  8
GR2_01
 62
    94
370
    20
100
AcDbLine
 10
346.2478134793822
 20
181.7013334279637
 30
0.0
 11
345.7478134793822
 21
181.7013334279637
 31
0.0
  0
LINE
  5
195
330
1F
100
AcDbEntity
  8
GR2_01
 62
    94
370
    20
100
AcDbLine
 10
345.7478134793822
 20
181.7013334279637
 30
0.0
 11
345.7478134793823
 21
187.101333427964
 31
0.0
  0
ARC
  5
196
330
1F
100
AcDbEntity
  8
GR2_01
 62
    94
370
    20
100
AcDbCircle
 10
372.6478134793821
 20
180.1013334279637
 30
0.0
 40
1.6
100
AcDbArc
 50
90.0
 51
180.0000000000051
  0
LINE
  5
197
330
1F
100
AcDbEntity
  8
GR2_01
 62
    94
370
    20
100
AcDbLine
 10
372.6478134793821
 20
181.7013334279637
 30
0.0
 11
373.1478134793821
 21
181.7013334279637
 31
0.0
  0
LINE
  5
198
330
1F
100
AcDbEntity
  8
GR2_01
 62
    94
370
    20
100
AcDbLine
 10
373.1478134793821
 20
181.7013334279637
 30
0.0
 11
373.1478134793821
 21
187.1013334279636
 31
0.0
  0
ARC
  5
199
330
1F
100
AcDbEntity
  8
GR2_01
 62
    94
370
    20
100
AcDbCircle
 10
372.1478134793821
 20
187.1013334279636
 30
0.0
 40
1.0
100
AcDbArc
 50
0.0
 51
90.0
  0
ARC
  5
19A
330
1F
100
AcDbEntity
  8
GR2_01
 62
    94
370
    20
100
AcDbCircle
 10
346.7478134793822
 20
187.101333427964
 30
0.0
 40
1.0
100
AcDbArc
 50
89.99999999999837
 51
180.0
  0
ARC
  5
19B
330
1F
100
AcDbEntity
  8
GR2_01
 62
    94
370
    20
100
AcDbCircle
 10
346.2478134793822
 20
180.1013334279637
 30
0.0
 40
1.6
100
AcDbArc
 50
0.0000000000030553
 51
90.0
  0
LINE
  5
19C
330
1F
100
AcDbEntity
  8
GR2_01
 62
    94
370
    20
100
AcDbLine
 10
255.2423139272297
 20
187.5513334279633
 30
0.0
 11
255.2423139272297
 21
186.5975259286042
 31
0.0
  0
LINE
  5
19D
330
1F
100
AcDbEntity
  8
GR2_01
 62
    94
370
    20
100
AcDbLine
 10
255.2423139272296
 20
182.0051409273222
 30
0.0
 11
255.2423139272296
 21
181.0513334279631
 31
0.0
  0
ARC
  5
19E
330
1F
100
AcDbEntity
  8
GR2_01
 62
    94
370
    20
100
AcDbCircle
 10
255.3423139272297
 20
186.5975259286042
 30
0.0
 40
0.1
100
AcDbArc
 50
180.0
 51
257.7155061436624
  0
ARC
  5
19F
330
1F
100
AcDbEntity
  8
GR2_01
 62
    94
370
    20
100
AcDbCircle
 10
255.3423139272297
 20
182.0051409273222
 30
0.0
 40
0.1
100
AcDbArc
 50
102.2844938563412
 51
180.0
  0
INSERT
  5
1A3
330
1F
100
AcDbEntity
  8
GR2_01
 62
    94
370
    20
100
AcDbBlockReference
  2
BLKF029
 10
0.0
 20
0.0
 30
0.0
  0
INSERT
  5
1AF
330
1F
100
AcDbEntity
  8
GR2_01
 62
    94
370
    20
100
AcDbBlockReference
  2
BLKF030
 10
0.0
 20
0.0
 30
0.0
  0
CIRCLE
  5
1B8
330
1F
100
AcDbEntity
  8
GR2_01
 62
    94
370
    20
100
AcDbCircle
 10
367.6478134793821
 20
184.3013334279636
 30
0.0
 40
2.25
  0
CIRCLE
  5
1B9
330
1F
100
AcDbEntity
  8
GR2_01
 62
    94
370
    20
100
AcDbCircle
 10
351.2478134793822
 20
184.3013334279636
 30
0.0
 40
2.25
  0
CIRCLE
  5
1BA
330
1F
100
AcDbEntity
  8
GR2_01
 62
    94
370
    20
100
AcDbCircle
 10
367.6478134793821
 20
184.3013334279636
 30
0.0
 40
3.25
  0
CIRCLE
  5
1BB
330
1F
100
AcDbEntity
  8
GR2_01
 62
    94
370
    20
100
AcDbCircle
 10
351.2478134793822
 20
184.3013334279636
 30
0.0
 40
3.25
  0
LINE
  5
1BC
330
1F
100
AcDbEntity
  8
GR2_01
 62
    94
370
    20
100
AcDbLine
 10
190.985468045264
 20
181.1013334279635
 30
0.0
 11
190.985468045264
 21
270.6013334279635
 31
0.0
  0
LINE
  5
1BD
330
1F
100
AcDbEntity
  8
GR2_01
 62
    94
370
    20
100
AcDbLine
 10
194.6854680452639
 20
267.6013334279635
 30
0.0
 11
194.6854680452639
 21
181.4013334279635
 31
0.0
  0
LINE
  5
1BE
330
1F
100
AcDbEntity
  8
GR2_01
 62
    94
370
    20
100
AcDbLine
 10
253.3923139272296
 20
272.7134081144554
 30
0.0
 11
253.3923139272296
 21
222.6013334279639
 31
0.0
  0
LINE
  5
1BF
330
1F
100
AcDbEntity
  8
GR2_01
 62
    94
370
    20
100
AcDbLine
 10
222.3323139272297
 20
273.1013334279637
 30
0.0
 11
222.3323139272297
 21
172.1013334279637
 31
0.0
  0
LINE
  5
1C0
330
1F
100
AcDbEntity
  8
GR2_01
 62
    94
370
    20
100
AcDbLine
 10
241.7923139272298
 20
273.6013334279637
 30
0.0
 11
241.7923139272297
 21
171.6013334279637
 31
0.0
  0
LINE
  5
1C1
330
1F
100
AcDbEntity
  8
GR2_01
 62
    94
370
    20
100
AcDbLine
 10
242.2923139272298
 20
273.5839378744881
 30
0.0
 11
242.2923139272298
 21
219.9652748208025
 31
0.0
  0
LINE
  5
1C2
330
1F
100
AcDbEntity
  8
GR2_01
 62
    94
370
    20
100
AcDbLine
 10
168.9854680452639
 20
127.404683305616
 30
0.0
 11
168.9854680452639
 21
116.304683305616
 31
0.0
  0
LINE
  5
1C3
330
1F
100
AcDbEntity
  8
GR2_01
 62
    94
370
    20
100
AcDbLine
 10
196.3854680452637
 20
127.404683305616
 30
0.0
 11
196.3854680452637
 21
116.3046833056157
 31
0.0
  0
ARC
  5
1C4
330
1F
100
AcDbEntity
  8
GR2_01
 62
    94
370
    20
100
AcDbCircle
 10
195.8854680452637
 20
116.3046833056157
 30
0.0
 40
0.5
100
AcDbArc
 50
270.0
 51
0.0
  0
LINE
  5
1C5
330
1F
100
AcDbEntity
  8
GR2_01
 62
    94
370
    20
100
AcDbLine
 10
168.9854680452639
 20
127.404683305616
 30
0.0
 11
196.3854680452637
 21
127.404683305616
 31
0.0
  0
ARC
  5
1C6
330
1F
100
AcDbEntity
  8
GR2_01
 62
    94
370
    20
100
AcDbCircle
 10
169.4854680452641
 20
116.3046833056157
 30
0.0
 40
0.5
100
AcDbArc
 50
180.0
 51
270.0
  0
LINE
  5
1C7
330
1F
100
AcDbEntity
  8
GR2_01
 62
    94
370
    20
100
AcDbLine
 10
194.7023559200758
 20
114.2871940145279
 30
0.0
 11
194.7554680452639
 21
115.8046833056157
 31
0.0
  0
LINE
  5
1C8
330
1F
100
AcDbEntity
  8
GR2_01
 62
    94
370
    20
100
AcDbLine
 10
193.0154680452639
 20
115.8046833056157
 30
0.0
 11
193.068580170452
 21
114.2871940145279
 31
0.0
  0
LINE
  5
1C9
330
1F
100
AcDbEntity
  8
GR2_01
 62
    94
370
    20
100
AcDbLine
 10
170.668580170452
 20
114.2871940145279
 30
0.0
 11
170.615468045264
 21
115.804683305616
 31
0.0
  0
LINE
  5
1CA
330
1F
100
AcDbEntity
  8
GR2_01
 62
    94
370
    20
100
AcDbLine
 10
172.3554680452639
 20
115.8046833056159
 30
0.0
 11
172.3023559200759
 21
114.2871940145279
 31
0.0
  0
LINE
  5
1CB
330
1F
100
AcDbEntity
  8
GR2_01
 62
    94
370
    20
100
AcDbLine
 10
194.2026618889956
 20
113.8046833056157
 30
0.0
 11
193.5682742015322
 21
113.8046833056157
 31
0.0
  0
LINE
  5
1CC
330
1F
100
AcDbEntity
  8
GR2_01
 62
    94
370
    20
100
AcDbLine
 10
171.8026618889956
 20
113.8046833056157
 30
0.0
 11
171.1682742015323
 21
113.8046833056157
 31
0.0
  0
ARC
  5
1CD
330
1F
100
AcDbEntity
  8
GR2_01
 62
    94
370
    20
100
AcDbCircle
 10
171.1682742015323
 20
114.3046833056157
 30
0.0
 40
0.5
100
AcDbArc
 50
182.0045340321046
 51
270.0
  0
ARC
  5
1CE
330
1F
100
AcDbEntity
  8
GR2_01
 62
    94
370
    20
100
AcDbCircle
 10
171.8026618889956
 20
114.3046833056157
 30
0.0
 40
0.5
100
AcDbArc
 50
270.0
 51
357.9954659678937
  0
ARC
  5
1CF
330
1F
100
AcDbEntity
  8
GR2_01
 62
    94
370
    20
100
AcDbCircle
 10
194.2026618889956
 20
114.3046833056157
 30
0.0
 40
0.5
100
AcDbArc
 50
270.0
 51
357.9954659678953
  0
ARC
  5
1D0
330
1F
100
AcDbEntity
  8
GR2_01
 62
    94
370
    20
100
AcDbCircle
 10
193.5682742015322
 20
114.3046833056157
 30
0.0
 40
0.5
100
AcDbArc
 50
182.0045340321047
 51
270.0
  0
DIMENSION
  5
1D1
330
1F
100
AcDbEntity
  8
GR2_01
 62
     5
370
    20
100
AcDbDimension
  2
*D28
 10
208.4071380543438
 20
115.8046833056161
 30
0.0
 11
207.4071350097656
 21
74.75468444824219
 31
0.0
 70
    33
 71
     5
 42
-1.0
  3
FX_DIMINFO
100
AcDbAlignedDimension
 13
196.3854680452637
 23
33.70468330561583
 33
0.0
 14
196.3854680452637
 24
115.8046833056161
 34
0.0
1001
ACAD
1000
DSTYLE
1002
{
1070
   173
1070
     1
1070
   344
1005
74
1070
   343
1005
6E
1070
   178
1070
    94
1002
}
  0
LINE
  5
1DC
330
1F
100
AcDbEntity
  8
GR1_01
 62
    94
370
    20
100
AcDbLine
 10
190.2854680452641
 20
182.6213334279635
 30
0.0
 11
188.685468045264
 21
182.6213334279635
 31
0.0
  0
LINE
  5
1DD
330
1F
100
AcDbEntity
  8
GR2_01
 62
    94
370
    20
100
AcDbLine
 10
241.7923139272298
 20
272.7075834279637
 30
0.0
 11
242.2923139272298
 21
272.8013334279637
 31
0.0
  0
LINE
  5
1DE
330
1F
100
AcDbEntity
  8
GR2_01
 62
    94
370
    20
100
AcDbLine
 10
241.7923139272298
 20
207.1013334279641
 30
0.0
 11
242.2923139272298
 21
207.1013334279641
 31
0.0
  0
LINE
  5
1DF
330
1F
100
AcDbEntity
  8
GR2_01
 62
    94
370
    20
100
AcDbLine
 10
241.7923139272298
 20
216.1013334279641
 30
0.0
 11
242.2923139272298
 21
216.1013334279641
 31
0.0
  0
LINE
  5
1E0
330
1F
100
AcDbEntity
  8
GR2_01
 62
    94
370
    20
100
AcDbLine
 10
241.7923139272298
 20
230.6013334279641
 30
0.0
 11
242.2923139272298
 21
230.6013334279641
 31
0.0
  0
LINE
  5
1E1
330
1F
100
AcDbEntity
  8
GR2_01
 62
    94
370
    20
100
AcDbLine
 10
241.7923139272298
 20
239.6013334279641
 30
0.0
 11
242.2923139272298
 21
239.6013334279641
 31
0.0
  0
LINE
  5
1E2
330
1F
100
AcDbEntity
  8
GR2_01
 62
    94
370
    20
100
AcDbLine
 10
241.7923139272297
 20
172.495083427964
 30
0.0
 11
242.2923139272298
 21
172.401333427964
 31
0.0
  0
LINE
  5
1E3
330
1F
100
AcDbEntity
  8
GR2_01
 62
    94
370
    20
100
AcDbLine
 10
242.2923139272298
 20
194.6013334279639
 30
0.0
 11
241.7923139272298
 21
194.6013334279639
 31
0.0
  0
LINE
  5
1E4
330
1F
100
AcDbEntity
  8
GR2_01
 62
    94
370
    20
100
AcDbLine
 10
242.2923139272298
 20
185.6013334279639
 30
0.0
 11
241.7923139272298
 21
185.6013334279639
 31
0.0
  0
LINE
  5
1E5
330
1F
100
AcDbEntity
  8
GR2_01
 62
    94
370
    20
100
AcDbLine
 10
242.2923139272298
 20
259.6013334279639
 30
0.0
 11
241.7923139272298
 21
259.6013334279639
 31
0.0
  0
LINE
  5
1E6
330
1F
100
AcDbEntity
  8
GR2_01
 62
    94
370
    20
100
AcDbLine
 10
242.2923139272298
 20
250.6013334279639
 30
0.0
 11
241.7923139272298
 21
250.6013334279639
 31
0.0
  0
LINE
  5
1E7
330
1F
100
AcDbEntity
  8
GR2_01
 62
    94
370
    20
100
AcDbLine
 10
219.9123139272293
 20
184.6213334279636
 30
0.0
 11
219.9123139272304
 21
266.6713334279637
 31
0.0
  0
LINE
  5
1E8
330
1F
100
AcDbEntity
  8
GR2_01
 62
    94
370
    20
100
AcDbLine
 10
221.9123139272304
 20
268.6213334279636
 30
0.0
 11
219.9123139272304
 21
266.6213334279636
 31
0.0
  0
LINE
  5
1E9
330
1F
100
AcDbEntity
  8
GR2_01
 62
    94
370
    20
100
AcDbLine
 10
221.9123139272293
 20
182.6213334279636
 30
0.0
 11
219.9123139272293
 21
184.6213334279636
 31
0.0
  0
LINE
  5
1EA
330
1F
100
AcDbEntity
  8
GR2_01
 62
    94
370
    20
100
AcDbLine
 10
222.3323139272297
 20
268.6213334279636
 30
0.0
 11
221.9123139272304
 21
268.6213334279636
 31
0.0
  0
LINE
  5
1EB
330
1F
100
AcDbEntity
  8
GR2_01
 62
    94
370
    20
100
AcDbLine
 10
222.3323139272297
 20
182.6213334279636
 30
0.0
 11
221.9123139272293
 21
182.6213334279636
 31
0.0
  0
LINE
  5
1EC
330
1F
100
AcDbEntity
  8
GR2_01
 62
    94
370
    20
100
AcDbLine
 10
192.285468045264
 20
267.9013334279635
 30
0.0
 11
194.3854680452639
 21
267.9013334279635
 31
0.0
  0
ARC
  5
1ED
330
1F
100
AcDbEntity
  8
GR2_01
 62
    94
370
    20
100
AcDbCircle
 10
192.285468045264
 20
268.2013334279636
 30
0.0
 40
0.3
100
AcDbArc
 50
179.9999999999892
 51
270.0
  0
ARC
  5
1EE
330
1F
100
AcDbEntity
  8
GR2_01
 62
    94
370
    20
100
AcDbCircle
 10
194.3854680452639
 20
267.6013334279635
 30
0.0
 40
0.3
100
AcDbArc
 50
0.0
 51
90.0
  0
LINE
  5
1EF
330
1F
100
AcDbEntity
  8
GR2_01
 62
    94
370
    20
100
AcDbLine
 10
191.9854680452638
 20
268.2013334279636
 30
0.0
 11
191.9854680452642
 21
271.5013334279634
 31
0.0
  0
LINE
  5
1F1
330
1F
100
AcDbEntity
  8
GR5_01
 62
    94
370
    20
100
AcDbLine
 10
189.185468045264
 20
149.7246833056159
 30
0.0
 11
189.7854680452641
 21
149.7246833056159
 31
0.0
  0
LINE
  5
1F2
330
1F
100
AcDbEntity
  8
GR5_01
 62
    94
370
    20
100
AcDbLine
 10
190.2854680452641
 20
148.8586579018314
 30
0.0
 11
190.2854680452641
 21
147.3046833056158
 31
0.0
  0
LINE
  5
1F3
330
1F
100
AcDbEntity
  8
GR5_01
 62
    94
370
    20
100
AcDbLine
 10
188.685468045264
 20
148.8586579018314
 30
0.0
 11
188.685468045264
 21
147.3046833056159
 31
0.0
  0
LINE
  5
1F4
330
1F
100
AcDbEntity
  8
GR5_01
 62
    94
370
    20
100
AcDbLine
 10
189.185468045264
 20
149.7246833056159
 30
0.0
 11
188.685468045264
 21
148.8586579018314
 31
0.0
  0
LINE
  5
1F5
330
1F
100
AcDbEntity
  8
GR5_01
 62
    94
370
    20
100
AcDbLine
 10
189.7854680452641
 20
149.7246833056159
 30
0.0
 11
190.2854680452641
 21
148.8586579018314
 31
0.0
  0
LINE
  5
1F6
330
1F
100
AcDbEntity
  8
GR2_01
 62
    94
370
    20
100
AcDbLine
 10
168.9854680452638
 20
33.70468330561583
 30
0.0
 11
196.3854680452637
 21
33.70468330561583
 31
0.0
  0
LINE
  5
1F7
330
1F
100
AcDbEntity
  8
GR2_01
 62
    94
370
    20
100
AcDbLine
 10
168.9854680452638
 20
33.70468330561583
 30
0.0
 11
168.9854680452637
 21
115.8046833056161
 31
0.0
  0
LINE
  5
1F8
330
1F
100
AcDbEntity
  8
GR2_01
 62
    94
370
    20
100
AcDbLine
 10
196.3854680452637
 20
33.70468330561583
 30
0.0
 11
196.3854680452637
 21
115.8046833056161
 31
0.0
  0
LINE
  5
1F9
330
1F
100
AcDbEntity
  8
GR2_01
 62
    94
370
    20
100
AcDbLine
 10
168.9854680452638
 20
35.30468330561611
 30
0.0
 11
196.3854680452637
 21
35.30468330561588
 31
0.0
  0
LINE
  5
1FA
330
1F
100
AcDbEntity
  8
GR2_01
 62
    94
370
    20
100
AcDbLine
 10
170.5854680452637
 20
35.30468330561608
 30
0.0
 11
170.5854680452636
 21
115.8046833056162
 31
0.0
  0
LINE
  5
1FB
330
1F
100
AcDbEntity
  8
GR2_01
 62
    94
370
    20
100
AcDbLine
 10
194.7854680452635
 20
35.30468330561588
 30
0.0
 11
194.7854680452638
 21
115.8046833056161
 31
0.0
  0
LINE
  5
1FC
330
1F
100
AcDbEntity
  8
GR2_01
 62
    94
370
    20
100
AcDbLine
 10
178.1854680452637
 20
41.70468330561606
 30
0.0
 11
187.1854680452636
 21
41.70468330561583
 31
0.0
  0
LINE
  5
1FD
330
1F
100
AcDbEntity
  8
GR2_01
 62
    94
370
    20
100
AcDbLine
 10
178.1854680452636
 20
57.70468330561583
 30
0.0
 11
187.1854680452637
 21
57.70468330561583
 31
0.0
  0
LINE
  5
1FE
330
1F
100
AcDbEntity
  8
GR2_01
 62
    94
370
    20
100
AcDbLine
 10
178.1854680452637
 20
64.70468330561583
 30
0.0
 11
187.1854680452639
 21
64.70468330561583
 31
0.0
  0
LINE
  5
1FF
330
1F
100
AcDbEntity
  8
GR2_01
 62
    94
370
    20
100
AcDbLine
 10
178.1854680452636
 20
88.80468330561582
 30
0.0
 11
187.1854680452637
 21
88.80468330561582
 31
0.0
  0
LINE
  5
200
330
1F
100
AcDbEntity
  8
GR2_01
 62
    94
370
    20
100
AcDbLine
 10
178.1854680452637
 20
95.80468330561582
 30
0.0
 11
187.1854680452636
 21
95.80468330561582
 31
0.0
  0
LINE
  5
201
330
1F
100
AcDbEntity
  8
GR2_01
 62
    94
370
    20
100
AcDbLine
 10
178.1854680452636
 20
107.8046833056158
 30
0.0
 11
187.1854680452636
 21
107.8046833056158
 31
0.0
  0
LINE
  5
202
330
1F
100
AcDbEntity
  8
GR2_01
 62
    94
370
    20
100
AcDbLine
 10
191.1854680452637
 20
45.70468330561583
 30
0.0
 11
191.1854680452637
 21
53.70468330561583
 31
0.0
  0
LINE
  5
203
330
1F
100
AcDbEntity
  8
GR2_01
 62
    94
370
    20
100
AcDbLine
 10
174.1854680452636
 20
45.70468330561583
 30
0.0
 11
174.1854680452636
 21
53.70468330561583
 31
0.0
  0
LINE
  5
204
330
1F
100
AcDbEntity
  8
GR2_01
 62
    94
370
    20
100
AcDbLine
 10
174.1854680452636
 20
99.80468330561582
 30
0.0
 11
174.1854680452636
 21
103.8046833056161
 31
0.0
  0
LINE
  5
205
330
1F
100
AcDbEntity
  8
GR2_01
 62
    94
370
    20
100
AcDbLine
 10
191.1854680452636
 20
99.80468330561582
 30
0.0
 11
191.1854680452636
 21
103.8046833056158
 31
0.0
  0
LINE
  5
206
330
1F
100
AcDbEntity
  8
GR2_01
 62
    94
370
    20
100
AcDbLine
 10
174.1854680452637
 20
68.70468330561583
 30
0.0
 11
174.1854680452636
 21
84.80468330561582
 31
0.0
  0
LINE
  5
207
330
1F
100
AcDbEntity
  8
GR2_01
 62
    94
370
    20
100
AcDbLine
 10
191.1854680452637
 20
68.70468330561606
 30
0.0
 11
191.1854680452636
 21
84.80468330561605
 31
0.0
  0
ARC
  5
208
330
1F
100
AcDbEntity
  8
GR2_01
 62
    94
370
    20
100
AcDbCircle
 10
178.1854680452637
 20
45.70468330561583
 30
0.0
 40
4.0
100
AcDbArc
 50
180.0
 51
270.0
  0
ARC
  5
209
330
1F
100
AcDbEntity
  8
GR2_01
 62
    94
370
    20
100
AcDbCircle
 10
187.1854680452637
 20
45.70468330561583
 30
0.0
 40
4.0
100
AcDbArc
 50
269.9999999999992
 51
0.0
  0
ARC
  5
20A
330
1F
100
AcDbEntity
  8
GR2_01
 62
    94
370
    20
100
AcDbCircle
 10
187.1854680452637
 20
53.70468330561583
 30
0.0
 40
4.0
100
AcDbArc
 50
0.0
 51
90.0
  0
ARC
  5
20B
330
1F
100
AcDbEntity
  8
GR2_01
 62
    94
370
    20
100
AcDbCircle
 10
178.1854680452636
 20
53.70468330561583
 30
0.0
 40
4.0
100
AcDbArc
 50
90.0
 51
180.0
  0
ARC
  5
20C
330
1F
100
AcDbEntity
  8
GR2_01
 62
    94
370
    20
100
AcDbCircle
 10
178.1854680452637
 20
68.70468330561583
 30
0.0
 40
4.0
100
AcDbArc
 50
180.0
 51
270.0
  0
ARC
  5
20D
330
1F
100
AcDbEntity
  8
GR2_01
 62
    94
370
    20
100
AcDbCircle
 10
187.1854680452637
 20
68.70468330561606
 30
0.0
 40
4.0
100
AcDbArc
 50
270.0000000000007
 51
0.0
  0
ARC
  5
20E
330
1F
100
AcDbEntity
  8
GR2_01
 62
    94
370
    20
100
AcDbCircle
 10
187.1854680452637
 20
84.80468330561605
 30
0.0
 40
4.0
100
AcDbArc
 50
0.0
 51
90.0
  0
ARC
  5
20F
330
1F
100
AcDbEntity
  8
GR2_01
 62
    94
370
    20
100
AcDbCircle
 10
178.1854680452636
 20
84.80468330561582
 30
0.0
 40
4.0
100
AcDbArc
 50
90.0
 51
180.0
  0
ARC
  5
210
330
1F
100
AcDbEntity
  8
GR2_01
 62
    94
370
    20
100
AcDbCircle
 10
178.1854680452637
 20
99.80468330561582
 30
0.0
 40
4.0
100
AcDbArc
 50
180.0
 51
270.0
  0
ARC
  5
211
330
1F
100
AcDbEntity
  8
GR2_01
 62
    94
370
    20
100
AcDbCircle
 10
187.1854680452636
 20
99.80468330561582
 30
0.0
 40
4.0
100
AcDbArc
 50
270.0
 51
0.0
  0
ARC
  5
212
330
1F
100
AcDbEntity
  8
GR2_01
 62
    94
370
    20
100
AcDbCircle
 10
187.1854680452636
 20
103.8046833056158
 30
0.0
 40
4.0
100
AcDbArc
 50
359.9999999999992
 51
90.0
  0
ARC
  5
213
330
1F
100
AcDbEntity
  8
GR2_01
 62
    94
370
    20
100
AcDbCircle
 10
178.1854680452636
 20
103.8046833056161
 30
0.0
 40
4.0
100
AcDbArc
 50
90.0
 51
180.0
  0
LINE
  5
214
330
1F
100
AcDbEntity
  8
GR2_01
 62
    94
370
    20
100
AcDbLine
 10
358.8028134793822
 20
255.1495798353694
 30
0.0
 11
358.8028134793822
 21
203.0530870205577
 31
0.0
  0
LINE
  5
215
330
1F
100
AcDbEntity
  8
GR2_01
 62
    94
370
    20
100
AcDbLine
 10
352.5528134793822
 20
254.4001901673584
 30
0.0
 11
352.5528134793822
 21
203.8024766885687
 31
0.0
  0
LINE
  5
216
330
1F
100
AcDbEntity
  8
GR2_01
 62
     5
370
    20
100
AcDbLine
 10
357.3478134793822
 20
254.2313334279635
 30
0.0
 11
357.3478134793822
 21
253.6313334279635
 31
0.0
  0
LINE
  5
217
330
1F
100
AcDbEntity
  8
GR2_01
 62
     5
370
    20
100
AcDbLine
 10
357.3478134793822
 20
252.2313334279635
 30
0.0
 11
356.5478134793822
 21
252.2313334279635
 31
0.0
  0
LINE
  5
218
330
1F
100
AcDbEntity
  8
GR2_01
 62
     5
370
    20
100
AcDbLine
 10
356.5478134793822
 20
252.2313334279635
 30
0.0
 11
356.5478134793822
 21
252.8313334279636
 31
0.0
  0
LINE
  5
219
330
1F
100
AcDbEntity
  8
GR2_01
 62
     5
370
    20
100
AcDbLine
 10
356.5478134793822
 20
254.2313334279635
 30
0.0
 11
357.3478134793822
 21
254.2313334279635
 31
0.0
  0
LINE
  5
21A
330
1F
100
AcDbEntity
  8
GR2_01
 62
    94
370
    20
100
AcDbLine
 10
357.6291653017153
 20
256.1343875883816
 30
0.0
 11
353.3791653017153
 21
255.3849979203706
 31
0.0
  0
ARC
  5
21B
330
1F
100
AcDbEntity
  8
GR2_01
 62
    94
370
    20
100
AcDbCircle
 10
357.8028134793822
 20
255.1495798353694
 30
0.0
 40
1.0
100
AcDbArc
 50
0.0
 51
100.0000000000002
  0
ARC
  5
21C
330
1F
100
AcDbEntity
  8
GR2_01
 62
    94
370
    20
100
AcDbCircle
 10
353.5528134793822
 20
254.4001901673584
 30
0.0
 40
1.0
100
AcDbArc
 50
100.0000000000002
 51
180.0
  0
ARC
  5
21D
330
1F
100
AcDbEntity
  8
GR2_01
 62
    94
370
    20
100
AcDbCircle
 10
355.6778134793822
 20
261.0913334279635
 30
0.0
 40
3.0
100
AcDbArc
 50
180.0
 51
0.0
  0
LINE
  5
21E
330
1F
100
AcDbEntity
  8
GR2_01
 62
    94
370
    20
100
AcDbLine
 10
358.6778134793822
 20
261.0913334279635
 30
0.0
 11
358.6778134793822
 21
263.8413334279635
 31
0.0
  0
LINE
  5
21F
330
1F
100
AcDbEntity
  8
GR2_01
 62
    94
370
    20
100
AcDbLine
 10
352.6778134793822
 20
261.0913334279635
 30
0.0
 11
352.6778134793822
 21
263.8413334279635
 31
0.0
  0
LINE
  5
220
330
1F
100
AcDbEntity
  8
GR2_01
 62
     5
370
    20
100
AcDbLine
 10
355.9278134793822
 20
253.6313334279635
 30
0.0
 11
355.9278134793822
 21
252.8313334279636
 31
0.0
  0
LINE
  5
221
330
1F
100
AcDbEntity
  8
GR2_01
 62
     5
370
    20
100
AcDbLine
 10
357.9678134793822
 20
253.6313334279635
 30
0.0
 11
357.9678134793822
 21
252.8313334279636
 31
0.0
  0
LINE
  5
222
330
1F
100
AcDbEntity
  8
GR2_01
 62
     5
370
    20
100
AcDbLine
 10
357.9678134793822
 20
252.8313334279636
 30
0.0
 11
355.9278134793822
 21
252.8313334279636
 31
0.0
  0
LINE
  5
223
330
1F
100
AcDbEntity
  8
GR2_01
 62
     5
370
    20
100
AcDbLine
 10
357.9678134793822
 20
253.6313334279635
 30
0.0
 11
355.9278134793822
 21
253.6313334279635
 31
0.0
  0
LINE
  5
224
330
1F
100
AcDbEntity
  8
GR2_01
 62
     5
370
    20
100
AcDbLine
 10
357.3478134793822
 20
252.8313334279636
 30
0.0
 11
357.3478134793822
 21
252.2313334279635
 31
0.0
  0
LINE
  5
225
330
1F
100
AcDbEntity
  8
GR2_01
 62
     5
370
    20
100
AcDbLine
 10
356.5478134793822
 20
253.6313334279635
 30
0.0
 11
356.5478134793822
 21
254.2313334279635
 31
0.0
  0
LINE
  5
226
330
1F
100
AcDbEntity
  8
GR2_01
 62
     5
370
    20
100
AcDbLine
 10
354.0078134793822
 20
254.2313334279635
 30
0.0
 11
354.0078134793822
 21
253.6313334279635
 31
0.0
  0
LINE
  5
227
330
1F
100
AcDbEntity
  8
GR2_01
 62
     5
370
    20
100
AcDbLine
 10
354.0078134793821
 20
252.2313334279635
 30
0.0
 11
354.8078134793822
 21
252.2313334279635
 31
0.0
  0
LINE
  5
228
330
1F
100
AcDbEntity
  8
GR2_01
 62
     5
370
    20
100
AcDbLine
 10
354.8078134793822
 20
252.2313334279635
 30
0.0
 11
354.8078134793822
 21
252.8313334279636
 31
0.0
  0
LINE
  5
229
330
1F
100
AcDbEntity
  8
GR2_01
 62
     5
370
    20
100
AcDbLine
 10
354.8078134793822
 20
254.2313334279635
 30
0.0
 11
354.0078134793821
 21
254.2313334279635
 31
0.0
  0
LINE
  5
22A
330
1F
100
AcDbEntity
  8
GR2_01
 62
     5
370
    20
100
AcDbLine
 10
355.4278134793822
 20
253.6313334279635
 30
0.0
 11
355.4278134793822
 21
252.8313334279636
 31
0.0
  0
LINE
  5
22B
330
1F
100
AcDbEntity
  8
GR2_01
 62
     5
370
    20
100
AcDbLine
 10
353.3878134793822
 20
253.6313334279635
 30
0.0
 11
353.3878134793822
 21
252.8313334279636
 31
0.0
  0
LINE
  5
22C
330
1F
100
AcDbEntity
  8
GR2_01
 62
     5
370
    20
100
AcDbLine
 10
353.3878134793822
 20
252.8313334279636
 30
0.0
 11
355.4278134793822
 21
252.8313334279636
 31
0.0
  0
LINE
  5
22D
330
1F
100
AcDbEntity
  8
GR2_01
 62
     5
370
    20
100
AcDbLine
 10
353.3878134793822
 20
253.6313334279635
 30
0.0
 11
355.4278134793822
 21
253.6313334279635
 31
0.0
  0
LINE
  5
22E
330
1F
100
AcDbEntity
  8
GR2_01
 62
     5
370
    20
100
AcDbLine
 10
354.0078134793822
 20
252.8313334279636
 30
0.0
 11
354.0078134793822
 21
252.2313334279635
 31
0.0
  0
LINE
  5
22F
330
1F
100
AcDbEntity
  8
GR2_01
 62
     5
370
    20
100
AcDbLine
 10
354.8078134793822
 20
253.6313334279635
 30
0.0
 11
354.8078134793822
 21
254.2313334279635
 31
0.0
  0
LINE
  5
230
330
1F
100
AcDbEntity
  8
GR2_01
 62
     5
370
    20
100
AcDbLine
 10
357.3478134793822
 20
251.6913334279636
 30
0.0
 11
357.3478134793822
 21
251.0913334279635
 31
0.0
  0
LINE
  5
231
330
1F
100
AcDbEntity
  8
GR2_01
 62
     5
370
    20
100
AcDbLine
 10
357.3478134793822
 20
249.6913334279636
 30
0.0
 11
356.5478134793822
 21
249.6913334279636
 31
0.0
  0
LINE
  5
232
330
1F
100
AcDbEntity
  8
GR2_01
 62
     5
370
    20
100
AcDbLine
 10
356.5478134793822
 20
249.6913334279636
 30
0.0
 11
356.5478134793822
 21
250.2913334279636
 31
0.0
  0
LINE
  5
233
330
1F
100
AcDbEntity
  8
GR2_01
 62
     5
370
    20
100
AcDbLine
 10
356.5478134793822
 20
251.6913334279636
 30
0.0
 11
357.3478134793822
 21
251.6913334279636
 31
0.0
  0
LINE
  5
234
330
1F
100
AcDbEntity
  8
GR2_01
 62
     5
370
    20
100
AcDbLine
 10
355.9278134793822
 20
251.0913334279635
 30
0.0
 11
355.9278134793822
 21
250.2913334279636
 31
0.0
  0
LINE
  5
235
330
1F
100
AcDbEntity
  8
GR2_01
 62
     5
370
    20
100
AcDbLine
 10
357.9678134793822
 20
251.0913334279635
 30
0.0
 11
357.9678134793822
 21
250.2913334279636
 31
0.0
  0
LINE
  5
236
330
1F
100
AcDbEntity
  8
GR2_01
 62
     5
370
    20
100
AcDbLine
 10
357.9678134793822
 20
250.2913334279636
 30
0.0
 11
355.9278134793822
 21
250.2913334279636
 31
0.0
  0
LINE
  5
237
330
1F
100
AcDbEntity
  8
GR2_01
 62
     5
370
    20
100
AcDbLine
 10
357.9678134793822
 20
251.0913334279635
 30
0.0
 11
355.9278134793822
 21
251.0913334279635
 31
0.0
  0
LINE
  5
238
330
1F
100
AcDbEntity
  8
GR2_01
 62
     5
370
    20
100
AcDbLine
 10
357.3478134793822
 20
250.2913334279636
 30
0.0
 11
357.3478134793822
 21
249.6913334279636
 31
0.0
  0
LINE
  5
239
330
1F
100
AcDbEntity
  8
GR2_01
 62
     5
370
    20
100
AcDbLine
 10
356.5478134793822
 20
251.0913334279635
 30
0.0
 11
356.5478134793822
 21
251.6913334279636
 31
0.0
  0
LINE
  5
23A
330
1F
100
AcDbEntity
  8
GR2_01
 62
     5
370
    20
100
AcDbLine
 10
354.0078134793822
 20
251.6913334279636
 30
0.0
 11
354.0078134793822
 21
251.0913334279635
 31
0.0
  0
LINE
  5
23B
330
1F
100
AcDbEntity
  8
GR2_01
 62
     5
370
    20
100
AcDbLine
 10
354.0078134793821
 20
249.6913334279636
 30
0.0
 11
354.8078134793822
 21
249.6913334279636
 31
0.0
  0
LINE
  5
23C
330
1F
100
AcDbEntity
  8
GR2_01
 62
     5
370
    20
100
AcDbLine
 10
354.8078134793822
 20
249.6913334279636
 30
0.0
 11
354.8078134793822
 21
250.2913334279636
 31
0.0
  0
LINE
  5
23D
330
1F
100
AcDbEntity
  8
GR2_01
 62
     5
370
    20
100
AcDbLine
 10
354.8078134793822
 20
251.6913334279636
 30
0.0
 11
354.0078134793821
 21
251.6913334279636
 31
0.0
  0
LINE
  5
23E
330
1F
100
AcDbEntity
  8
GR2_01
 62
     5
370
    20
100
AcDbLine
 10
355.4278134793822
 20
251.0913334279635
 30
0.0
 11
355.4278134793822
 21
250.2913334279636
 31
0.0
  0
LINE
  5
23F
330
1F
100
AcDbEntity
  8
GR2_01
 62
     5
370
    20
100
AcDbLine
 10
353.3878134793822
 20
251.0913334279635
 30
0.0
 11
353.3878134793822
 21
250.2913334279636
 31
0.0
  0
LINE
  5
240
330
1F
100
AcDbEntity
  8
GR2_01
 62
     5
370
    20
100
AcDbLine
 10
353.3878134793822
 20
250.2913334279636
 30
0.0
 11
355.4278134793822
 21
250.2913334279636
 31
0.0
  0
LINE
  5
241
330
1F
100
AcDbEntity
  8
GR2_01
 62
     5
370
    20
100
AcDbLine
 10
353.3878134793822
 20
251.0913334279635
 30
0.0
 11
355.4278134793822
 21
251.0913334279635
 31
0.0
  0
LINE
  5
242
330
1F
100
AcDbEntity
  8
GR2_01
 62
     5
370
    20
100
AcDbLine
 10
354.0078134793822
 20
250.2913334279636
 30
0.0
 11
354.0078134793822
 21
249.6913334279636
 31
0.0
  0
LINE
  5
243
330
1F
100
AcDbEntity
  8
GR2_01
 62
     5
370
    20
100
AcDbLine
 10
354.8078134793822
 20
251.0913334279635
 30
0.0
 11
354.8078134793822
 21
251.6913334279636
 31
0.0
  0
LINE
  5
244
330
1F
100
AcDbEntity
  8
GR2_01
 62
     5
370
    20
100
AcDbLine
 10
357.3478134793822
 20
203.9713334279635
 30
0.0
 11
357.3478134793822
 21
204.5713334279635
 31
0.0
  0
LINE
  5
245
330
1F
100
AcDbEntity
  8
GR2_01
 62
     5
370
    20
100
AcDbLine
 10
357.3478134793822
 20
205.9713334279636
 30
0.0
 11
356.5478134793822
 21
205.9713334279636
 31
0.0
  0
LINE
  5
246
330
1F
100
AcDbEntity
  8
GR2_01
 62
     5
370
    20
100
AcDbLine
 10
356.5478134793822
 20
205.9713334279635
 30
0.0
 11
356.5478134793822
 21
205.3713334279635
 31
0.0
  0
LINE
  5
247
330
1F
100
AcDbEntity
  8
GR2_01
 62
     5
370
    20
100
AcDbLine
 10
356.5478134793822
 20
203.9713334279636
 30
0.0
 11
357.3478134793822
 21
203.9713334279636
 31
0.0
  0
LINE
  5
248
330
1F
100
AcDbEntity
  8
GR2_01
 62
    94
370
    20
100
AcDbLine
 10
357.6291653017153
 20
202.0682792675455
 30
0.0
 11
353.3791653017153
 21
202.8176689355565
 31
0.0
  0
ARC
  5
249
330
1F
100
AcDbEntity
  8
GR2_01
 62
    94
370
    20
100
AcDbCircle
 10
357.8028134793822
 20
203.0530870205577
 30
0.0
 40
1.0
100
AcDbArc
 50
259.9999999999998
 51
0.0
  0
ARC
  5
24A
330
1F
100
AcDbEntity
  8
GR2_01
 62
    94
370
    20
100
AcDbCircle
 10
353.5528134793822
 20
203.8024766885687
 30
0.0
 40
1.0
100
AcDbArc
 50
180.0
 51
259.9999999999998
  0
LINE
  5
24B
330
1F
100
AcDbEntity
  8
GR2_01
 62
     5
370
    20
100
AcDbLine
 10
355.9278134793822
 20
204.5713334279635
 30
0.0
 11
355.9278134793822
 21
205.3713334279635
 31
0.0
  0
LINE
  5
24C
330
1F
100
AcDbEntity
  8
GR2_01
 62
     5
370
    20
100
AcDbLine
 10
357.9678134793822
 20
204.5713334279635
 30
0.0
 11
357.9678134793822
 21
205.3713334279635
 31
0.0
  0
LINE
  5
24D
330
1F
100
AcDbEntity
  8
GR2_01
 62
     5
370
    20
100
AcDbLine
 10
357.9678134793822
 20
205.3713334279635
 30
0.0
 11
355.9278134793822
 21
205.3713334279635
 31
0.0
  0
LINE
  5
24E
330
1F
100
AcDbEntity
  8
GR2_01
 62
     5
370
    20
100
AcDbLine
 10
357.9678134793822
 20
204.5713334279635
 30
0.0
 11
355.9278134793822
 21
204.5713334279635
 31
0.0
  0
LINE
  5
24F
330
1F
100
AcDbEntity
  8
GR2_01
 62
     5
370
    20
100
AcDbLine
 10
357.3478134793822
 20
205.3713334279635
 30
0.0
 11
357.3478134793822
 21
205.9713334279635
 31
0.0
  0
LINE
  5
250
330
1F
100
AcDbEntity
  8
GR2_01
 62
     5
370
    20
100
AcDbLine
 10
356.5478134793822
 20
204.5713334279635
 30
0.0
 11
356.5478134793822
 21
203.9713334279635
 31
0.0
  0
LINE
  5
251
330
1F
100
AcDbEntity
  8
GR2_01
 62
     5
370
    20
100
AcDbLine
 10
354.0078134793822
 20
203.9713334279635
 30
0.0
 11
354.0078134793822
 21
204.5713334279635
 31
0.0
  0
LINE
  5
252
330
1F
100
AcDbEntity
  8
GR2_01
 62
     5
370
    20
100
AcDbLine
 10
354.0078134793821
 20
205.9713334279636
 30
0.0
 11
354.8078134793822
 21
205.9713334279636
 31
0.0
  0
LINE
  5
253
330
1F
100
AcDbEntity
  8
GR2_01
 62
     5
370
    20
100
AcDbLine
 10
354.8078134793822
 20
205.9713334279635
 30
0.0
 11
354.8078134793822
 21
205.3713334279635
 31
0.0
  0
LINE
  5
254
330
1F
100
AcDbEntity
  8
GR2_01
 62
     5
370
    20
100
AcDbLine
 10
354.8078134793822
 20
203.9713334279636
 30
0.0
 11
354.0078134793821
 21
203.9713334279636
 31
0.0
  0
LINE
  5
255
330
1F
100
AcDbEntity
  8
GR2_01
 62
     5
370
    20
100
AcDbLine
 10
355.4278134793822
 20
204.5713334279635
 30
0.0
 11
355.4278134793822
 21
205.3713334279635
 31
0.0
  0
LINE
  5
256
330
1F
100
AcDbEntity
  8
GR2_01
 62
     5
370
    20
100
AcDbLine
 10
353.3878134793822
 20
204.5713334279635
 30
0.0
 11
353.3878134793822
 21
205.3713334279635
 31
0.0
  0
LINE
  5
257
330
1F
100
AcDbEntity
  8
GR2_01
 62
     5
370
    20
100
AcDbLine
 10
353.3878134793822
 20
205.3713334279635
 30
0.0
 11
355.4278134793822
 21
205.3713334279635
 31
0.0
  0
LINE
  5
258
330
1F
100
AcDbEntity
  8
GR2_01
 62
     5
370
    20
100
AcDbLine
 10
353.3878134793822
 20
204.5713334279635
 30
0.0
 11
355.4278134793822
 21
204.5713334279635
 31
0.0
  0
LINE
  5
259
330
1F
100
AcDbEntity
  8
GR2_01
 62
     5
370
    20
100
AcDbLine
 10
354.0078134793822
 20
205.3713334279635
 30
0.0
 11
354.0078134793822
 21
205.9713334279635
 31
0.0
  0
LINE
  5
25A
330
1F
100
AcDbEntity
  8
GR2_01
 62
     5
370
    20
100
AcDbLine
 10
354.8078134793822
 20
204.5713334279635
 30
0.0
 11
354.8078134793822
 21
203.9713334279635
 31
0.0
  0
LINE
  5
25B
330
1F
100
AcDbEntity
  8
GR2_01
 62
     5
370
    20
100
AcDbLine
 10
357.3478134793822
 20
206.5113334279636
 30
0.0
 11
357.3478134793822
 21
207.1113334279635
 31
0.0
  0
LINE
  5
25C
330
1F
100
AcDbEntity
  8
GR2_01
 62
     5
370
    20
100
AcDbLine
 10
357.3478134793822
 20
208.5113334279636
 30
0.0
 11
356.5478134793822
 21
208.5113334279636
 31
0.0
  0
LINE
  5
25D
330
1F
100
AcDbEntity
  8
GR2_01
 62
     5
370
    20
100
AcDbLine
 10
356.5478134793822
 20
208.5113334279636
 30
0.0
 11
356.5478134793822
 21
207.9113334279635
 31
0.0
  0
LINE
  5
25E
330
1F
100
AcDbEntity
  8
GR2_01
 62
     5
370
    20
100
AcDbLine
 10
356.5478134793822
 20
206.5113334279636
 30
0.0
 11
357.3478134793822
 21
206.5113334279636
 31
0.0
  0
LINE
  5
25F
330
1F
100
AcDbEntity
  8
GR2_01
 62
     5
370
    20
100
AcDbLine
 10
355.9278134793822
 20
207.1113334279635
 30
0.0
 11
355.9278134793822
 21
207.9113334279635
 31
0.0
  0
LINE
  5
260
330
1F
100
AcDbEntity
  8
GR2_01
 62
     5
370
    20
100
AcDbLine
 10
357.9678134793822
 20
207.1113334279635
 30
0.0
 11
357.9678134793822
 21
207.9113334279635
 31
0.0
  0
LINE
  5
261
330
1F
100
AcDbEntity
  8
GR2_01
 62
     5
370
    20
100
AcDbLine
 10
357.9678134793822
 20
207.9113334279635
 30
0.0
 11
355.9278134793822
 21
207.9113334279635
 31
0.0
  0
LINE
  5
262
330
1F
100
AcDbEntity
  8
GR2_01
 62
     5
370
    20
100
AcDbLine
 10
357.9678134793822
 20
207.1113334279635
 30
0.0
 11
355.9278134793822
 21
207.1113334279635
 31
0.0
  0
LINE
  5
263
330
1F
100
AcDbEntity
  8
GR2_01
 62
     5
370
    20
100
AcDbLine
 10
357.3478134793822
 20
207.9113334279635
 30
0.0
 11
357.3478134793822
 21
208.5113334279636
 31
0.0
  0
LINE
  5
264
330
1F
100
AcDbEntity
  8
GR2_01
 62
     5
370
    20
100
AcDbLine
 10
356.5478134793822
 20
207.1113334279635
 30
0.0
 11
356.5478134793822
 21
206.5113334279636
 31
0.0
  0
LINE
  5
265
330
1F
100
AcDbEntity
  8
GR2_01
 62
     5
370
    20
100
AcDbLine
 10
354.0078134793822
 20
206.5113334279636
 30
0.0
 11
354.0078134793822
 21
207.1113334279635
 31
0.0
  0
LINE
  5
266
330
1F
100
AcDbEntity
  8
GR2_01
 62
     5
370
    20
100
AcDbLine
 10
354.0078134793821
 20
208.5113334279636
 30
0.0
 11
354.8078134793822
 21
208.5113334279636
 31
0.0
  0
LINE
  5
267
330
1F
100
AcDbEntity
  8
GR2_01
 62
     5
370
    20
100
AcDbLine
 10
354.8078134793822
 20
208.5113334279636
 30
0.0
 11
354.8078134793822
 21
207.9113334279635
 31
0.0
  0
LINE
  5
268
330
1F
100
AcDbEntity
  8
GR2_01
 62
     5
370
    20
100
AcDbLine
 10
354.8078134793822
 20
206.5113334279636
 30
0.0
 11
354.0078134793821
 21
206.5113334279636
 31
0.0
  0
LINE
  5
269
330
1F
100
AcDbEntity
  8
GR2_01
 62
     5
370
    20
100
AcDbLine
 10
355.4278134793822
 20
207.1113334279635
 30
0.0
 11
355.4278134793822
 21
207.9113334279635
 31
0.0
  0
LINE
  5
26A
330
1F
100
AcDbEntity
  8
GR2_01
 62
     5
370
    20
100
AcDbLine
 10
353.3878134793822
 20
207.1113334279635
 30
0.0
 11
353.3878134793822
 21
207.9113334279635
 31
0.0
  0
LINE
  5
26B
330
1F
100
AcDbEntity
  8
GR2_01
 62
     5
370
    20
100
AcDbLine
 10
353.3878134793822
 20
207.9113334279635
 30
0.0
 11
355.4278134793822
 21
207.9113334279635
 31
0.0
  0
LINE
  5
26C
330
1F
100
AcDbEntity
  8
GR2_01
 62
     5
370
    20
100
AcDbLine
 10
353.3878134793822
 20
207.1113334279635
 30
0.0
 11
355.4278134793822
 21
207.1113334279635
 31
0.0
  0
LINE
  5
26D
330
1F
100
AcDbEntity
  8
GR2_01
 62
     5
370
    20
100
AcDbLine
 10
354.0078134793822
 20
207.9113334279635
 30
0.0
 11
354.0078134793822
 21
208.5113334279636
 31
0.0
  0
LINE
  5
26E
330
1F
100
AcDbEntity
  8
GR2_01
 62
     5
370
    20
100
AcDbLine
 10
354.8078134793822
 20
207.1113334279635
 30
0.0
 11
354.8078134793822
 21
206.5113334279636
 31
0.0
  0
LINE
  5
26F
330
1F
100
AcDbEntity
  8
GR2_01
 62
    94
370
    20
100
AcDbLine
 10
351.5528134793823
 20
194.3613334279635
 30
0.0
 11
351.5528134793822
 21
263.8413334279638
 31
0.0
  0
LINE
  5
270
330
1F
100
AcDbEntity
  8
GR2_01
 62
    94
370
    20
100
AcDbLine
 10
359.8028134793822
 20
194.3613334279635
 30
0.0
 11
359.8028134793822
 21
263.8413334279635
 31
0.0
  0
CIRCLE
  5
271
330
1F
100
AcDbEntity
  8
GR2_01
 62
    94
370
    20
100
AcDbCircle
 10
355.6778134793822
 20
261.0913334279635
 30
0.0
 40
1.55
  0
LINE
  5
272
330
1F
100
AcDbEntity
  8
GR2_01
 62
    94
370
    20
100
AcDbLine
 10
359.8028134793822
 20
194.3613334279635
 30
0.0
 11
351.5528134793823
 21
194.3613334279635
 31
0.0
  0
ARC
  5
273
330
1F
100
AcDbEntity
  8
GR2_01
 62
    94
370
    20
100
AcDbCircle
 10
355.6778134793822
 20
197.1113334279635
 30
0.0
 40
3.0
100
AcDbArc
 50
0.0
 51
180.0
  0
LINE
  5
274
330
1F
100
AcDbEntity
  8
GR2_01
 62
    94
370
    20
100
AcDbLine
 10
358.6778134793822
 20
197.1113334279635
 30
0.0
 11
358.6778134793822
 21
194.3613334279635
 31
0.0
  0
LINE
  5
275
330
1F
100
AcDbEntity
  8
GR2_01
 62
    94
370
    20
100
AcDbLine
 10
352.6778134793822
 20
197.1113334279635
 30
0.0
 11
352.6778134793822
 21
194.3613334279635
 31
0.0
  0
CIRCLE
  5
276
330
1F
100
AcDbEntity
  8
GR2_01
 62
    94
370
    20
100
AcDbCircle
 10
355.6778134793822
 20
197.1113334279635
 30
0.0
 40
1.55
  0
LINE
  5
277
330
1F
100
AcDbEntity
  8
GR2_01
 62
    94
370
    20
100
AcDbLine
 10
351.5528134793822
 20
263.8413334279638
 30
0.0
 11
359.8028134793822
 21
263.8413334279635
 31
0.0
  0
LINE
  5
278
330
1F
100
AcDbEntity
  8
GR2_01
 62
    94
370
    20
100
AcDbLine
 10
222.8323139272296
 20
171.6013334279637
 30
0.0
 11
241.7923139272297
 21
171.6013334279637
 31
0.0
  0
LINE
  5
279
330
1F
100
AcDbEntity
  8
GR2_01
 62
    94
370
    20
100
AcDbLine
 10
241.7923139272298
 20
273.6013334279637
 30
0.0
 11
222.8323139272297
 21
273.6013334279637
 31
0.0
  0
ARC
  5
27A
330
1F
100
AcDbEntity
  8
GR2_01
 62
    94
370
    20
100
AcDbCircle
 10
222.8323139272297
 20
273.1013334279637
 30
0.0
 40
0.5
100
AcDbArc
 50
90.0
 51
180.0
  0
ARC
  5
27B
330
1F
100
AcDbEntity
  8
GR2_01
 62
    94
370
    20
100
AcDbCircle
 10
222.8323139272296
 20
172.1013334279637
 30
0.0
 40
0.5
100
AcDbArc
 50
180.0
 51
270.0
  0
INSERT
  5
280
330
1F
100
AcDbEntity
  8
-
100
AcDbBlockReference
  2
FXDIM032
 10
0.0
 20
0.0
 30
0.0
  0
LINE
  5
282
330
1F
100
AcDbEntity
  8
GR1_01
 62
     5
370
    20
100
AcDbLine
 10
287.1162053157687
 20
165.1938140156996
 30
0.0
 11
287.1162053157687
 21
171.6905673939977
 31
0.0
  0
INSERT
  5
283
330
1F
100
AcDbEntity
  8
GR1_01
 62
     5
370
    20
100
AcDbBlockReference
  2
FXTIP_ARROW_E
 10
287.1162053157687
 20
171.6905673939977
 30
0.0
 41
2.5
 42
2.5
 50
90.0
  0
LINE
  5
284
330
1F
100
AcDbEntity
  8
GR2_01
 62
    94
370
    20
100
AcDbLine
 10
240.5423139272298
 20
251.1013334279635
 30
0.0
 11
240.5423139272298
 21
194.1013334279635
 31
0.0
  0
ARC
  5
285
330
1F
100
AcDbEntity
  8
GR2_01
 62
    94
370
    20
100
AcDbCircle
 10
240.0423139272298
 20
251.1013334279635
 30
0.0
 40
0.5
100
AcDbArc
 50
0.0
 51
90.0
  0
LINE
  5
286
330
1F
100
AcDbEntity
  8
GR2_01
 62
    94
370
    20
100
AcDbLine
 10
229.5423139272297
 20
251.1013334279635
 30
0.0
 11
229.5423139272297
 21
194.1013334279635
 31
0.0
  0
LINE
  5
287
330
1F
100
AcDbEntity
  8
GR2_01
 62
    94
370
    20
100
AcDbLine
 10
230.0423139272297
 20
251.6013334279635
 30
0.0
 11
240.0423139272298
 21
251.6013334279635
 31
0.0
  0
ARC
  5
288
330
1F
100
AcDbEntity
  8
GR2_01
 62
    94
370
    20
100
AcDbCircle
 10
230.0423139272297
 20
251.1013334279635
 30
0.0
 40
0.5
100
AcDbArc
 50
90.0
 51
180.0
  0
ARC
  5
289
330
1F
100
AcDbEntity
  8
GR2_01
 62
    94
370
    20
100
AcDbCircle
 10
240.0423139272296
 20
194.1013334279635
 30
0.0
 40
0.5
100
AcDbArc
 50
270.0
 51
0.0
  0
LINE
  5
28A
330
1F
100
AcDbEntity
  8
GR2_01
 62
    94
370
    20
100
AcDbLine
 10
230.0423139272296
 20
193.6013334279636
 30
0.0
 11
240.0423139272296
 21
193.6013334279635
 31
0.0
  0
ARC
  5
28B
330
1F
100
AcDbEntity
  8
GR2_01
 62
    94
370
    20
100
AcDbCircle
 10
230.0423139272296
 20
194.1013334279635
 30
0.0
 40
0.5
100
AcDbArc
 50
180.0
 51
270.0
  0
LINE
  5
28C
330
1F
100
AcDbEntity
  8
GR2_01
 62
     5
370
    20
100
AcDbLine
 10
354.0078134793822
 20
249.1513334279637
 30
0.0
 11
354.0078134793822
 21
248.5513334279637
 31
0.0
  0
LINE
  5
28D
330
1F
100
AcDbEntity
  8
GR2_01
 62
     5
370
    20
100
AcDbLine
 10
354.0078134793822
 20
247.1513334279637
 30
0.0
 11
354.8078134793822
 21
247.1513334279637
 31
0.0
  0
LINE
  5
28E
330
1F
100
AcDbEntity
  8
GR2_01
 62
     5
370
    20
100
AcDbLine
 10
354.8078134793822
 20
247.1513334279637
 30
0.0
 11
354.8078134793822
 21
247.7513334279638
 31
0.0
  0
LINE
  5
28F
330
1F
100
AcDbEntity
  8
GR2_01
 62
     5
370
    20
100
AcDbLine
 10
354.8078134793822
 20
249.1513334279637
 30
0.0
 11
354.0078134793822
 21
249.1513334279637
 31
0.0
  0
LINE
  5
290
330
1F
100
AcDbEntity
  8
GR2_01
 62
     5
370
    20
100
AcDbLine
 10
355.4278134793822
 20
248.5513334279637
 30
0.0
 11
355.4278134793822
 21
247.7513334279638
 31
0.0
  0
LINE
  5
291
330
1F
100
AcDbEntity
  8
GR2_01
 62
     5
370
    20
100
AcDbLine
 10
353.3878134793821
 20
248.5513334279637
 30
0.0
 11
353.3878134793821
 21
247.7513334279638
 31
0.0
  0
LINE
  5
292
330
1F
100
AcDbEntity
  8
GR2_01
 62
     5
370
    20
100
AcDbLine
 10
353.3878134793821
 20
247.7513334279638
 30
0.0
 11
355.4278134793822
 21
247.7513334279638
 31
0.0
  0
LINE
  5
293
330
1F
100
AcDbEntity
  8
GR2_01
 62
     5
370
    20
100
AcDbLine
 10
353.3878134793821
 20
248.5513334279637
 30
0.0
 11
355.4278134793822
 21
248.5513334279637
 31
0.0
  0
LINE
  5
294
330
1F
100
AcDbEntity
  8
GR2_01
 62
     5
370
    20
100
AcDbLine
 10
354.0078134793822
 20
247.7513334279638
 30
0.0
 11
354.0078134793822
 21
247.1513334279637
 31
0.0
  0
LINE
  5
295
330
1F
100
AcDbEntity
  8
GR2_01
 62
     5
370
    20
100
AcDbLine
 10
354.8078134793822
 20
248.5513334279637
 30
0.0
 11
354.8078134793822
 21
249.1513334279637
 31
0.0
  0
LINE
  5
296
330
1F
100
AcDbEntity
  8
GR2_01
 62
     5
370
    20
100
AcDbLine
 10
357.3478134793822
 20
249.1513334279637
 30
0.0
 11
357.3478134793822
 21
248.5513334279637
 31
0.0
  0
LINE
  5
297
330
1F
100
AcDbEntity
  8
GR2_01
 62
     5
370
    20
100
AcDbLine
 10
357.3478134793823
 20
247.1513334279637
 30
0.0
 11
356.5478134793822
 21
247.1513334279637
 31
0.0
  0
LINE
  5
298
330
1F
100
AcDbEntity
  8
GR2_01
 62
     5
370
    20
100
AcDbLine
 10
356.5478134793822
 20
247.1513334279637
 30
0.0
 11
356.5478134793822
 21
247.7513334279638
 31
0.0
  0
LINE
  5
299
330
1F
100
AcDbEntity
  8
GR2_01
 62
     5
370
    20
100
AcDbLine
 10
356.5478134793822
 20
249.1513334279637
 30
0.0
 11
357.3478134793823
 21
249.1513334279637
 31
0.0
  0
LINE
  5
29A
330
1F
100
AcDbEntity
  8
GR2_01
 62
     5
370
    20
100
AcDbLine
 10
355.9278134793822
 20
248.5513334279637
 30
0.0
 11
355.9278134793822
 21
247.7513334279638
 31
0.0
  0
LINE
  5
29B
330
1F
100
AcDbEntity
  8
GR2_01
 62
     5
370
    20
100
AcDbLine
 10
357.9678134793822
 20
248.5513334279637
 30
0.0
 11
357.9678134793822
 21
247.7513334279638
 31
0.0
  0
LINE
  5
29C
330
1F
100
AcDbEntity
  8
GR2_01
 62
     5
370
    20
100
AcDbLine
 10
357.9678134793822
 20
247.7513334279638
 30
0.0
 11
355.9278134793822
 21
247.7513334279638
 31
0.0
  0
LINE
  5
29D
330
1F
100
AcDbEntity
  8
GR2_01
 62
     5
370
    20
100
AcDbLine
 10
357.9678134793822
 20
248.5513334279637
 30
0.0
 11
355.9278134793822
 21
248.5513334279637
 31
0.0
  0
LINE
  5
29E
330
1F
100
AcDbEntity
  8
GR2_01
 62
     5
370
    20
100
AcDbLine
 10
357.3478134793822
 20
247.7513334279638
 30
0.0
 11
357.3478134793822
 21
247.1513334279637
 31
0.0
  0
LINE
  5
29F
330
1F
100
AcDbEntity
  8
GR2_01
 62
     5
370
    20
100
AcDbLine
 10
356.5478134793822
 20
248.5513334279637
 30
0.0
 11
356.5478134793822
 21
249.1513334279637
 31
0.0
  0
LINE
  5
2A0
330
1F
100
AcDbEntity
  8
GR2_01
 62
     5
370
    20
100
AcDbLine
 10
354.0078134793822
 20
246.6113334279639
 30
0.0
 11
354.0078134793823
 21
246.0113334279639
 31
0.0
  0
LINE
  5
2A1
330
1F
100
AcDbEntity
  8
GR2_01
 62
     5
370
    20
100
AcDbLine
 10
354.0078134793823
 20
244.6113334279639
 30
0.0
 11
354.8078134793823
 21
244.6113334279639
 31
0.0
  0
LINE
  5
2A2
330
1F
100
AcDbEntity
  8
GR2_01
 62
     5
370
    20
100
AcDbLine
 10
354.8078134793823
 20
244.6113334279639
 30
0.0
 11
354.8078134793823
 21
245.2113334279639
 31
0.0
  0
LINE
  5
2A3
330
1F
100
AcDbEntity
  8
GR2_01
 62
     5
370
    20
100
AcDbLine
 10
354.8078134793823
 20
246.6113334279639
 30
0.0
 11
354.0078134793822
 21
246.6113334279639
 31
0.0
  0
LINE
  5
2A4
330
1F
100
AcDbEntity
  8
GR2_01
 62
     5
370
    20
100
AcDbLine
 10
355.4278134793823
 20
246.0113334279639
 30
0.0
 11
355.4278134793823
 21
245.2113334279639
 31
0.0
  0
LINE
  5
2A5
330
1F
100
AcDbEntity
  8
GR2_01
 62
     5
370
    20
100
AcDbLine
 10
353.3878134793823
 20
246.0113334279639
 30
0.0
 11
353.3878134793823
 21
245.2113334279639
 31
0.0
  0
LINE
  5
2A6
330
1F
100
AcDbEntity
  8
GR2_01
 62
     5
370
    20
100
AcDbLine
 10
353.3878134793823
 20
245.2113334279639
 30
0.0
 11
355.4278134793823
 21
245.2113334279639
 31
0.0
  0
LINE
  5
2A7
330
1F
100
AcDbEntity
  8
GR2_01
 62
     5
370
    20
100
AcDbLine
 10
353.3878134793823
 20
246.0113334279639
 30
0.0
 11
355.4278134793823
 21
246.0113334279639
 31
0.0
  0
LINE
  5
2A8
330
1F
100
AcDbEntity
  8
GR2_01
 62
     5
370
    20
100
AcDbLine
 10
354.0078134793823
 20
245.2113334279639
 30
0.0
 11
354.0078134793823
 21
244.6113334279639
 31
0.0
  0
LINE
  5
2A9
330
1F
100
AcDbEntity
  8
GR2_01
 62
     5
370
    20
100
AcDbLine
 10
354.8078134793823
 20
246.0113334279639
 30
0.0
 11
354.8078134793823
 21
246.6113334279639
 31
0.0
  0
LINE
  5
2AA
330
1F
100
AcDbEntity
  8
GR2_01
 62
     5
370
    20
100
AcDbLine
 10
357.3478134793822
 20
246.6113334279639
 30
0.0
 11
357.3478134793823
 21
246.0113334279639
 31
0.0
  0
LINE
  5
2AB
330
1F
100
AcDbEntity
  8
GR2_01
 62
     5
370
    20
100
AcDbLine
 10
357.3478134793824
 20
244.6113334279639
 30
0.0
 11
356.5478134793823
 21
244.6113334279639
 31
0.0
  0
LINE
  5
2AC
330
1F
100
AcDbEntity
  8
GR2_01
 62
     5
370
    20
100
AcDbLine
 10
356.5478134793823
 20
244.6113334279639
 30
0.0
 11
356.5478134793823
 21
245.2113334279639
 31
0.0
  0
LINE
  5
2AD
330
1F
100
AcDbEntity
  8
GR2_01
 62
     5
370
    20
100
AcDbLine
 10
356.5478134793822
 20
246.6113334279639
 30
0.0
 11
357.3478134793823
 21
246.6113334279639
 31
0.0
  0
LINE
  5
2AE
330
1F
100
AcDbEntity
  8
GR2_01
 62
     5
370
    20
100
AcDbLine
 10
355.9278134793823
 20
246.0113334279639
 30
0.0
 11
355.9278134793823
 21
245.2113334279639
 31
0.0
  0
LINE
  5
2AF
330
1F
100
AcDbEntity
  8
GR2_01
 62
     5
370
    20
100
AcDbLine
 10
357.9678134793823
 20
246.0113334279639
 30
0.0
 11
357.9678134793823
 21
245.2113334279639
 31
0.0
  0
LINE
  5
2B0
330
1F
100
AcDbEntity
  8
GR2_01
 62
     5
370
    20
100
AcDbLine
 10
357.9678134793823
 20
245.2113334279639
 30
0.0
 11
355.9278134793823
 21
245.2113334279639
 31
0.0
  0
LINE
  5
2B1
330
1F
100
AcDbEntity
  8
GR2_01
 62
     5
370
    20
100
AcDbLine
 10
357.9678134793823
 20
246.0113334279639
 30
0.0
 11
355.9278134793823
 21
246.0113334279639
 31
0.0
  0
LINE
  5
2B2
330
1F
100
AcDbEntity
  8
GR2_01
 62
     5
370
    20
100
AcDbLine
 10
357.3478134793823
 20
245.2113334279639
 30
0.0
 11
357.3478134793823
 21
244.6113334279639
 31
0.0
  0
LINE
  5
2B3
330
1F
100
AcDbEntity
  8
GR2_01
 62
     5
370
    20
100
AcDbLine
 10
356.5478134793823
 20
246.0113334279639
 30
0.0
 11
356.5478134793822
 21
246.6113334279639
 31
0.0
  0
LINE
  5
2B4
330
1F
100
AcDbEntity
  8
GR2_01
 62
     5
370
    20
100
AcDbLine
 10
354.0078134793823
 20
244.071333427964
 30
0.0
 11
354.0078134793823
 21
243.471333427964
 31
0.0
  0
LINE
  5
2B5
330
1F
100
AcDbEntity
  8
GR2_01
 62
     5
370
    20
100
AcDbLine
 10
354.0078134793823
 20
242.071333427964
 30
0.0
 11
354.8078134793823
 21
242.071333427964
 31
0.0
  0
LINE
  5
2B6
330
1F
100
AcDbEntity
  8
GR2_01
 62
     5
370
    20
100
AcDbLine
 10
354.8078134793823
 20
242.071333427964
 30
0.0
 11
354.8078134793823
 21
242.6713334279641
 31
0.0
  0
LINE
  5
2B7
330
1F
100
AcDbEntity
  8
GR2_01
 62
     5
370
    20
100
AcDbLine
 10
354.8078134793823
 20
244.071333427964
 30
0.0
 11
354.0078134793823
 21
244.071333427964
 31
0.0
  0
LINE
  5
2B8
330
1F
100
AcDbEntity
  8
GR2_01
 62
     5
370
    20
100
AcDbLine
 10
355.4278134793823
 20
243.471333427964
 30
0.0
 11
355.4278134793823
 21
242.6713334279641
 31
0.0
  0
LINE
  5
2B9
330
1F
100
AcDbEntity
  8
GR2_01
 62
     5
370
    20
100
AcDbLine
 10
353.3878134793823
 20
243.471333427964
 30
0.0
 11
353.3878134793823
 21
242.6713334279641
 31
0.0
  0
LINE
  5
2BA
330
1F
100
AcDbEntity
  8
GR2_01
 62
     5
370
    20
100
AcDbLine
 10
353.3878134793823
 20
242.6713334279641
 30
0.0
 11
355.4278134793823
 21
242.6713334279641
 31
0.0
  0
LINE
  5
2BB
330
1F
100
AcDbEntity
  8
GR2_01
 62
     5
370
    20
100
AcDbLine
 10
353.3878134793823
 20
243.471333427964
 30
0.0
 11
355.4278134793823
 21
243.471333427964
 31
0.0
  0
LINE
  5
2BC
330
1F
100
AcDbEntity
  8
GR2_01
 62
     5
370
    20
100
AcDbLine
 10
354.0078134793823
 20
242.6713334279641
 30
0.0
 11
354.0078134793823
 21
242.071333427964
 31
0.0
  0
LINE
  5
2BD
330
1F
100
AcDbEntity
  8
GR2_01
 62
     5
370
    20
100
AcDbLine
 10
354.8078134793823
 20
243.471333427964
 30
0.0
 11
354.8078134793823
 21
244.071333427964
 31
0.0
  0
LINE
  5
2BE
330
1F
100
AcDbEntity
  8
GR2_01
 62
     5
370
    20
100
AcDbLine
 10
357.3478134793823
 20
244.071333427964
 30
0.0
 11
357.3478134793823
 21
243.471333427964
 31
0.0
  0
LINE
  5
2BF
330
1F
100
AcDbEntity
  8
GR2_01
 62
     5
370
    20
100
AcDbLine
 10
357.3478134793824
 20
242.071333427964
 30
0.0
 11
356.5478134793823
 21
242.071333427964
 31
0.0
  0
LINE
  5
2C0
330
1F
100
AcDbEntity
  8
GR2_01
 62
     5
370
    20
100
AcDbLine
 10
356.5478134793823
 20
242.071333427964
 30
0.0
 11
356.5478134793823
 21
242.6713334279641
 31
0.0
  0
LINE
  5
2C1
330
1F
100
AcDbEntity
  8
GR2_01
 62
     5
370
    20
100
AcDbLine
 10
356.5478134793823
 20
244.071333427964
 30
0.0
 11
357.3478134793824
 21
244.071333427964
 31
0.0
  0
LINE
  5
2C2
330
1F
100
AcDbEntity
  8
GR2_01
 62
     5
370
    20
100
AcDbLine
 10
355.9278134793823
 20
243.471333427964
 30
0.0
 11
355.9278134793823
 21
242.6713334279641
 31
0.0
  0
LINE
  5
2C3
330
1F
100
AcDbEntity
  8
GR2_01
 62
     5
370
    20
100
AcDbLine
 10
357.9678134793823
 20
243.471333427964
 30
0.0
 11
357.9678134793823
 21
242.6713334279641
 31
0.0
  0
LINE
  5
2C4
330
1F
100
AcDbEntity
  8
GR2_01
 62
     5
370
    20
100
AcDbLine
 10
357.9678134793823
 20
242.6713334279641
 30
0.0
 11
355.9278134793823
 21
242.6713334279641
 31
0.0
  0
LINE
  5
2C5
330
1F
100
AcDbEntity
  8
GR2_01
 62
     5
370
    20
100
AcDbLine
 10
357.9678134793823
 20
243.471333427964
 30
0.0
 11
355.9278134793823
 21
243.471333427964
 31
0.0
  0
LINE
  5
2C6
330
1F
100
AcDbEntity
  8
GR2_01
 62
     5
370
    20
100
AcDbLine
 10
357.3478134793823
 20
242.6713334279641
 30
0.0
 11
357.3478134793823
 21
242.071333427964
 31
0.0
  0
LINE
  5
2C7
330
1F
100
AcDbEntity
  8
GR2_01
 62
     5
370
    20
100
AcDbLine
 10
356.5478134793823
 20
243.471333427964
 30
0.0
 11
356.5478134793823
 21
244.071333427964
 31
0.0
  0
LINE
  5
2C8
330
1F
100
AcDbEntity
  8
GR2_01
 62
     5
370
    20
100
AcDbLine
 10
354.0078134793823
 20
241.5313334279642
 30
0.0
 11
354.0078134793823
 21
240.9313334279642
 31
0.0
  0
LINE
  5
2C9
330
1F
100
AcDbEntity
  8
GR2_01
 62
     5
370
    20
100
AcDbLine
 10
354.0078134793823
 20
239.5313334279642
 30
0.0
 11
354.8078134793823
 21
239.5313334279642
 31
0.0
  0
LINE
  5
2CA
330
1F
100
AcDbEntity
  8
GR2_01
 62
     5
370
    20
100
AcDbLine
 10
354.8078134793823
 20
239.5313334279642
 30
0.0
 11
354.8078134793823
 21
240.1313334279642
 31
0.0
  0
LINE
  5
2CB
330
1F
100
AcDbEntity
  8
GR2_01
 62
     5
370
    20
100
AcDbLine
 10
354.8078134793823
 20
241.5313334279642
 30
0.0
 11
354.0078134793823
 21
241.5313334279642
 31
0.0
  0
LINE
  5
2CC
330
1F
100
AcDbEntity
  8
GR2_01
 62
     5
370
    20
100
AcDbLine
 10
355.4278134793823
 20
240.9313334279642
 30
0.0
 11
355.4278134793823
 21
240.1313334279642
 31
0.0
  0
LINE
  5
2CD
330
1F
100
AcDbEntity
  8
GR2_01
 62
     5
370
    20
100
AcDbLine
 10
353.3878134793823
 20
240.9313334279642
 30
0.0
 11
353.3878134793823
 21
240.1313334279642
 31
0.0
  0
LINE
  5
2CE
330
1F
100
AcDbEntity
  8
GR2_01
 62
     5
370
    20
100
AcDbLine
 10
353.3878134793823
 20
240.1313334279642
 30
0.0
 11
355.4278134793823
 21
240.1313334279642
 31
0.0
  0
LINE
  5
2CF
330
1F
100
AcDbEntity
  8
GR2_01
 62
     5
370
    20
100
AcDbLine
 10
353.3878134793823
 20
240.9313334279642
 30
0.0
 11
355.4278134793823
 21
240.9313334279642
 31
0.0
  0
LINE
  5
2D0
330
1F
100
AcDbEntity
  8
GR2_01
 62
     5
370
    20
100
AcDbLine
 10
354.0078134793823
 20
240.1313334279642
 30
0.0
 11
354.0078134793823
 21
239.5313334279642
 31
0.0
  0
LINE
  5
2D1
330
1F
100
AcDbEntity
  8
GR2_01
 62
     5
370
    20
100
AcDbLine
 10
354.8078134793823
 20
240.9313334279642
 30
0.0
 11
354.8078134793823
 21
241.5313334279642
 31
0.0
  0
LINE
  5
2D2
330
1F
100
AcDbEntity
  8
GR2_01
 62
     5
370
    20
100
AcDbLine
 10
357.3478134793823
 20
241.5313334279642
 30
0.0
 11
357.3478134793823
 21
240.9313334279642
 31
0.0
  0
LINE
  5
2D3
330
1F
100
AcDbEntity
  8
GR2_01
 62
     5
370
    20
100
AcDbLine
 10
357.3478134793824
 20
239.5313334279642
 30
0.0
 11
356.5478134793823
 21
239.5313334279642
 31
0.0
  0
LINE
  5
2D4
330
1F
100
AcDbEntity
  8
GR2_01
 62
     5
370
    20
100
AcDbLine
 10
356.5478134793823
 20
239.5313334279642
 30
0.0
 11
356.5478134793823
 21
240.1313334279642
 31
0.0
  0
LINE
  5
2D5
330
1F
100
AcDbEntity
  8
GR2_01
 62
     5
370
    20
100
AcDbLine
 10
356.5478134793823
 20
241.5313334279642
 30
0.0
 11
357.3478134793824
 21
241.5313334279642
 31
0.0
  0
LINE
  5
2D6
330
1F
100
AcDbEntity
  8
GR2_01
 62
     5
370
    20
100
AcDbLine
 10
355.9278134793823
 20
240.9313334279642
 30
0.0
 11
355.9278134793823
 21
240.1313334279642
 31
0.0
  0
LINE
  5
2D7
330
1F
100
AcDbEntity
  8
GR2_01
 62
     5
370
    20
100
AcDbLine
 10
357.9678134793823
 20
240.9313334279642
 30
0.0
 11
357.9678134793823
 21
240.1313334279642
 31
0.0
  0
LINE
  5
2D8
330
1F
100
AcDbEntity
  8
GR2_01
 62
     5
370
    20
100
AcDbLine
 10
357.9678134793823
 20
240.1313334279642
 30
0.0
 11
355.9278134793823
 21
240.1313334279642
 31
0.0
  0
LINE
  5
2D9
330
1F
100
AcDbEntity
  8
GR2_01
 62
     5
370
    20
100
AcDbLine
 10
357.9678134793823
 20
240.9313334279642
 30
0.0
 11
355.9278134793823
 21
240.9313334279642
 31
0.0
  0
LINE
  5
2DA
330
1F
100
AcDbEntity
  8
GR2_01
 62
     5
370
    20
100
AcDbLine
 10
357.3478134793823
 20
240.1313334279642
 30
0.0
 11
357.3478134793823
 21
239.5313334279642
 31
0.0
  0
LINE
  5
2DB
330
1F
100
AcDbEntity
  8
GR2_01
 62
     5
370
    20
100
AcDbLine
 10
356.5478134793823
 20
240.9313334279642
 30
0.0
 11
356.5478134793823
 21
241.5313334279642
 31
0.0
  0
LINE
  5
2DC
330
1F
100
AcDbEntity
  8
GR2_01
 62
     5
370
    20
100
AcDbLine
 10
354.0078134793823
 20
238.9913334279643
 30
0.0
 11
354.0078134793823
 21
238.3913334279643
 31
0.0
  0
LINE
  5
2DD
330
1F
100
AcDbEntity
  8
GR2_01
 62
     5
370
    20
100
AcDbLine
 10
354.0078134793823
 20
236.9913334279643
 30
0.0
 11
354.8078134793823
 21
236.9913334279643
 31
0.0
  0
LINE
  5
2DE
330
1F
100
AcDbEntity
  8
GR2_01
 62
     5
370
    20
100
AcDbLine
 10
354.8078134793823
 20
236.9913334279643
 30
0.0
 11
354.8078134793823
 21
237.5913334279644
 31
0.0
  0
LINE
  5
2DF
330
1F
100
AcDbEntity
  8
GR2_01
 62
     5
370
    20
100
AcDbLine
 10
354.8078134793823
 20
238.9913334279643
 30
0.0
 11
354.0078134793823
 21
238.9913334279643
 31
0.0
  0
LINE
  5
2E0
330
1F
100
AcDbEntity
  8
GR2_01
 62
     5
370
    20
100
AcDbLine
 10
355.4278134793823
 20
238.3913334279643
 30
0.0
 11
355.4278134793823
 21
237.5913334279644
 31
0.0
  0
LINE
  5
2E1
330
1F
100
AcDbEntity
  8
GR2_01
 62
     5
370
    20
100
AcDbLine
 10
353.3878134793823
 20
238.3913334279643
 30
0.0
 11
353.3878134793823
 21
237.5913334279644
 31
0.0
  0
LINE
  5
2E2
330
1F
100
AcDbEntity
  8
GR2_01
 62
     5
370
    20
100
AcDbLine
 10
353.3878134793823
 20
237.5913334279644
 30
0.0
 11
355.4278134793823
 21
237.5913334279644
 31
0.0
  0
LINE
  5
2E3
330
1F
100
AcDbEntity
  8
GR2_01
 62
     5
370
    20
100
AcDbLine
 10
353.3878134793823
 20
238.3913334279643
 30
0.0
 11
355.4278134793823
 21
238.3913334279643
 31
0.0
  0
LINE
  5
2E4
330
1F
100
AcDbEntity
  8
GR2_01
 62
     5
370
    20
100
AcDbLine
 10
354.0078134793823
 20
237.5913334279644
 30
0.0
 11
354.0078134793823
 21
236.9913334279643
 31
0.0
  0
LINE
  5
2E5
330
1F
100
AcDbEntity
  8
GR2_01
 62
     5
370
    20
100
AcDbLine
 10
354.8078134793823
 20
238.3913334279643
 30
0.0
 11
354.8078134793823
 21
238.9913334279643
 31
0.0
  0
LINE
  5
2E6
330
1F
100
AcDbEntity
  8
GR2_01
 62
     5
370
    20
100
AcDbLine
 10
357.3478134793823
 20
238.9913334279643
 30
0.0
 11
357.3478134793823
 21
238.3913334279643
 31
0.0
  0
LINE
  5
2E7
330
1F
100
AcDbEntity
  8
GR2_01
 62
     5
370
    20
100
AcDbLine
 10
357.3478134793824
 20
236.9913334279643
 30
0.0
 11
356.5478134793823
 21
236.9913334279643
 31
0.0
  0
LINE
  5
2E8
330
1F
100
AcDbEntity
  8
GR2_01
 62
     5
370
    20
100
AcDbLine
 10
356.5478134793823
 20
236.9913334279643
 30
0.0
 11
356.5478134793823
 21
237.5913334279644
 31
0.0
  0
LINE
  5
2E9
330
1F
100
AcDbEntity
  8
GR2_01
 62
     5
370
    20
100
AcDbLine
 10
356.5478134793823
 20
238.9913334279643
 30
0.0
 11
357.3478134793824
 21
238.9913334279643
 31
0.0
  0
LINE
  5
2EA
330
1F
100
AcDbEntity
  8
GR2_01
 62
     5
370
    20
100
AcDbLine
 10
355.9278134793823
 20
238.3913334279643
 30
0.0
 11
355.9278134793823
 21
237.5913334279644
 31
0.0
  0
LINE
  5
2EB
330
1F
100
AcDbEntity
  8
GR2_01
 62
     5
370
    20
100
AcDbLine
 10
357.9678134793823
 20
238.3913334279643
 30
0.0
 11
357.9678134793823
 21
237.5913334279644
 31
0.0
  0
LINE
  5
2EC
330
1F
100
AcDbEntity
  8
GR2_01
 62
     5
370
    20
100
AcDbLine
 10
357.9678134793823
 20
237.5913334279644
 30
0.0
 11
355.9278134793823
 21
237.5913334279644
 31
0.0
  0
LINE
  5
2ED
330
1F
100
AcDbEntity
  8
GR2_01
 62
     5
370
    20
100
AcDbLine
 10
357.9678134793823
 20
238.3913334279643
 30
0.0
 11
355.9278134793823
 21
238.3913334279643
 31
0.0
  0
LINE
  5
2EE
330
1F
100
AcDbEntity
  8
GR2_01
 62
     5
370
    20
100
AcDbLine
 10
357.3478134793823
 20
237.5913334279644
 30
0.0
 11
357.3478134793823
 21
236.9913334279643
 31
0.0
  0
LINE
  5
2EF
330
1F
100
AcDbEntity
  8
GR2_01
 62
     5
370
    20
100
AcDbLine
 10
356.5478134793823
 20
238.3913334279643
 30
0.0
 11
356.5478134793823
 21
238.9913334279643
 31
0.0
  0
LINE
  5
2F0
330
1F
100
AcDbEntity
  8
GR2_01
 62
     5
370
    20
100
AcDbLine
 10
354.0078134793823
 20
236.4513334279645
 30
0.0
 11
354.0078134793823
 21
235.8513334279645
 31
0.0
  0
LINE
  5
2F1
330
1F
100
AcDbEntity
  8
GR2_01
 62
     5
370
    20
100
AcDbLine
 10
354.0078134793823
 20
234.4513334279645
 30
0.0
 11
354.8078134793823
 21
234.4513334279645
 31
0.0
  0
LINE
  5
2F2
330
1F
100
AcDbEntity
  8
GR2_01
 62
     5
370
    20
100
AcDbLine
 10
354.8078134793823
 20
234.4513334279645
 30
0.0
 11
354.8078134793823
 21
235.0513334279645
 31
0.0
  0
LINE
  5
2F3
330
1F
100
AcDbEntity
  8
GR2_01
 62
     5
370
    20
100
AcDbLine
 10
354.8078134793823
 20
236.4513334279645
 30
0.0
 11
354.0078134793823
 21
236.4513334279645
 31
0.0
  0
LINE
  5
2F4
330
1F
100
AcDbEntity
  8
GR2_01
 62
     5
370
    20
100
AcDbLine
 10
355.4278134793823
 20
235.8513334279645
 30
0.0
 11
355.4278134793823
 21
235.0513334279645
 31
0.0
  0
LINE
  5
2F5
330
1F
100
AcDbEntity
  8
GR2_01
 62
     5
370
    20
100
AcDbLine
 10
353.3878134793823
 20
235.8513334279645
 30
0.0
 11
353.3878134793823
 21
235.0513334279645
 31
0.0
  0
LINE
  5
2F6
330
1F
100
AcDbEntity
  8
GR2_01
 62
     5
370
    20
100
AcDbLine
 10
353.3878134793823
 20
235.0513334279645
 30
0.0
 11
355.4278134793823
 21
235.0513334279645
 31
0.0
  0
LINE
  5
2F7
330
1F
100
AcDbEntity
  8
GR2_01
 62
     5
370
    20
100
AcDbLine
 10
353.3878134793823
 20
235.8513334279645
 30
0.0
 11
355.4278134793823
 21
235.8513334279645
 31
0.0
  0
LINE
  5
2F8
330
1F
100
AcDbEntity
  8
GR2_01
 62
     5
370
    20
100
AcDbLine
 10
354.0078134793823
 20
235.0513334279645
 30
0.0
 11
354.0078134793823
 21
234.4513334279645
 31
0.0
  0
LINE
  5
2F9
330
1F
100
AcDbEntity
  8
GR2_01
 62
     5
370
    20
100
AcDbLine
 10
354.8078134793823
 20
235.8513334279645
 30
0.0
 11
354.8078134793823
 21
236.4513334279645
 31
0.0
  0
LINE
  5
2FA
330
1F
100
AcDbEntity
  8
GR2_01
 62
     5
370
    20
100
AcDbLine
 10
357.3478134793823
 20
236.4513334279645
 30
0.0
 11
357.3478134793823
 21
235.8513334279645
 31
0.0
  0
LINE
  5
2FB
330
1F
100
AcDbEntity
  8
GR2_01
 62
     5
370
    20
100
AcDbLine
 10
357.3478134793824
 20
234.4513334279645
 30
0.0
 11
356.5478134793823
 21
234.4513334279645
 31
0.0
  0
LINE
  5
2FC
330
1F
100
AcDbEntity
  8
GR2_01
 62
     5
370
    20
100
AcDbLine
 10
356.5478134793823
 20
234.4513334279645
 30
0.0
 11
356.5478134793823
 21
235.0513334279645
 31
0.0
  0
LINE
  5
2FD
330
1F
100
AcDbEntity
  8
GR2_01
 62
     5
370
    20
100
AcDbLine
 10
356.5478134793823
 20
236.4513334279645
 30
0.0
 11
357.3478134793824
 21
236.4513334279645
 31
0.0
  0
LINE
  5
2FE
330
1F
100
AcDbEntity
  8
GR2_01
 62
     5
370
    20
100
AcDbLine
 10
355.9278134793823
 20
235.8513334279645
 30
0.0
 11
355.9278134793823
 21
235.0513334279645
 31
0.0
  0
LINE
  5
2FF
330
1F
100
AcDbEntity
  8
GR2_01
 62
     5
370
    20
100
AcDbLine
 10
357.9678134793823
 20
235.8513334279645
 30
0.0
 11
357.9678134793823
 21
235.0513334279645
 31
0.0
  0
LINE
  5
300
330
1F
100
AcDbEntity
  8
GR2_01
 62
     5
370
    20
100
AcDbLine
 10
357.9678134793823
 20
235.0513334279645
 30
0.0
 11
355.9278134793823
 21
235.0513334279645
 31
0.0
  0
LINE
  5
301
330
1F
100
AcDbEntity
  8
GR2_01
 62
     5
370
    20
100
AcDbLine
 10
357.9678134793823
 20
235.8513334279645
 30
0.0
 11
355.9278134793823
 21
235.8513334279645
 31
0.0
  0
LINE
  5
302
330
1F
100
AcDbEntity
  8
GR2_01
 62
     5
370
    20
100
AcDbLine
 10
357.3478134793823
 20
235.0513334279645
 30
0.0
 11
357.3478134793823
 21
234.4513334279645
 31
0.0
  0
LINE
  5
303
330
1F
100
AcDbEntity
  8
GR2_01
 62
     5
370
    20
100
AcDbLine
 10
356.5478134793823
 20
235.8513334279645
 30
0.0
 11
356.5478134793823
 21
236.4513334279645
 31
0.0
  0
LINE
  5
304
330
1F
100
AcDbEntity
  8
GR2_01
 62
     5
370
    20
100
AcDbLine
 10
354.0078134793823
 20
233.9113334279646
 30
0.0
 11
354.0078134793823
 21
233.3113334279646
 31
0.0
  0
LINE
  5
305
330
1F
100
AcDbEntity
  8
GR2_01
 62
     5
370
    20
100
AcDbLine
 10
354.0078134793823
 20
231.9113334279646
 30
0.0
 11
354.8078134793823
 21
231.9113334279646
 31
0.0
  0
LINE
  5
306
330
1F
100
AcDbEntity
  8
GR2_01
 62
     5
370
    20
100
AcDbLine
 10
354.8078134793823
 20
231.9113334279646
 30
0.0
 11
354.8078134793823
 21
232.5113334279647
 31
0.0
  0
LINE
  5
307
330
1F
100
AcDbEntity
  8
GR2_01
 62
     5
370
    20
100
AcDbLine
 10
354.8078134793823
 20
233.9113334279646
 30
0.0
 11
354.0078134793823
 21
233.9113334279646
 31
0.0
  0
LINE
  5
308
330
1F
100
AcDbEntity
  8
GR2_01
 62
     5
370
    20
100
AcDbLine
 10
355.4278134793823
 20
233.3113334279646
 30
0.0
 11
355.4278134793823
 21
232.5113334279647
 31
0.0
  0
LINE
  5
309
330
1F
100
AcDbEntity
  8
GR2_01
 62
     5
370
    20
100
AcDbLine
 10
353.3878134793823
 20
233.3113334279646
 30
0.0
 11
353.3878134793823
 21
232.5113334279647
 31
0.0
  0
LINE
  5
30A
330
1F
100
AcDbEntity
  8
GR2_01
 62
     5
370
    20
100
AcDbLine
 10
353.3878134793823
 20
232.5113334279647
 30
0.0
 11
355.4278134793823
 21
232.5113334279647
 31
0.0
  0
LINE
  5
30B
330
1F
100
AcDbEntity
  8
GR2_01
 62
     5
370
    20
100
AcDbLine
 10
353.3878134793823
 20
233.3113334279646
 30
0.0
 11
355.4278134793823
 21
233.3113334279646
 31
0.0
  0
LINE
  5
30C
330
1F
100
AcDbEntity
  8
GR2_01
 62
     5
370
    20
100
AcDbLine
 10
354.0078134793823
 20
232.5113334279647
 30
0.0
 11
354.0078134793823
 21
231.9113334279646
 31
0.0
  0
LINE
  5
30D
330
1F
100
AcDbEntity
  8
GR2_01
 62
     5
370
    20
100
AcDbLine
 10
354.8078134793823
 20
233.3113334279646
 30
0.0
 11
354.8078134793823
 21
233.9113334279646
 31
0.0
  0
LINE
  5
30E
330
1F
100
AcDbEntity
  8
GR2_01
 62
     5
370
    20
100
AcDbLine
 10
357.3478134793823
 20
233.9113334279646
 30
0.0
 11
357.3478134793823
 21
233.3113334279646
 31
0.0
  0
LINE
  5
30F
330
1F
100
AcDbEntity
  8
GR2_01
 62
     5
370
    20
100
AcDbLine
 10
357.3478134793824
 20
231.9113334279646
 30
0.0
 11
356.5478134793823
 21
231.9113334279646
 31
0.0
  0
LINE
  5
310
330
1F
100
AcDbEntity
  8
GR2_01
 62
     5
370
    20
100
AcDbLine
 10
356.5478134793823
 20
231.9113334279646
 30
0.0
 11
356.5478134793823
 21
232.5113334279647
 31
0.0
  0
LINE
  5
311
330
1F
100
AcDbEntity
  8
GR2_01
 62
     5
370
    20
100
AcDbLine
 10
356.5478134793823
 20
233.9113334279646
 30
0.0
 11
357.3478134793824
 21
233.9113334279646
 31
0.0
  0
LINE
  5
312
330
1F
100
AcDbEntity
  8
GR2_01
 62
     5
370
    20
100
AcDbLine
 10
355.9278134793823
 20
233.3113334279646
 30
0.0
 11
355.9278134793823
 21
232.5113334279647
 31
0.0
  0
LINE
  5
313
330
1F
100
AcDbEntity
  8
GR2_01
 62
     5
370
    20
100
AcDbLine
 10
357.9678134793823
 20
233.3113334279646
 30
0.0
 11
357.9678134793823
 21
232.5113334279647
 31
0.0
  0
LINE
  5
314
330
1F
100
AcDbEntity
  8
GR2_01
 62
     5
370
    20
100
AcDbLine
 10
357.9678134793823
 20
232.5113334279647
 30
0.0
 11
355.9278134793823
 21
232.5113334279647
 31
0.0
  0
LINE
  5
315
330
1F
100
AcDbEntity
  8
GR2_01
 62
     5
370
    20
100
AcDbLine
 10
357.9678134793823
 20
233.3113334279646
 30
0.0
 11
355.9278134793823
 21
233.3113334279646
 31
0.0
  0
LINE
  5
316
330
1F
100
AcDbEntity
  8
GR2_01
 62
     5
370
    20
100
AcDbLine
 10
357.3478134793823
 20
232.5113334279647
 30
0.0
 11
357.3478134793823
 21
231.9113334279646
 31
0.0
  0
LINE
  5
317
330
1F
100
AcDbEntity
  8
GR2_01
 62
     5
370
    20
100
AcDbLine
 10
356.5478134793823
 20
233.3113334279646
 30
0.0
 11
356.5478134793823
 21
233.9113334279646
 31
0.0
  0
LINE
  5
318
330
1F
100
AcDbEntity
  8
GR2_01
 62
     5
370
    20
100
AcDbLine
 10
354.0078134793823
 20
231.3713334279648
 30
0.0
 11
354.0078134793823
 21
230.7713334279648
 31
0.0
  0
LINE
  5
319
330
1F
100
AcDbEntity
  8
GR2_01
 62
     5
370
    20
100
AcDbLine
 10
354.0078134793823
 20
229.3713334279648
 30
0.0
 11
354.8078134793823
 21
229.3713334279648
 31
0.0
  0
LINE
  5
31A
330
1F
100
AcDbEntity
  8
GR2_01
 62
     5
370
    20
100
AcDbLine
 10
354.8078134793823
 20
229.3713334279648
 30
0.0
 11
354.8078134793823
 21
229.9713334279648
 31
0.0
  0
LINE
  5
31B
330
1F
100
AcDbEntity
  8
GR2_01
 62
     5
370
    20
100
AcDbLine
 10
354.8078134793823
 20
231.3713334279648
 30
0.0
 11
354.0078134793823
 21
231.3713334279648
 31
0.0
  0
LINE
  5
31C
330
1F
100
AcDbEntity
  8
GR2_01
 62
     5
370
    20
100
AcDbLine
 10
355.4278134793823
 20
230.7713334279648
 30
0.0
 11
355.4278134793823
 21
229.9713334279648
 31
0.0
  0
LINE
  5
31D
330
1F
100
AcDbEntity
  8
GR2_01
 62
     5
370
    20
100
AcDbLine
 10
353.3878134793823
 20
230.7713334279648
 30
0.0
 11
353.3878134793823
 21
229.9713334279648
 31
0.0
  0
LINE
  5
31E
330
1F
100
AcDbEntity
  8
GR2_01
 62
     5
370
    20
100
AcDbLine
 10
353.3878134793823
 20
229.9713334279648
 30
0.0
 11
355.4278134793823
 21
229.9713334279648
 31
0.0
  0
LINE
  5
31F
330
1F
100
AcDbEntity
  8
GR2_01
 62
     5
370
    20
100
AcDbLine
 10
353.3878134793823
 20
230.7713334279648
 30
0.0
 11
355.4278134793823
 21
230.7713334279648
 31
0.0
  0
LINE
  5
320
330
1F
100
AcDbEntity
  8
GR2_01
 62
     5
370
    20
100
AcDbLine
 10
354.0078134793823
 20
229.9713334279648
 30
0.0
 11
354.0078134793823
 21
229.3713334279648
 31
0.0
  0
LINE
  5
321
330
1F
100
AcDbEntity
  8
GR2_01
 62
     5
370
    20
100
AcDbLine
 10
354.8078134793823
 20
230.7713334279648
 30
0.0
 11
354.8078134793823
 21
231.3713334279648
 31
0.0
  0
LINE
  5
322
330
1F
100
AcDbEntity
  8
GR2_01
 62
     5
370
    20
100
AcDbLine
 10
357.3478134793823
 20
231.3713334279648
 30
0.0
 11
357.3478134793823
 21
230.7713334279648
 31
0.0
  0
LINE
  5
323
330
1F
100
AcDbEntity
  8
GR2_01
 62
     5
370
    20
100
AcDbLine
 10
357.3478134793824
 20
229.3713334279648
 30
0.0
 11
356.5478134793823
 21
229.3713334279648
 31
0.0
  0
LINE
  5
324
330
1F
100
AcDbEntity
  8
GR2_01
 62
     5
370
    20
100
AcDbLine
 10
356.5478134793823
 20
229.3713334279648
 30
0.0
 11
356.5478134793823
 21
229.9713334279648
 31
0.0
  0
LINE
  5
325
330
1F
100
AcDbEntity
  8
GR2_01
 62
     5
370
    20
100
AcDbLine
 10
356.5478134793823
 20
231.3713334279648
 30
0.0
 11
357.3478134793824
 21
231.3713334279648
 31
0.0
  0
LINE
  5
326
330
1F
100
AcDbEntity
  8
GR2_01
 62
     5
370
    20
100
AcDbLine
 10
355.9278134793823
 20
230.7713334279648
 30
0.0
 11
355.9278134793823
 21
229.9713334279648
 31
0.0
  0
LINE
  5
327
330
1F
100
AcDbEntity
  8
GR2_01
 62
     5
370
    20
100
AcDbLine
 10
357.9678134793823
 20
230.7713334279648
 30
0.0
 11
357.9678134793823
 21
229.9713334279648
 31
0.0
  0
LINE
  5
328
330
1F
100
AcDbEntity
  8
GR2_01
 62
     5
370
    20
100
AcDbLine
 10
357.9678134793823
 20
229.9713334279648
 30
0.0
 11
355.9278134793823
 21
229.9713334279648
 31
0.0
  0
LINE
  5
329
330
1F
100
AcDbEntity
  8
GR2_01
 62
     5
370
    20
100
AcDbLine
 10
357.9678134793823
 20
230.7713334279648
 30
0.0
 11
355.9278134793823
 21
230.7713334279648
 31
0.0
  0
LINE
  5
32A
330
1F
100
AcDbEntity
  8
GR2_01
 62
     5
370
    20
100
AcDbLine
 10
357.3478134793823
 20
229.9713334279648
 30
0.0
 11
357.3478134793823
 21
229.3713334279648
 31
0.0
  0
LINE
  5
32B
330
1F
100
AcDbEntity
  8
GR2_01
 62
     5
370
    20
100
AcDbLine
 10
356.5478134793823
 20
230.7713334279648
 30
0.0
 11
356.5478134793823
 21
231.3713334279648
 31
0.0
  0
LINE
  5
32C
330
1F
100
AcDbEntity
  8
GR2_01
 62
     5
370
    20
100
AcDbLine
 10
354.0078134793823
 20
228.8313334279649
 30
0.0
 11
354.0078134793823
 21
228.2313334279649
 31
0.0
  0
LINE
  5
32D
330
1F
100
AcDbEntity
  8
GR2_01
 62
     5
370
    20
100
AcDbLine
 10
354.0078134793823
 20
226.8313334279649
 30
0.0
 11
354.8078134793823
 21
226.8313334279649
 31
0.0
  0
LINE
  5
32E
330
1F
100
AcDbEntity
  8
GR2_01
 62
     5
370
    20
100
AcDbLine
 10
354.8078134793823
 20
226.8313334279649
 30
0.0
 11
354.8078134793823
 21
227.431333427965
 31
0.0
  0
LINE
  5
32F
330
1F
100
AcDbEntity
  8
GR2_01
 62
     5
370
    20
100
AcDbLine
 10
354.8078134793823
 20
228.8313334279649
 30
0.0
 11
354.0078134793823
 21
228.8313334279649
 31
0.0
  0
LINE
  5
330
330
1F
100
AcDbEntity
  8
GR2_01
 62
     5
370
    20
100
AcDbLine
 10
355.4278134793823
 20
228.2313334279649
 30
0.0
 11
355.4278134793823
 21
227.431333427965
 31
0.0
  0
LINE
  5
331
330
1F
100
AcDbEntity
  8
GR2_01
 62
     5
370
    20
100
AcDbLine
 10
353.3878134793823
 20
228.2313334279649
 30
0.0
 11
353.3878134793823
 21
227.431333427965
 31
0.0
  0
LINE
  5
332
330
1F
100
AcDbEntity
  8
GR2_01
 62
     5
370
    20
100
AcDbLine
 10
353.3878134793823
 20
227.431333427965
 30
0.0
 11
355.4278134793823
 21
227.431333427965
 31
0.0
  0
LINE
  5
333
330
1F
100
AcDbEntity
  8
GR2_01
 62
     5
370
    20
100
AcDbLine
 10
353.3878134793823
 20
228.2313334279649
 30
0.0
 11
355.4278134793823
 21
228.2313334279649
 31
0.0
  0
LINE
  5
334
330
1F
100
AcDbEntity
  8
GR2_01
 62
     5
370
    20
100
AcDbLine
 10
354.0078134793823
 20
227.431333427965
 30
0.0
 11
354.0078134793823
 21
226.8313334279649
 31
0.0
  0
LINE
  5
335
330
1F
100
AcDbEntity
  8
GR2_01
 62
     5
370
    20
100
AcDbLine
 10
354.8078134793823
 20
228.2313334279649
 30
0.0
 11
354.8078134793823
 21
228.8313334279649
 31
0.0
  0
LINE
  5
336
330
1F
100
AcDbEntity
  8
GR2_01
 62
     5
370
    20
100
AcDbLine
 10
357.3478134793823
 20
228.8313334279649
 30
0.0
 11
357.3478134793823
 21
228.2313334279649
 31
0.0
  0
LINE
  5
337
330
1F
100
AcDbEntity
  8
GR2_01
 62
     5
370
    20
100
AcDbLine
 10
357.3478134793824
 20
226.8313334279649
 30
0.0
 11
356.5478134793823
 21
226.8313334279649
 31
0.0
  0
LINE
  5
338
330
1F
100
AcDbEntity
  8
GR2_01
 62
     5
370
    20
100
AcDbLine
 10
356.5478134793823
 20
226.8313334279649
 30
0.0
 11
356.5478134793823
 21
227.431333427965
 31
0.0
  0
LINE
  5
339
330
1F
100
AcDbEntity
  8
GR2_01
 62
     5
370
    20
100
AcDbLine
 10
356.5478134793823
 20
228.8313334279649
 30
0.0
 11
357.3478134793824
 21
228.8313334279649
 31
0.0
  0
LINE
  5
33A
330
1F
100
AcDbEntity
  8
GR2_01
 62
     5
370
    20
100
AcDbLine
 10
355.9278134793823
 20
228.2313334279649
 30
0.0
 11
355.9278134793823
 21
227.431333427965
 31
0.0
  0
LINE
  5
33B
330
1F
100
AcDbEntity
  8
GR2_01
 62
     5
370
    20
100
AcDbLine
 10
357.9678134793823
 20
228.2313334279649
 30
0.0
 11
357.9678134793823
 21
227.431333427965
 31
0.0
  0
LINE
  5
33C
330
1F
100
AcDbEntity
  8
GR2_01
 62
     5
370
    20
100
AcDbLine
 10
357.9678134793823
 20
227.431333427965
 30
0.0
 11
355.9278134793823
 21
227.431333427965
 31
0.0
  0
LINE
  5
33D
330
1F
100
AcDbEntity
  8
GR2_01
 62
     5
370
    20
100
AcDbLine
 10
357.9678134793823
 20
228.2313334279649
 30
0.0
 11
355.9278134793823
 21
228.2313334279649
 31
0.0
  0
LINE
  5
33E
330
1F
100
AcDbEntity
  8
GR2_01
 62
     5
370
    20
100
AcDbLine
 10
357.3478134793823
 20
227.431333427965
 30
0.0
 11
357.3478134793823
 21
226.8313334279649
 31
0.0
  0
LINE
  5
33F
330
1F
100
AcDbEntity
  8
GR2_01
 62
     5
370
    20
100
AcDbLine
 10
356.5478134793823
 20
228.2313334279649
 30
0.0
 11
356.5478134793823
 21
228.8313334279649
 31
0.0
  0
LINE
  5
340
330
1F
100
AcDbEntity
  8
GR2_01
 62
     5
370
    20
100
AcDbLine
 10
354.0078134793823
 20
226.2913334279651
 30
0.0
 11
354.0078134793823
 21
225.6913334279651
 31
0.0
  0
LINE
  5
341
330
1F
100
AcDbEntity
  8
GR2_01
 62
     5
370
    20
100
AcDbLine
 10
354.0078134793823
 20
224.2913334279651
 30
0.0
 11
354.8078134793823
 21
224.2913334279651
 31
0.0
  0
LINE
  5
342
330
1F
100
AcDbEntity
  8
GR2_01
 62
     5
370
    20
100
AcDbLine
 10
354.8078134793823
 20
224.2913334279651
 30
0.0
 11
354.8078134793823
 21
224.8913334279651
 31
0.0
  0
LINE
  5
343
330
1F
100
AcDbEntity
  8
GR2_01
 62
     5
370
    20
100
AcDbLine
 10
354.8078134793823
 20
226.2913334279651
 30
0.0
 11
354.0078134793823
 21
226.2913334279651
 31
0.0
  0
LINE
  5
344
330
1F
100
AcDbEntity
  8
GR2_01
 62
     5
370
    20
100
AcDbLine
 10
355.4278134793823
 20
225.6913334279651
 30
0.0
 11
355.4278134793823
 21
224.8913334279651
 31
0.0
  0
LINE
  5
345
330
1F
100
AcDbEntity
  8
GR2_01
 62
     5
370
    20
100
AcDbLine
 10
353.3878134793823
 20
225.6913334279651
 30
0.0
 11
353.3878134793823
 21
224.8913334279651
 31
0.0
  0
LINE
  5
346
330
1F
100
AcDbEntity
  8
GR2_01
 62
     5
370
    20
100
AcDbLine
 10
353.3878134793823
 20
224.8913334279651
 30
0.0
 11
355.4278134793823
 21
224.8913334279651
 31
0.0
  0
LINE
  5
347
330
1F
100
AcDbEntity
  8
GR2_01
 62
     5
370
    20
100
AcDbLine
 10
353.3878134793823
 20
225.6913334279651
 30
0.0
 11
355.4278134793823
 21
225.6913334279651
 31
0.0
  0
LINE
  5
348
330
1F
100
AcDbEntity
  8
GR2_01
 62
     5
370
    20
100
AcDbLine
 10
354.0078134793823
 20
224.8913334279651
 30
0.0
 11
354.0078134793823
 21
224.2913334279651
 31
0.0
  0
LINE
  5
349
330
1F
100
AcDbEntity
  8
GR2_01
 62
     5
370
    20
100
AcDbLine
 10
354.8078134793823
 20
225.6913334279651
 30
0.0
 11
354.8078134793823
 21
226.2913334279651
 31
0.0
  0
LINE
  5
34A
330
1F
100
AcDbEntity
  8
GR2_01
 62
     5
370
    20
100
AcDbLine
 10
357.3478134793823
 20
226.2913334279651
 30
0.0
 11
357.3478134793823
 21
225.6913334279651
 31
0.0
  0
LINE
  5
34B
330
1F
100
AcDbEntity
  8
GR2_01
 62
     5
370
    20
100
AcDbLine
 10
357.3478134793824
 20
224.2913334279651
 30
0.0
 11
356.5478134793823
 21
224.2913334279651
 31
0.0
  0
LINE
  5
34C
330
1F
100
AcDbEntity
  8
GR2_01
 62
     5
370
    20
100
AcDbLine
 10
356.5478134793823
 20
224.2913334279651
 30
0.0
 11
356.5478134793823
 21
224.8913334279651
 31
0.0
  0
LINE
  5
34D
330
1F
100
AcDbEntity
  8
GR2_01
 62
     5
370
    20
100
AcDbLine
 10
356.5478134793823
 20
226.2913334279651
 30
0.0
 11
357.3478134793824
 21
226.2913334279651
 31
0.0
  0
LINE
  5
34E
330
1F
100
AcDbEntity
  8
GR2_01
 62
     5
370
    20
100
AcDbLine
 10
355.9278134793823
 20
225.6913334279651
 30
0.0
 11
355.9278134793823
 21
224.8913334279651
 31
0.0
  0
LINE
  5
34F
330
1F
100
AcDbEntity
  8
GR2_01
 62
     5
370
    20
100
AcDbLine
 10
357.9678134793823
 20
225.6913334279651
 30
0.0
 11
357.9678134793823
 21
224.8913334279651
 31
0.0
  0
LINE
  5
350
330
1F
100
AcDbEntity
  8
GR2_01
 62
     5
370
    20
100
AcDbLine
 10
357.9678134793823
 20
224.8913334279651
 30
0.0
 11
355.9278134793823
 21
224.8913334279651
 31
0.0
  0
LINE
  5
351
330
1F
100
AcDbEntity
  8
GR2_01
 62
     5
370
    20
100
AcDbLine
 10
357.9678134793823
 20
225.6913334279651
 30
0.0
 11
355.9278134793823
 21
225.6913334279651
 31
0.0
  0
LINE
  5
352
330
1F
100
AcDbEntity
  8
GR2_01
 62
     5
370
    20
100
AcDbLine
 10
357.3478134793823
 20
224.8913334279651
 30
0.0
 11
357.3478134793823
 21
224.2913334279651
 31
0.0
  0
LINE
  5
353
330
1F
100
AcDbEntity
  8
GR2_01
 62
     5
370
    20
100
AcDbLine
 10
356.5478134793823
 20
225.6913334279651
 30
0.0
 11
356.5478134793823
 21
226.2913334279651
 31
0.0
  0
LINE
  5
354
330
1F
100
AcDbEntity
  8
GR2_01
 62
     5
370
    20
100
AcDbLine
 10
354.0078134793823
 20
223.7513334279643
 30
0.0
 11
354.0078134793823
 21
223.1513334279643
 31
0.0
  0
LINE
  5
355
330
1F
100
AcDbEntity
  8
GR2_01
 62
     5
370
    20
100
AcDbLine
 10
354.0078134793823
 20
221.7513334279643
 30
0.0
 11
354.8078134793823
 21
221.7513334279643
 31
0.0
  0
LINE
  5
356
330
1F
100
AcDbEntity
  8
GR2_01
 62
     5
370
    20
100
AcDbLine
 10
354.8078134793823
 20
221.7513334279643
 30
0.0
 11
354.8078134793823
 21
222.3513334279643
 31
0.0
  0
LINE
  5
357
330
1F
100
AcDbEntity
  8
GR2_01
 62
     5
370
    20
100
AcDbLine
 10
354.8078134793823
 20
223.7513334279643
 30
0.0
 11
354.0078134793823
 21
223.7513334279643
 31
0.0
  0
LINE
  5
358
330
1F
100
AcDbEntity
  8
GR2_01
 62
     5
370
    20
100
AcDbLine
 10
355.4278134793823
 20
223.1513334279643
 30
0.0
 11
355.4278134793823
 21
222.3513334279643
 31
0.0
  0
LINE
  5
359
330
1F
100
AcDbEntity
  8
GR2_01
 62
     5
370
    20
100
AcDbLine
 10
353.3878134793823
 20
223.1513334279643
 30
0.0
 11
353.3878134793823
 21
222.3513334279643
 31
0.0
  0
LINE
  5
35A
330
1F
100
AcDbEntity
  8
GR2_01
 62
     5
370
    20
100
AcDbLine
 10
353.3878134793823
 20
222.3513334279643
 30
0.0
 11
355.4278134793823
 21
222.3513334279643
 31
0.0
  0
LINE
  5
35B
330
1F
100
AcDbEntity
  8
GR2_01
 62
     5
370
    20
100
AcDbLine
 10
353.3878134793823
 20
223.1513334279643
 30
0.0
 11
355.4278134793823
 21
223.1513334279643
 31
0.0
  0
LINE
  5
35C
330
1F
100
AcDbEntity
  8
GR2_01
 62
     5
370
    20
100
AcDbLine
 10
354.0078134793823
 20
222.3513334279643
 30
0.0
 11
354.0078134793823
 21
221.7513334279643
 31
0.0
  0
LINE
  5
35D
330
1F
100
AcDbEntity
  8
GR2_01
 62
     5
370
    20
100
AcDbLine
 10
354.8078134793823
 20
223.1513334279643
 30
0.0
 11
354.8078134793823
 21
223.7513334279643
 31
0.0
  0
LINE
  5
35E
330
1F
100
AcDbEntity
  8
GR2_01
 62
     5
370
    20
100
AcDbLine
 10
357.3478134793823
 20
223.7513334279643
 30
0.0
 11
357.3478134793823
 21
223.1513334279643
 31
0.0
  0
LINE
  5
35F
330
1F
100
AcDbEntity
  8
GR2_01
 62
     5
370
    20
100
AcDbLine
 10
357.3478134793824
 20
221.7513334279643
 30
0.0
 11
356.5478134793823
 21
221.7513334279643
 31
0.0
  0
LINE
  5
360
330
1F
100
AcDbEntity
  8
GR2_01
 62
     5
370
    20
100
AcDbLine
 10
356.5478134793823
 20
221.7513334279643
 30
0.0
 11
356.5478134793823
 21
222.3513334279643
 31
0.0
  0
LINE
  5
361
330
1F
100
AcDbEntity
  8
GR2_01
 62
     5
370
    20
100
AcDbLine
 10
356.5478134793823
 20
223.7513334279643
 30
0.0
 11
357.3478134793824
 21
223.7513334279643
 31
0.0
  0
LINE
  5
362
330
1F
100
AcDbEntity
  8
GR2_01
 62
     5
370
    20
100
AcDbLine
 10
355.9278134793823
 20
223.1513334279643
 30
0.0
 11
355.9278134793823
 21
222.3513334279643
 31
0.0
  0
LINE
  5
363
330
1F
100
AcDbEntity
  8
GR2_01
 62
     5
370
    20
100
AcDbLine
 10
357.9678134793823
 20
223.1513334279643
 30
0.0
 11
357.9678134793823
 21
222.3513334279643
 31
0.0
  0
LINE
  5
364
330
1F
100
AcDbEntity
  8
GR2_01
 62
     5
370
    20
100
AcDbLine
 10
357.9678134793823
 20
222.3513334279643
 30
0.0
 11
355.9278134793823
 21
222.3513334279643
 31
0.0
  0
LINE
  5
365
330
1F
100
AcDbEntity
  8
GR2_01
 62
     5
370
    20
100
AcDbLine
 10
357.9678134793823
 20
223.1513334279643
 30
0.0
 11
355.9278134793823
 21
223.1513334279643
 31
0.0
  0
LINE
  5
366
330
1F
100
AcDbEntity
  8
GR2_01
 62
     5
370
    20
100
AcDbLine
 10
357.3478134793823
 20
222.3513334279643
 30
0.0
 11
357.3478134793823
 21
221.7513334279643
 31
0.0
  0
LINE
  5
367
330
1F
100
AcDbEntity
  8
GR2_01
 62
     5
370
    20
100
AcDbLine
 10
356.5478134793823
 20
223.1513334279643
 30
0.0
 11
356.5478134793823
 21
223.7513334279643
 31
0.0
  0
LINE
  5
368
330
1F
100
AcDbEntity
  8
GR2_01
 62
     5
370
    20
100
AcDbLine
 10
354.0078134793823
 20
221.2113334279644
 30
0.0
 11
354.0078134793823
 21
220.6113334279644
 31
0.0
  0
LINE
  5
369
330
1F
100
AcDbEntity
  8
GR2_01
 62
     5
370
    20
100
AcDbLine
 10
354.0078134793823
 20
219.2113334279644
 30
0.0
 11
354.8078134793823
 21
219.2113334279644
 31
0.0
  0
LINE
  5
36A
330
1F
100
AcDbEntity
  8
GR2_01
 62
     5
370
    20
100
AcDbLine
 10
354.8078134793823
 20
219.2113334279644
 30
0.0
 11
354.8078134793823
 21
219.8113334279644
 31
0.0
  0
LINE
  5
36B
330
1F
100
AcDbEntity
  8
GR2_01
 62
     5
370
    20
100
AcDbLine
 10
354.8078134793823
 20
221.2113334279644
 30
0.0
 11
354.0078134793823
 21
221.2113334279644
 31
0.0
  0
LINE
  5
36C
330
1F
100
AcDbEntity
  8
GR2_01
 62
     5
370
    20
100
AcDbLine
 10
355.4278134793823
 20
220.6113334279644
 30
0.0
 11
355.4278134793823
 21
219.8113334279644
 31
0.0
  0
LINE
  5
36D
330
1F
100
AcDbEntity
  8
GR2_01
 62
     5
370
    20
100
AcDbLine
 10
353.3878134793823
 20
220.6113334279644
 30
0.0
 11
353.3878134793823
 21
219.8113334279644
 31
0.0
  0
LINE
  5
36E
330
1F
100
AcDbEntity
  8
GR2_01
 62
     5
370
    20
100
AcDbLine
 10
353.3878134793823
 20
219.8113334279644
 30
0.0
 11
355.4278134793823
 21
219.8113334279644
 31
0.0
  0
LINE
  5
36F
330
1F
100
AcDbEntity
  8
GR2_01
 62
     5
370
    20
100
AcDbLine
 10
353.3878134793823
 20
220.6113334279644
 30
0.0
 11
355.4278134793823
 21
220.6113334279644
 31
0.0
  0
LINE
  5
370
330
1F
100
AcDbEntity
  8
GR2_01
 62
     5
370
    20
100
AcDbLine
 10
354.0078134793823
 20
219.8113334279644
 30
0.0
 11
354.0078134793823
 21
219.2113334279644
 31
0.0
  0
LINE
  5
371
330
1F
100
AcDbEntity
  8
GR2_01
 62
     5
370
    20
100
AcDbLine
 10
354.8078134793823
 20
220.6113334279644
 30
0.0
 11
354.8078134793823
 21
221.2113334279644
 31
0.0
  0
LINE
  5
372
330
1F
100
AcDbEntity
  8
GR2_01
 62
     5
370
    20
100
AcDbLine
 10
357.3478134793823
 20
221.2113334279644
 30
0.0
 11
357.3478134793823
 21
220.6113334279644
 31
0.0
  0
LINE
  5
373
330
1F
100
AcDbEntity
  8
GR2_01
 62
     5
370
    20
100
AcDbLine
 10
357.3478134793824
 20
219.2113334279644
 30
0.0
 11
356.5478134793823
 21
219.2113334279644
 31
0.0
  0
LINE
  5
374
330
1F
100
AcDbEntity
  8
GR2_01
 62
     5
370
    20
100
AcDbLine
 10
356.5478134793823
 20
219.2113334279644
 30
0.0
 11
356.5478134793823
 21
219.8113334279644
 31
0.0
  0
LINE
  5
375
330
1F
100
AcDbEntity
  8
GR2_01
 62
     5
370
    20
100
AcDbLine
 10
356.5478134793823
 20
221.2113334279644
 30
0.0
 11
357.3478134793824
 21
221.2113334279644
 31
0.0
  0
LINE
  5
376
330
1F
100
AcDbEntity
  8
GR2_01
 62
     5
370
    20
100
AcDbLine
 10
355.9278134793823
 20
220.6113334279644
 30
0.0
 11
355.9278134793823
 21
219.8113334279644
 31
0.0
  0
LINE
  5
377
330
1F
100
AcDbEntity
  8
GR2_01
 62
     5
370
    20
100
AcDbLine
 10
357.9678134793823
 20
220.6113334279644
 30
0.0
 11
357.9678134793823
 21
219.8113334279644
 31
0.0
  0
LINE
  5
378
330
1F
100
AcDbEntity
  8
GR2_01
 62
     5
370
    20
100
AcDbLine
 10
357.9678134793823
 20
219.8113334279644
 30
0.0
 11
355.9278134793823
 21
219.8113334279644
 31
0.0
  0
LINE
  5
379
330
1F
100
AcDbEntity
  8
GR2_01
 62
     5
370
    20
100
AcDbLine
 10
357.9678134793823
 20
220.6113334279644
 30
0.0
 11
355.9278134793823
 21
220.6113334279644
 31
0.0
  0
LINE
  5
37A
330
1F
100
AcDbEntity
  8
GR2_01
 62
     5
370
    20
100
AcDbLine
 10
357.3478134793823
 20
219.8113334279644
 30
0.0
 11
357.3478134793823
 21
219.2113334279644
 31
0.0
  0
LINE
  5
37B
330
1F
100
AcDbEntity
  8
GR2_01
 62
     5
370
    20
100
AcDbLine
 10
356.5478134793823
 20
220.6113334279644
 30
0.0
 11
356.5478134793823
 21
221.2113334279644
 31
0.0
  0
LINE
  5
37C
330
1F
100
AcDbEntity
  8
GR2_01
 62
     5
370
    20
100
AcDbLine
 10
354.0078134793823
 20
218.6713334279645
 30
0.0
 11
354.0078134793823
 21
218.0713334279644
 31
0.0
  0
LINE
  5
37D
330
1F
100
AcDbEntity
  8
GR2_01
 62
     5
370
    20
100
AcDbLine
 10
354.0078134793823
 20
216.6713334279645
 30
0.0
 11
354.8078134793823
 21
216.6713334279645
 31
0.0
  0
LINE
  5
37E
330
1F
100
AcDbEntity
  8
GR2_01
 62
     5
370
    20
100
AcDbLine
 10
354.8078134793823
 20
216.6713334279645
 30
0.0
 11
354.8078134793823
 21
217.2713334279645
 31
0.0
  0
LINE
  5
37F
330
1F
100
AcDbEntity
  8
GR2_01
 62
     5
370
    20
100
AcDbLine
 10
354.8078134793823
 20
218.6713334279645
 30
0.0
 11
354.0078134793823
 21
218.6713334279645
 31
0.0
  0
LINE
  5
380
330
1F
100
AcDbEntity
  8
GR2_01
 62
     5
370
    20
100
AcDbLine
 10
355.4278134793823
 20
218.0713334279644
 30
0.0
 11
355.4278134793823
 21
217.2713334279645
 31
0.0
  0
LINE
  5
381
330
1F
100
AcDbEntity
  8
GR2_01
 62
     5
370
    20
100
AcDbLine
 10
353.3878134793823
 20
218.0713334279644
 30
0.0
 11
353.3878134793823
 21
217.2713334279645
 31
0.0
  0
LINE
  5
382
330
1F
100
AcDbEntity
  8
GR2_01
 62
     5
370
    20
100
AcDbLine
 10
353.3878134793823
 20
217.2713334279645
 30
0.0
 11
355.4278134793823
 21
217.2713334279645
 31
0.0
  0
LINE
  5
383
330
1F
100
AcDbEntity
  8
GR2_01
 62
     5
370
    20
100
AcDbLine
 10
353.3878134793823
 20
218.0713334279644
 30
0.0
 11
355.4278134793823
 21
218.0713334279644
 31
0.0
  0
LINE
  5
384
330
1F
100
AcDbEntity
  8
GR2_01
 62
     5
370
    20
100
AcDbLine
 10
354.0078134793823
 20
217.2713334279645
 30
0.0
 11
354.0078134793823
 21
216.6713334279645
 31
0.0
  0
LINE
  5
385
330
1F
100
AcDbEntity
  8
GR2_01
 62
     5
370
    20
100
AcDbLine
 10
354.8078134793823
 20
218.0713334279644
 30
0.0
 11
354.8078134793823
 21
218.6713334279645
 31
0.0
  0
LINE
  5
386
330
1F
100
AcDbEntity
  8
GR2_01
 62
     5
370
    20
100
AcDbLine
 10
357.3478134793823
 20
218.6713334279645
 30
0.0
 11
357.3478134793823
 21
218.0713334279644
 31
0.0
  0
LINE
  5
387
330
1F
100
AcDbEntity
  8
GR2_01
 62
     5
370
    20
100
AcDbLine
 10
357.3478134793824
 20
216.6713334279645
 30
0.0
 11
356.5478134793823
 21
216.6713334279645
 31
0.0
  0
LINE
  5
388
330
1F
100
AcDbEntity
  8
GR2_01
 62
     5
370
    20
100
AcDbLine
 10
356.5478134793823
 20
216.6713334279645
 30
0.0
 11
356.5478134793823
 21
217.2713334279645
 31
0.0
  0
LINE
  5
389
330
1F
100
AcDbEntity
  8
GR2_01
 62
     5
370
    20
100
AcDbLine
 10
356.5478134793823
 20
218.6713334279645
 30
0.0
 11
357.3478134793824
 21
218.6713334279645
 31
0.0
  0
LINE
  5
38A
330
1F
100
AcDbEntity
  8
GR2_01
 62
     5
370
    20
100
AcDbLine
 10
355.9278134793823
 20
218.0713334279644
 30
0.0
 11
355.9278134793823
 21
217.2713334279645
 31
0.0
  0
LINE
  5
38B
330
1F
100
AcDbEntity
  8
GR2_01
 62
     5
370
    20
100
AcDbLine
 10
357.9678134793823
 20
218.0713334279644
 30
0.0
 11
357.9678134793823
 21
217.2713334279645
 31
0.0
  0
LINE
  5
38C
330
1F
100
AcDbEntity
  8
GR2_01
 62
     5
370
    20
100
AcDbLine
 10
357.9678134793823
 20
217.2713334279645
 30
0.0
 11
355.9278134793823
 21
217.2713334279645
 31
0.0
  0
LINE
  5
38D
330
1F
100
AcDbEntity
  8
GR2_01
 62
     5
370
    20
100
AcDbLine
 10
357.9678134793823
 20
218.0713334279644
 30
0.0
 11
355.9278134793823
 21
218.0713334279644
 31
0.0
  0
LINE
  5
38E
330
1F
100
AcDbEntity
  8
GR2_01
 62
     5
370
    20
100
AcDbLine
 10
357.3478134793823
 20
217.2713334279645
 30
0.0
 11
357.3478134793823
 21
216.6713334279645
 31
0.0
  0
LINE
  5
38F
330
1F
100
AcDbEntity
  8
GR2_01
 62
     5
370
    20
100
AcDbLine
 10
356.5478134793823
 20
218.0713334279644
 30
0.0
 11
356.5478134793823
 21
218.6713334279645
 31
0.0
  0
LINE
  5
390
330
1F
100
AcDbEntity
  8
GR2_01
 62
     5
370
    20
100
AcDbLine
 10
354.0078134793823
 20
216.1313334279645
 30
0.0
 11
354.0078134793823
 21
215.5313334279645
 31
0.0
  0
LINE
  5
391
330
1F
100
AcDbEntity
  8
GR2_01
 62
     5
370
    20
100
AcDbLine
 10
354.0078134793823
 20
214.1313334279645
 30
0.0
 11
354.8078134793823
 21
214.1313334279645
 31
0.0
  0
LINE
  5
392
330
1F
100
AcDbEntity
  8
GR2_01
 62
     5
370
    20
100
AcDbLine
 10
354.8078134793823
 20
214.1313334279645
 30
0.0
 11
354.8078134793823
 21
214.7313334279645
 31
0.0
  0
LINE
  5
393
330
1F
100
AcDbEntity
  8
GR2_01
 62
     5
370
    20
100
AcDbLine
 10
354.8078134793823
 20
216.1313334279645
 30
0.0
 11
354.0078134793823
 21
216.1313334279645
 31
0.0
  0
LINE
  5
394
330
1F
100
AcDbEntity
  8
GR2_01
 62
     5
370
    20
100
AcDbLine
 10
355.4278134793823
 20
215.5313334279645
 30
0.0
 11
355.4278134793823
 21
214.7313334279645
 31
0.0
  0
LINE
  5
395
330
1F
100
AcDbEntity
  8
GR2_01
 62
     5
370
    20
100
AcDbLine
 10
353.3878134793823
 20
215.5313334279645
 30
0.0
 11
353.3878134793823
 21
214.7313334279645
 31
0.0
  0
LINE
  5
396
330
1F
100
AcDbEntity
  8
GR2_01
 62
     5
370
    20
100
AcDbLine
 10
353.3878134793823
 20
214.7313334279645
 30
0.0
 11
355.4278134793823
 21
214.7313334279645
 31
0.0
  0
LINE
  5
397
330
1F
100
AcDbEntity
  8
GR2_01
 62
     5
370
    20
100
AcDbLine
 10
353.3878134793823
 20
215.5313334279645
 30
0.0
 11
355.4278134793823
 21
215.5313334279645
 31
0.0
  0
LINE
  5
398
330
1F
100
AcDbEntity
  8
GR2_01
 62
     5
370
    20
100
AcDbLine
 10
354.0078134793823
 20
214.7313334279645
 30
0.0
 11
354.0078134793823
 21
214.1313334279645
 31
0.0
  0
LINE
  5
399
330
1F
100
AcDbEntity
  8
GR2_01
 62
     5
370
    20
100
AcDbLine
 10
354.8078134793823
 20
215.5313334279645
 30
0.0
 11
354.8078134793823
 21
216.1313334279645
 31
0.0
  0
LINE
  5
39A
330
1F
100
AcDbEntity
  8
GR2_01
 62
     5
370
    20
100
AcDbLine
 10
357.3478134793823
 20
216.1313334279645
 30
0.0
 11
357.3478134793823
 21
215.5313334279645
 31
0.0
  0
LINE
  5
39B
330
1F
100
AcDbEntity
  8
GR2_01
 62
     5
370
    20
100
AcDbLine
 10
357.3478134793824
 20
214.1313334279645
 30
0.0
 11
356.5478134793823
 21
214.1313334279645
 31
0.0
  0
LINE
  5
39C
330
1F
100
AcDbEntity
  8
GR2_01
 62
     5
370
    20
100
AcDbLine
 10
356.5478134793823
 20
214.1313334279645
 30
0.0
 11
356.5478134793823
 21
214.7313334279645
 31
0.0
  0
LINE
  5
39D
330
1F
100
AcDbEntity
  8
GR2_01
 62
     5
370
    20
100
AcDbLine
 10
356.5478134793823
 20
216.1313334279645
 30
0.0
 11
357.3478134793824
 21
216.1313334279645
 31
0.0
  0
LINE
  5
39E
330
1F
100
AcDbEntity
  8
GR2_01
 62
     5
370
    20
100
AcDbLine
 10
355.9278134793823
 20
215.5313334279645
 30
0.0
 11
355.9278134793823
 21
214.7313334279645
 31
0.0
  0
LINE
  5
39F
330
1F
100
AcDbEntity
  8
GR2_01
 62
     5
370
    20
100
AcDbLine
 10
357.9678134793823
 20
215.5313334279645
 30
0.0
 11
357.9678134793823
 21
214.7313334279645
 31
0.0
  0
LINE
  5
3A0
330
1F
100
AcDbEntity
  8
GR2_01
 62
     5
370
    20
100
AcDbLine
 10
357.9678134793823
 20
214.7313334279645
 30
0.0
 11
355.9278134793823
 21
214.7313334279645
 31
0.0
  0
LINE
  5
3A1
330
1F
100
AcDbEntity
  8
GR2_01
 62
     5
370
    20
100
AcDbLine
 10
357.9678134793823
 20
215.5313334279645
 30
0.0
 11
355.9278134793823
 21
215.5313334279645
 31
0.0
  0
LINE
  5
3A2
330
1F
100
AcDbEntity
  8
GR2_01
 62
     5
370
    20
100
AcDbLine
 10
357.3478134793823
 20
214.7313334279645
 30
0.0
 11
357.3478134793823
 21
214.1313334279645
 31
0.0
  0
LINE
  5
3A3
330
1F
100
AcDbEntity
  8
GR2_01
 62
     5
370
    20
100
AcDbLine
 10
356.5478134793823
 20
215.5313334279645
 30
0.0
 11
356.5478134793823
 21
216.1313334279645
 31
0.0
  0
LINE
  5
3A4
330
1F
100
AcDbEntity
  8
GR2_01
 62
     5
370
    20
100
AcDbLine
 10
354.0078134793823
 20
213.5913334279645
 30
0.0
 11
354.0078134793823
 21
212.9913334279645
 31
0.0
  0
LINE
  5
3A5
330
1F
100
AcDbEntity
  8
GR2_01
 62
     5
370
    20
100
AcDbLine
 10
354.0078134793823
 20
211.5913334279645
 30
0.0
 11
354.8078134793824
 21
211.5913334279645
 31
0.0
  0
LINE
  5
3A6
330
1F
100
AcDbEntity
  8
GR2_01
 62
     5
370
    20
100
AcDbLine
 10
354.8078134793824
 20
211.5913334279645
 30
0.0
 11
354.8078134793823
 21
212.1913334279646
 31
0.0
  0
LINE
  5
3A7
330
1F
100
AcDbEntity
  8
GR2_01
 62
     5
370
    20
100
AcDbLine
 10
354.8078134793823
 20
213.5913334279645
 30
0.0
 11
354.0078134793823
 21
213.5913334279645
 31
0.0
  0
LINE
  5
3A8
330
1F
100
AcDbEntity
  8
GR2_01
 62
     5
370
    20
100
AcDbLine
 10
355.4278134793823
 20
212.9913334279645
 30
0.0
 11
355.4278134793823
 21
212.1913334279646
 31
0.0
  0
LINE
  5
3A9
330
1F
100
AcDbEntity
  8
GR2_01
 62
     5
370
    20
100
AcDbLine
 10
353.3878134793823
 20
212.9913334279645
 30
0.0
 11
353.3878134793823
 21
212.1913334279646
 31
0.0
  0
LINE
  5
3AA
330
1F
100
AcDbEntity
  8
GR2_01
 62
     5
370
    20
100
AcDbLine
 10
353.3878134793823
 20
212.1913334279646
 30
0.0
 11
355.4278134793823
 21
212.1913334279646
 31
0.0
  0
LINE
  5
3AB
330
1F
100
AcDbEntity
  8
GR2_01
 62
     5
370
    20
100
AcDbLine
 10
353.3878134793823
 20
212.9913334279645
 30
0.0
 11
355.4278134793823
 21
212.9913334279645
 31
0.0
  0
LINE
  5
3AC
330
1F
100
AcDbEntity
  8
GR2_01
 62
     5
370
    20
100
AcDbLine
 10
354.0078134793823
 20
212.1913334279646
 30
0.0
 11
354.0078134793823
 21
211.5913334279645
 31
0.0
  0
LINE
  5
3AD
330
1F
100
AcDbEntity
  8
GR2_01
 62
     5
370
    20
100
AcDbLine
 10
354.8078134793823
 20
212.9913334279645
 30
0.0
 11
354.8078134793823
 21
213.5913334279645
 31
0.0
  0
LINE
  5
3AE
330
1F
100
AcDbEntity
  8
GR2_01
 62
     5
370
    20
100
AcDbLine
 10
357.3478134793823
 20
213.5913334279645
 30
0.0
 11
357.3478134793823
 21
212.9913334279645
 31
0.0
  0
LINE
  5
3AF
330
1F
100
AcDbEntity
  8
GR2_01
 62
     5
370
    20
100
AcDbLine
 10
357.3478134793824
 20
211.5913334279645
 30
0.0
 11
356.5478134793823
 21
211.5913334279645
 31
0.0
  0
LINE
  5
3B0
330
1F
100
AcDbEntity
  8
GR2_01
 62
     5
370
    20
100
AcDbLine
 10
356.5478134793823
 20
211.5913334279645
 30
0.0
 11
356.5478134793823
 21
212.1913334279646
 31
0.0
  0
LINE
  5
3B1
330
1F
100
AcDbEntity
  8
GR2_01
 62
     5
370
    20
100
AcDbLine
 10
356.5478134793823
 20
213.5913334279645
 30
0.0
 11
357.3478134793824
 21
213.5913334279645
 31
0.0
  0
LINE
  5
3B2
330
1F
100
AcDbEntity
  8
GR2_01
 62
     5
370
    20
100
AcDbLine
 10
355.9278134793823
 20
212.9913334279645
 30
0.0
 11
355.9278134793823
 21
212.1913334279646
 31
0.0
  0
LINE
  5
3B3
330
1F
100
AcDbEntity
  8
GR2_01
 62
     5
370
    20
100
AcDbLine
 10
357.9678134793823
 20
212.9913334279645
 30
0.0
 11
357.9678134793823
 21
212.1913334279646
 31
0.0
  0
LINE
  5
3B4
330
1F
100
AcDbEntity
  8
GR2_01
 62
     5
370
    20
100
AcDbLine
 10
357.9678134793823
 20
212.1913334279646
 30
0.0
 11
355.9278134793823
 21
212.1913334279646
 31
0.0
  0
LINE
  5
3B5
330
1F
100
AcDbEntity
  8
GR2_01
 62
     5
370
    20
100
AcDbLine
 10
357.9678134793823
 20
212.9913334279645
 30
0.0
 11
355.9278134793823
 21
212.9913334279645
 31
0.0
  0
LINE
  5
3B6
330
1F
100
AcDbEntity
  8
GR2_01
 62
     5
370
    20
100
AcDbLine
 10
357.3478134793823
 20
212.1913334279646
 30
0.0
 11
357.3478134793823
 21
211.5913334279645
 31
0.0
  0
LINE
  5
3B7
330
1F
100
AcDbEntity
  8
GR2_01
 62
     5
370
    20
100
AcDbLine
 10
356.5478134793823
 20
212.9913334279645
 30
0.0
 11
356.5478134793823
 21
213.5913334279645
 31
0.0
  0
LINE
  5
3B8
330
1F
100
AcDbEntity
  8
GR2_01
 62
     5
370
    20
100
AcDbLine
 10
354.0078134793824
 20
211.0513334279646
 30
0.0
 11
354.0078134793824
 21
210.4513334279646
 31
0.0
  0
LINE
  5
3B9
330
1F
100
AcDbEntity
  8
GR2_01
 62
     5
370
    20
100
AcDbLine
 10
354.0078134793824
 20
209.0513334279646
 30
0.0
 11
354.8078134793824
 21
209.0513334279646
 31
0.0
  0
LINE
  5
3BA
330
1F
100
AcDbEntity
  8
GR2_01
 62
     5
370
    20
100
AcDbLine
 10
354.8078134793824
 20
209.0513334279646
 30
0.0
 11
354.8078134793824
 21
209.6513334279647
 31
0.0
  0
LINE
  5
3BB
330
1F
100
AcDbEntity
  8
GR2_01
 62
     5
370
    20
100
AcDbLine
 10
354.8078134793824
 20
211.0513334279646
 30
0.0
 11
354.0078134793824
 21
211.0513334279646
 31
0.0
  0
LINE
  5
3BC
330
1F
100
AcDbEntity
  8
GR2_01
 62
     5
370
    20
100
AcDbLine
 10
355.4278134793825
 20
210.4513334279646
 30
0.0
 11
355.4278134793825
 21
209.6513334279647
 31
0.0
  0
LINE
  5
3BD
330
1F
100
AcDbEntity
  8
GR2_01
 62
     5
370
    20
100
AcDbLine
 10
353.3878134793824
 20
210.4513334279646
 30
0.0
 11
353.3878134793824
 21
209.6513334279647
 31
0.0
  0
LINE
  5
3BE
330
1F
100
AcDbEntity
  8
GR2_01
 62
     5
370
    20
100
AcDbLine
 10
353.3878134793824
 20
209.6513334279647
 30
0.0
 11
355.4278134793825
 21
209.6513334279647
 31
0.0
  0
LINE
  5
3BF
330
1F
100
AcDbEntity
  8
GR2_01
 62
     5
370
    20
100
AcDbLine
 10
353.3878134793824
 20
210.4513334279646
 30
0.0
 11
355.4278134793825
 21
210.4513334279646
 31
0.0
  0
LINE
  5
3C0
330
1F
100
AcDbEntity
  8
GR2_01
 62
     5
370
    20
100
AcDbLine
 10
354.0078134793824
 20
209.6513334279647
 30
0.0
 11
354.0078134793824
 21
209.0513334279646
 31
0.0
  0
LINE
  5
3C1
330
1F
100
AcDbEntity
  8
GR2_01
 62
     5
370
    20
100
AcDbLine
 10
354.8078134793824
 20
210.4513334279646
 30
0.0
 11
354.8078134793824
 21
211.0513334279646
 31
0.0
  0
LINE
  5
3C2
330
1F
100
AcDbEntity
  8
GR2_01
 62
     5
370
    20
100
AcDbLine
 10
357.3478134793824
 20
211.0513334279646
 30
0.0
 11
357.3478134793824
 21
210.4513334279646
 31
0.0
  0
LINE
  5
3C3
330
1F
100
AcDbEntity
  8
GR2_01
 62
     5
370
    20
100
AcDbLine
 10
357.3478134793825
 20
209.0513334279646
 30
0.0
 11
356.5478134793825
 21
209.0513334279646
 31
0.0
  0
LINE
  5
3C4
330
1F
100
AcDbEntity
  8
GR2_01
 62
     5
370
    20
100
AcDbLine
 10
356.5478134793825
 20
209.0513334279646
 30
0.0
 11
356.5478134793825
 21
209.6513334279647
 31
0.0
  0
LINE
  5
3C5
330
1F
100
AcDbEntity
  8
GR2_01
 62
     5
370
    20
100
AcDbLine
 10
356.5478134793825
 20
211.0513334279646
 30
0.0
 11
357.3478134793825
 21
211.0513334279646
 31
0.0
  0
LINE
  5
3C6
330
1F
100
AcDbEntity
  8
GR2_01
 62
     5
370
    20
100
AcDbLine
 10
355.9278134793825
 20
210.4513334279646
 30
0.0
 11
355.9278134793825
 21
209.6513334279647
 31
0.0
  0
LINE
  5
3C7
330
1F
100
AcDbEntity
  8
GR2_01
 62
     5
370
    20
100
AcDbLine
 10
357.9678134793824
 20
210.4513334279646
 30
0.0
 11
357.9678134793824
 21
209.6513334279647
 31
0.0
  0
LINE
  5
3C8
330
1F
100
AcDbEntity
  8
GR2_01
 62
     5
370
    20
100
AcDbLine
 10
357.9678134793824
 20
209.6513334279647
 30
0.0
 11
355.9278134793825
 21
209.6513334279647
 31
0.0
  0
LINE
  5
3C9
330
1F
100
AcDbEntity
  8
GR2_01
 62
     5
370
    20
100
AcDbLine
 10
357.9678134793824
 20
210.4513334279646
 30
0.0
 11
355.9278134793825
 21
210.4513334279646
 31
0.0
  0
LINE
  5
3CA
330
1F
100
AcDbEntity
  8
GR2_01
 62
     5
370
    20
100
AcDbLine
 10
357.3478134793824
 20
209.6513334279647
 30
0.0
 11
357.3478134793824
 21
209.0513334279646
 31
0.0
  0
LINE
  5
3CB
330
1F
100
AcDbEntity
  8
GR2_01
 62
     5
370
    20
100
AcDbLine
 10
356.5478134793825
 20
210.4513334279646
 30
0.0
 11
356.5478134793825
 21
211.0513334279646
 31
0.0
  0
ENDSEC
  0
SECTION
  2
OBJECTS
  0
DICTIONARY
  5
C
330
0
100
AcDbDictionary
281
     1
  3
ACAD_GROUP
350
D
  3
ACAD_LAYOUT
350
1A
  3
ACAD_MATERIAL
350
43
  3
ACAD_MLEADERSTYLE
350
3CE
  3
ACAD_MLINESTYLE
350
17
  3
ACAD_PLOTSETTINGS
350
19
  3
ACAD_PLOTSTYLENAME
350
E
  3
ACAD_SCALELIST
350
47
  3
ACAD_VISUALSTYLE
350
2A
  3
AcDbVariableDictionary
350
3CC
  0
DICTIONARY
  5
D
102
{ACAD_REACTORS
330
C
102
}
330
C
100
AcDbDictionary
281
     1
  0
DICTIONARY
  5
1A
102
{ACAD_REACTORS
330
C
102
}
330
C
100
AcDbDictionary
281
     1
  3
Layout1
350
1E
  3
Layout2
350
26
  3
Model
350
22
  0
DICTIONARY
  5
43
102
{ACAD_REACTORS
330
C
102
}
330
C
100
AcDbDictionary
281
     1
  3
ByBlock
350
45
  3
ByLayer
350
44
  3
Global
350
46
  0
DICTIONARY
  5
3CE
102
{ACAD_REACTORS
330
C
102
}
330
C
100
AcDbDictionary
281
     1
  0
DICTIONARY
  5
17
102
{ACAD_REACTORS
330
C
102
}
330
C
100
AcDbDictionary
281
     1
  3
Standard
350
18
  0
DICTIONARY
  5
19
102
{ACAD_REACTORS
330
C
102
}
330
C
100
AcDbDictionary
281
     1
  0
ACDBDICTIONARYWDFLT
  5
E
102
{ACAD_REACTORS
330
C
102
}
330
C
100
AcDbDictionary
281
     1
  3
Normal
350
F
100
AcDbDictionaryWithDefault
340
F
  0
DICTIONARY
  5
47
102
{ACAD_REACTORS
330
C
102
}
330
C
100
AcDbDictionary
281
     1
  3
A0
350
48
  3
A1
350
49
  3
A2
350
4A
  3
A3
350
4B
  3
A4
350
4C
  3
A5
350
4D
  3
A6
350
4E
  3
A7
350
4F
  3
A8
350
50
  3
A9
350
51
  3
B0
350
52
  3
B1
350
53
  3
B2
350
54
  3
B3
350
55
  3
B4
350
56
  3
B5
350
57
  3
B6
350
58
  3
B7
350
59
  3
B8
350
5A
  3
B9
350
5B
  3
C0
350
5C
  3
C1
350
5D
  3
C2
350
5E
  3
C3
350
5F
  3
C4
350
60
  3
C5
350
61
  3
C6
350
62
  3
C7
350
63
  3
C8
350
64
  3
C9
350
65
  3
D0
350
66
  3
D1
350
67
  3
D2
350
68
  0
DICTIONARY
  5
2A
102
{ACAD_REACTORS
330
C
102
}
330
C
100
AcDbDictionary
281
     1
  3
2dWireframe
350
2F
  3
Basic
350
32
  3
Brighten
350
36
  3
ColorChange
350
3A
  3
Conceptual
350
34
  3
Dim
350
35
  3
EdgeColorOff
350
3D
  3
Facepattern
350
39
  3
Flat
350
2B
  3
FlatWithEdges
350
2C
  3
Gouraud
350
2D
  3
GouraudWithEdges
350
2E
  3
Hidden
350
31
  3
JitterOff
350
3B
  3
Linepattern
350
38
  3
OverhangOff
350
3C
  3
Realistic
350
33
  3
Shaded
350
42
  3
Shaded with edges
350
41
  3
Shades of Gray
350
3E
  3
Sketchy
350
3F
  3
Thicken
350
37
  3
Wireframe
350
30
  3
X-Ray
350
40
  0
DICTIONARY
  5
3CC
102
{ACAD_REACTORS
330
C
102
}
330
C
100
AcDbDictionary
281
     1
  3
CANNOSCALE
350
3D5
  3
DIMASSOC
350
3D3
  3
HIDETEXT
350
3D4
  3
MSLTSCALE
350
3D6
  3
PSOLHEIGHT
350
3D0
  3
PSOLWIDTH
350
3CF
  0
LAYOUT
  5
1E
102
{ACAD_REACTORS
330
1A
102
}
330
1A
100
AcDbPlotSettings
  1

  2
none_device
  4

  6

 40
0.0
 41
0.0
 42
0.0
 43
0.0
 44
0.0
 45
0.0
 46
0.0
 47
0.0
 48
0.0
 49
0.0
140
0.0
141
0.0
142
1.0
143
1.0
 70
   688
 72
     1
 73
     0
 74
     5
  7

 75
    16
147
1.0
148
0.0
149
0.0
100
AcDbLayout
  1
Layout1
 70
     1
 71
     1
 10
0.0
 20
0.0
 11
420.0
 21
297.0
 12
0.0
 22
0.0
 32
0.0
 14
1.000000000000000E+20
 24
1.000000000000000E+20
 34
1.000000000000000E+20
 15
-1.000000000000000E+20
 25
-1.000000000000000E+20
 35
-1.000000000000000E+20
146
0.0
 13
0.0
 23
0.0
 33
0.0
 16
1.0
 26
0.0
 36
0.0
 17
0.0
 27
1.0
 37
0.0
 76
     0
330
1B
  0
LAYOUT
  5
26
102
{ACAD_REACTORS
330
1A
102
}
330
1A
100
AcDbPlotSettings
  1

  2
none_device
  4

  6

 40
0.0
 41
0.0
 42
0.0
 43
0.0
 44
0.0
 45
0.0
 46
0.0
 47
0.0
 48
0.0
 49
0.0
140
0.0
141
0.0
142
1.0
143
1.0
 70
   688
 72
     1
 73
     0
 74
     5
  7

 75
    16
147
1.0
148
0.0
149
0.0
100
AcDbLayout
  1
Layout2
 70
     1
 71
     2
 10
0.0
 20
0.0
 11
0.0
 21
0.0
 12
0.0
 22
0.0
 32
0.0
 14
0.0
 24
0.0
 34
0.0
 15
0.0
 25
0.0
 35
0.0
146
0.0
 13
0.0
 23
0.0
 33
0.0
 16
1.0
 26
0.0
 36
0.0
 17
0.0
 27
1.0
 37
0.0
 76
     0
330
23
  0
LAYOUT
  5
22
102
{ACAD_REACTORS
330
1A
102
}
330
1A
100
AcDbPlotSettings
  1

  2
none_device
  4
Letter_(8.50_x_11.00_Inches)
  6

 40
6.35
 41
6.35
 42
6.35000508
 43
6.35000508
 44
215.9
 45
279.4
 46
0.0
 47
0.0
 48
0.0
 49
0.0
140
0.0
141
0.0
142
1.0
143
1.0
 70
  1712
 72
     1
 73
     0
 74
     0
  7

 75
     0
147
1.0
148
0.0
149
0.0
100
AcDbLayout
  1
Model
 70
     1
 71
     0
 10
0.0
 20
0.0
 11
420.0
 21
297.0
 12
0.0
 22
0.0
 32
0.0
 14
0.0
 24
0.0
 34
0.0
 15
420.0
 25
297.0
 35
0.0
146
0.0
 13
0.0
 23
0.0
 33
0.0
 16
1.0
 26
0.0
 36
0.0
 17
0.0
 27
1.0
 37
0.0
 76
     0
330
1F
331
29
  0
MATERIAL
  5
45
102
{ACAD_REACTORS
330
43
102
}
102
{ACAD_XDICTIONARY
360
409
102
}
330
43
100
AcDbMaterial
  1
ByBlock
  0
MATERIAL
  5
44
102
{ACAD_REACTORS
330
43
102
}
102
{ACAD_XDICTIONARY
360
407
102
}
330
43
100
AcDbMaterial
  1
ByLayer
  0
MATERIAL
  5
46
102
{ACAD_REACTORS
330
43
102
}
102
{ACAD_XDICTIONARY
360
40B
102
}
330
43
100
AcDbMaterial
  1
Global
  0
MLINESTYLE
  5
18
102
{ACAD_REACTORS
330
17
102
}
330
17
100
AcDbMlineStyle
  2
Standard
 70
     0
  3

 62
   256
 51
90.0
 52
90.0
 71
     2
 49
0.5
 62
   256
  6
BYLAYER
 49
-0.5
 62
   256
  6
BYLAYER
  0
ACDBPLACEHOLDER
  5
F
102
{ACAD_REACTORS
330
E
102
}
330
E
  0
SCALE
  5
48
102
{ACAD_REACTORS
330
47
102
}
330
47
100
AcDbScale
 70
     0
300
1:1
140
1.0
141
1.0
290
     1
  0
SCALE
  5
49
102
{ACAD_REACTORS
330
47
102
}
330
47
100
AcDbScale
 70
     0
300
1:2
140
1.0
141
2.0
290
     0
  0
SCALE
  5
4A
102
{ACAD_REACTORS
330
47
102
}
330
47
100
AcDbScale
 70
     0
300
1:4
140
1.0
141
4.0
290
     0
  0
SCALE
  5
4B
102
{ACAD_REACTORS
330
47
102
}
330
47
100
AcDbScale
 70
     0
300
1:5
140
1.0
141
5.0
290
     0
  0
SCALE
  5
4C
102
{ACAD_REACTORS
330
47
102
}
330
47
100
AcDbScale
 70
     0
300
1:8
140
1.0
141
8.0
290
     0
  0
SCALE
  5
4D
102
{ACAD_REACTORS
330
47
102
}
330
47
100
AcDbScale
 70
     0
300
1:10
140
1.0
141
10.0
290
     0
  0
SCALE
  5
4E
102
{ACAD_REACTORS
330
47
102
}
330
47
100
AcDbScale
 70
     0
300
1:16
140
1.0
141
16.0
290
     0
  0
SCALE
  5
4F
102
{ACAD_REACTORS
330
47
102
}
330
47
100
AcDbScale
 70
     0
300
1:20
140
1.0
141
20.0
290
     0
  0
SCALE
  5
50
102
{ACAD_REACTORS
330
47
102
}
330
47
100
AcDbScale
 70
     0
300
1:30
140
1.0
141
30.0
290
     0
  0
SCALE
  5
51
102
{ACAD_REACTORS
330
47
102
}
330
47
100
AcDbScale
 70
     0
300
1:40
140
1.0
141
40.0
290
     0
  0
SCALE
  5
52
102
{ACAD_REACTORS
330
47
102
}
330
47
100
AcDbScale
 70
     0
300
1:50
140
1.0
141
50.0
290
     0
  0
SCALE
  5
53
102
{ACAD_REACTORS
330
47
102
}
330
47
100
AcDbScale
 70
     0
300
1:100
140
1.0
141
100.0
290
     0
  0
SCALE
  5
54
102
{ACAD_REACTORS
330
47
102
}
330
47
100
AcDbScale
 70
     0
300
2:1
140
2.0
141
1.0
290
     0
  0
SCALE
  5
55
102
{ACAD_REACTORS
330
47
102
}
330
47
100
AcDbScale
 70
     0
300
4:1
140
4.0
141
1.0
290
     0
  0
SCALE
  5
56
102
{ACAD_REACTORS
330
47
102
}
330
47
100
AcDbScale
 70
     0
300
8:1
140
8.0
141
1.0
290
     0
  0
SCALE
  5
57
102
{ACAD_REACTORS
330
47
102
}
330
47
100
AcDbScale
 70
     0
300
10:1
140
10.0
141
1.0
290
     0
  0
SCALE
  5
58
102
{ACAD_REACTORS
330
47
102
}
330
47
100
AcDbScale
 70
     0
300
100:1
140
100.0
141
1.0
290
     0
  0
SCALE
  5
59
102
{ACAD_REACTORS
330
47
102
}
330
47
100
AcDbScale
 70
     0
300
1/128" = 1'-0"
140
0.0078125
141
12.0
290
     0
  0
SCALE
  5
5A
102
{ACAD_REACTORS
330
47
102
}
330
47
100
AcDbScale
 70
     0
300
1/64" = 1'-0"
140
0.015625
141
12.0
290
     0
  0
SCALE
  5
5B
102
{ACAD_REACTORS
330
47
102
}
330
47
100
AcDbScale
 70
     0
300
1/32" = 1'-0"
140
0.03125
141
12.0
290
     0
  0
SCALE
  5
5C
102
{ACAD_REACTORS
330
47
102
}
330
47
100
AcDbScale
 70
     0
300
1/16" = 1'-0"
140
0.0625
141
12.0
290
     0
  0
SCALE
  5
5D
102
{ACAD_REACTORS
330
47
102
}
330
47
100
AcDbScale
 70
     0
300
3/32" = 1'-0"
140
0.09375
141
12.0
290
     0
  0
SCALE
  5
5E
102
{ACAD_REACTORS
330
47
102
}
330
47
100
AcDbScale
 70
     0
300
1/8" = 1'-0"
140
0.125
141
12.0
290
     0
  0
SCALE
  5
5F
102
{ACAD_REACTORS
330
47
102
}
330
47
100
AcDbScale
 70
     0
300
3/16" = 1'-0"
140
0.1875
141
12.0
290
     0
  0
SCALE
  5
60
102
{ACAD_REACTORS
330
47
102
}
330
47
100
AcDbScale
 70
     0
300
1/4" = 1'-0"
140
0.25
141
12.0
290
     0
  0
SCALE
  5
61
102
{ACAD_REACTORS
330
47
102
}
330
47
100
AcDbScale
 70
     0
300
3/8" = 1'-0"
140
0.375
141
12.0
290
     0
  0
SCALE
  5
62
102
{ACAD_REACTORS
330
47
102
}
330
47
100
AcDbScale
 70
     0
300
1/2" = 1'-0"
140
0.5
141
12.0
290
     0
  0
SCALE
  5
63
102
{ACAD_REACTORS
330
47
102
}
330
47
100
AcDbScale
 70
     0
300
3/4" = 1'-0"
140
0.75
141
12.0
290
     0
  0
SCALE
  5
64
102
{ACAD_REACTORS
330
47
102
}
330
47
100
AcDbScale
 70
     0
300
1" = 1'-0"
140
1.0
141
12.0
290
     0
  0
SCALE
  5
65
102
{ACAD_REACTORS
330
47
102
}
330
47
100
AcDbScale
 70
     0
300
1-1/2" = 1'-0"
140
1.5
141
12.0
290
     0
  0
SCALE
  5
66
102
{ACAD_REACTORS
330
47
102
}
330
47
100
AcDbScale
 70
     0
300
3" = 1'-0"
140
3.0
141
12.0
290
     0
  0
SCALE
  5
67
102
{ACAD_REACTORS
330
47
102
}
330
47
100
AcDbScale
 70
     0
300
6" = 1'-0"
140
6.0
141
12.0
290
     0
  0
SCALE
  5
68
102
{ACAD_REACTORS
330
47
102
}
330
47
100
AcDbScale
 70
     0
300
1'-0" = 1'-0"
140
12.0
141
12.0
290
     0
  0
VISUALSTYLE
  5
2F
102
{ACAD_REACTORS
330
2A
102
}
102
{ACAD_XDICTIONARY
360
3DF
102
}
330
2A
100
AcDbVisualStyle
  2
2dWireframe
 70
     4
 71
     0
 72
     2
 73
     0
 90
        0
 40
0.6
 41
30.0
 62
     5
 63
     7
 74
     1
 91
        4
 64
     7
 65
   257
 75
     1
175
     1
 42
1.0
 92
        0
 66
   257
 43
1.0
 76
     1
 77
     6
 78
     2
 67
     7
 79
     5
170
     0
171
     0
290
     0
174
     0
 93
        1
 44
0.0
173
     0
291
     0
 45
0.0
1001
ACAD
1000
AcDbSavedByObjectVersion
1070
     0
  0
VISUALSTYLE
  5
32
102
{ACAD_REACTORS
330
2A
102
}
102
{ACAD_XDICTIONARY
360
3E5
102
}
330
2A
100
AcDbVisualStyle
  2
Basic
 70
     7
 71
     1
 72
     0
 73
     1
 90
        0
 40
0.6
 41
30.0
 62
     5
 63
     7
 74
     0
 91
        4
 64
     7
 65
   257
 75
     1
175
     1
 42
1.0
 92
        8
 66
     7
 43
1.0
 76
     1
 77
     6
 78
     2
 67
     7
 79
     5
170
     0
171
     0
290
     0
174
     0
 93
        1
 44
0.0
173
     0
291
     1
 45
0.0
1001
ACAD
1000
AcDbSavedByObjectVersion
1070
     0
  0
VISUALSTYLE
  5
36
102
{ACAD_REACTORS
330
2A
102
}
102
{ACAD_XDICTIONARY
360
3ED
102
}
330
2A
100
AcDbVisualStyle
  2
Brighten
 70
    12
 71
     2
 72
     2
 73
     0
 90
        0
 40
0.6
 41
30.0
 62
     5
 63
     7
 74
     1
 91
        4
 64
     7
 65
   257
 75
     1
175
     1
 42
1.0
 92
        8
 66
     7
 43
1.0
 76
     1
 77
     6
 78
     2
 67
     7
 79
     5
170
     0
171
     0
290
     0
174
     0
 93
        1
 44
50.0
173
     0
291
     1
 45
0.0
1001
ACAD
1000
AcDbSavedByObjectVersion
1070
     0
  0
VISUALSTYLE
  5
3A
102
{ACAD_REACTORS
330
2A
102
}
102
{ACAD_XDICTIONARY
360
3F5
102
}
330
2A
100
AcDbVisualStyle
  2
ColorChange
 70
    16
 71
     2
 72
     2
 73
     3
 90
        0
 40
0.6
 41
30.0
 62
     5
 63
     8
 74
     1
 91
        4
 64
     7
 65
   257
 75
     1
175
     1
 42
1.0
 92
        8
 66
     8
 43
1.0
 76
     1
 77
     6
 78
     2
 67
     7
 79
     5
170
     0
171
     0
290
     0
174
     0
 93
        1
 44
0.0
173
     0
291
     1
 45
0.0
1001
ACAD
1000
AcDbSavedByObjectVersion
1070
     0
  0
VISUALSTYLE
  5
34
102
{ACAD_REACTORS
330
2A
102
}
102
{ACAD_XDICTIONARY
360
3E9
102
}
330
2A
100
AcDbVisualStyle
  2
Conceptual
 70
     9
 71
     3
 72
     2
 73
     0
 90
        0
 40
0.6
 41
30.0
 62
     5
 63
     7
 74
     2
 91
        2
 64
     7
 65
   257
 75
     1
175
     1
 42
179.0
 92
        8
 66
     7
 43
1.0
 76
     1
 77
     6
 78
     2
 67
     7
 79
     3
170
     0
171
     0
290
     0
174
     0
 93
        1
 44
0.0
173
     0
291
     0
 45
0.0
1001
ACAD
1000
AcDbSavedByObjectVersion
1070
     0
  0
VISUALSTYLE
  5
35
102
{ACAD_REACTORS
330
2A
102
}
102
{ACAD_XDICTIONARY
360
3EB
102
}
330
2A
100
AcDbVisualStyle
  2
Dim
 70
    11
 71
     2
 72
     2
 73
     0
 90
        0
 40
0.6
 41
30.0
 62
     5
 63
     7
 74
     1
 91
        4
 64
     7
 65
   257
 75
     1
175
     1
 42
1.0
 92
        8
 66
     7
 43
1.0
 76
     1
 77
     6
 78
     2
 67
     7
 79
     5
170
     0
171
     0
290
     0
174
     0
 93
        1
 44
-50.0
173
     0
291
     1
 45
0.0
1001
ACAD
1000
AcDbSavedByObjectVersion
1070
     0
  0
VISUALSTYLE
  5
3D
102
{ACAD_REACTORS
330
2A
102
}
102
{ACAD_XDICTIONARY
360
3FB
102
}
330
2A
100
AcDbVisualStyle
  2
EdgeColorOff
 70
    22
 71
     2
 72
     2
 73
     0
 90
        0
 40
0.6
 41
30.0
 62
     5
 63
     7
 74
     1
 91
        4
 64
     7
 65
   257
 75
     1
175
     1
 42
1.0
 92
        8
 66
     7
 43
1.0
 76
     1
 77
     6
 78
     2
 67
     7
 79
     5
170
     0
171
     0
290
     0
174
     0
 93
        1
 44
0.0
173
     0
291
     1
 45
0.0
1001
ACAD
1000
AcDbSavedByObjectVersion
1070
     0
  0
VISUALSTYLE
  5
39
102
{ACAD_REACTORS
330
2A
102
}
102
{ACAD_XDICTIONARY
360
3F3
102
}
330
2A
100
AcDbVisualStyle
  2
Facepattern
 70
    15
 71
     2
 72
     2
 73
     0
 90
        0
 40
0.6
 41
30.0
 62
     5
 63
     7
 74
     1
 91
        4
 64
     7
 65
   257
 75
     1
175
     1
 42
1.0
 92
        8
 66
     7
 43
1.0
 76
     1
 77
     6
 78
     2
 67
     7
 79
     5
170
     0
171
     0
290
     0
174
     0
 93
        1
 44
0.0
173
     0
291
     1
 45
0.0
1001
ACAD
1000
AcDbSavedByObjectVersion
1070
     0
  0
VISUALSTYLE
  5
2B
102
{ACAD_REACTORS
330
2A
102
}
102
{ACAD_XDICTIONARY
360
3D7
102
}
330
2A
100
AcDbVisualStyle
  2
Flat
 70
     0
 71
     2
 72
     1
 73
     1
 90
        2
 40
0.6
 41
30.0
 62
     5
 63
     7
 74
     0
 91
        0
 64
     7
 65
   257
 75
     1
175
     1
 42
1.0
 92
        8
 66
     7
 43
1.0
 76
     1
 77
     6
 78
     2
 67
     7
 79
     5
170
     0
171
     0
290
     0
174
     0
 93
       13
 44
0.0
173
     0
291
     1
 45
0.0
1001
ACAD
1000
AcDbSavedByObjectVersion
1070
     0
  0
VISUALSTYLE
  5
2C
102
{ACAD_REACTORS
330
2A
102
}
102
{ACAD_XDICTIONARY
360
3D9
102
}
330
2A
100
AcDbVisualStyle
  2
FlatWithEdges
 70
     1
 71
     2
 72
     1
 73
     1
 90
        2
 40
0.6
 41
30.0
 62
     5
 63
     7
 74
     1
 91
        0
 64
     7
 65
   257
 75
     1
175
     1
 42
1.0
 92
        0
 66
   257
 43
1.0
 76
     1
 77
     6
 78
     2
 67
     7
 79
     5
170
     0
171
     0
290
     0
174
     0
 93
       13
 44
0.0
173
     0
291
     1
 45
0.0
1001
ACAD
1000
AcDbSavedByObjectVersion
1070
     0
  0
VISUALSTYLE
  5
2D
102
{ACAD_REACTORS
330
2A
102
}
102
{ACAD_XDICTIONARY
360
3DB
102
}
330
2A
100
AcDbVisualStyle
  2
Gouraud
 70
     2
 71
     2
 72
     2
 73
     1
 90
        2
 40
0.6
 41
30.0
 62
     5
 63
     7
 74
     0
 91
        0
 64
     7
 65
   257
 75
     1
175
     1
 42
1.0
 92
        0
 66
     7
 43
1.0
 76
     1
 77
     6
 78
     2
 67
     7
 79
     5
170
     0
171
     0
290
     0
174
     0
 93
       13
 44
0.0
173
     0
291
     1
 45
0.0
1001
ACAD
1000
AcDbSavedByObjectVersion
1070
     0
  0
VISUALSTYLE
  5
2E
102
{ACAD_REACTORS
330
2A
102
}
102
{ACAD_XDICTIONARY
360
3DD
102
}
330
2A
100
AcDbVisualStyle
  2
GouraudWithEdges
 70
     3
 71
     2
 72
     2
 73
     1
 90
        2
 40
0.6
 41
30.0
 62
     5
 63
     7
 74
     1
 91
        0
 64
     7
 65
   257
 75
     1
175
     1
 42
1.0
 92
        0
 66
   257
 43
1.0
 76
     1
 77
     6
 78
     2
 67
     7
 79
     5
170
     0
171
     0
290
     0
174
     0
 93
       13
 44
0.0
173
     0
291
     1
 45
0.0
1001
ACAD
1000
AcDbSavedByObjectVersion
1070
     0
  0
VISUALSTYLE
  5
31
102
{ACAD_REACTORS
330
2A
102
}
102
{ACAD_XDICTIONARY
360
3E3
102
}
330
2A
100
AcDbVisualStyle
  2
Hidden
 70
     6
 71
     1
 72
     2
 73
     2
 90
        0
 40
0.6
 41
30.0
 62
     5
 63
     7
 74
     2
 91
        2
 64
     7
 65
   257
 75
     2
175
     1
 42
40.0
 92
        0
 66
   257
 43
1.0
 76
     1
 77
     6
 78
     2
 67
     7
 79
     3
170
     0
171
     0
290
     0
174
     0
 93
        1
 44
0.0
173
     0
291
     0
 45
0.0
1001
ACAD
1000
AcDbSavedByObjectVersion
1070
     0
  0
VISUALSTYLE
  5
3B
102
{ACAD_REACTORS
330
2A
102
}
102
{ACAD_XDICTIONARY
360
3F7
102
}
330
2A
100
AcDbVisualStyle
  2
JitterOff
 70
    20
 71
     2
 72
     2
 73
     0
 90
        0
 40
0.6
 41
30.0
 62
     5
 63
     7
 74
     1
 91
        4
 64
     7
 65
   257
 75
     1
175
     1
 42
1.0
 92
       10
 66
     7
 43
1.0
 76
     1
 77
     6
 78
     2
 67
     7
 79
     5
170
     0
171
     0
290
     0
174
     0
 93
        1
 44
0.0
173
     0
291
     1
 45
0.0
1001
ACAD
1000
AcDbSavedByObjectVersion
1070
     0
  0
VISUALSTYLE
  5
38
102
{ACAD_REACTORS
330
2A
102
}
102
{ACAD_XDICTIONARY
360
3F1
102
}
330
2A
100
AcDbVisualStyle
  2
Linepattern
 70
    14
 71
     2
 72
     2
 73
     0
 90
        0
 40
0.6
 41
30.0
 62
     5
 63
     7
 74
     1
 91
        4
 64
     7
 65
   257
 75
     7
175
     7
 42
1.0
 92
        8
 66
     7
 43
1.0
 76
     1
 77
     6
 78
     2
 67
     7
 79
     5
170
     0
171
     0
290
     0
174
     0
 93
        1
 44
0.0
173
     0
291
     1
 45
0.0
1001
ACAD
1000
AcDbSavedByObjectVersion
1070
     0
  0
VISUALSTYLE
  5
3C
102
{ACAD_REACTORS
330
2A
102
}
102
{ACAD_XDICTIONARY
360
3F9
102
}
330
2A
100
AcDbVisualStyle
  2
OverhangOff
 70
    21
 71
     2
 72
     2
 73
     0
 90
        0
 40
0.6
 41
30.0
 62
     5
 63
     7
 74
     1
 91
        4
 64
     7
 65
   257
 75
     1
175
     1
 42
1.0
 92
        9
 66
     7
 43
1.0
 76
     1
 77
     6
 78
     2
 67
     7
 79
     5
170
     0
171
     0
290
     0
174
     0
 93
        1
 44
0.0
173
     0
291
     1
 45
0.0
1001
ACAD
1000
AcDbSavedByObjectVersion
1070
     0
  0
VISUALSTYLE
  5
33
102
{ACAD_REACTORS
330
2A
102
}
102
{ACAD_XDICTIONARY
360
3E7
102
}
330
2A
100
AcDbVisualStyle
  2
Realistic
 70
     8
 71
     2
 72
     3
 73
     0
 90
        2
 40
0.6
 41
30.0
 62
     5
 63
     7
 74
     0
 91
        0
 64
     7
 65
   257
 75
     1
175
     1
 42
1.0
 92
        8
 66
   257
 43
1.0
 76
     1
 77
     6
 78
     2
 67
     7
 79
     3
170
     0
171
     0
290
     0
174
     0
 93
       13
 44
0.0
173
     0
291
     0
 45
0.0
1001
ACAD
1000
AcDbSavedByObjectVersion
1070
     0
  0
VISUALSTYLE
  5
42
102
{ACAD_REACTORS
330
2A
102
}
102
{ACAD_XDICTIONARY
360
405
102
}
330
2A
100
AcDbVisualStyle
  2
Shaded
 70
    27
 71
     2
 72
     2
 73
     1
 90
        2
 40
0.6
 41
30.0
 62
     5
 63
     7
 74
     0
 91
        4
 64
     7
 65
   257
 75
     1
175
     1
 42
1.0
 92
        8
 66
   257
 43
1.0
 76
     1
 77
     6
 78
     2
 67
     8
 79
     3
170
     0
171
     0
290
     0
174
     0
 93
        5
 44
0.0
173
     0
291
     0
 45
0.0
1001
ACAD
1000
AcDbSavedByObjectVersion
1070
     0
  0
VISUALSTYLE
  5
41
102
{ACAD_REACTORS
330
2A
102
}
102
{ACAD_XDICTIONARY
360
403
102
}
330
2A
100
AcDbVisualStyle
  2
Shaded with edges
 70
    26
 71
     2
 72
     2
 73
     1
 90
        2
 40
0.6
 41
30.0
 62
     5
 63
     7
 74
     1
 91
       10
 64
     7
 65
   257
 75
     2
175
     1
 42
1.0
 92
        8
 66
   257
 43
1.0
 76
     1
 77
     6
 78
     2
 67
     7
 79
     3
170
     0
171
     0
290
     0
174
     0
 93
        5
 44
0.0
173
     0
291
     0
 45
0.0
1001
ACAD
1000
AcDbSavedByObjectVersion
1070
     0
  0
VISUALSTYLE
  5
3E
102
{ACAD_REACTORS
330
2A
102
}
102
{ACAD_XDICTIONARY
360
3FD
102
}
330
2A
100
AcDbVisualStyle
  2
Shades of Gray
 70
    23
 71
     2
 72
     2
 73
     3
 90
        0
 40
0.6
 41
30.0
 62
     5
 63
     7
 74
     2
 91
        2
 64
     7
 65
     7
 75
     1
175
     1
 42
40.0
 92
        8
 66
     7
 43
1.0
 76
     1
 77
     6
 78
     2
 67
     7
 79
     3
170
     0
171
     0
290
     0
174
     0
 93
        1
 44
0.0
173
     0
291
     0
 45
0.0
1001
ACAD
1000
AcDbSavedByObjectVersion
1070
     0
  0
VISUALSTYLE
  5
3F
102
{ACAD_REACTORS
330
2A
102
}
102
{ACAD_XDICTIONARY
360
3FF
102
}
330
2A
100
AcDbVisualStyle
  2
Sketchy
 70
    24
 71
     1
 72
     2
 73
     2
 90
        0
 40
0.6
 41
30.0
 62
     5
 63
     7
 74
     2
 91
        2
 64
     7
 65
     7
 75
     1
175
     1
 42
40.0
 92
       11
 66
     7
 43
1.0
 76
     1
 77
     6
 78
     2
 67
     7
 79
     6
170
     0
171
     0
290
     0
174
     0
 93
        1
 44
0.0
173
     0
291
     0
 45
0.0
1001
ACAD
1000
AcDbSavedByObjectVersion
1070
     0
  0
VISUALSTYLE
  5
37
102
{ACAD_REACTORS
330
2A
102
}
102
{ACAD_XDICTIONARY
360
3EF
102
}
330
2A
100
AcDbVisualStyle
  2
Thicken
 70
    13
 71
     2
 72
     2
 73
     0
 90
        0
 40
0.6
 41
30.0
 62
     5
 63
     7
 74
     1
 91
        4
 64
     7
 65
   257
 75
     1
175
     1
 42
1.0
 92
       12
 66
     7
 43
1.0
 76
     1
 77
     6
 78
     2
 67
     7
 79
     5
170
     0
171
     0
290
     0
174
     0
 93
        1
 44
0.0
173
     0
291
     1
 45
0.0
1001
ACAD
1000
AcDbSavedByObjectVersion
1070
     0
  0
VISUALSTYLE
  5
30
102
{ACAD_REACTORS
330
2A
102
}
102
{ACAD_XDICTIONARY
360
3E1
102
}
330
2A
100
AcDbVisualStyle
  2
Wireframe
 70
     5
 71
     0
 72
     2
 73
     0
 90
        0
 40
0.6
 41
30.0
 62
     5
 63
     7
 74
     1
 91
        4
 64
     7
 65
   257
 75
     1
175
     1
 42
1.0
 92
        0
 66
   257
 43
1.0
 76
     1
 77
     6
 78
     2
 67
     7
 79
     3
170
     0
171
     0
290
     0
174
     0
 93
        1
 44
0.0
173
     0
291
     0
 45
0.0
1001
ACAD
1000
AcDbSavedByObjectVersion
1070
     0
  0
VISUALSTYLE
  5
40
102
{ACAD_REACTORS
330
2A
102
}
102
{ACAD_XDICTIONARY
360
401
102
}
330
2A
100
AcDbVisualStyle
  2
X-Ray
 70
    25
 71
     2
 72
     2
 73
     1
 90
        1
 40
0.5
 41
30.0
 62
     5
 63
     7
 74
     1
 91
        0
 64
     7
 65
   257
 75
     1
175
     1
 42
1.0
 92
        8
 66
     7
 43
1.0
 76
     1
 77
     6
 78
     2
 67
     7
 79
     3
170
     0
171
     0
290
     0
174
     0
 93
       13
 44
0.0
173
     0
291
     0
 45
0.0
1001
ACAD
1000
AcDbSavedByObjectVersion
1070
     0
  0
DICTIONARYVAR
  5
3D5
102
{ACAD_REACTORS
330
3CC
102
}
330
3CC
100
DictionaryVariables
280
     0
  1
1:1
  0
DICTIONARYVAR
  5
3D3
102
{ACAD_REACTORS
330
3CC
102
}
330
3CC
100
DictionaryVariables
280
     0
  1
2
  0
DICTIONARYVAR
  5
3D4
102
{ACAD_REACTORS
330
3CC
102
}
330
3CC
100
DictionaryVariables
280
     0
  1
1
  0
DICTIONARYVAR
  5
3D6
102
{ACAD_REACTORS
330
3CC
102
}
330
3CC
100
DictionaryVariables
280
     0
  1
1
  0
DICTIONARYVAR
  5
3D0
102
{ACAD_REACTORS
330
3CC
102
}
330
3CC
100
DictionaryVariables
280
     0
  1
80.000000
  0
DICTIONARYVAR
  5
3CF
102
{ACAD_REACTORS
330
3CC
102
}
330
3CC
100
DictionaryVariables
280
     0
  1
5.000000
  0
DICTIONARY
  5
409
330
45
100
AcDbDictionary
280
     1
281
     1
  3
ACAD_XREC_ROUNDTRIP
360
40A
  0
DICTIONARY
  5
407
330
44
100
AcDbDictionary
280
     1
281
     1
  3
ACAD_XREC_ROUNDTRIP
360
408
  0
DICTIONARY
  5
40B
330
46
100
AcDbDictionary
280
     1
281
     1
  3
ACAD_XREC_ROUNDTRIP
360
40C
  0
DICTIONARY
  5
3DF
330
2F
100
AcDbDictionary
280
     1
281
     1
  3
ACAD_XREC_ROUNDTRIP
360
3E0
  0
DICTIONARY
  5
3E5
330
32
100
AcDbDictionary
280
     1
281
     1
  3
ACAD_XREC_ROUNDTRIP
360
3E6
  0
DICTIONARY
  5
3ED
330
36
100
AcDbDictionary
280
     1
281
     1
  3
ACAD_XREC_ROUNDTRIP
360
3EE
  0
DICTIONARY
  5
3F5
330
3A
100
AcDbDictionary
280
     1
281
     1
  3
ACAD_XREC_ROUNDTRIP
360
3F6
  0
DICTIONARY
  5
3E9
330
34
100
AcDbDictionary
280
     1
281
     1
  3
ACAD_XREC_ROUNDTRIP
360
3EA
  0
DICTIONARY
  5
3EB
330
35
100
AcDbDictionary
280
     1
281
     1
  3
ACAD_XREC_ROUNDTRIP
360
3EC
  0
DICTIONARY
  5
3FB
330
3D
100
AcDbDictionary
280
     1
281
     1
  3
ACAD_XREC_ROUNDTRIP
360
3FC
  0
DICTIONARY
  5
3F3
330
39
100
AcDbDictionary
280
     1
281
     1
  3
ACAD_XREC_ROUNDTRIP
360
3F4
  0
DICTIONARY
  5
3D7
330
2B
100
AcDbDictionary
280
     1
281
     1
  3
ACAD_XREC_ROUNDTRIP
360
3D8
  0
DICTIONARY
  5
3D9
330
2C
100
AcDbDictionary
280
     1
281
     1
  3
ACAD_XREC_ROUNDTRIP
360
3DA
  0
DICTIONARY
  5
3DB
330
2D
100
AcDbDictionary
280
     1
281
     1
  3
ACAD_XREC_ROUNDTRIP
360
3DC
  0
DICTIONARY
  5
3DD
330
2E
100
AcDbDictionary
280
     1
281
     1
  3
ACAD_XREC_ROUNDTRIP
360
3DE
  0
DICTIONARY
  5
3E3
330
31
100
AcDbDictionary
280
     1
281
     1
  3
ACAD_XREC_ROUNDTRIP
360
3E4
  0
DICTIONARY
  5
3F7
330
3B
100
AcDbDictionary
280
     1
281
     1
  3
ACAD_XREC_ROUNDTRIP
360
3F8
  0
DICTIONARY
  5
3F1
330
38
100
AcDbDictionary
280
     1
281
     1
  3
ACAD_XREC_ROUNDTRIP
360
3F2
  0
DICTIONARY
  5
3F9
330
3C
100
AcDbDictionary
280
     1
281
     1
  3
ACAD_XREC_ROUNDTRIP
360
3FA
  0
DICTIONARY
  5
3E7
330
33
100
AcDbDictionary
280
     1
281
     1
  3
ACAD_XREC_ROUNDTRIP
360
3E8
  0
DICTIONARY
  5
405
330
42
100
AcDbDictionary
280
     1
281
     1
  3
ACAD_XREC_ROUNDTRIP
360
406
  0
DICTIONARY
  5
403
330
41
100
AcDbDictionary
280
     1
281
     1
  3
ACAD_XREC_ROUNDTRIP
360
404
  0
DICTIONARY
  5
3FD
330
3E
100
AcDbDictionary
280
     1
281
     1
  3
ACAD_XREC_ROUNDTRIP
360
3FE
  0
DICTIONARY
  5
3FF
330
3F
100
AcDbDictionary
280
     1
281
     1
  3
ACAD_XREC_ROUNDTRIP
360
400
  0
DICTIONARY
  5
3EF
330
37
100
AcDbDictionary
280
     1
281
     1
  3
ACAD_XREC_ROUNDTRIP
360
3F0
  0
DICTIONARY
  5
3E1
330
30
100
AcDbDictionary
280
     1
281
     1
  3
ACAD_XREC_ROUNDTRIP
360
3E2
  0
DICTIONARY
  5
401
330
40
100
AcDbDictionary
280
     1
281
     1
  3
ACAD_XREC_ROUNDTRIP
360
402
  0
XRECORD
  5
40A
102
{ACAD_REACTORS
330
409
102
}
330
409
100
AcDbXrecord
280
     1
102
MATERIAL
148
0.0
149
0.0
149
0.0
 93
        0
 94
      127
282
     0
 72
     1
 77
     1
171
     1
175
     1
179
     1
273
     0
  0
XRECORD
  5
408
102
{ACAD_REACTORS
330
407
102
}
330
407
100
AcDbXrecord
280
     1
102
MATERIAL
148
0.0
149
0.0
149
0.0
 93
        0
 94
      127
282
     0
 72
     1
 77
     1
171
     1
175
     1
179
     1
273
     0
  0
XRECORD
  5
40C
102
{ACAD_REACTORS
330
40B
102
}
330
40B
100
AcDbXrecord
280
     1
102
MATERIAL
148
0.0
149
0.0
149
0.0
 93
        0
 94
      127
282
     0
 72
     1
 77
     1
171
     1
175
     1
179
     1
273
     0
  0
XRECORD
  5
3E0
102
{ACAD_REACTORS
330
3DF
102
}
330
3DF
100
AcDbXrecord
280
     1
102
RTVSPropertyOp0
 70
     1
102
RTVSPropertyOp1
 70
     1
102
RTVSPropertyOp2
 70
     1
102
RTVSPropertyOp3
 70
     1
102
RTVSPropertyOp4
 70
     1
102
RTVSPropertyOp5
 70
     1
102
RTVSPropertyOp6
 70
     1
102
RTVSPropertyOp7
 70
     1
102
RTVSPropertyOp8
 70
     1
102
RTVSPropertyOp9
 70
     1
102
RTVSPropertyOp10
 70
     1
102
RTVSPropertyOp11
 70
     1
102
RTVSPropertyOp12
 70
     1
102
RTVSPropertyOp13
 70
     1
102
RTVSPropertyOp14
 70
     1
102
RTVSPropertyOp15
 70
     1
102
RTVSPropertyOp16
 70
     1
102
RTVSPropertyOp17
 70
     1
102
RTVSPropertyOp18
 70
     1
102
RTVSPropertyOp19
 70
     1
102
RTVSPropertyOp20
 70
     1
102
RTVSPropertyOp21
 70
     1
102
RTVSPropertyOp22
 70
     1
102
RTVSPropertyOp23
 70
     1
102
RTVSPropertyOp24
 70
     1
102
RTVSPropertyOp25
 70
     1
102
RTVSPropertyOp26
 70
     1
102
RTVSPropertyOp27
 70
     1
102
RTVSPropertyOp28
 70
     1
102
RTVSPropertyOp29
 70
     1
102
RTVSPropertyOp30
 70
     1
102
RTVSPropertyOp31
 70
     1
102
RTVSPropertyOp32
 70
     1
102
RTVSPropertyOp33
 70
     1
102
RTVSPropertyOp34
 70
     1
102
RTVSPropertyOp35
 70
     1
102
RTVSPropertyOp36
 70
     1
102
RTVSPropertyOp37
 70
     1
102
RTVSPropertyOp38
 70
     1
102
RTVSPropertyOp39
 70
     1
102
RTVSPropertyOp40
 70
     1
102
RTVSPropertyOp41
 70
     1
102
RTVSPropertyOp42
 70
     1
102
RTVSPropertyOp43
 70
     1
102
RTVSPropertyOp44
 70
     1
102
RTVSPropertyOp45
 70
     1
102
RTVSPropertyOp46
 70
     1
102
RTVSPropertyOp47
 70
     1
102
RTVSPropertyOp48
 70
     1
102
RTVSPropertyOp49
 70
     1
102
RTVSPropertyOp50
 70
     1
102
RTVSPropertyOp51
 70
     0
102
RTVSPropertyOp52
 70
     0
102
RTVSPropertyOp53
 70
     1
102
RTVSPropertyOp54
 70
     1
102
RTVSPropertyOp55
 70
     1
102
RTVSPropertyOp56
 70
     1
102
RTVSPropertyOp57
 70
     1
102
RTVSPost2010Prop28
280
     1
102
RTVSPost2010PropOp28
 70
     1
102
RTVSPost2010Prop29
280
     1
102
RTVSPost2010PropOp29
 70
     1
102
RTVSPost2010Prop30
280
     0
102
RTVSPost2010PropOp30
 70
     1
102
RTVSPost2010Prop31
280
     0
102
RTVSPost2010PropOp31
 70
     1
102
RTVSPost2010Prop32
280
     0
102
RTVSPost2010PropOp32
 70
     1
102
RTVSPost2010Prop33
280
     0
102
RTVSPost2010PropOp33
 70
     1
102
RTVSPost2010Prop34
280
     0
102
RTVSPost2010PropOp34
 70
     1
102
RTVSPost2010Prop35
280
     0
102
RTVSPost2010PropOp35
 70
     1
102
RTVSPost2010Prop36
280
     0
102
RTVSPost2010PropOp36
 70
     1
102
RTVSPost2010Prop37
 90
       50
102
RTVSPost2010PropOp37
 70
     1
102
RTVSPost2010Prop38
140
0.0
102
RTVSPost2010PropOp38
 70
     1
102
RTVSPost2010Prop39
140
1.0
102
RTVSPost2010PropOp39
 70
     1
102
RTVSPost2010Prop40
 90
        0
102
RTVSPost2010PropOp40
 70
     1
102
RTVSPost2010Prop41ColorIndex
 90
       18
102
RTVSPost2010Prop41ColorRGB
 90
        0
102
RTVSPost2010PropOp41
 70
     1
102
RTVSPost2010Prop42
 90
       50
102
RTVSPost2010PropOp42
 70
     1
102
RTVSPost2010Prop43
 90
        3
102
RTVSPost2010PropOp43
 70
     1
102
RTVSPost2010Prop44ColorIndex
 90
        5
102
RTVSPost2010Prop44ColorRGB
 90
      255
102
RTVSPost2010PropOp44
 70
     1
102
RTVSPost2010Prop45
280
     0
102
RTVSPost2010PropOp45
 70
     1
102
RTVSPost2010Prop46
 90
       50
102
RTVSPost2010PropOp46
 70
     1
102
RTVSPost2010Prop47
 90
       50
102
RTVSPost2010PropOp47
 70
     1
102
RTVSPost2010Prop48
 90
       50
102
RTVSPost2010PropOp48
 70
     1
102
RTVSPost2010Prop49
280
     0
102
RTVSPost2010PropOp49
 70
     1
102
RTVSPost2010Prop50
 90
       50
102
RTVSPost2010PropOp50
 70
     1
102
RTVSPost2010Prop51ColorIndex
 90
      256
102
RTVSPost2010Prop51ColorRGB
 90
-16777216
102
RTVSPost2010PropOp51
 70
     0
102
RTVSPost2010Prop52
140
1.0
102
RTVSPost2010PropOp52
 70
     0
102
RTVSPost2010Prop53
 90
        2
102
RTVSPost2010PropOp53
 70
     1
102
RTVSPost2010Prop54
  1
strokes_ogs.tif
102
RTVSPost2010PropOp54
 70
     1
102
RTVSPost2010Prop55
280
     0
102
RTVSPost2010PropOp55
 70
     1
102
RTVSPost2010Prop56
140
1.0
102
RTVSPost2010PropOp56
 70
     1
102
RTVSPost2010Prop57
140
1.0
102
RTVSPost2010PropOp57
 70
     1
  0
XRECORD
  5
3E6
102
{ACAD_REACTORS
330
3E5
102
}
330
3E5
100
AcDbXrecord
280
     1
102
RTVSPropertyOp0
 70
     1
102
RTVSPropertyOp1
 70
     1
102
RTVSPropertyOp2
 70
     1
102
RTVSPropertyOp3
 70
     1
102
RTVSPropertyOp4
 70
     1
102
RTVSPropertyOp5
 70
     1
102
RTVSPropertyOp6
 70
     1
102
RTVSPropertyOp7
 70
     1
102
RTVSPropertyOp8
 70
     1
102
RTVSPropertyOp9
 70
     1
102
RTVSPropertyOp10
 70
     1
102
RTVSPropertyOp11
 70
     1
102
RTVSPropertyOp12
 70
     1
102
RTVSPropertyOp13
 70
     1
102
RTVSPropertyOp14
 70
     1
102
RTVSPropertyOp15
 70
     1
102
RTVSPropertyOp16
 70
     1
102
RTVSPropertyOp17
 70
     1
102
RTVSPropertyOp18
 70
     1
102
RTVSPropertyOp19
 70
     1
102
RTVSPropertyOp20
 70
     1
102
RTVSPropertyOp21
 70
     1
102
RTVSPropertyOp22
 70
     1
102
RTVSPropertyOp23
 70
     1
102
RTVSPropertyOp24
 70
     1
102
RTVSPropertyOp25
 70
     1
102
RTVSPropertyOp26
 70
     1
102
RTVSPropertyOp27
 70
     1
102
RTVSPropertyOp28
 70
     1
102
RTVSPropertyOp29
 70
     1
102
RTVSPropertyOp30
 70
     1
102
RTVSPropertyOp31
 70
     1
102
RTVSPropertyOp32
 70
     1
102
RTVSPropertyOp33
 70
     1
102
RTVSPropertyOp34
 70
     1
102
RTVSPropertyOp35
 70
     1
102
RTVSPropertyOp36
 70
     1
102
RTVSPropertyOp37
 70
     1
102
RTVSPropertyOp38
 70
     1
102
RTVSPropertyOp39
 70
     1
102
RTVSPropertyOp40
 70
     1
102
RTVSPropertyOp41
 70
     1
102
RTVSPropertyOp42
 70
     1
102
RTVSPropertyOp43
 70
     1
102
RTVSPropertyOp44
 70
     1
102
RTVSPropertyOp45
 70
     1
102
RTVSPropertyOp46
 70
     1
102
RTVSPropertyOp47
 70
     1
102
RTVSPropertyOp48
 70
     1
102
RTVSPropertyOp49
 70
     1
102
RTVSPropertyOp50
 70
     1
102
RTVSPropertyOp51
 70
     0
102
RTVSPropertyOp52
 70
     0
102
RTVSPropertyOp53
 70
     1
102
RTVSPropertyOp54
 70
     1
102
RTVSPropertyOp55
 70
     1
102
RTVSPropertyOp56
 70
     1
102
RTVSPropertyOp57
 70
     1
102
RTVSPost2010Prop28
280
     0
102
RTVSPost2010PropOp28
 70
     1
102
RTVSPost2010Prop29
280
     1
102
RTVSPost2010PropOp29
 70
     1
102
RTVSPost2010Prop30
280
     1
102
RTVSPost2010PropOp30
 70
     1
102
RTVSPost2010Prop31
280
     0
102
RTVSPost2010PropOp31
 70
     1
102
RTVSPost2010Prop32
280
     0
102
RTVSPost2010PropOp32
 70
     1
102
RTVSPost2010Prop33
280
     0
102
RTVSPost2010PropOp33
 70
     1
102
RTVSPost2010Prop34
280
     0
102
RTVSPost2010PropOp34
 70
     1
102
RTVSPost2010Prop35
280
     0
102
RTVSPost2010PropOp35
 70
     1
102
RTVSPost2010Prop36
280
     0
102
RTVSPost2010PropOp36
 70
     1
102
RTVSPost2010Prop37
 90
       50
102
RTVSPost2010PropOp37
 70
     1
102
RTVSPost2010Prop38
140
0.0
102
RTVSPost2010PropOp38
 70
     1
102
RTVSPost2010Prop39
140
1.0
102
RTVSPost2010PropOp39
 70
     1
102
RTVSPost2010Prop40
 90
        0
102
RTVSPost2010PropOp40
 70
     1
102
RTVSPost2010Prop41ColorIndex
 90
       18
102
RTVSPost2010Prop41ColorRGB
 90
        0
102
RTVSPost2010PropOp41
 70
     1
102
RTVSPost2010Prop42
 90
       50
102
RTVSPost2010PropOp42
 70
     1
102
RTVSPost2010Prop43
 90
        3
102
RTVSPost2010PropOp43
 70
     1
102
RTVSPost2010Prop44ColorIndex
 90
        5
102
RTVSPost2010Prop44ColorRGB
 90
      255
102
RTVSPost2010PropOp44
 70
     1
102
RTVSPost2010Prop45
280
     0
102
RTVSPost2010PropOp45
 70
     1
102
RTVSPost2010Prop46
 90
       50
102
RTVSPost2010PropOp46
 70
     1
102
RTVSPost2010Prop47
 90
       50
102
RTVSPost2010PropOp47
 70
     1
102
RTVSPost2010Prop48
 90
       50
102
RTVSPost2010PropOp48
 70
     1
102
RTVSPost2010Prop49
280
     0
102
RTVSPost2010PropOp49
 70
     1
102
RTVSPost2010Prop50
 90
       50
102
RTVSPost2010PropOp50
 70
     1
102
RTVSPost2010Prop51ColorIndex
 90
      256
102
RTVSPost2010Prop51ColorRGB
 90
-16777216
102
RTVSPost2010PropOp51
 70
     0
102
RTVSPost2010Prop52
140
1.0
102
RTVSPost2010PropOp52
 70
     0
102
RTVSPost2010Prop53
 90
        2
102
RTVSPost2010PropOp53
 70
     1
102
RTVSPost2010Prop54
  1
strokes_ogs.tif
102
RTVSPost2010PropOp54
 70
     1
102
RTVSPost2010Prop55
280
     0
102
RTVSPost2010PropOp55
 70
     1
102
RTVSPost2010Prop56
140
1.0
102
RTVSPost2010PropOp56
 70
     1
102
RTVSPost2010Prop57
140
1.0
102
RTVSPost2010PropOp57
 70
     1
  0
XRECORD
  5
3EE
102
{ACAD_REACTORS
330
3ED
102
}
330
3ED
100
AcDbXrecord
280
     1
102
RTVSPropertyOp0
 70
     1
102
RTVSPropertyOp1
 70
     1
102
RTVSPropertyOp2
 70
     1
102
RTVSPropertyOp3
 70
     1
102
RTVSPropertyOp4
 70
     1
102
RTVSPropertyOp5
 70
     1
102
RTVSPropertyOp6
 70
     1
102
RTVSPropertyOp7
 70
     1
102
RTVSPropertyOp8
 70
     1
102
RTVSPropertyOp9
 70
     1
102
RTVSPropertyOp10
 70
     1
102
RTVSPropertyOp11
 70
     1
102
RTVSPropertyOp12
 70
     1
102
RTVSPropertyOp13
 70
     1
102
RTVSPropertyOp14
 70
     1
102
RTVSPropertyOp15
 70
     1
102
RTVSPropertyOp16
 70
     1
102
RTVSPropertyOp17
 70
     1
102
RTVSPropertyOp18
 70
     1
102
RTVSPropertyOp19
 70
     1
102
RTVSPropertyOp20
 70
     1
102
RTVSPropertyOp21
 70
     1
102
RTVSPropertyOp22
 70
     1
102
RTVSPropertyOp23
 70
     1
102
RTVSPropertyOp24
 70
     1
102
RTVSPropertyOp25
 70
     1
102
RTVSPropertyOp26
 70
     1
102
RTVSPropertyOp27
 70
     1
102
RTVSPropertyOp28
 70
     1
102
RTVSPropertyOp29
 70
     1
102
RTVSPropertyOp30
 70
     1
102
RTVSPropertyOp31
 70
     1
102
RTVSPropertyOp32
 70
     1
102
RTVSPropertyOp33
 70
     1
102
RTVSPropertyOp34
 70
     1
102
RTVSPropertyOp35
 70
     1
102
RTVSPropertyOp36
 70
     1
102
RTVSPropertyOp37
 70
     1
102
RTVSPropertyOp38
 70
     1
102
RTVSPropertyOp39
 70
     1
102
RTVSPropertyOp40
 70
     1
102
RTVSPropertyOp41
 70
     1
102
RTVSPropertyOp42
 70
     1
102
RTVSPropertyOp43
 70
     1
102
RTVSPropertyOp44
 70
     1
102
RTVSPropertyOp45
 70
     1
102
RTVSPropertyOp46
 70
     1
102
RTVSPropertyOp47
 70
     1
102
RTVSPropertyOp48
 70
     1
102
RTVSPropertyOp49
 70
     1
102
RTVSPropertyOp50
 70
     1
102
RTVSPropertyOp51
 70
     0
102
RTVSPropertyOp52
 70
     0
102
RTVSPropertyOp53
 70
     1
102
RTVSPropertyOp54
 70
     1
102
RTVSPropertyOp55
 70
     1
102
RTVSPropertyOp56
 70
     1
102
RTVSPropertyOp57
 70
     1
102
RTVSPost2010Prop28
280
     0
102
RTVSPost2010PropOp28
 70
     1
102
RTVSPost2010Prop29
280
     1
102
RTVSPost2010PropOp29
 70
     1
102
RTVSPost2010Prop30
280
     1
102
RTVSPost2010PropOp30
 70
     1
102
RTVSPost2010Prop31
280
     0
102
RTVSPost2010PropOp31
 70
     1
102
RTVSPost2010Prop32
280
     0
102
RTVSPost2010PropOp32
 70
     1
102
RTVSPost2010Prop33
280
     0
102
RTVSPost2010PropOp33
 70
     1
102
RTVSPost2010Prop34
280
     0
102
RTVSPost2010PropOp34
 70
     1
102
RTVSPost2010Prop35
280
     0
102
RTVSPost2010PropOp35
 70
     1
102
RTVSPost2010Prop36
280
     0
102
RTVSPost2010PropOp36
 70
     1
102
RTVSPost2010Prop37
 90
       50
102
RTVSPost2010PropOp37
 70
     1
102
RTVSPost2010Prop38
140
0.0
102
RTVSPost2010PropOp38
 70
     1
102
RTVSPost2010Prop39
140
1.0
102
RTVSPost2010PropOp39
 70
     1
102
RTVSPost2010Prop40
 90
        0
102
RTVSPost2010PropOp40
 70
     1
102
RTVSPost2010Prop41ColorIndex
 90
       18
102
RTVSPost2010Prop41ColorRGB
 90
        0
102
RTVSPost2010PropOp41
 70
     1
102
RTVSPost2010Prop42
 90
       50
102
RTVSPost2010PropOp42
 70
     1
102
RTVSPost2010Prop43
 90
        3
102
RTVSPost2010PropOp43
 70
     1
102
RTVSPost2010Prop44ColorIndex
 90
        5
102
RTVSPost2010Prop44ColorRGB
 90
      255
102
RTVSPost2010PropOp44
 70
     1
102
RTVSPost2010Prop45
280
     0
102
RTVSPost2010PropOp45
 70
     1
102
RTVSPost2010Prop46
 90
       50
102
RTVSPost2010PropOp46
 70
     1
102
RTVSPost2010Prop47
 90
       50
102
RTVSPost2010PropOp47
 70
     1
102
RTVSPost2010Prop48
 90
       50
102
RTVSPost2010PropOp48
 70
     1
102
RTVSPost2010Prop49
280
     0
102
RTVSPost2010PropOp49
 70
     1
102
RTVSPost2010Prop50
 90
       50
102
RTVSPost2010PropOp50
 70
     1
102
RTVSPost2010Prop51ColorIndex
 90
      256
102
RTVSPost2010Prop51ColorRGB
 90
-16777216
102
RTVSPost2010PropOp51
 70
     0
102
RTVSPost2010Prop52
140
1.0
102
RTVSPost2010PropOp52
 70
     0
102
RTVSPost2010Prop53
 90
        2
102
RTVSPost2010PropOp53
 70
     1
102
RTVSPost2010Prop54
  1
strokes_ogs.tif
102
RTVSPost2010PropOp54
 70
     1
102
RTVSPost2010Prop55
280
     0
102
RTVSPost2010PropOp55
 70
     1
102
RTVSPost2010Prop56
140
1.0
102
RTVSPost2010PropOp56
 70
     1
102
RTVSPost2010Prop57
140
1.0
102
RTVSPost2010PropOp57
 70
     1
  0
XRECORD
  5
3F6
102
{ACAD_REACTORS
330
3F5
102
}
330
3F5
100
AcDbXrecord
280
     1
102
RTVSPropertyOp0
 70
     1
102
RTVSPropertyOp1
 70
     1
102
RTVSPropertyOp2
 70
     1
102
RTVSPropertyOp3
 70
     1
102
RTVSPropertyOp4
 70
     1
102
RTVSPropertyOp5
 70
     1
102
RTVSPropertyOp6
 70
     1
102
RTVSPropertyOp7
 70
     1
102
RTVSPropertyOp8
 70
     1
102
RTVSPropertyOp9
 70
     1
102
RTVSPropertyOp10
 70
     1
102
RTVSPropertyOp11
 70
     1
102
RTVSPropertyOp12
 70
     1
102
RTVSPropertyOp13
 70
     1
102
RTVSPropertyOp14
 70
     1
102
RTVSPropertyOp15
 70
     1
102
RTVSPropertyOp16
 70
     1
102
RTVSPropertyOp17
 70
     1
102
RTVSPropertyOp18
 70
     1
102
RTVSPropertyOp19
 70
     1
102
RTVSPropertyOp20
 70
     1
102
RTVSPropertyOp21
 70
     1
102
RTVSPropertyOp22
 70
     1
102
RTVSPropertyOp23
 70
     1
102
RTVSPropertyOp24
 70
     1
102
RTVSPropertyOp25
 70
     1
102
RTVSPropertyOp26
 70
     1
102
RTVSPropertyOp27
 70
     1
102
RTVSPropertyOp28
 70
     1
102
RTVSPropertyOp29
 70
     1
102
RTVSPropertyOp30
 70
     1
102
RTVSPropertyOp31
 70
     1
102
RTVSPropertyOp32
 70
     1
102
RTVSPropertyOp33
 70
     1
102
RTVSPropertyOp34
 70
     1
102
RTVSPropertyOp35
 70
     1
102
RTVSPropertyOp36
 70
     1
102
RTVSPropertyOp37
 70
     1
102
RTVSPropertyOp38
 70
     1
102
RTVSPropertyOp39
 70
     1
102
RTVSPropertyOp40
 70
     1
102
RTVSPropertyOp41
 70
     1
102
RTVSPropertyOp42
 70
     1
102
RTVSPropertyOp43
 70
     1
102
RTVSPropertyOp44
 70
     1
102
RTVSPropertyOp45
 70
     1
102
RTVSPropertyOp46
 70
     1
102
RTVSPropertyOp47
 70
     1
102
RTVSPropertyOp48
 70
     1
102
RTVSPropertyOp49
 70
     1
102
RTVSPropertyOp50
 70
     1
102
RTVSPropertyOp51
 70
     0
102
RTVSPropertyOp52
 70
     0
102
RTVSPropertyOp53
 70
     1
102
RTVSPropertyOp54
 70
     1
102
RTVSPropertyOp55
 70
     1
102
RTVSPropertyOp56
 70
     1
102
RTVSPropertyOp57
 70
     1
102
RTVSPost2010Prop28
280
     0
102
RTVSPost2010PropOp28
 70
     1
102
RTVSPost2010Prop29
280
     1
102
RTVSPost2010PropOp29
 70
     1
102
RTVSPost2010Prop30
280
     1
102
RTVSPost2010PropOp30
 70
     1
102
RTVSPost2010Prop31
280
     0
102
RTVSPost2010PropOp31
 70
     1
102
RTVSPost2010Prop32
280
     0
102
RTVSPost2010PropOp32
 70
     1
102
RTVSPost2010Prop33
280
     0
102
RTVSPost2010PropOp33
 70
     1
102
RTVSPost2010Prop34
280
     0
102
RTVSPost2010PropOp34
 70
     1
102
RTVSPost2010Prop35
280
     0
102
RTVSPost2010PropOp35
 70
     1
102
RTVSPost2010Prop36
280
     0
102
RTVSPost2010PropOp36
 70
     1
102
RTVSPost2010Prop37
 90
       50
102
RTVSPost2010PropOp37
 70
     1
102
RTVSPost2010Prop38
140
0.0
102
RTVSPost2010PropOp38
 70
     1
102
RTVSPost2010Prop39
140
1.0
102
RTVSPost2010PropOp39
 70
     1
102
RTVSPost2010Prop40
 90
        0
102
RTVSPost2010PropOp40
 70
     1
102
RTVSPost2010Prop41ColorIndex
 90
       18
102
RTVSPost2010Prop41ColorRGB
 90
        0
102
RTVSPost2010PropOp41
 70
     1
102
RTVSPost2010Prop42
 90
       50
102
RTVSPost2010PropOp42
 70
     1
102
RTVSPost2010Prop43
 90
        3
102
RTVSPost2010PropOp43
 70
     1
102
RTVSPost2010Prop44ColorIndex
 90
        5
102
RTVSPost2010Prop44ColorRGB
 90
      255
102
RTVSPost2010PropOp44
 70
     1
102
RTVSPost2010Prop45
280
     0
102
RTVSPost2010PropOp45
 70
     1
102
RTVSPost2010Prop46
 90
       50
102
RTVSPost2010PropOp46
 70
     1
102
RTVSPost2010Prop47
 90
       50
102
RTVSPost2010PropOp47
 70
     1
102
RTVSPost2010Prop48
 90
       50
102
RTVSPost2010PropOp48
 70
     1
102
RTVSPost2010Prop49
280
     0
102
RTVSPost2010PropOp49
 70
     1
102
RTVSPost2010Prop50
 90
       50
102
RTVSPost2010PropOp50
 70
     1
102
RTVSPost2010Prop51ColorIndex
 90
      256
102
RTVSPost2010Prop51ColorRGB
 90
-16777216
102
RTVSPost2010PropOp51
 70
     0
102
RTVSPost2010Prop52
140
1.0
102
RTVSPost2010PropOp52
 70
     0
102
RTVSPost2010Prop53
 90
        2
102
RTVSPost2010PropOp53
 70
     1
102
RTVSPost2010Prop54
  1
strokes_ogs.tif
102
RTVSPost2010PropOp54
 70
     1
102
RTVSPost2010Prop55
280
     0
102
RTVSPost2010PropOp55
 70
     1
102
RTVSPost2010Prop56
140
1.0
102
RTVSPost2010PropOp56
 70
     1
102
RTVSPost2010Prop57
140
1.0
102
RTVSPost2010PropOp57
 70
     1
  0
XRECORD
  5
3EA
102
{ACAD_REACTORS
330
3E9
102
}
330
3E9
100
AcDbXrecord
280
     1
102
RTVSPropertyOp0
 70
     1
102
RTVSPropertyOp1
 70
     1
102
RTVSPropertyOp2
 70
     1
102
RTVSPropertyOp3
 70
     1
102
RTVSPropertyOp4
 70
     1
102
RTVSPropertyOp5
 70
     1
102
RTVSPropertyOp6
 70
     1
102
RTVSPropertyOp7
 70
     1
102
RTVSPropertyOp8
 70
     1
102
RTVSPropertyOp9
 70
     1
102
RTVSPropertyOp10
 70
     1
102
RTVSPropertyOp11
 70
     1
102
RTVSPropertyOp12
 70
     1
102
RTVSPropertyOp13
 70
     1
102
RTVSPropertyOp14
 70
     1
102
RTVSPropertyOp15
 70
     1
102
RTVSPropertyOp16
 70
     1
102
RTVSPropertyOp17
 70
     1
102
RTVSPropertyOp18
 70
     1
102
RTVSPropertyOp19
 70
     1
102
RTVSPropertyOp20
 70
     1
102
RTVSPropertyOp21
 70
     1
102
RTVSPropertyOp22
 70
     1
102
RTVSPropertyOp23
 70
     1
102
RTVSPropertyOp24
 70
     1
102
RTVSPropertyOp25
 70
     1
102
RTVSPropertyOp26
 70
     1
102
RTVSPropertyOp27
 70
     1
102
RTVSPropertyOp28
 70
     1
102
RTVSPropertyOp29
 70
     1
102
RTVSPropertyOp30
 70
     1
102
RTVSPropertyOp31
 70
     1
102
RTVSPropertyOp32
 70
     1
102
RTVSPropertyOp33
 70
     1
102
RTVSPropertyOp34
 70
     1
102
RTVSPropertyOp35
 70
     1
102
RTVSPropertyOp36
 70
     1
102
RTVSPropertyOp37
 70
     1
102
RTVSPropertyOp38
 70
     1
102
RTVSPropertyOp39
 70
     1
102
RTVSPropertyOp40
 70
     1
102
RTVSPropertyOp41
 70
     1
102
RTVSPropertyOp42
 70
     1
102
RTVSPropertyOp43
 70
     1
102
RTVSPropertyOp44
 70
     1
102
RTVSPropertyOp45
 70
     1
102
RTVSPropertyOp46
 70
     1
102
RTVSPropertyOp47
 70
     1
102
RTVSPropertyOp48
 70
     1
102
RTVSPropertyOp49
 70
     1
102
RTVSPropertyOp50
 70
     1
102
RTVSPropertyOp51
 70
     0
102
RTVSPropertyOp52
 70
     0
102
RTVSPropertyOp53
 70
     1
102
RTVSPropertyOp54
 70
     1
102
RTVSPropertyOp55
 70
     1
102
RTVSPropertyOp56
 70
     1
102
RTVSPropertyOp57
 70
     1
102
RTVSPost2010Prop28
280
     0
102
RTVSPost2010PropOp28
 70
     1
102
RTVSPost2010Prop29
280
     1
102
RTVSPost2010PropOp29
 70
     1
102
RTVSPost2010Prop30
280
     1
102
RTVSPost2010PropOp30
 70
     1
102
RTVSPost2010Prop31
280
     0
102
RTVSPost2010PropOp31
 70
     1
102
RTVSPost2010Prop32
280
     0
102
RTVSPost2010PropOp32
 70
     1
102
RTVSPost2010Prop33
280
     0
102
RTVSPost2010PropOp33
 70
     1
102
RTVSPost2010Prop34
280
     0
102
RTVSPost2010PropOp34
 70
     1
102
RTVSPost2010Prop35
280
     0
102
RTVSPost2010PropOp35
 70
     1
102
RTVSPost2010Prop36
280
     0
102
RTVSPost2010PropOp36
 70
     1
102
RTVSPost2010Prop37
 90
       50
102
RTVSPost2010PropOp37
 70
     1
102
RTVSPost2010Prop38
140
0.0
102
RTVSPost2010PropOp38
 70
     1
102
RTVSPost2010Prop39
140
1.0
102
RTVSPost2010PropOp39
 70
     1
102
RTVSPost2010Prop40
 90
        0
102
RTVSPost2010PropOp40
 70
     1
102
RTVSPost2010Prop41ColorIndex
 90
       18
102
RTVSPost2010Prop41ColorRGB
 90
        0
102
RTVSPost2010PropOp41
 70
     1
102
RTVSPost2010Prop42
 90
       50
102
RTVSPost2010PropOp42
 70
     1
102
RTVSPost2010Prop43
 90
        3
102
RTVSPost2010PropOp43
 70
     1
102
RTVSPost2010Prop44ColorIndex
 90
        5
102
RTVSPost2010Prop44ColorRGB
 90
      255
102
RTVSPost2010PropOp44
 70
     1
102
RTVSPost2010Prop45
280
     0
102
RTVSPost2010PropOp45
 70
     1
102
RTVSPost2010Prop46
 90
       50
102
RTVSPost2010PropOp46
 70
     1
102
RTVSPost2010Prop47
 90
       50
102
RTVSPost2010PropOp47
 70
     1
102
RTVSPost2010Prop48
 90
       50
102
RTVSPost2010PropOp48
 70
     1
102
RTVSPost2010Prop49
280
     0
102
RTVSPost2010PropOp49
 70
     1
102
RTVSPost2010Prop50
 90
       50
102
RTVSPost2010PropOp50
 70
     1
102
RTVSPost2010Prop51ColorIndex
 90
      256
102
RTVSPost2010Prop51ColorRGB
 90
-16777216
102
RTVSPost2010PropOp51
 70
     0
102
RTVSPost2010Prop52
140
1.0
102
RTVSPost2010PropOp52
 70
     0
102
RTVSPost2010Prop53
 90
        2
102
RTVSPost2010PropOp53
 70
     1
102
RTVSPost2010Prop54
  1
strokes_ogs.tif
102
RTVSPost2010PropOp54
 70
     1
102
RTVSPost2010Prop55
280
     0
102
RTVSPost2010PropOp55
 70
     1
102
RTVSPost2010Prop56
140
1.0
102
RTVSPost2010PropOp56
 70
     1
102
RTVSPost2010Prop57
140
1.0
102
RTVSPost2010PropOp57
 70
     1
  0
XRECORD
  5
3EC
102
{ACAD_REACTORS
330
3EB
102
}
330
3EB
100
AcDbXrecord
280
     1
102
RTVSPropertyOp0
 70
     1
102
RTVSPropertyOp1
 70
     1
102
RTVSPropertyOp2
 70
     1
102
RTVSPropertyOp3
 70
     1
102
RTVSPropertyOp4
 70
     1
102
RTVSPropertyOp5
 70
     1
102
RTVSPropertyOp6
 70
     1
102
RTVSPropertyOp7
 70
     1
102
RTVSPropertyOp8
 70
     1
102
RTVSPropertyOp9
 70
     1
102
RTVSPropertyOp10
 70
     1
102
RTVSPropertyOp11
 70
     1
102
RTVSPropertyOp12
 70
     1
102
RTVSPropertyOp13
 70
     1
102
RTVSPropertyOp14
 70
     1
102
RTVSPropertyOp15
 70
     1
102
RTVSPropertyOp16
 70
     1
102
RTVSPropertyOp17
 70
     1
102
RTVSPropertyOp18
 70
     1
102
RTVSPropertyOp19
 70
     1
102
RTVSPropertyOp20
 70
     1
102
RTVSPropertyOp21
 70
     1
102
RTVSPropertyOp22
 70
     1
102
RTVSPropertyOp23
 70
     1
102
RTVSPropertyOp24
 70
     1
102
RTVSPropertyOp25
 70
     1
102
RTVSPropertyOp26
 70
     1
102
RTVSPropertyOp27
 70
     1
102
RTVSPropertyOp28
 70
     1
102
RTVSPropertyOp29
 70
     1
102
RTVSPropertyOp30
 70
     1
102
RTVSPropertyOp31
 70
     1
102
RTVSPropertyOp32
 70
     1
102
RTVSPropertyOp33
 70
     1
102
RTVSPropertyOp34
 70
     1
102
RTVSPropertyOp35
 70
     1
102
RTVSPropertyOp36
 70
     1
102
RTVSPropertyOp37
 70
     1
102
RTVSPropertyOp38
 70
     1
102
RTVSPropertyOp39
 70
     1
102
RTVSPropertyOp40
 70
     1
102
RTVSPropertyOp41
 70
     1
102
RTVSPropertyOp42
 70
     1
102
RTVSPropertyOp43
 70
     1
102
RTVSPropertyOp44
 70
     1
102
RTVSPropertyOp45
 70
     1
102
RTVSPropertyOp46
 70
     1
102
RTVSPropertyOp47
 70
     1
102
RTVSPropertyOp48
 70
     1
102
RTVSPropertyOp49
 70
     1
102
RTVSPropertyOp50
 70
     1
102
RTVSPropertyOp51
 70
     0
102
RTVSPropertyOp52
 70
     0
102
RTVSPropertyOp53
 70
     1
102
RTVSPropertyOp54
 70
     1
102
RTVSPropertyOp55
 70
     1
102
RTVSPropertyOp56
 70
     1
102
RTVSPropertyOp57
 70
     1
102
RTVSPost2010Prop28
280
     0
102
RTVSPost2010PropOp28
 70
     1
102
RTVSPost2010Prop29
280
     1
102
RTVSPost2010PropOp29
 70
     1
102
RTVSPost2010Prop30
280
     1
102
RTVSPost2010PropOp30
 70
     1
102
RTVSPost2010Prop31
280
     0
102
RTVSPost2010PropOp31
 70
     1
102
RTVSPost2010Prop32
280
     0
102
RTVSPost2010PropOp32
 70
     1
102
RTVSPost2010Prop33
280
     0
102
RTVSPost2010PropOp33
 70
     1
102
RTVSPost2010Prop34
280
     0
102
RTVSPost2010PropOp34
 70
     1
102
RTVSPost2010Prop35
280
     0
102
RTVSPost2010PropOp35
 70
     1
102
RTVSPost2010Prop36
280
     0
102
RTVSPost2010PropOp36
 70
     1
102
RTVSPost2010Prop37
 90
       50
102
RTVSPost2010PropOp37
 70
     1
102
RTVSPost2010Prop38
140
0.0
102
RTVSPost2010PropOp38
 70
     1
102
RTVSPost2010Prop39
140
1.0
102
RTVSPost2010PropOp39
 70
     1
102
RTVSPost2010Prop40
 90
        0
102
RTVSPost2010PropOp40
 70
     1
102
RTVSPost2010Prop41ColorIndex
 90
       18
102
RTVSPost2010Prop41ColorRGB
 90
        0
102
RTVSPost2010PropOp41
 70
     1
102
RTVSPost2010Prop42
 90
       50
102
RTVSPost2010PropOp42
 70
     1
102
RTVSPost2010Prop43
 90
        3
102
RTVSPost2010PropOp43
 70
     1
102
RTVSPost2010Prop44ColorIndex
 90
        5
102
RTVSPost2010Prop44ColorRGB
 90
      255
102
RTVSPost2010PropOp44
 70
     1
102
RTVSPost2010Prop45
280
     0
102
RTVSPost2010PropOp45
 70
     1
102
RTVSPost2010Prop46
 90
       50
102
RTVSPost2010PropOp46
 70
     1
102
RTVSPost2010Prop47
 90
       50
102
RTVSPost2010PropOp47
 70
     1
102
RTVSPost2010Prop48
 90
       50
102
RTVSPost2010PropOp48
 70
     1
102
RTVSPost2010Prop49
280
     0
102
RTVSPost2010PropOp49
 70
     1
102
RTVSPost2010Prop50
 90
       50
102
RTVSPost2010PropOp50
 70
     1
102
RTVSPost2010Prop51ColorIndex
 90
      256
102
RTVSPost2010Prop51ColorRGB
 90
-16777216
102
RTVSPost2010PropOp51
 70
     0
102
RTVSPost2010Prop52
140
1.0
102
RTVSPost2010PropOp52
 70
     0
102
RTVSPost2010Prop53
 90
        2
102
RTVSPost2010PropOp53
 70
     1
102
RTVSPost2010Prop54
  1
strokes_ogs.tif
102
RTVSPost2010PropOp54
 70
     1
102
RTVSPost2010Prop55
280
     0
102
RTVSPost2010PropOp55
 70
     1
102
RTVSPost2010Prop56
140
1.0
102
RTVSPost2010PropOp56
 70
     1
102
RTVSPost2010Prop57
140
1.0
102
RTVSPost2010PropOp57
 70
     1
  0
XRECORD
  5
3FC
102
{ACAD_REACTORS
330
3FB
102
}
330
3FB
100
AcDbXrecord
280
     1
102
RTVSPropertyOp0
 70
     0
102
RTVSPropertyOp1
 70
     0
102
RTVSPropertyOp2
 70
     0
102
RTVSPropertyOp3
 70
     0
102
RTVSPropertyOp4
 70
     0
102
RTVSPropertyOp5
 70
     0
102
RTVSPropertyOp6
 70
     0
102
RTVSPropertyOp7
 70
     0
102
RTVSPropertyOp8
 70
     0
102
RTVSPropertyOp9
 70
     0
102
RTVSPropertyOp10
 70
     0
102
RTVSPropertyOp11
 70
     0
102
RTVSPropertyOp12
 70
     0
102
RTVSPropertyOp13
 70
     0
102
RTVSPropertyOp14
 70
     2
102
RTVSPropertyOp15
 70
     0
102
RTVSPropertyOp16
 70
     0
102
RTVSPropertyOp17
 70
     0
102
RTVSPropertyOp18
 70
     0
102
RTVSPropertyOp19
 70
     0
102
RTVSPropertyOp20
 70
     0
102
RTVSPropertyOp21
 70
     0
102
RTVSPropertyOp22
 70
     0
102
RTVSPropertyOp23
 70
     0
102
RTVSPropertyOp24
 70
     0
102
RTVSPropertyOp25
 70
     0
102
RTVSPropertyOp26
 70
     0
102
RTVSPropertyOp27
 70
     0
102
RTVSPropertyOp28
 70
     0
102
RTVSPropertyOp29
 70
     0
102
RTVSPropertyOp30
 70
     0
102
RTVSPropertyOp31
 70
     0
102
RTVSPropertyOp32
 70
     0
102
RTVSPropertyOp33
 70
     0
102
RTVSPropertyOp34
 70
     0
102
RTVSPropertyOp35
 70
     0
102
RTVSPropertyOp36
 70
     0
102
RTVSPropertyOp37
 70
     0
102
RTVSPropertyOp38
 70
     0
102
RTVSPropertyOp39
 70
     0
102
RTVSPropertyOp40
 70
     0
102
RTVSPropertyOp41
 70
     0
102
RTVSPropertyOp42
 70
     0
102
RTVSPropertyOp43
 70
     0
102
RTVSPropertyOp44
 70
     0
102
RTVSPropertyOp45
 70
     0
102
RTVSPropertyOp46
 70
     0
102
RTVSPropertyOp47
 70
     0
102
RTVSPropertyOp48
 70
     0
102
RTVSPropertyOp49
 70
     0
102
RTVSPropertyOp50
 70
     0
102
RTVSPropertyOp51
 70
     0
102
RTVSPropertyOp52
 70
     0
102
RTVSPropertyOp53
 70
     0
102
RTVSPropertyOp54
 70
     0
102
RTVSPropertyOp55
 70
     0
102
RTVSPropertyOp56
 70
     0
102
RTVSPropertyOp57
 70
     0
102
RTVSPost2010Prop28
280
     0
102
RTVSPost2010PropOp28
 70
     0
102
RTVSPost2010Prop29
280
     1
102
RTVSPost2010PropOp29
 70
     0
102
RTVSPost2010Prop30
280
     1
102
RTVSPost2010PropOp30
 70
     0
102
RTVSPost2010Prop31
280
     0
102
RTVSPost2010PropOp31
 70
     0
102
RTVSPost2010Prop32
280
     0
102
RTVSPost2010PropOp32
 70
     0
102
RTVSPost2010Prop33
280
     0
102
RTVSPost2010PropOp33
 70
     0
102
RTVSPost2010Prop34
280
     0
102
RTVSPost2010PropOp34
 70
     0
102
RTVSPost2010Prop35
280
     0
102
RTVSPost2010PropOp35
 70
     0
102
RTVSPost2010Prop36
280
     0
102
RTVSPost2010PropOp36
 70
     0
102
RTVSPost2010Prop37
 90
       50
102
RTVSPost2010PropOp37
 70
     0
102
RTVSPost2010Prop38
140
0.0
102
RTVSPost2010PropOp38
 70
     0
102
RTVSPost2010Prop39
140
1.0
102
RTVSPost2010PropOp39
 70
     0
102
RTVSPost2010Prop40
 90
        0
102
RTVSPost2010PropOp40
 70
     0
102
RTVSPost2010Prop41ColorIndex
 90
       18
102
RTVSPost2010Prop41ColorRGB
 90
        0
102
RTVSPost2010PropOp41
 70
     0
102
RTVSPost2010Prop42
 90
       50
102
RTVSPost2010PropOp42
 70
     0
102
RTVSPost2010Prop43
 90
        3
102
RTVSPost2010PropOp43
 70
     0
102
RTVSPost2010Prop44ColorIndex
 90
        5
102
RTVSPost2010Prop44ColorRGB
 90
      255
102
RTVSPost2010PropOp44
 70
     0
102
RTVSPost2010Prop45
280
     0
102
RTVSPost2010PropOp45
 70
     0
102
RTVSPost2010Prop46
 90
       50
102
RTVSPost2010PropOp46
 70
     0
102
RTVSPost2010Prop47
 90
       50
102
RTVSPost2010PropOp47
 70
     0
102
RTVSPost2010Prop48
 90
       50
102
RTVSPost2010PropOp48
 70
     0
102
RTVSPost2010Prop49
280
     0
102
RTVSPost2010PropOp49
 70
     0
102
RTVSPost2010Prop50
 90
       50
102
RTVSPost2010PropOp50
 70
     0
102
RTVSPost2010Prop51ColorIndex
 90
      256
102
RTVSPost2010Prop51ColorRGB
 90
-16777216
102
RTVSPost2010PropOp51
 70
     0
102
RTVSPost2010Prop52
140
1.0
102
RTVSPost2010PropOp52
 70
     0
102
RTVSPost2010Prop53
 90
        2
102
RTVSPost2010PropOp53
 70
     0
102
RTVSPost2010Prop54
  1
strokes_ogs.tif
102
RTVSPost2010PropOp54
 70
     0
102
RTVSPost2010Prop55
280
     0
102
RTVSPost2010PropOp55
 70
     0
102
RTVSPost2010Prop56
140
1.0
102
RTVSPost2010PropOp56
 70
     0
102
RTVSPost2010Prop57
140
1.0
102
RTVSPost2010PropOp57
 70
     0
  0
XRECORD
  5
3F4
102
{ACAD_REACTORS
330
3F3
102
}
330
3F3
100
AcDbXrecord
280
     1
102
RTVSPropertyOp0
 70
     1
102
RTVSPropertyOp1
 70
     1
102
RTVSPropertyOp2
 70
     1
102
RTVSPropertyOp3
 70
     1
102
RTVSPropertyOp4
 70
     1
102
RTVSPropertyOp5
 70
     1
102
RTVSPropertyOp6
 70
     1
102
RTVSPropertyOp7
 70
     1
102
RTVSPropertyOp8
 70
     1
102
RTVSPropertyOp9
 70
     1
102
RTVSPropertyOp10
 70
     1
102
RTVSPropertyOp11
 70
     1
102
RTVSPropertyOp12
 70
     1
102
RTVSPropertyOp13
 70
     1
102
RTVSPropertyOp14
 70
     1
102
RTVSPropertyOp15
 70
     1
102
RTVSPropertyOp16
 70
     1
102
RTVSPropertyOp17
 70
     1
102
RTVSPropertyOp18
 70
     1
102
RTVSPropertyOp19
 70
     1
102
RTVSPropertyOp20
 70
     1
102
RTVSPropertyOp21
 70
     1
102
RTVSPropertyOp22
 70
     1
102
RTVSPropertyOp23
 70
     1
102
RTVSPropertyOp24
 70
     1
102
RTVSPropertyOp25
 70
     1
102
RTVSPropertyOp26
 70
     1
102
RTVSPropertyOp27
 70
     1
102
RTVSPropertyOp28
 70
     1
102
RTVSPropertyOp29
 70
     1
102
RTVSPropertyOp30
 70
     1
102
RTVSPropertyOp31
 70
     1
102
RTVSPropertyOp32
 70
     1
102
RTVSPropertyOp33
 70
     1
102
RTVSPropertyOp34
 70
     1
102
RTVSPropertyOp35
 70
     1
102
RTVSPropertyOp36
 70
     1
102
RTVSPropertyOp37
 70
     1
102
RTVSPropertyOp38
 70
     1
102
RTVSPropertyOp39
 70
     1
102
RTVSPropertyOp40
 70
     1
102
RTVSPropertyOp41
 70
     1
102
RTVSPropertyOp42
 70
     1
102
RTVSPropertyOp43
 70
     1
102
RTVSPropertyOp44
 70
     1
102
RTVSPropertyOp45
 70
     1
102
RTVSPropertyOp46
 70
     1
102
RTVSPropertyOp47
 70
     1
102
RTVSPropertyOp48
 70
     1
102
RTVSPropertyOp49
 70
     1
102
RTVSPropertyOp50
 70
     1
102
RTVSPropertyOp51
 70
     0
102
RTVSPropertyOp52
 70
     0
102
RTVSPropertyOp53
 70
     1
102
RTVSPropertyOp54
 70
     1
102
RTVSPropertyOp55
 70
     1
102
RTVSPropertyOp56
 70
     1
102
RTVSPropertyOp57
 70
     1
102
RTVSPost2010Prop28
280
     0
102
RTVSPost2010PropOp28
 70
     1
102
RTVSPost2010Prop29
280
     1
102
RTVSPost2010PropOp29
 70
     1
102
RTVSPost2010Prop30
280
     1
102
RTVSPost2010PropOp30
 70
     1
102
RTVSPost2010Prop31
280
     0
102
RTVSPost2010PropOp31
 70
     1
102
RTVSPost2010Prop32
280
     0
102
RTVSPost2010PropOp32
 70
     1
102
RTVSPost2010Prop33
280
     0
102
RTVSPost2010PropOp33
 70
     1
102
RTVSPost2010Prop34
280
     0
102
RTVSPost2010PropOp34
 70
     1
102
RTVSPost2010Prop35
280
     0
102
RTVSPost2010PropOp35
 70
     1
102
RTVSPost2010Prop36
280
     0
102
RTVSPost2010PropOp36
 70
     1
102
RTVSPost2010Prop37
 90
       50
102
RTVSPost2010PropOp37
 70
     1
102
RTVSPost2010Prop38
140
0.0
102
RTVSPost2010PropOp38
 70
     1
102
RTVSPost2010Prop39
140
1.0
102
RTVSPost2010PropOp39
 70
     1
102
RTVSPost2010Prop40
 90
        0
102
RTVSPost2010PropOp40
 70
     1
102
RTVSPost2010Prop41ColorIndex
 90
       18
102
RTVSPost2010Prop41ColorRGB
 90
        0
102
RTVSPost2010PropOp41
 70
     1
102
RTVSPost2010Prop42
 90
       50
102
RTVSPost2010PropOp42
 70
     1
102
RTVSPost2010Prop43
 90
        3
102
RTVSPost2010PropOp43
 70
     1
102
RTVSPost2010Prop44ColorIndex
 90
        5
102
RTVSPost2010Prop44ColorRGB
 90
      255
102
RTVSPost2010PropOp44
 70
     1
102
RTVSPost2010Prop45
280
     0
102
RTVSPost2010PropOp45
 70
     1
102
RTVSPost2010Prop46
 90
       50
102
RTVSPost2010PropOp46
 70
     1
102
RTVSPost2010Prop47
 90
       50
102
RTVSPost2010PropOp47
 70
     1
102
RTVSPost2010Prop48
 90
       50
102
RTVSPost2010PropOp48
 70
     1
102
RTVSPost2010Prop49
280
     0
102
RTVSPost2010PropOp49
 70
     1
102
RTVSPost2010Prop50
 90
       50
102
RTVSPost2010PropOp50
 70
     1
102
RTVSPost2010Prop51ColorIndex
 90
      256
102
RTVSPost2010Prop51ColorRGB
 90
-16777216
102
RTVSPost2010PropOp51
 70
     0
102
RTVSPost2010Prop52
140
1.0
102
RTVSPost2010PropOp52
 70
     0
102
RTVSPost2010Prop53
 90
        2
102
RTVSPost2010PropOp53
 70
     1
102
RTVSPost2010Prop54
  1
strokes_ogs.tif
102
RTVSPost2010PropOp54
 70
     1
102
RTVSPost2010Prop55
280
     0
102
RTVSPost2010PropOp55
 70
     1
102
RTVSPost2010Prop56
140
1.0
102
RTVSPost2010PropOp56
 70
     1
102
RTVSPost2010Prop57
140
1.0
102
RTVSPost2010PropOp57
 70
     1
  0
XRECORD
  5
3D8
102
{ACAD_REACTORS
330
3D7
102
}
330
3D7
100
AcDbXrecord
280
     1
102
RTVSPropertyOp0
 70
     1
102
RTVSPropertyOp1
 70
     1
102
RTVSPropertyOp2
 70
     1
102
RTVSPropertyOp3
 70
     1
102
RTVSPropertyOp4
 70
     1
102
RTVSPropertyOp5
 70
     1
102
RTVSPropertyOp6
 70
     1
102
RTVSPropertyOp7
 70
     1
102
RTVSPropertyOp8
 70
     1
102
RTVSPropertyOp9
 70
     1
102
RTVSPropertyOp10
 70
     1
102
RTVSPropertyOp11
 70
     1
102
RTVSPropertyOp12
 70
     1
102
RTVSPropertyOp13
 70
     1
102
RTVSPropertyOp14
 70
     1
102
RTVSPropertyOp15
 70
     1
102
RTVSPropertyOp16
 70
     1
102
RTVSPropertyOp17
 70
     1
102
RTVSPropertyOp18
 70
     1
102
RTVSPropertyOp19
 70
     1
102
RTVSPropertyOp20
 70
     1
102
RTVSPropertyOp21
 70
     1
102
RTVSPropertyOp22
 70
     1
102
RTVSPropertyOp23
 70
     1
102
RTVSPropertyOp24
 70
     1
102
RTVSPropertyOp25
 70
     1
102
RTVSPropertyOp26
 70
     1
102
RTVSPropertyOp27
 70
     1
102
RTVSPropertyOp28
 70
     1
102
RTVSPropertyOp29
 70
     1
102
RTVSPropertyOp30
 70
     1
102
RTVSPropertyOp31
 70
     1
102
RTVSPropertyOp32
 70
     1
102
RTVSPropertyOp33
 70
     1
102
RTVSPropertyOp34
 70
     1
102
RTVSPropertyOp35
 70
     1
102
RTVSPropertyOp36
 70
     1
102
RTVSPropertyOp37
 70
     1
102
RTVSPropertyOp38
 70
     1
102
RTVSPropertyOp39
 70
     1
102
RTVSPropertyOp40
 70
     1
102
RTVSPropertyOp41
 70
     1
102
RTVSPropertyOp42
 70
     1
102
RTVSPropertyOp43
 70
     1
102
RTVSPropertyOp44
 70
     1
102
RTVSPropertyOp45
 70
     1
102
RTVSPropertyOp46
 70
     1
102
RTVSPropertyOp47
 70
     1
102
RTVSPropertyOp48
 70
     1
102
RTVSPropertyOp49
 70
     1
102
RTVSPropertyOp50
 70
     1
102
RTVSPropertyOp51
 70
     0
102
RTVSPropertyOp52
 70
     0
102
RTVSPropertyOp53
 70
     1
102
RTVSPropertyOp54
 70
     1
102
RTVSPropertyOp55
 70
     1
102
RTVSPropertyOp56
 70
     1
102
RTVSPropertyOp57
 70
     1
102
RTVSPost2010Prop28
280
     0
102
RTVSPost2010PropOp28
 70
     1
102
RTVSPost2010Prop29
280
     1
102
RTVSPost2010PropOp29
 70
     1
102
RTVSPost2010Prop30
280
     1
102
RTVSPost2010PropOp30
 70
     1
102
RTVSPost2010Prop31
280
     0
102
RTVSPost2010PropOp31
 70
     1
102
RTVSPost2010Prop32
280
     0
102
RTVSPost2010PropOp32
 70
     1
102
RTVSPost2010Prop33
280
     0
102
RTVSPost2010PropOp33
 70
     1
102
RTVSPost2010Prop34
280
     0
102
RTVSPost2010PropOp34
 70
     1
102
RTVSPost2010Prop35
280
     0
102
RTVSPost2010PropOp35
 70
     1
102
RTVSPost2010Prop36
280
     0
102
RTVSPost2010PropOp36
 70
     1
102
RTVSPost2010Prop37
 90
       50
102
RTVSPost2010PropOp37
 70
     1
102
RTVSPost2010Prop38
140
0.0
102
RTVSPost2010PropOp38
 70
     1
102
RTVSPost2010Prop39
140
1.0
102
RTVSPost2010PropOp39
 70
     1
102
RTVSPost2010Prop40
 90
        0
102
RTVSPost2010PropOp40
 70
     1
102
RTVSPost2010Prop41ColorIndex
 90
       18
102
RTVSPost2010Prop41ColorRGB
 90
        0
102
RTVSPost2010PropOp41
 70
     1
102
RTVSPost2010Prop42
 90
       50
102
RTVSPost2010PropOp42
 70
     1
102
RTVSPost2010Prop43
 90
        3
102
RTVSPost2010PropOp43
 70
     1
102
RTVSPost2010Prop44ColorIndex
 90
        5
102
RTVSPost2010Prop44ColorRGB
 90
      255
102
RTVSPost2010PropOp44
 70
     1
102
RTVSPost2010Prop45
280
     0
102
RTVSPost2010PropOp45
 70
     1
102
RTVSPost2010Prop46
 90
       50
102
RTVSPost2010PropOp46
 70
     1
102
RTVSPost2010Prop47
 90
       50
102
RTVSPost2010PropOp47
 70
     1
102
RTVSPost2010Prop48
 90
       50
102
RTVSPost2010PropOp48
 70
     1
102
RTVSPost2010Prop49
280
     0
102
RTVSPost2010PropOp49
 70
     1
102
RTVSPost2010Prop50
 90
       50
102
RTVSPost2010PropOp50
 70
     1
102
RTVSPost2010Prop51ColorIndex
 90
      256
102
RTVSPost2010Prop51ColorRGB
 90
-16777216
102
RTVSPost2010PropOp51
 70
     0
102
RTVSPost2010Prop52
140
1.0
102
RTVSPost2010PropOp52
 70
     0
102
RTVSPost2010Prop53
 90
        2
102
RTVSPost2010PropOp53
 70
     1
102
RTVSPost2010Prop54
  1
strokes_ogs.tif
102
RTVSPost2010PropOp54
 70
     1
102
RTVSPost2010Prop55
280
     0
102
RTVSPost2010PropOp55
 70
     1
102
RTVSPost2010Prop56
140
1.0
102
RTVSPost2010PropOp56
 70
     1
102
RTVSPost2010Prop57
140
1.0
102
RTVSPost2010PropOp57
 70
     1
  0
XRECORD
  5
3DA
102
{ACAD_REACTORS
330
3D9
102
}
330
3D9
100
AcDbXrecord
280
     1
102
RTVSPropertyOp0
 70
     1
102
RTVSPropertyOp1
 70
     1
102
RTVSPropertyOp2
 70
     1
102
RTVSPropertyOp3
 70
     1
102
RTVSPropertyOp4
 70
     1
102
RTVSPropertyOp5
 70
     1
102
RTVSPropertyOp6
 70
     1
102
RTVSPropertyOp7
 70
     1
102
RTVSPropertyOp8
 70
     1
102
RTVSPropertyOp9
 70
     1
102
RTVSPropertyOp10
 70
     1
102
RTVSPropertyOp11
 70
     1
102
RTVSPropertyOp12
 70
     1
102
RTVSPropertyOp13
 70
     1
102
RTVSPropertyOp14
 70
     1
102
RTVSPropertyOp15
 70
     1
102
RTVSPropertyOp16
 70
     1
102
RTVSPropertyOp17
 70
     1
102
RTVSPropertyOp18
 70
     1
102
RTVSPropertyOp19
 70
     1
102
RTVSPropertyOp20
 70
     1
102
RTVSPropertyOp21
 70
     1
102
RTVSPropertyOp22
 70
     1
102
RTVSPropertyOp23
 70
     1
102
RTVSPropertyOp24
 70
     1
102
RTVSPropertyOp25
 70
     1
102
RTVSPropertyOp26
 70
     1
102
RTVSPropertyOp27
 70
     1
102
RTVSPropertyOp28
 70
     1
102
RTVSPropertyOp29
 70
     1
102
RTVSPropertyOp30
 70
     1
102
RTVSPropertyOp31
 70
     1
102
RTVSPropertyOp32
 70
     1
102
RTVSPropertyOp33
 70
     1
102
RTVSPropertyOp34
 70
     1
102
RTVSPropertyOp35
 70
     1
102
RTVSPropertyOp36
 70
     1
102
RTVSPropertyOp37
 70
     1
102
RTVSPropertyOp38
 70
     1
102
RTVSPropertyOp39
 70
     1
102
RTVSPropertyOp40
 70
     1
102
RTVSPropertyOp41
 70
     1
102
RTVSPropertyOp42
 70
     1
102
RTVSPropertyOp43
 70
     1
102
RTVSPropertyOp44
 70
     1
102
RTVSPropertyOp45
 70
     1
102
RTVSPropertyOp46
 70
     1
102
RTVSPropertyOp47
 70
     1
102
RTVSPropertyOp48
 70
     1
102
RTVSPropertyOp49
 70
     1
102
RTVSPropertyOp50
 70
     1
102
RTVSPropertyOp51
 70
     0
102
RTVSPropertyOp52
 70
     0
102
RTVSPropertyOp53
 70
     1
102
RTVSPropertyOp54
 70
     1
102
RTVSPropertyOp55
 70
     1
102
RTVSPropertyOp56
 70
     1
102
RTVSPropertyOp57
 70
     1
102
RTVSPost2010Prop28
280
     0
102
RTVSPost2010PropOp28
 70
     1
102
RTVSPost2010Prop29
280
     1
102
RTVSPost2010PropOp29
 70
     1
102
RTVSPost2010Prop30
280
     1
102
RTVSPost2010PropOp30
 70
     1
102
RTVSPost2010Prop31
280
     0
102
RTVSPost2010PropOp31
 70
     1
102
RTVSPost2010Prop32
280
     0
102
RTVSPost2010PropOp32
 70
     1
102
RTVSPost2010Prop33
280
     0
102
RTVSPost2010PropOp33
 70
     1
102
RTVSPost2010Prop34
280
     0
102
RTVSPost2010PropOp34
 70
     1
102
RTVSPost2010Prop35
280
     0
102
RTVSPost2010PropOp35
 70
     1
102
RTVSPost2010Prop36
280
     0
102
RTVSPost2010PropOp36
 70
     1
102
RTVSPost2010Prop37
 90
       50
102
RTVSPost2010PropOp37
 70
     1
102
RTVSPost2010Prop38
140
0.0
102
RTVSPost2010PropOp38
 70
     1
102
RTVSPost2010Prop39
140
1.0
102
RTVSPost2010PropOp39
 70
     1
102
RTVSPost2010Prop40
 90
        0
102
RTVSPost2010PropOp40
 70
     1
102
RTVSPost2010Prop41ColorIndex
 90
       18
102
RTVSPost2010Prop41ColorRGB
 90
        0
102
RTVSPost2010PropOp41
 70
     1
102
RTVSPost2010Prop42
 90
       50
102
RTVSPost2010PropOp42
 70
     1
102
RTVSPost2010Prop43
 90
        3
102
RTVSPost2010PropOp43
 70
     1
102
RTVSPost2010Prop44ColorIndex
 90
        5
102
RTVSPost2010Prop44ColorRGB
 90
      255
102
RTVSPost2010PropOp44
 70
     1
102
RTVSPost2010Prop45
280
     0
102
RTVSPost2010PropOp45
 70
     1
102
RTVSPost2010Prop46
 90
       50
102
RTVSPost2010PropOp46
 70
     1
102
RTVSPost2010Prop47
 90
       50
102
RTVSPost2010PropOp47
 70
     1
102
RTVSPost2010Prop48
 90
       50
102
RTVSPost2010PropOp48
 70
     1
102
RTVSPost2010Prop49
280
     0
102
RTVSPost2010PropOp49
 70
     1
102
RTVSPost2010Prop50
 90
       50
102
RTVSPost2010PropOp50
 70
     1
102
RTVSPost2010Prop51ColorIndex
 90
      256
102
RTVSPost2010Prop51ColorRGB
 90
-16777216
102
RTVSPost2010PropOp51
 70
     0
102
RTVSPost2010Prop52
140
1.0
102
RTVSPost2010PropOp52
 70
     0
102
RTVSPost2010Prop53
 90
        2
102
RTVSPost2010PropOp53
 70
     1
102
RTVSPost2010Prop54
  1
strokes_ogs.tif
102
RTVSPost2010PropOp54
 70
     1
102
RTVSPost2010Prop55
280
     0
102
RTVSPost2010PropOp55
 70
     1
102
RTVSPost2010Prop56
140
1.0
102
RTVSPost2010PropOp56
 70
     1
102
RTVSPost2010Prop57
140
1.0
102
RTVSPost2010PropOp57
 70
     1
  0
XRECORD
  5
3DC
102
{ACAD_REACTORS
330
3DB
102
}
330
3DB
100
AcDbXrecord
280
     1
102
RTVSPropertyOp0
 70
     1
102
RTVSPropertyOp1
 70
     1
102
RTVSPropertyOp2
 70
     1
102
RTVSPropertyOp3
 70
     1
102
RTVSPropertyOp4
 70
     1
102
RTVSPropertyOp5
 70
     1
102
RTVSPropertyOp6
 70
     1
102
RTVSPropertyOp7
 70
     1
102
RTVSPropertyOp8
 70
     1
102
RTVSPropertyOp9
 70
     1
102
RTVSPropertyOp10
 70
     1
102
RTVSPropertyOp11
 70
     1
102
RTVSPropertyOp12
 70
     1
102
RTVSPropertyOp13
 70
     1
102
RTVSPropertyOp14
 70
     1
102
RTVSPropertyOp15
 70
     1
102
RTVSPropertyOp16
 70
     1
102
RTVSPropertyOp17
 70
     1
102
RTVSPropertyOp18
 70
     1
102
RTVSPropertyOp19
 70
     1
102
RTVSPropertyOp20
 70
     1
102
RTVSPropertyOp21
 70
     1
102
RTVSPropertyOp22
 70
     1
102
RTVSPropertyOp23
 70
     1
102
RTVSPropertyOp24
 70
     1
102
RTVSPropertyOp25
 70
     1
102
RTVSPropertyOp26
 70
     1
102
RTVSPropertyOp27
 70
     1
102
RTVSPropertyOp28
 70
     1
102
RTVSPropertyOp29
 70
     1
102
RTVSPropertyOp30
 70
     1
102
RTVSPropertyOp31
 70
     1
102
RTVSPropertyOp32
 70
     1
102
RTVSPropertyOp33
 70
     1
102
RTVSPropertyOp34
 70
     1
102
RTVSPropertyOp35
 70
     1
102
RTVSPropertyOp36
 70
     1
102
RTVSPropertyOp37
 70
     1
102
RTVSPropertyOp38
 70
     1
102
RTVSPropertyOp39
 70
     1
102
RTVSPropertyOp40
 70
     1
102
RTVSPropertyOp41
 70
     1
102
RTVSPropertyOp42
 70
     1
102
RTVSPropertyOp43
 70
     1
102
RTVSPropertyOp44
 70
     1
102
RTVSPropertyOp45
 70
     1
102
RTVSPropertyOp46
 70
     1
102
RTVSPropertyOp47
 70
     1
102
RTVSPropertyOp48
 70
     1
102
RTVSPropertyOp49
 70
     1
102
RTVSPropertyOp50
 70
     1
102
RTVSPropertyOp51
 70
     0
102
RTVSPropertyOp52
 70
     0
102
RTVSPropertyOp53
 70
     1
102
RTVSPropertyOp54
 70
     1
102
RTVSPropertyOp55
 70
     1
102
RTVSPropertyOp56
 70
     1
102
RTVSPropertyOp57
 70
     1
102
RTVSPost2010Prop28
280
     0
102
RTVSPost2010PropOp28
 70
     1
102
RTVSPost2010Prop29
280
     1
102
RTVSPost2010PropOp29
 70
     1
102
RTVSPost2010Prop30
280
     1
102
RTVSPost2010PropOp30
 70
     1
102
RTVSPost2010Prop31
280
     0
102
RTVSPost2010PropOp31
 70
     1
102
RTVSPost2010Prop32
280
     0
102
RTVSPost2010PropOp32
 70
     1
102
RTVSPost2010Prop33
280
     0
102
RTVSPost2010PropOp33
 70
     1
102
RTVSPost2010Prop34
280
     0
102
RTVSPost2010PropOp34
 70
     1
102
RTVSPost2010Prop35
280
     0
102
RTVSPost2010PropOp35
 70
     1
102
RTVSPost2010Prop36
280
     0
102
RTVSPost2010PropOp36
 70
     1
102
RTVSPost2010Prop37
 90
       50
102
RTVSPost2010PropOp37
 70
     1
102
RTVSPost2010Prop38
140
0.0
102
RTVSPost2010PropOp38
 70
     1
102
RTVSPost2010Prop39
140
1.0
102
RTVSPost2010PropOp39
 70
     1
102
RTVSPost2010Prop40
 90
        0
102
RTVSPost2010PropOp40
 70
     1
102
RTVSPost2010Prop41ColorIndex
 90
       18
102
RTVSPost2010Prop41ColorRGB
 90
        0
102
RTVSPost2010PropOp41
 70
     1
102
RTVSPost2010Prop42
 90
       50
102
RTVSPost2010PropOp42
 70
     1
102
RTVSPost2010Prop43
 90
        3
102
RTVSPost2010PropOp43
 70
     1
102
RTVSPost2010Prop44ColorIndex
 90
        5
102
RTVSPost2010Prop44ColorRGB
 90
      255
102
RTVSPost2010PropOp44
 70
     1
102
RTVSPost2010Prop45
280
     0
102
RTVSPost2010PropOp45
 70
     1
102
RTVSPost2010Prop46
 90
       50
102
RTVSPost2010PropOp46
 70
     1
102
RTVSPost2010Prop47
 90
       50
102
RTVSPost2010PropOp47
 70
     1
102
RTVSPost2010Prop48
 90
       50
102
RTVSPost2010PropOp48
 70
     1
102
RTVSPost2010Prop49
280
     0
102
RTVSPost2010PropOp49
 70
     1
102
RTVSPost2010Prop50
 90
       50
102
RTVSPost2010PropOp50
 70
     1
102
RTVSPost2010Prop51ColorIndex
 90
      256
102
RTVSPost2010Prop51ColorRGB
 90
-16777216
102
RTVSPost2010PropOp51
 70
     0
102
RTVSPost2010Prop52
140
1.0
102
RTVSPost2010PropOp52
 70
     0
102
RTVSPost2010Prop53
 90
        2
102
RTVSPost2010PropOp53
 70
     1
102
RTVSPost2010Prop54
  1
strokes_ogs.tif
102
RTVSPost2010PropOp54
 70
     1
102
RTVSPost2010Prop55
280
     0
102
RTVSPost2010PropOp55
 70
     1
102
RTVSPost2010Prop56
140
1.0
102
RTVSPost2010PropOp56
 70
     1
102
RTVSPost2010Prop57
140
1.0
102
RTVSPost2010PropOp57
 70
     1
  0
XRECORD
  5
3DE
102
{ACAD_REACTORS
330
3DD
102
}
330
3DD
100
AcDbXrecord
280
     1
102
RTVSPropertyOp0
 70
     1
102
RTVSPropertyOp1
 70
     1
102
RTVSPropertyOp2
 70
     1
102
RTVSPropertyOp3
 70
     1
102
RTVSPropertyOp4
 70
     1
102
RTVSPropertyOp5
 70
     1
102
RTVSPropertyOp6
 70
     1
102
RTVSPropertyOp7
 70
     1
102
RTVSPropertyOp8
 70
     1
102
RTVSPropertyOp9
 70
     1
102
RTVSPropertyOp10
 70
     1
102
RTVSPropertyOp11
 70
     1
102
RTVSPropertyOp12
 70
     1
102
RTVSPropertyOp13
 70
     1
102
RTVSPropertyOp14
 70
     1
102
RTVSPropertyOp15
 70
     1
102
RTVSPropertyOp16
 70
     1
102
RTVSPropertyOp17
 70
     1
102
RTVSPropertyOp18
 70
     1
102
RTVSPropertyOp19
 70
     1
102
RTVSPropertyOp20
 70
     1
102
RTVSPropertyOp21
 70
     1
102
RTVSPropertyOp22
 70
     1
102
RTVSPropertyOp23
 70
     1
102
RTVSPropertyOp24
 70
     1
102
RTVSPropertyOp25
 70
     1
102
RTVSPropertyOp26
 70
     1
102
RTVSPropertyOp27
 70
     1
102
RTVSPropertyOp28
 70
     1
102
RTVSPropertyOp29
 70
     1
102
RTVSPropertyOp30
 70
     1
102
RTVSPropertyOp31
 70
     1
102
RTVSPropertyOp32
 70
     1
102
RTVSPropertyOp33
 70
     1
102
RTVSPropertyOp34
 70
     1
102
RTVSPropertyOp35
 70
     1
102
RTVSPropertyOp36
 70
     1
102
RTVSPropertyOp37
 70
     1
102
RTVSPropertyOp38
 70
     1
102
RTVSPropertyOp39
 70
     1
102
RTVSPropertyOp40
 70
     1
102
RTVSPropertyOp41
 70
     1
102
RTVSPropertyOp42
 70
     1
102
RTVSPropertyOp43
 70
     1
102
RTVSPropertyOp44
 70
     1
102
RTVSPropertyOp45
 70
     1
102
RTVSPropertyOp46
 70
     1
102
RTVSPropertyOp47
 70
     1
102
RTVSPropertyOp48
 70
     1
102
RTVSPropertyOp49
 70
     1
102
RTVSPropertyOp50
 70
     1
102
RTVSPropertyOp51
 70
     0
102
RTVSPropertyOp52
 70
     0
102
RTVSPropertyOp53
 70
     1
102
RTVSPropertyOp54
 70
     1
102
RTVSPropertyOp55
 70
     1
102
RTVSPropertyOp56
 70
     1
102
RTVSPropertyOp57
 70
     1
102
RTVSPost2010Prop28
280
     0
102
RTVSPost2010PropOp28
 70
     1
102
RTVSPost2010Prop29
280
     1
102
RTVSPost2010PropOp29
 70
     1
102
RTVSPost2010Prop30
280
     1
102
RTVSPost2010PropOp30
 70
     1
102
RTVSPost2010Prop31
280
     0
102
RTVSPost2010PropOp31
 70
     1
102
RTVSPost2010Prop32
280
     0
102
RTVSPost2010PropOp32
 70
     1
102
RTVSPost2010Prop33
280
     0
102
RTVSPost2010PropOp33
 70
     1
102
RTVSPost2010Prop34
280
     0
102
RTVSPost2010PropOp34
 70
     1
102
RTVSPost2010Prop35
280
     0
102
RTVSPost2010PropOp35
 70
     1
102
RTVSPost2010Prop36
280
     0
102
RTVSPost2010PropOp36
 70
     1
102
RTVSPost2010Prop37
 90
       50
102
RTVSPost2010PropOp37
 70
     1
102
RTVSPost2010Prop38
140
0.0
102
RTVSPost2010PropOp38
 70
     1
102
RTVSPost2010Prop39
140
1.0
102
RTVSPost2010PropOp39
 70
     1
102
RTVSPost2010Prop40
 90
        0
102
RTVSPost2010PropOp40
 70
     1
102
RTVSPost2010Prop41ColorIndex
 90
       18
102
RTVSPost2010Prop41ColorRGB
 90
        0
102
RTVSPost2010PropOp41
 70
     1
102
RTVSPost2010Prop42
 90
       50
102
RTVSPost2010PropOp42
 70
     1
102
RTVSPost2010Prop43
 90
        3
102
RTVSPost2010PropOp43
 70
     1
102
RTVSPost2010Prop44ColorIndex
 90
        5
102
RTVSPost2010Prop44ColorRGB
 90
      255
102
RTVSPost2010PropOp44
 70
     1
102
RTVSPost2010Prop45
280
     0
102
RTVSPost2010PropOp45
 70
     1
102
RTVSPost2010Prop46
 90
       50
102
RTVSPost2010PropOp46
 70
     1
102
RTVSPost2010Prop47
 90
       50
102
RTVSPost2010PropOp47
 70
     1
102
RTVSPost2010Prop48
 90
       50
102
RTVSPost2010PropOp48
 70
     1
102
RTVSPost2010Prop49
280
     0
102
RTVSPost2010PropOp49
 70
     1
102
RTVSPost2010Prop50
 90
       50
102
RTVSPost2010PropOp50
 70
     1
102
RTVSPost2010Prop51ColorIndex
 90
      256
102
RTVSPost2010Prop51ColorRGB
 90
-16777216
102
RTVSPost2010PropOp51
 70
     0
102
RTVSPost2010Prop52
140
1.0
102
RTVSPost2010PropOp52
 70
     0
102
RTVSPost2010Prop53
 90
        2
102
RTVSPost2010PropOp53
 70
     1
102
RTVSPost2010Prop54
  1
strokes_ogs.tif
102
RTVSPost2010PropOp54
 70
     1
102
RTVSPost2010Prop55
280
     0
102
RTVSPost2010PropOp55
 70
     1
102
RTVSPost2010Prop56
140
1.0
102
RTVSPost2010PropOp56
 70
     1
102
RTVSPost2010Prop57
140
1.0
102
RTVSPost2010PropOp57
 70
     1
  0
XRECORD
  5
3E4
102
{ACAD_REACTORS
330
3E3
102
}
330
3E3
100
AcDbXrecord
280
     1
102
RTVSPropertyOp0
 70
     1
102
RTVSPropertyOp1
 70
     1
102
RTVSPropertyOp2
 70
     1
102
RTVSPropertyOp3
 70
     1
102
RTVSPropertyOp4
 70
     1
102
RTVSPropertyOp5
 70
     1
102
RTVSPropertyOp6
 70
     1
102
RTVSPropertyOp7
 70
     1
102
RTVSPropertyOp8
 70
     1
102
RTVSPropertyOp9
 70
     1
102
RTVSPropertyOp10
 70
     1
102
RTVSPropertyOp11
 70
     1
102
RTVSPropertyOp12
 70
     1
102
RTVSPropertyOp13
 70
     1
102
RTVSPropertyOp14
 70
     1
102
RTVSPropertyOp15
 70
     1
102
RTVSPropertyOp16
 70
     1
102
RTVSPropertyOp17
 70
     1
102
RTVSPropertyOp18
 70
     1
102
RTVSPropertyOp19
 70
     1
102
RTVSPropertyOp20
 70
     1
102
RTVSPropertyOp21
 70
     1
102
RTVSPropertyOp22
 70
     1
102
RTVSPropertyOp23
 70
     1
102
RTVSPropertyOp24
 70
     1
102
RTVSPropertyOp25
 70
     1
102
RTVSPropertyOp26
 70
     1
102
RTVSPropertyOp27
 70
     1
102
RTVSPropertyOp28
 70
     1
102
RTVSPropertyOp29
 70
     1
102
RTVSPropertyOp30
 70
     1
102
RTVSPropertyOp31
 70
     1
102
RTVSPropertyOp32
 70
     1
102
RTVSPropertyOp33
 70
     1
102
RTVSPropertyOp34
 70
     1
102
RTVSPropertyOp35
 70
     1
102
RTVSPropertyOp36
 70
     1
102
RTVSPropertyOp37
 70
     1
102
RTVSPropertyOp38
 70
     1
102
RTVSPropertyOp39
 70
     1
102
RTVSPropertyOp40
 70
     1
102
RTVSPropertyOp41
 70
     1
102
RTVSPropertyOp42
 70
     1
102
RTVSPropertyOp43
 70
     1
102
RTVSPropertyOp44
 70
     1
102
RTVSPropertyOp45
 70
     1
102
RTVSPropertyOp46
 70
     1
102
RTVSPropertyOp47
 70
     1
102
RTVSPropertyOp48
 70
     1
102
RTVSPropertyOp49
 70
     1
102
RTVSPropertyOp50
 70
     1
102
RTVSPropertyOp51
 70
     0
102
RTVSPropertyOp52
 70
     0
102
RTVSPropertyOp53
 70
     1
102
RTVSPropertyOp54
 70
     1
102
RTVSPropertyOp55
 70
     1
102
RTVSPropertyOp56
 70
     1
102
RTVSPropertyOp57
 70
     1
102
RTVSPost2010Prop28
280
     0
102
RTVSPost2010PropOp28
 70
     1
102
RTVSPost2010Prop29
280
     1
102
RTVSPost2010PropOp29
 70
     1
102
RTVSPost2010Prop30
280
     1
102
RTVSPost2010PropOp30
 70
     1
102
RTVSPost2010Prop31
280
     0
102
RTVSPost2010PropOp31
 70
     1
102
RTVSPost2010Prop32
280
     0
102
RTVSPost2010PropOp32
 70
     1
102
RTVSPost2010Prop33
280
     0
102
RTVSPost2010PropOp33
 70
     1
102
RTVSPost2010Prop34
280
     0
102
RTVSPost2010PropOp34
 70
     1
102
RTVSPost2010Prop35
280
     0
102
RTVSPost2010PropOp35
 70
     1
102
RTVSPost2010Prop36
280
     0
102
RTVSPost2010PropOp36
 70
     1
102
RTVSPost2010Prop37
 90
       50
102
RTVSPost2010PropOp37
 70
     1
102
RTVSPost2010Prop38
140
0.0
102
RTVSPost2010PropOp38
 70
     1
102
RTVSPost2010Prop39
140
1.0
102
RTVSPost2010PropOp39
 70
     1
102
RTVSPost2010Prop40
 90
        0
102
RTVSPost2010PropOp40
 70
     1
102
RTVSPost2010Prop41ColorIndex
 90
       18
102
RTVSPost2010Prop41ColorRGB
 90
        0
102
RTVSPost2010PropOp41
 70
     1
102
RTVSPost2010Prop42
 90
       50
102
RTVSPost2010PropOp42
 70
     1
102
RTVSPost2010Prop43
 90
        3
102
RTVSPost2010PropOp43
 70
     1
102
RTVSPost2010Prop44ColorIndex
 90
        5
102
RTVSPost2010Prop44ColorRGB
 90
      255
102
RTVSPost2010PropOp44
 70
     1
102
RTVSPost2010Prop45
280
     0
102
RTVSPost2010PropOp45
 70
     1
102
RTVSPost2010Prop46
 90
       50
102
RTVSPost2010PropOp46
 70
     1
102
RTVSPost2010Prop47
 90
       50
102
RTVSPost2010PropOp47
 70
     1
102
RTVSPost2010Prop48
 90
       50
102
RTVSPost2010PropOp48
 70
     1
102
RTVSPost2010Prop49
280
     0
102
RTVSPost2010PropOp49
 70
     1
102
RTVSPost2010Prop50
 90
       50
102
RTVSPost2010PropOp50
 70
     1
102
RTVSPost2010Prop51ColorIndex
 90
      256
102
RTVSPost2010Prop51ColorRGB
 90
-16777216
102
RTVSPost2010PropOp51
 70
     0
102
RTVSPost2010Prop52
140
1.0
102
RTVSPost2010PropOp52
 70
     0
102
RTVSPost2010Prop53
 90
        2
102
RTVSPost2010PropOp53
 70
     1
102
RTVSPost2010Prop54
  1
strokes_ogs.tif
102
RTVSPost2010PropOp54
 70
     1
102
RTVSPost2010Prop55
280
     0
102
RTVSPost2010PropOp55
 70
     1
102
RTVSPost2010Prop56
140
1.0
102
RTVSPost2010PropOp56
 70
     1
102
RTVSPost2010Prop57
140
1.0
102
RTVSPost2010PropOp57
 70
     1
  0
XRECORD
  5
3F8
102
{ACAD_REACTORS
330
3F7
102
}
330
3F7
100
AcDbXrecord
280
     1
102
RTVSPropertyOp0
 70
     0
102
RTVSPropertyOp1
 70
     0
102
RTVSPropertyOp2
 70
     0
102
RTVSPropertyOp3
 70
     0
102
RTVSPropertyOp4
 70
     0
102
RTVSPropertyOp5
 70
     0
102
RTVSPropertyOp6
 70
     0
102
RTVSPropertyOp7
 70
     0
102
RTVSPropertyOp8
 70
     0
102
RTVSPropertyOp9
 70
     0
102
RTVSPropertyOp10
 70
     0
102
RTVSPropertyOp11
 70
     0
102
RTVSPropertyOp12
 70
     0
102
RTVSPropertyOp13
 70
     0
102
RTVSPropertyOp14
 70
     2
102
RTVSPropertyOp15
 70
     0
102
RTVSPropertyOp16
 70
     0
102
RTVSPropertyOp17
 70
     0
102
RTVSPropertyOp18
 70
     0
102
RTVSPropertyOp19
 70
     0
102
RTVSPropertyOp20
 70
     0
102
RTVSPropertyOp21
 70
     0
102
RTVSPropertyOp22
 70
     0
102
RTVSPropertyOp23
 70
     0
102
RTVSPropertyOp24
 70
     0
102
RTVSPropertyOp25
 70
     0
102
RTVSPropertyOp26
 70
     0
102
RTVSPropertyOp27
 70
     0
102
RTVSPropertyOp28
 70
     0
102
RTVSPropertyOp29
 70
     0
102
RTVSPropertyOp30
 70
     0
102
RTVSPropertyOp31
 70
     0
102
RTVSPropertyOp32
 70
     0
102
RTVSPropertyOp33
 70
     0
102
RTVSPropertyOp34
 70
     0
102
RTVSPropertyOp35
 70
     0
102
RTVSPropertyOp36
 70
     0
102
RTVSPropertyOp37
 70
     0
102
RTVSPropertyOp38
 70
     0
102
RTVSPropertyOp39
 70
     0
102
RTVSPropertyOp40
 70
     0
102
RTVSPropertyOp41
 70
     0
102
RTVSPropertyOp42
 70
     0
102
RTVSPropertyOp43
 70
     0
102
RTVSPropertyOp44
 70
     0
102
RTVSPropertyOp45
 70
     0
102
RTVSPropertyOp46
 70
     0
102
RTVSPropertyOp47
 70
     0
102
RTVSPropertyOp48
 70
     0
102
RTVSPropertyOp49
 70
     0
102
RTVSPropertyOp50
 70
     0
102
RTVSPropertyOp51
 70
     0
102
RTVSPropertyOp52
 70
     0
102
RTVSPropertyOp53
 70
     0
102
RTVSPropertyOp54
 70
     0
102
RTVSPropertyOp55
 70
     0
102
RTVSPropertyOp56
 70
     0
102
RTVSPropertyOp57
 70
     0
102
RTVSPost2010Prop28
280
     0
102
RTVSPost2010PropOp28
 70
     0
102
RTVSPost2010Prop29
280
     1
102
RTVSPost2010PropOp29
 70
     0
102
RTVSPost2010Prop30
280
     1
102
RTVSPost2010PropOp30
 70
     0
102
RTVSPost2010Prop31
280
     0
102
RTVSPost2010PropOp31
 70
     0
102
RTVSPost2010Prop32
280
     0
102
RTVSPost2010PropOp32
 70
     0
102
RTVSPost2010Prop33
280
     0
102
RTVSPost2010PropOp33
 70
     0
102
RTVSPost2010Prop34
280
     0
102
RTVSPost2010PropOp34
 70
     0
102
RTVSPost2010Prop35
280
     0
102
RTVSPost2010PropOp35
 70
     0
102
RTVSPost2010Prop36
280
     0
102
RTVSPost2010PropOp36
 70
     0
102
RTVSPost2010Prop37
 90
       50
102
RTVSPost2010PropOp37
 70
     0
102
RTVSPost2010Prop38
140
0.0
102
RTVSPost2010PropOp38
 70
     0
102
RTVSPost2010Prop39
140
1.0
102
RTVSPost2010PropOp39
 70
     0
102
RTVSPost2010Prop40
 90
        0
102
RTVSPost2010PropOp40
 70
     0
102
RTVSPost2010Prop41ColorIndex
 90
       18
102
RTVSPost2010Prop41ColorRGB
 90
        0
102
RTVSPost2010PropOp41
 70
     0
102
RTVSPost2010Prop42
 90
       50
102
RTVSPost2010PropOp42
 70
     0
102
RTVSPost2010Prop43
 90
        3
102
RTVSPost2010PropOp43
 70
     0
102
RTVSPost2010Prop44ColorIndex
 90
        5
102
RTVSPost2010Prop44ColorRGB
 90
      255
102
RTVSPost2010PropOp44
 70
     0
102
RTVSPost2010Prop45
280
     0
102
RTVSPost2010PropOp45
 70
     0
102
RTVSPost2010Prop46
 90
       50
102
RTVSPost2010PropOp46
 70
     0
102
RTVSPost2010Prop47
 90
       50
102
RTVSPost2010PropOp47
 70
     0
102
RTVSPost2010Prop48
 90
       50
102
RTVSPost2010PropOp48
 70
     0
102
RTVSPost2010Prop49
280
     0
102
RTVSPost2010PropOp49
 70
     0
102
RTVSPost2010Prop50
 90
       50
102
RTVSPost2010PropOp50
 70
     0
102
RTVSPost2010Prop51ColorIndex
 90
      256
102
RTVSPost2010Prop51ColorRGB
 90
-16777216
102
RTVSPost2010PropOp51
 70
     0
102
RTVSPost2010Prop52
140
1.0
102
RTVSPost2010PropOp52
 70
     0
102
RTVSPost2010Prop53
 90
        2
102
RTVSPost2010PropOp53
 70
     0
102
RTVSPost2010Prop54
  1
strokes_ogs.tif
102
RTVSPost2010PropOp54
 70
     0
102
RTVSPost2010Prop55
280
     0
102
RTVSPost2010PropOp55
 70
     0
102
RTVSPost2010Prop56
140
1.0
102
RTVSPost2010PropOp56
 70
     0
102
RTVSPost2010Prop57
140
1.0
102
RTVSPost2010PropOp57
 70
     0
  0
XRECORD
  5
3F2
102
{ACAD_REACTORS
330
3F1
102
}
330
3F1
100
AcDbXrecord
280
     1
102
RTVSPropertyOp0
 70
     1
102
RTVSPropertyOp1
 70
     1
102
RTVSPropertyOp2
 70
     1
102
RTVSPropertyOp3
 70
     1
102
RTVSPropertyOp4
 70
     1
102
RTVSPropertyOp5
 70
     1
102
RTVSPropertyOp6
 70
     1
102
RTVSPropertyOp7
 70
     1
102
RTVSPropertyOp8
 70
     1
102
RTVSPropertyOp9
 70
     1
102
RTVSPropertyOp10
 70
     1
102
RTVSPropertyOp11
 70
     1
102
RTVSPropertyOp12
 70
     1
102
RTVSPropertyOp13
 70
     1
102
RTVSPropertyOp14
 70
     1
102
RTVSPropertyOp15
 70
     1
102
RTVSPropertyOp16
 70
     1
102
RTVSPropertyOp17
 70
     1
102
RTVSPropertyOp18
 70
     1
102
RTVSPropertyOp19
 70
     1
102
RTVSPropertyOp20
 70
     1
102
RTVSPropertyOp21
 70
     1
102
RTVSPropertyOp22
 70
     1
102
RTVSPropertyOp23
 70
     1
102
RTVSPropertyOp24
 70
     1
102
RTVSPropertyOp25
 70
     1
102
RTVSPropertyOp26
 70
     1
102
RTVSPropertyOp27
 70
     1
102
RTVSPropertyOp28
 70
     1
102
RTVSPropertyOp29
 70
     1
102
RTVSPropertyOp30
 70
     1
102
RTVSPropertyOp31
 70
     1
102
RTVSPropertyOp32
 70
     1
102
RTVSPropertyOp33
 70
     1
102
RTVSPropertyOp34
 70
     1
102
RTVSPropertyOp35
 70
     1
102
RTVSPropertyOp36
 70
     1
102
RTVSPropertyOp37
 70
     1
102
RTVSPropertyOp38
 70
     1
102
RTVSPropertyOp39
 70
     1
102
RTVSPropertyOp40
 70
     1
102
RTVSPropertyOp41
 70
     1
102
RTVSPropertyOp42
 70
     1
102
RTVSPropertyOp43
 70
     1
102
RTVSPropertyOp44
 70
     1
102
RTVSPropertyOp45
 70
     1
102
RTVSPropertyOp46
 70
     1
102
RTVSPropertyOp47
 70
     1
102
RTVSPropertyOp48
 70
     1
102
RTVSPropertyOp49
 70
     1
102
RTVSPropertyOp50
 70
     1
102
RTVSPropertyOp51
 70
     0
102
RTVSPropertyOp52
 70
     0
102
RTVSPropertyOp53
 70
     1
102
RTVSPropertyOp54
 70
     1
102
RTVSPropertyOp55
 70
     1
102
RTVSPropertyOp56
 70
     1
102
RTVSPropertyOp57
 70
     1
102
RTVSPost2010Prop28
280
     0
102
RTVSPost2010PropOp28
 70
     1
102
RTVSPost2010Prop29
280
     1
102
RTVSPost2010PropOp29
 70
     1
102
RTVSPost2010Prop30
280
     1
102
RTVSPost2010PropOp30
 70
     1
102
RTVSPost2010Prop31
280
     0
102
RTVSPost2010PropOp31
 70
     1
102
RTVSPost2010Prop32
280
     0
102
RTVSPost2010PropOp32
 70
     1
102
RTVSPost2010Prop33
280
     0
102
RTVSPost2010PropOp33
 70
     1
102
RTVSPost2010Prop34
280
     0
102
RTVSPost2010PropOp34
 70
     1
102
RTVSPost2010Prop35
280
     0
102
RTVSPost2010PropOp35
 70
     1
102
RTVSPost2010Prop36
280
     0
102
RTVSPost2010PropOp36
 70
     1
102
RTVSPost2010Prop37
 90
       50
102
RTVSPost2010PropOp37
 70
     1
102
RTVSPost2010Prop38
140
0.0
102
RTVSPost2010PropOp38
 70
     1
102
RTVSPost2010Prop39
140
1.0
102
RTVSPost2010PropOp39
 70
     1
102
RTVSPost2010Prop40
 90
        0
102
RTVSPost2010PropOp40
 70
     1
102
RTVSPost2010Prop41ColorIndex
 90
       18
102
RTVSPost2010Prop41ColorRGB
 90
        0
102
RTVSPost2010PropOp41
 70
     1
102
RTVSPost2010Prop42
 90
       50
102
RTVSPost2010PropOp42
 70
     1
102
RTVSPost2010Prop43
 90
        3
102
RTVSPost2010PropOp43
 70
     1
102
RTVSPost2010Prop44ColorIndex
 90
        5
102
RTVSPost2010Prop44ColorRGB
 90
      255
102
RTVSPost2010PropOp44
 70
     1
102
RTVSPost2010Prop45
280
     0
102
RTVSPost2010PropOp45
 70
     1
102
RTVSPost2010Prop46
 90
       50
102
RTVSPost2010PropOp46
 70
     1
102
RTVSPost2010Prop47
 90
       50
102
RTVSPost2010PropOp47
 70
     1
102
RTVSPost2010Prop48
 90
       50
102
RTVSPost2010PropOp48
 70
     1
102
RTVSPost2010Prop49
280
     0
102
RTVSPost2010PropOp49
 70
     1
102
RTVSPost2010Prop50
 90
       50
102
RTVSPost2010PropOp50
 70
     1
102
RTVSPost2010Prop51ColorIndex
 90
      256
102
RTVSPost2010Prop51ColorRGB
 90
-16777216
102
RTVSPost2010PropOp51
 70
     0
102
RTVSPost2010Prop52
140
1.0
102
RTVSPost2010PropOp52
 70
     0
102
RTVSPost2010Prop53
 90
        2
102
RTVSPost2010PropOp53
 70
     1
102
RTVSPost2010Prop54
  1
strokes_ogs.tif
102
RTVSPost2010PropOp54
 70
     1
102
RTVSPost2010Prop55
280
     0
102
RTVSPost2010PropOp55
 70
     1
102
RTVSPost2010Prop56
140
1.0
102
RTVSPost2010PropOp56
 70
     1
102
RTVSPost2010Prop57
140
1.0
102
RTVSPost2010PropOp57
 70
     1
  0
XRECORD
  5
3FA
102
{ACAD_REACTORS
330
3F9
102
}
330
3F9
100
AcDbXrecord
280
     1
102
RTVSPropertyOp0
 70
     0
102
RTVSPropertyOp1
 70
     0
102
RTVSPropertyOp2
 70
     0
102
RTVSPropertyOp3
 70
     0
102
RTVSPropertyOp4
 70
     0
102
RTVSPropertyOp5
 70
     0
102
RTVSPropertyOp6
 70
     0
102
RTVSPropertyOp7
 70
     0
102
RTVSPropertyOp8
 70
     0
102
RTVSPropertyOp9
 70
     0
102
RTVSPropertyOp10
 70
     0
102
RTVSPropertyOp11
 70
     0
102
RTVSPropertyOp12
 70
     0
102
RTVSPropertyOp13
 70
     0
102
RTVSPropertyOp14
 70
     2
102
RTVSPropertyOp15
 70
     0
102
RTVSPropertyOp16
 70
     0
102
RTVSPropertyOp17
 70
     0
102
RTVSPropertyOp18
 70
     0
102
RTVSPropertyOp19
 70
     0
102
RTVSPropertyOp20
 70
     0
102
RTVSPropertyOp21
 70
     0
102
RTVSPropertyOp22
 70
     0
102
RTVSPropertyOp23
 70
     0
102
RTVSPropertyOp24
 70
     0
102
RTVSPropertyOp25
 70
     0
102
RTVSPropertyOp26
 70
     0
102
RTVSPropertyOp27
 70
     0
102
RTVSPropertyOp28
 70
     0
102
RTVSPropertyOp29
 70
     0
102
RTVSPropertyOp30
 70
     0
102
RTVSPropertyOp31
 70
     0
102
RTVSPropertyOp32
 70
     0
102
RTVSPropertyOp33
 70
     0
102
RTVSPropertyOp34
 70
     0
102
RTVSPropertyOp35
 70
     0
102
RTVSPropertyOp36
 70
     0
102
RTVSPropertyOp37
 70
     0
102
RTVSPropertyOp38
 70
     0
102
RTVSPropertyOp39
 70
     0
102
RTVSPropertyOp40
 70
     0
102
RTVSPropertyOp41
 70
     0
102
RTVSPropertyOp42
 70
     0
102
RTVSPropertyOp43
 70
     0
102
RTVSPropertyOp44
 70
     0
102
RTVSPropertyOp45
 70
     0
102
RTVSPropertyOp46
 70
     0
102
RTVSPropertyOp47
 70
     0
102
RTVSPropertyOp48
 70
     0
102
RTVSPropertyOp49
 70
     0
102
RTVSPropertyOp50
 70
     0
102
RTVSPropertyOp51
 70
     0
102
RTVSPropertyOp52
 70
     0
102
RTVSPropertyOp53
 70
     0
102
RTVSPropertyOp54
 70
     0
102
RTVSPropertyOp55
 70
     0
102
RTVSPropertyOp56
 70
     0
102
RTVSPropertyOp57
 70
     0
102
RTVSPost2010Prop28
280
     0
102
RTVSPost2010PropOp28
 70
     0
102
RTVSPost2010Prop29
280
     1
102
RTVSPost2010PropOp29
 70
     0
102
RTVSPost2010Prop30
280
     1
102
RTVSPost2010PropOp30
 70
     0
102
RTVSPost2010Prop31
280
     0
102
RTVSPost2010PropOp31
 70
     0
102
RTVSPost2010Prop32
280
     0
102
RTVSPost2010PropOp32
 70
     0
102
RTVSPost2010Prop33
280
     0
102
RTVSPost2010PropOp33
 70
     0
102
RTVSPost2010Prop34
280
     0
102
RTVSPost2010PropOp34
 70
     0
102
RTVSPost2010Prop35
280
     0
102
RTVSPost2010PropOp35
 70
     0
102
RTVSPost2010Prop36
280
     0
102
RTVSPost2010PropOp36
 70
     0
102
RTVSPost2010Prop37
 90
       50
102
RTVSPost2010PropOp37
 70
     0
102
RTVSPost2010Prop38
140
0.0
102
RTVSPost2010PropOp38
 70
     0
102
RTVSPost2010Prop39
140
1.0
102
RTVSPost2010PropOp39
 70
     0
102
RTVSPost2010Prop40
 90
        0
102
RTVSPost2010PropOp40
 70
     0
102
RTVSPost2010Prop41ColorIndex
 90
       18
102
RTVSPost2010Prop41ColorRGB
 90
        0
102
RTVSPost2010PropOp41
 70
     0
102
RTVSPost2010Prop42
 90
       50
102
RTVSPost2010PropOp42
 70
     0
102
RTVSPost2010Prop43
 90
        3
102
RTVSPost2010PropOp43
 70
     0
102
RTVSPost2010Prop44ColorIndex
 90
        5
102
RTVSPost2010Prop44ColorRGB
 90
      255
102
RTVSPost2010PropOp44
 70
     0
102
RTVSPost2010Prop45
280
     0
102
RTVSPost2010PropOp45
 70
     0
102
RTVSPost2010Prop46
 90
       50
102
RTVSPost2010PropOp46
 70
     0
102
RTVSPost2010Prop47
 90
       50
102
RTVSPost2010PropOp47
 70
     0
102
RTVSPost2010Prop48
 90
       50
102
RTVSPost2010PropOp48
 70
     0
102
RTVSPost2010Prop49
280
     0
102
RTVSPost2010PropOp49
 70
     0
102
RTVSPost2010Prop50
 90
       50
102
RTVSPost2010PropOp50
 70
     0
102
RTVSPost2010Prop51ColorIndex
 90
      256
102
RTVSPost2010Prop51ColorRGB
 90
-16777216
102
RTVSPost2010PropOp51
 70
     0
102
RTVSPost2010Prop52
140
1.0
102
RTVSPost2010PropOp52
 70
     0
102
RTVSPost2010Prop53
 90
        2
102
RTVSPost2010PropOp53
 70
     0
102
RTVSPost2010Prop54
  1
strokes_ogs.tif
102
RTVSPost2010PropOp54
 70
     0
102
RTVSPost2010Prop55
280
     0
102
RTVSPost2010PropOp55
 70
     0
102
RTVSPost2010Prop56
140
1.0
102
RTVSPost2010PropOp56
 70
     0
102
RTVSPost2010Prop57
140
1.0
102
RTVSPost2010PropOp57
 70
     0
  0
XRECORD
  5
3E8
102
{ACAD_REACTORS
330
3E7
102
}
330
3E7
100
AcDbXrecord
280
     1
102
RTVSPropertyOp0
 70
     1
102
RTVSPropertyOp1
 70
     1
102
RTVSPropertyOp2
 70
     1
102
RTVSPropertyOp3
 70
     1
102
RTVSPropertyOp4
 70
     1
102
RTVSPropertyOp5
 70
     1
102
RTVSPropertyOp6
 70
     1
102
RTVSPropertyOp7
 70
     1
102
RTVSPropertyOp8
 70
     1
102
RTVSPropertyOp9
 70
     1
102
RTVSPropertyOp10
 70
     1
102
RTVSPropertyOp11
 70
     1
102
RTVSPropertyOp12
 70
     1
102
RTVSPropertyOp13
 70
     1
102
RTVSPropertyOp14
 70
     1
102
RTVSPropertyOp15
 70
     1
102
RTVSPropertyOp16
 70
     1
102
RTVSPropertyOp17
 70
     1
102
RTVSPropertyOp18
 70
     1
102
RTVSPropertyOp19
 70
     1
102
RTVSPropertyOp20
 70
     1
102
RTVSPropertyOp21
 70
     1
102
RTVSPropertyOp22
 70
     1
102
RTVSPropertyOp23
 70
     1
102
RTVSPropertyOp24
 70
     1
102
RTVSPropertyOp25
 70
     1
102
RTVSPropertyOp26
 70
     1
102
RTVSPropertyOp27
 70
     1
102
RTVSPropertyOp28
 70
     1
102
RTVSPropertyOp29
 70
     1
102
RTVSPropertyOp30
 70
     1
102
RTVSPropertyOp31
 70
     1
102
RTVSPropertyOp32
 70
     1
102
RTVSPropertyOp33
 70
     1
102
RTVSPropertyOp34
 70
     1
102
RTVSPropertyOp35
 70
     1
102
RTVSPropertyOp36
 70
     1
102
RTVSPropertyOp37
 70
     1
102
RTVSPropertyOp38
 70
     1
102
RTVSPropertyOp39
 70
     1
102
RTVSPropertyOp40
 70
     1
102
RTVSPropertyOp41
 70
     1
102
RTVSPropertyOp42
 70
     1
102
RTVSPropertyOp43
 70
     1
102
RTVSPropertyOp44
 70
     1
102
RTVSPropertyOp45
 70
     1
102
RTVSPropertyOp46
 70
     1
102
RTVSPropertyOp47
 70
     1
102
RTVSPropertyOp48
 70
     1
102
RTVSPropertyOp49
 70
     1
102
RTVSPropertyOp50
 70
     1
102
RTVSPropertyOp51
 70
     0
102
RTVSPropertyOp52
 70
     0
102
RTVSPropertyOp53
 70
     1
102
RTVSPropertyOp54
 70
     1
102
RTVSPropertyOp55
 70
     1
102
RTVSPropertyOp56
 70
     1
102
RTVSPropertyOp57
 70
     1
102
RTVSPost2010Prop28
280
     0
102
RTVSPost2010PropOp28
 70
     1
102
RTVSPost2010Prop29
280
     1
102
RTVSPost2010PropOp29
 70
     1
102
RTVSPost2010Prop30
280
     1
102
RTVSPost2010PropOp30
 70
     1
102
RTVSPost2010Prop31
280
     0
102
RTVSPost2010PropOp31
 70
     1
102
RTVSPost2010Prop32
280
     0
102
RTVSPost2010PropOp32
 70
     1
102
RTVSPost2010Prop33
280
     0
102
RTVSPost2010PropOp33
 70
     1
102
RTVSPost2010Prop34
280
     0
102
RTVSPost2010PropOp34
 70
     1
102
RTVSPost2010Prop35
280
     0
102
RTVSPost2010PropOp35
 70
     1
102
RTVSPost2010Prop36
280
     0
102
RTVSPost2010PropOp36
 70
     1
102
RTVSPost2010Prop37
 90
       50
102
RTVSPost2010PropOp37
 70
     1
102
RTVSPost2010Prop38
140
0.0
102
RTVSPost2010PropOp38
 70
     1
102
RTVSPost2010Prop39
140
1.0
102
RTVSPost2010PropOp39
 70
     1
102
RTVSPost2010Prop40
 90
        0
102
RTVSPost2010PropOp40
 70
     1
102
RTVSPost2010Prop41ColorIndex
 90
       18
102
RTVSPost2010Prop41ColorRGB
 90
        0
102
RTVSPost2010PropOp41
 70
     1
102
RTVSPost2010Prop42
 90
       50
102
RTVSPost2010PropOp42
 70
     1
102
RTVSPost2010Prop43
 90
        3
102
RTVSPost2010PropOp43
 70
     1
102
RTVSPost2010Prop44ColorIndex
 90
        5
102
RTVSPost2010Prop44ColorRGB
 90
      255
102
RTVSPost2010PropOp44
 70
     1
102
RTVSPost2010Prop45
280
     0
102
RTVSPost2010PropOp45
 70
     1
102
RTVSPost2010Prop46
 90
       50
102
RTVSPost2010PropOp46
 70
     1
102
RTVSPost2010Prop47
 90
       50
102
RTVSPost2010PropOp47
 70
     1
102
RTVSPost2010Prop48
 90
       50
102
RTVSPost2010PropOp48
 70
     1
102
RTVSPost2010Prop49
280
     0
102
RTVSPost2010PropOp49
 70
     1
102
RTVSPost2010Prop50
 90
       50
102
RTVSPost2010PropOp50
 70
     1
102
RTVSPost2010Prop51ColorIndex
 90
      256
102
RTVSPost2010Prop51ColorRGB
 90
-16777216
102
RTVSPost2010PropOp51
 70
     0
102
RTVSPost2010Prop52
140
1.0
102
RTVSPost2010PropOp52
 70
     0
102
RTVSPost2010Prop53
 90
        2
102
RTVSPost2010PropOp53
 70
     1
102
RTVSPost2010Prop54
  1
strokes_ogs.tif
102
RTVSPost2010PropOp54
 70
     1
102
RTVSPost2010Prop55
280
     0
102
RTVSPost2010PropOp55
 70
     1
102
RTVSPost2010Prop56
140
1.0
102
RTVSPost2010PropOp56
 70
     1
102
RTVSPost2010Prop57
140
1.0
102
RTVSPost2010PropOp57
 70
     1
  0
XRECORD
  5
406
102
{ACAD_REACTORS
330
405
102
}
330
405
100
AcDbXrecord
280
     1
102
RTVSPropertyOp0
 70
     1
102
RTVSPropertyOp1
 70
     1
102
RTVSPropertyOp2
 70
     1
102
RTVSPropertyOp3
 70
     1
102
RTVSPropertyOp4
 70
     1
102
RTVSPropertyOp5
 70
     1
102
RTVSPropertyOp6
 70
     1
102
RTVSPropertyOp7
 70
     1
102
RTVSPropertyOp8
 70
     1
102
RTVSPropertyOp9
 70
     1
102
RTVSPropertyOp10
 70
     1
102
RTVSPropertyOp11
 70
     1
102
RTVSPropertyOp12
 70
     1
102
RTVSPropertyOp13
 70
     1
102
RTVSPropertyOp14
 70
     1
102
RTVSPropertyOp15
 70
     1
102
RTVSPropertyOp16
 70
     1
102
RTVSPropertyOp17
 70
     1
102
RTVSPropertyOp18
 70
     1
102
RTVSPropertyOp19
 70
     1
102
RTVSPropertyOp20
 70
     1
102
RTVSPropertyOp21
 70
     1
102
RTVSPropertyOp22
 70
     1
102
RTVSPropertyOp23
 70
     1
102
RTVSPropertyOp24
 70
     1
102
RTVSPropertyOp25
 70
     1
102
RTVSPropertyOp26
 70
     1
102
RTVSPropertyOp27
 70
     1
102
RTVSPropertyOp28
 70
     1
102
RTVSPropertyOp29
 70
     1
102
RTVSPropertyOp30
 70
     1
102
RTVSPropertyOp31
 70
     1
102
RTVSPropertyOp32
 70
     1
102
RTVSPropertyOp33
 70
     1
102
RTVSPropertyOp34
 70
     1
102
RTVSPropertyOp35
 70
     1
102
RTVSPropertyOp36
 70
     1
102
RTVSPropertyOp37
 70
     1
102
RTVSPropertyOp38
 70
     1
102
RTVSPropertyOp39
 70
     1
102
RTVSPropertyOp40
 70
     1
102
RTVSPropertyOp41
 70
     1
102
RTVSPropertyOp42
 70
     1
102
RTVSPropertyOp43
 70
     1
102
RTVSPropertyOp44
 70
     1
102
RTVSPropertyOp45
 70
     1
102
RTVSPropertyOp46
 70
     1
102
RTVSPropertyOp47
 70
     1
102
RTVSPropertyOp48
 70
     1
102
RTVSPropertyOp49
 70
     1
102
RTVSPropertyOp50
 70
     1
102
RTVSPropertyOp51
 70
     0
102
RTVSPropertyOp52
 70
     0
102
RTVSPropertyOp53
 70
     1
102
RTVSPropertyOp54
 70
     1
102
RTVSPropertyOp55
 70
     1
102
RTVSPropertyOp56
 70
     1
102
RTVSPropertyOp57
 70
     1
102
RTVSPost2010Prop28
280
     0
102
RTVSPost2010PropOp28
 70
     1
102
RTVSPost2010Prop29
280
     1
102
RTVSPost2010PropOp29
 70
     1
102
RTVSPost2010Prop30
280
     1
102
RTVSPost2010PropOp30
 70
     1
102
RTVSPost2010Prop31
280
     0
102
RTVSPost2010PropOp31
 70
     1
102
RTVSPost2010Prop32
280
     0
102
RTVSPost2010PropOp32
 70
     1
102
RTVSPost2010Prop33
280
     0
102
RTVSPost2010PropOp33
 70
     1
102
RTVSPost2010Prop34
280
     0
102
RTVSPost2010PropOp34
 70
     1
102
RTVSPost2010Prop35
280
     0
102
RTVSPost2010PropOp35
 70
     1
102
RTVSPost2010Prop36
280
     0
102
RTVSPost2010PropOp36
 70
     1
102
RTVSPost2010Prop37
 90
       50
102
RTVSPost2010PropOp37
 70
     1
102
RTVSPost2010Prop38
140
0.0
102
RTVSPost2010PropOp38
 70
     1
102
RTVSPost2010Prop39
140
1.0
102
RTVSPost2010PropOp39
 70
     1
102
RTVSPost2010Prop40
 90
        0
102
RTVSPost2010PropOp40
 70
     1
102
RTVSPost2010Prop41ColorIndex
 90
       18
102
RTVSPost2010Prop41ColorRGB
 90
        0
102
RTVSPost2010PropOp41
 70
     1
102
RTVSPost2010Prop42
 90
       50
102
RTVSPost2010PropOp42
 70
     1
102
RTVSPost2010Prop43
 90
        3
102
RTVSPost2010PropOp43
 70
     1
102
RTVSPost2010Prop44ColorIndex
 90
        5
102
RTVSPost2010Prop44ColorRGB
 90
      255
102
RTVSPost2010PropOp44
 70
     1
102
RTVSPost2010Prop45
280
     0
102
RTVSPost2010PropOp45
 70
     1
102
RTVSPost2010Prop46
 90
       50
102
RTVSPost2010PropOp46
 70
     1
102
RTVSPost2010Prop47
 90
       50
102
RTVSPost2010PropOp47
 70
     1
102
RTVSPost2010Prop48
 90
       50
102
RTVSPost2010PropOp48
 70
     1
102
RTVSPost2010Prop49
280
     0
102
RTVSPost2010PropOp49
 70
     1
102
RTVSPost2010Prop50
 90
       50
102
RTVSPost2010PropOp50
 70
     1
102
RTVSPost2010Prop51ColorIndex
 90
      256
102
RTVSPost2010Prop51ColorRGB
 90
-16777216
102
RTVSPost2010PropOp51
 70
     0
102
RTVSPost2010Prop52
140
1.0
102
RTVSPost2010PropOp52
 70
     0
102
RTVSPost2010Prop53
 90
        2
102
RTVSPost2010PropOp53
 70
     1
102
RTVSPost2010Prop54
  1
strokes_ogs.tif
102
RTVSPost2010PropOp54
 70
     1
102
RTVSPost2010Prop55
280
     0
102
RTVSPost2010PropOp55
 70
     1
102
RTVSPost2010Prop56
140
1.0
102
RTVSPost2010PropOp56
 70
     1
102
RTVSPost2010Prop57
140
1.0
102
RTVSPost2010PropOp57
 70
     1
  0
XRECORD
  5
404
102
{ACAD_REACTORS
330
403
102
}
330
403
100
AcDbXrecord
280
     1
102
RTVSPropertyOp0
 70
     1
102
RTVSPropertyOp1
 70
     1
102
RTVSPropertyOp2
 70
     1
102
RTVSPropertyOp3
 70
     1
102
RTVSPropertyOp4
 70
     1
102
RTVSPropertyOp5
 70
     1
102
RTVSPropertyOp6
 70
     1
102
RTVSPropertyOp7
 70
     1
102
RTVSPropertyOp8
 70
     1
102
RTVSPropertyOp9
 70
     1
102
RTVSPropertyOp10
 70
     1
102
RTVSPropertyOp11
 70
     1
102
RTVSPropertyOp12
 70
     1
102
RTVSPropertyOp13
 70
     1
102
RTVSPropertyOp14
 70
     1
102
RTVSPropertyOp15
 70
     1
102
RTVSPropertyOp16
 70
     1
102
RTVSPropertyOp17
 70
     1
102
RTVSPropertyOp18
 70
     1
102
RTVSPropertyOp19
 70
     1
102
RTVSPropertyOp20
 70
     1
102
RTVSPropertyOp21
 70
     1
102
RTVSPropertyOp22
 70
     1
102
RTVSPropertyOp23
 70
     1
102
RTVSPropertyOp24
 70
     1
102
RTVSPropertyOp25
 70
     1
102
RTVSPropertyOp26
 70
     1
102
RTVSPropertyOp27
 70
     1
102
RTVSPropertyOp28
 70
     1
102
RTVSPropertyOp29
 70
     1
102
RTVSPropertyOp30
 70
     1
102
RTVSPropertyOp31
 70
     1
102
RTVSPropertyOp32
 70
     1
102
RTVSPropertyOp33
 70
     1
102
RTVSPropertyOp34
 70
     1
102
RTVSPropertyOp35
 70
     1
102
RTVSPropertyOp36
 70
     1
102
RTVSPropertyOp37
 70
     1
102
RTVSPropertyOp38
 70
     1
102
RTVSPropertyOp39
 70
     1
102
RTVSPropertyOp40
 70
     1
102
RTVSPropertyOp41
 70
     1
102
RTVSPropertyOp42
 70
     1
102
RTVSPropertyOp43
 70
     1
102
RTVSPropertyOp44
 70
     1
102
RTVSPropertyOp45
 70
     1
102
RTVSPropertyOp46
 70
     1
102
RTVSPropertyOp47
 70
     1
102
RTVSPropertyOp48
 70
     1
102
RTVSPropertyOp49
 70
     1
102
RTVSPropertyOp50
 70
     1
102
RTVSPropertyOp51
 70
     0
102
RTVSPropertyOp52
 70
     0
102
RTVSPropertyOp53
 70
     1
102
RTVSPropertyOp54
 70
     1
102
RTVSPropertyOp55
 70
     1
102
RTVSPropertyOp56
 70
     1
102
RTVSPropertyOp57
 70
     1
102
RTVSPost2010Prop28
280
     0
102
RTVSPost2010PropOp28
 70
     1
102
RTVSPost2010Prop29
280
     1
102
RTVSPost2010PropOp29
 70
     1
102
RTVSPost2010Prop30
280
     1
102
RTVSPost2010PropOp30
 70
     1
102
RTVSPost2010Prop31
280
     0
102
RTVSPost2010PropOp31
 70
     1
102
RTVSPost2010Prop32
280
     0
102
RTVSPost2010PropOp32
 70
     1
102
RTVSPost2010Prop33
280
     0
102
RTVSPost2010PropOp33
 70
     1
102
RTVSPost2010Prop34
280
     0
102
RTVSPost2010PropOp34
 70
     1
102
RTVSPost2010Prop35
280
     0
102
RTVSPost2010PropOp35
 70
     1
102
RTVSPost2010Prop36
280
     0
102
RTVSPost2010PropOp36
 70
     1
102
RTVSPost2010Prop37
 90
       50
102
RTVSPost2010PropOp37
 70
     1
102
RTVSPost2010Prop38
140
0.0
102
RTVSPost2010PropOp38
 70
     1
102
RTVSPost2010Prop39
140
1.0
102
RTVSPost2010PropOp39
 70
     1
102
RTVSPost2010Prop40
 90
        0
102
RTVSPost2010PropOp40
 70
     1
102
RTVSPost2010Prop41ColorIndex
 90
       18
102
RTVSPost2010Prop41ColorRGB
 90
        0
102
RTVSPost2010PropOp41
 70
     1
102
RTVSPost2010Prop42
 90
       50
102
RTVSPost2010PropOp42
 70
     1
102
RTVSPost2010Prop43
 90
        3
102
RTVSPost2010PropOp43
 70
     1
102
RTVSPost2010Prop44ColorIndex
 90
        5
102
RTVSPost2010Prop44ColorRGB
 90
      255
102
RTVSPost2010PropOp44
 70
     1
102
RTVSPost2010Prop45
280
     0
102
RTVSPost2010PropOp45
 70
     1
102
RTVSPost2010Prop46
 90
       50
102
RTVSPost2010PropOp46
 70
     1
102
RTVSPost2010Prop47
 90
       50
102
RTVSPost2010PropOp47
 70
     1
102
RTVSPost2010Prop48
 90
       50
102
RTVSPost2010PropOp48
 70
     1
102
RTVSPost2010Prop49
280
     0
102
RTVSPost2010PropOp49
 70
     1
102
RTVSPost2010Prop50
 90
       50
102
RTVSPost2010PropOp50
 70
     1
102
RTVSPost2010Prop51ColorIndex
 90
      256
102
RTVSPost2010Prop51ColorRGB
 90
-16777216
102
RTVSPost2010PropOp51
 70
     0
102
RTVSPost2010Prop52
140
1.0
102
RTVSPost2010PropOp52
 70
     0
102
RTVSPost2010Prop53
 90
        2
102
RTVSPost2010PropOp53
 70
     1
102
RTVSPost2010Prop54
  1
strokes_ogs.tif
102
RTVSPost2010PropOp54
 70
     1
102
RTVSPost2010Prop55
280
     0
102
RTVSPost2010PropOp55
 70
     1
102
RTVSPost2010Prop56
140
1.0
102
RTVSPost2010PropOp56
 70
     1
102
RTVSPost2010Prop57
140
1.0
102
RTVSPost2010PropOp57
 70
     1
  0
XRECORD
  5
3FE
102
{ACAD_REACTORS
330
3FD
102
}
330
3FD
100
AcDbXrecord
280
     1
102
RTVSPropertyOp0
 70
     1
102
RTVSPropertyOp1
 70
     1
102
RTVSPropertyOp2
 70
     1
102
RTVSPropertyOp3
 70
     1
102
RTVSPropertyOp4
 70
     1
102
RTVSPropertyOp5
 70
     1
102
RTVSPropertyOp6
 70
     1
102
RTVSPropertyOp7
 70
     1
102
RTVSPropertyOp8
 70
     1
102
RTVSPropertyOp9
 70
     1
102
RTVSPropertyOp10
 70
     1
102
RTVSPropertyOp11
 70
     1
102
RTVSPropertyOp12
 70
     1
102
RTVSPropertyOp13
 70
     1
102
RTVSPropertyOp14
 70
     1
102
RTVSPropertyOp15
 70
     1
102
RTVSPropertyOp16
 70
     1
102
RTVSPropertyOp17
 70
     1
102
RTVSPropertyOp18
 70
     1
102
RTVSPropertyOp19
 70
     1
102
RTVSPropertyOp20
 70
     1
102
RTVSPropertyOp21
 70
     1
102
RTVSPropertyOp22
 70
     1
102
RTVSPropertyOp23
 70
     1
102
RTVSPropertyOp24
 70
     1
102
RTVSPropertyOp25
 70
     1
102
RTVSPropertyOp26
 70
     1
102
RTVSPropertyOp27
 70
     1
102
RTVSPropertyOp28
 70
     1
102
RTVSPropertyOp29
 70
     1
102
RTVSPropertyOp30
 70
     1
102
RTVSPropertyOp31
 70
     1
102
RTVSPropertyOp32
 70
     1
102
RTVSPropertyOp33
 70
     1
102
RTVSPropertyOp34
 70
     1
102
RTVSPropertyOp35
 70
     1
102
RTVSPropertyOp36
 70
     1
102
RTVSPropertyOp37
 70
     1
102
RTVSPropertyOp38
 70
     1
102
RTVSPropertyOp39
 70
     1
102
RTVSPropertyOp40
 70
     1
102
RTVSPropertyOp41
 70
     1
102
RTVSPropertyOp42
 70
     1
102
RTVSPropertyOp43
 70
     1
102
RTVSPropertyOp44
 70
     1
102
RTVSPropertyOp45
 70
     1
102
RTVSPropertyOp46
 70
     1
102
RTVSPropertyOp47
 70
     1
102
RTVSPropertyOp48
 70
     1
102
RTVSPropertyOp49
 70
     1
102
RTVSPropertyOp50
 70
     1
102
RTVSPropertyOp51
 70
     0
102
RTVSPropertyOp52
 70
     0
102
RTVSPropertyOp53
 70
     1
102
RTVSPropertyOp54
 70
     1
102
RTVSPropertyOp55
 70
     1
102
RTVSPropertyOp56
 70
     1
102
RTVSPropertyOp57
 70
     1
102
RTVSPost2010Prop28
280
     0
102
RTVSPost2010PropOp28
 70
     1
102
RTVSPost2010Prop29
280
     1
102
RTVSPost2010PropOp29
 70
     1
102
RTVSPost2010Prop30
280
     1
102
RTVSPost2010PropOp30
 70
     1
102
RTVSPost2010Prop31
280
     0
102
RTVSPost2010PropOp31
 70
     1
102
RTVSPost2010Prop32
280
     0
102
RTVSPost2010PropOp32
 70
     1
102
RTVSPost2010Prop33
280
     0
102
RTVSPost2010PropOp33
 70
     1
102
RTVSPost2010Prop34
280
     0
102
RTVSPost2010PropOp34
 70
     1
102
RTVSPost2010Prop35
280
     0
102
RTVSPost2010PropOp35
 70
     1
102
RTVSPost2010Prop36
280
     0
102
RTVSPost2010PropOp36
 70
     1
102
RTVSPost2010Prop37
 90
       50
102
RTVSPost2010PropOp37
 70
     1
102
RTVSPost2010Prop38
140
0.0
102
RTVSPost2010PropOp38
 70
     1
102
RTVSPost2010Prop39
140
1.0
102
RTVSPost2010PropOp39
 70
     1
102
RTVSPost2010Prop40
 90
        0
102
RTVSPost2010PropOp40
 70
     1
102
RTVSPost2010Prop41ColorIndex
 90
       18
102
RTVSPost2010Prop41ColorRGB
 90
        0
102
RTVSPost2010PropOp41
 70
     1
102
RTVSPost2010Prop42
 90
       50
102
RTVSPost2010PropOp42
 70
     1
102
RTVSPost2010Prop43
 90
        3
102
RTVSPost2010PropOp43
 70
     1
102
RTVSPost2010Prop44ColorIndex
 90
        5
102
RTVSPost2010Prop44ColorRGB
 90
      255
102
RTVSPost2010PropOp44
 70
     1
102
RTVSPost2010Prop45
280
     0
102
RTVSPost2010PropOp45
 70
     1
102
RTVSPost2010Prop46
 90
       50
102
RTVSPost2010PropOp46
 70
     1
102
RTVSPost2010Prop47
 90
       50
102
RTVSPost2010PropOp47
 70
     1
102
RTVSPost2010Prop48
 90
       50
102
RTVSPost2010PropOp48
 70
     1
102
RTVSPost2010Prop49
280
     0
102
RTVSPost2010PropOp49
 70
     1
102
RTVSPost2010Prop50
 90
       50
102
RTVSPost2010PropOp50
 70
     1
102
RTVSPost2010Prop51ColorIndex
 90
      256
102
RTVSPost2010Prop51ColorRGB
 90
-16777216
102
RTVSPost2010PropOp51
 70
     0
102
RTVSPost2010Prop52
140
1.0
102
RTVSPost2010PropOp52
 70
     0
102
RTVSPost2010Prop53
 90
        2
102
RTVSPost2010PropOp53
 70
     1
102
RTVSPost2010Prop54
  1
strokes_ogs.tif
102
RTVSPost2010PropOp54
 70
     1
102
RTVSPost2010Prop55
280
     0
102
RTVSPost2010PropOp55
 70
     1
102
RTVSPost2010Prop56
140
1.0
102
RTVSPost2010PropOp56
 70
     1
102
RTVSPost2010Prop57
140
1.0
102
RTVSPost2010PropOp57
 70
     1
  0
XRECORD
  5
400
102
{ACAD_REACTORS
330
3FF
102
}
330
3FF
100
AcDbXrecord
280
     1
102
RTVSPropertyOp0
 70
     1
102
RTVSPropertyOp1
 70
     1
102
RTVSPropertyOp2
 70
     1
102
RTVSPropertyOp3
 70
     1
102
RTVSPropertyOp4
 70
     1
102
RTVSPropertyOp5
 70
     1
102
RTVSPropertyOp6
 70
     1
102
RTVSPropertyOp7
 70
     1
102
RTVSPropertyOp8
 70
     1
102
RTVSPropertyOp9
 70
     1
102
RTVSPropertyOp10
 70
     1
102
RTVSPropertyOp11
 70
     1
102
RTVSPropertyOp12
 70
     1
102
RTVSPropertyOp13
 70
     1
102
RTVSPropertyOp14
 70
     1
102
RTVSPropertyOp15
 70
     1
102
RTVSPropertyOp16
 70
     1
102
RTVSPropertyOp17
 70
     1
102
RTVSPropertyOp18
 70
     1
102
RTVSPropertyOp19
 70
     1
102
RTVSPropertyOp20
 70
     1
102
RTVSPropertyOp21
 70
     1
102
RTVSPropertyOp22
 70
     1
102
RTVSPropertyOp23
 70
     1
102
RTVSPropertyOp24
 70
     1
102
RTVSPropertyOp25
 70
     1
102
RTVSPropertyOp26
 70
     1
102
RTVSPropertyOp27
 70
     1
102
RTVSPropertyOp28
 70
     1
102
RTVSPropertyOp29
 70
     1
102
RTVSPropertyOp30
 70
     1
102
RTVSPropertyOp31
 70
     1
102
RTVSPropertyOp32
 70
     1
102
RTVSPropertyOp33
 70
     1
102
RTVSPropertyOp34
 70
     1
102
RTVSPropertyOp35
 70
     1
102
RTVSPropertyOp36
 70
     1
102
RTVSPropertyOp37
 70
     1
102
RTVSPropertyOp38
 70
     1
102
RTVSPropertyOp39
 70
     1
102
RTVSPropertyOp40
 70
     1
102
RTVSPropertyOp41
 70
     1
102
RTVSPropertyOp42
 70
     1
102
RTVSPropertyOp43
 70
     1
102
RTVSPropertyOp44
 70
     1
102
RTVSPropertyOp45
 70
     1
102
RTVSPropertyOp46
 70
     1
102
RTVSPropertyOp47
 70
     1
102
RTVSPropertyOp48
 70
     1
102
RTVSPropertyOp49
 70
     1
102
RTVSPropertyOp50
 70
     1
102
RTVSPropertyOp51
 70
     0
102
RTVSPropertyOp52
 70
     0
102
RTVSPropertyOp53
 70
     1
102
RTVSPropertyOp54
 70
     1
102
RTVSPropertyOp55
 70
     1
102
RTVSPropertyOp56
 70
     1
102
RTVSPropertyOp57
 70
     1
102
RTVSPost2010Prop28
280
     0
102
RTVSPost2010PropOp28
 70
     1
102
RTVSPost2010Prop29
280
     1
102
RTVSPost2010PropOp29
 70
     1
102
RTVSPost2010Prop30
280
     1
102
RTVSPost2010PropOp30
 70
     1
102
RTVSPost2010Prop31
280
     0
102
RTVSPost2010PropOp31
 70
     1
102
RTVSPost2010Prop32
280
     0
102
RTVSPost2010PropOp32
 70
     1
102
RTVSPost2010Prop33
280
     0
102
RTVSPost2010PropOp33
 70
     1
102
RTVSPost2010Prop34
280
     0
102
RTVSPost2010PropOp34
 70
     1
102
RTVSPost2010Prop35
280
     0
102
RTVSPost2010PropOp35
 70
     1
102
RTVSPost2010Prop36
280
     0
102
RTVSPost2010PropOp36
 70
     1
102
RTVSPost2010Prop37
 90
       50
102
RTVSPost2010PropOp37
 70
     1
102
RTVSPost2010Prop38
140
0.0
102
RTVSPost2010PropOp38
 70
     1
102
RTVSPost2010Prop39
140
1.0
102
RTVSPost2010PropOp39
 70
     1
102
RTVSPost2010Prop40
 90
        0
102
RTVSPost2010PropOp40
 70
     1
102
RTVSPost2010Prop41ColorIndex
 90
       18
102
RTVSPost2010Prop41ColorRGB
 90
        0
102
RTVSPost2010PropOp41
 70
     1
102
RTVSPost2010Prop42
 90
       50
102
RTVSPost2010PropOp42
 70
     1
102
RTVSPost2010Prop43
 90
        3
102
RTVSPost2010PropOp43
 70
     1
102
RTVSPost2010Prop44ColorIndex
 90
        5
102
RTVSPost2010Prop44ColorRGB
 90
      255
102
RTVSPost2010PropOp44
 70
     1
102
RTVSPost2010Prop45
280
     0
102
RTVSPost2010PropOp45
 70
     1
102
RTVSPost2010Prop46
 90
       50
102
RTVSPost2010PropOp46
 70
     1
102
RTVSPost2010Prop47
 90
       50
102
RTVSPost2010PropOp47
 70
     1
102
RTVSPost2010Prop48
 90
       50
102
RTVSPost2010PropOp48
 70
     1
102
RTVSPost2010Prop49
280
     0
102
RTVSPost2010PropOp49
 70
     1
102
RTVSPost2010Prop50
 90
       50
102
RTVSPost2010PropOp50
 70
     1
102
RTVSPost2010Prop51ColorIndex
 90
      256
102
RTVSPost2010Prop51ColorRGB
 90
-16777216
102
RTVSPost2010PropOp51
 70
     0
102
RTVSPost2010Prop52
140
1.0
102
RTVSPost2010PropOp52
 70
     0
102
RTVSPost2010Prop53
 90
        2
102
RTVSPost2010PropOp53
 70
     1
102
RTVSPost2010Prop54
  1
strokes_ogs.tif
102
RTVSPost2010PropOp54
 70
     1
102
RTVSPost2010Prop55
280
     0
102
RTVSPost2010PropOp55
 70
     1
102
RTVSPost2010Prop56
140
1.0
102
RTVSPost2010PropOp56
 70
     1
102
RTVSPost2010Prop57
140
1.0
102
RTVSPost2010PropOp57
 70
     1
  0
XRECORD
  5
3F0
102
{ACAD_REACTORS
330
3EF
102
}
330
3EF
100
AcDbXrecord
280
     1
102
RTVSPropertyOp0
 70
     1
102
RTVSPropertyOp1
 70
     1
102
RTVSPropertyOp2
 70
     1
102
RTVSPropertyOp3
 70
     1
102
RTVSPropertyOp4
 70
     1
102
RTVSPropertyOp5
 70
     1
102
RTVSPropertyOp6
 70
     1
102
RTVSPropertyOp7
 70
     1
102
RTVSPropertyOp8
 70
     1
102
RTVSPropertyOp9
 70
     1
102
RTVSPropertyOp10
 70
     1
102
RTVSPropertyOp11
 70
     1
102
RTVSPropertyOp12
 70
     1
102
RTVSPropertyOp13
 70
     1
102
RTVSPropertyOp14
 70
     1
102
RTVSPropertyOp15
 70
     1
102
RTVSPropertyOp16
 70
     1
102
RTVSPropertyOp17
 70
     1
102
RTVSPropertyOp18
 70
     1
102
RTVSPropertyOp19
 70
     1
102
RTVSPropertyOp20
 70
     1
102
RTVSPropertyOp21
 70
     1
102
RTVSPropertyOp22
 70
     1
102
RTVSPropertyOp23
 70
     1
102
RTVSPropertyOp24
 70
     1
102
RTVSPropertyOp25
 70
     1
102
RTVSPropertyOp26
 70
     1
102
RTVSPropertyOp27
 70
     1
102
RTVSPropertyOp28
 70
     1
102
RTVSPropertyOp29
 70
     1
102
RTVSPropertyOp30
 70
     1
102
RTVSPropertyOp31
 70
     1
102
RTVSPropertyOp32
 70
     1
102
RTVSPropertyOp33
 70
     1
102
RTVSPropertyOp34
 70
     1
102
RTVSPropertyOp35
 70
     1
102
RTVSPropertyOp36
 70
     1
102
RTVSPropertyOp37
 70
     1
102
RTVSPropertyOp38
 70
     1
102
RTVSPropertyOp39
 70
     1
102
RTVSPropertyOp40
 70
     1
102
RTVSPropertyOp41
 70
     1
102
RTVSPropertyOp42
 70
     1
102
RTVSPropertyOp43
 70
     1
102
RTVSPropertyOp44
 70
     1
102
RTVSPropertyOp45
 70
     1
102
RTVSPropertyOp46
 70
     1
102
RTVSPropertyOp47
 70
     1
102
RTVSPropertyOp48
 70
     1
102
RTVSPropertyOp49
 70
     1
102
RTVSPropertyOp50
 70
     1
102
RTVSPropertyOp51
 70
     0
102
RTVSPropertyOp52
 70
     0
102
RTVSPropertyOp53
 70
     1
102
RTVSPropertyOp54
 70
     1
102
RTVSPropertyOp55
 70
     1
102
RTVSPropertyOp56
 70
     1
102
RTVSPropertyOp57
 70
     1
102
RTVSPost2010Prop28
280
     0
102
RTVSPost2010PropOp28
 70
     1
102
RTVSPost2010Prop29
280
     1
102
RTVSPost2010PropOp29
 70
     1
102
RTVSPost2010Prop30
280
     1
102
RTVSPost2010PropOp30
 70
     1
102
RTVSPost2010Prop31
280
     0
102
RTVSPost2010PropOp31
 70
     1
102
RTVSPost2010Prop32
280
     0
102
RTVSPost2010PropOp32
 70
     1
102
RTVSPost2010Prop33
280
     0
102
RTVSPost2010PropOp33
 70
     1
102
RTVSPost2010Prop34
280
     0
102
RTVSPost2010PropOp34
 70
     1
102
RTVSPost2010Prop35
280
     0
102
RTVSPost2010PropOp35
 70
     1
102
RTVSPost2010Prop36
280
     0
102
RTVSPost2010PropOp36
 70
     1
102
RTVSPost2010Prop37
 90
       50
102
RTVSPost2010PropOp37
 70
     1
102
RTVSPost2010Prop38
140
0.0
102
RTVSPost2010PropOp38
 70
     1
102
RTVSPost2010Prop39
140
1.0
102
RTVSPost2010PropOp39
 70
     1
102
RTVSPost2010Prop40
 90
        0
102
RTVSPost2010PropOp40
 70
     1
102
RTVSPost2010Prop41ColorIndex
 90
       18
102
RTVSPost2010Prop41ColorRGB
 90
        0
102
RTVSPost2010PropOp41
 70
     1
102
RTVSPost2010Prop42
 90
       50
102
RTVSPost2010PropOp42
 70
     1
102
RTVSPost2010Prop43
 90
        3
102
RTVSPost2010PropOp43
 70
     1
102
RTVSPost2010Prop44ColorIndex
 90
        5
102
RTVSPost2010Prop44ColorRGB
 90
      255
102
RTVSPost2010PropOp44
 70
     1
102
RTVSPost2010Prop45
280
     0
102
RTVSPost2010PropOp45
 70
     1
102
RTVSPost2010Prop46
 90
       50
102
RTVSPost2010PropOp46
 70
     1
102
RTVSPost2010Prop47
 90
       50
102
RTVSPost2010PropOp47
 70
     1
102
RTVSPost2010Prop48
 90
       50
102
RTVSPost2010PropOp48
 70
     1
102
RTVSPost2010Prop49
280
     0
102
RTVSPost2010PropOp49
 70
     1
102
RTVSPost2010Prop50
 90
       50
102
RTVSPost2010PropOp50
 70
     1
102
RTVSPost2010Prop51ColorIndex
 90
      256
102
RTVSPost2010Prop51ColorRGB
 90
-16777216
102
RTVSPost2010PropOp51
 70
     0
102
RTVSPost2010Prop52
140
1.0
102
RTVSPost2010PropOp52
 70
     0
102
RTVSPost2010Prop53
 90
        2
102
RTVSPost2010PropOp53
 70
     1
102
RTVSPost2010Prop54
  1
strokes_ogs.tif
102
RTVSPost2010PropOp54
 70
     1
102
RTVSPost2010Prop55
280
     0
102
RTVSPost2010PropOp55
 70
     1
102
RTVSPost2010Prop56
140
1.0
102
RTVSPost2010PropOp56
 70
     1
102
RTVSPost2010Prop57
140
1.0
102
RTVSPost2010PropOp57
 70
     1
  0
XRECORD
  5
3E2
102
{ACAD_REACTORS
330
3E1
102
}
330
3E1
100
AcDbXrecord
280
     1
102
RTVSPropertyOp0
 70
     1
102
RTVSPropertyOp1
 70
     1
102
RTVSPropertyOp2
 70
     1
102
RTVSPropertyOp3
 70
     1
102
RTVSPropertyOp4
 70
     1
102
RTVSPropertyOp5
 70
     1
102
RTVSPropertyOp6
 70
     1
102
RTVSPropertyOp7
 70
     1
102
RTVSPropertyOp8
 70
     1
102
RTVSPropertyOp9
 70
     1
102
RTVSPropertyOp10
 70
     1
102
RTVSPropertyOp11
 70
     1
102
RTVSPropertyOp12
 70
     1
102
RTVSPropertyOp13
 70
     1
102
RTVSPropertyOp14
 70
     1
102
RTVSPropertyOp15
 70
     1
102
RTVSPropertyOp16
 70
     1
102
RTVSPropertyOp17
 70
     1
102
RTVSPropertyOp18
 70
     1
102
RTVSPropertyOp19
 70
     1
102
RTVSPropertyOp20
 70
     1
102
RTVSPropertyOp21
 70
     1
102
RTVSPropertyOp22
 70
     1
102
RTVSPropertyOp23
 70
     1
102
RTVSPropertyOp24
 70
     1
102
RTVSPropertyOp25
 70
     1
102
RTVSPropertyOp26
 70
     1
102
RTVSPropertyOp27
 70
     1
102
RTVSPropertyOp28
 70
     1
102
RTVSPropertyOp29
 70
     1
102
RTVSPropertyOp30
 70
     1
102
RTVSPropertyOp31
 70
     1
102
RTVSPropertyOp32
 70
     1
102
RTVSPropertyOp33
 70
     1
102
RTVSPropertyOp34
 70
     1
102
RTVSPropertyOp35
 70
     1
102
RTVSPropertyOp36
 70
     1
102
RTVSPropertyOp37
 70
     1
102
RTVSPropertyOp38
 70
     1
102
RTVSPropertyOp39
 70
     1
102
RTVSPropertyOp40
 70
     1
102
RTVSPropertyOp41
 70
     1
102
RTVSPropertyOp42
 70
     1
102
RTVSPropertyOp43
 70
     1
102
RTVSPropertyOp44
 70
     1
102
RTVSPropertyOp45
 70
     1
102
RTVSPropertyOp46
 70
     1
102
RTVSPropertyOp47
 70
     1
102
RTVSPropertyOp48
 70
     1
102
RTVSPropertyOp49
 70
     1
102
RTVSPropertyOp50
 70
     1
102
RTVSPropertyOp51
 70
     0
102
RTVSPropertyOp52
 70
     0
102
RTVSPropertyOp53
 70
     1
102
RTVSPropertyOp54
 70
     1
102
RTVSPropertyOp55
 70
     1
102
RTVSPropertyOp56
 70
     1
102
RTVSPropertyOp57
 70
     1
102
RTVSPost2010Prop28
280
     0
102
RTVSPost2010PropOp28
 70
     1
102
RTVSPost2010Prop29
280
     1
102
RTVSPost2010PropOp29
 70
     1
102
RTVSPost2010Prop30
280
     1
102
RTVSPost2010PropOp30
 70
     1
102
RTVSPost2010Prop31
280
     0
102
RTVSPost2010PropOp31
 70
     1
102
RTVSPost2010Prop32
280
     0
102
RTVSPost2010PropOp32
 70
     1
102
RTVSPost2010Prop33
280
     0
102
RTVSPost2010PropOp33
 70
     1
102
RTVSPost2010Prop34
280
     0
102
RTVSPost2010PropOp34
 70
     1
102
RTVSPost2010Prop35
280
     0
102
RTVSPost2010PropOp35
 70
     1
102
RTVSPost2010Prop36
280
     0
102
RTVSPost2010PropOp36
 70
     1
102
RTVSPost2010Prop37
 90
       50
102
RTVSPost2010PropOp37
 70
     1
102
RTVSPost2010Prop38
140
0.0
102
RTVSPost2010PropOp38
 70
     1
102
RTVSPost2010Prop39
140
1.0
102
RTVSPost2010PropOp39
 70
     1
102
RTVSPost2010Prop40
 90
        0
102
RTVSPost2010PropOp40
 70
     1
102
RTVSPost2010Prop41ColorIndex
 90
       18
102
RTVSPost2010Prop41ColorRGB
 90
        0
102
RTVSPost2010PropOp41
 70
     1
102
RTVSPost2010Prop42
 90
       50
102
RTVSPost2010PropOp42
 70
     1
102
RTVSPost2010Prop43
 90
        3
102
RTVSPost2010PropOp43
 70
     1
102
RTVSPost2010Prop44ColorIndex
 90
        5
102
RTVSPost2010Prop44ColorRGB
 90
      255
102
RTVSPost2010PropOp44
 70
     1
102
RTVSPost2010Prop45
280
     0
102
RTVSPost2010PropOp45
 70
     1
102
RTVSPost2010Prop46
 90
       50
102
RTVSPost2010PropOp46
 70
     1
102
RTVSPost2010Prop47
 90
       50
102
RTVSPost2010PropOp47
 70
     1
102
RTVSPost2010Prop48
 90
       50
102
RTVSPost2010PropOp48
 70
     1
102
RTVSPost2010Prop49
280
     0
102
RTVSPost2010PropOp49
 70
     1
102
RTVSPost2010Prop50
 90
       50
102
RTVSPost2010PropOp50
 70
     1
102
RTVSPost2010Prop51ColorIndex
 90
      256
102
RTVSPost2010Prop51ColorRGB
 90
-16777216
102
RTVSPost2010PropOp51
 70
     0
102
RTVSPost2010Prop52
140
1.0
102
RTVSPost2010PropOp52
 70
     0
102
RTVSPost2010Prop53
 90
        2
102
RTVSPost2010PropOp53
 70
     1
102
RTVSPost2010Prop54
  1
strokes_ogs.tif
102
RTVSPost2010PropOp54
 70
     1
102
RTVSPost2010Prop55
280
     0
102
RTVSPost2010PropOp55
 70
     1
102
RTVSPost2010Prop56
140
1.0
102
RTVSPost2010PropOp56
 70
     1
102
RTVSPost2010Prop57
140
1.0
102
RTVSPost2010PropOp57
 70
     1
  0
XRECORD
  5
402
102
{ACAD_REACTORS
330
401
102
}
330
401
100
AcDbXrecord
280
     1
102
RTVSPropertyOp0
 70
     1
102
RTVSPropertyOp1
 70
     1
102
RTVSPropertyOp2
 70
     1
102
RTVSPropertyOp3
 70
     1
102
RTVSPropertyOp4
 70
     1
102
RTVSPropertyOp5
 70
     1
102
RTVSPropertyOp6
 70
     1
102
RTVSPropertyOp7
 70
     1
102
RTVSPropertyOp8
 70
     1
102
RTVSPropertyOp9
 70
     1
102
RTVSPropertyOp10
 70
     1
102
RTVSPropertyOp11
 70
     1
102
RTVSPropertyOp12
 70
     1
102
RTVSPropertyOp13
 70
     1
102
RTVSPropertyOp14
 70
     1
102
RTVSPropertyOp15
 70
     1
102
RTVSPropertyOp16
 70
     1
102
RTVSPropertyOp17
 70
     1
102
RTVSPropertyOp18
 70
     1
102
RTVSPropertyOp19
 70
     1
102
RTVSPropertyOp20
 70
     1
102
RTVSPropertyOp21
 70
     1
102
RTVSPropertyOp22
 70
     1
102
RTVSPropertyOp23
 70
     1
102
RTVSPropertyOp24
 70
     1
102
RTVSPropertyOp25
 70
     1
102
RTVSPropertyOp26
 70
     1
102
RTVSPropertyOp27
 70
     1
102
RTVSPropertyOp28
 70
     1
102
RTVSPropertyOp29
 70
     1
102
RTVSPropertyOp30
 70
     1
102
RTVSPropertyOp31
 70
     1
102
RTVSPropertyOp32
 70
     1
102
RTVSPropertyOp33
 70
     1
102
RTVSPropertyOp34
 70
     1
102
RTVSPropertyOp35
 70
     1
102
RTVSPropertyOp36
 70
     1
102
RTVSPropertyOp37
 70
     1
102
RTVSPropertyOp38
 70
     1
102
RTVSPropertyOp39
 70
     1
102
RTVSPropertyOp40
 70
     1
102
RTVSPropertyOp41
 70
     1
102
RTVSPropertyOp42
 70
     1
102
RTVSPropertyOp43
 70
     1
102
RTVSPropertyOp44
 70
     1
102
RTVSPropertyOp45
 70
     1
102
RTVSPropertyOp46
 70
     1
102
RTVSPropertyOp47
 70
     1
102
RTVSPropertyOp48
 70
     1
102
RTVSPropertyOp49
 70
     1
102
RTVSPropertyOp50
 70
     1
102
RTVSPropertyOp51
 70
     0
102
RTVSPropertyOp52
 70
     0
102
RTVSPropertyOp53
 70
     1
102
RTVSPropertyOp54
 70
     1
102
RTVSPropertyOp55
 70
     1
102
RTVSPropertyOp56
 70
     1
102
RTVSPropertyOp57
 70
     1
102
RTVSPost2010Prop28
280
     0
102
RTVSPost2010PropOp28
 70
     1
102
RTVSPost2010Prop29
280
     1
102
RTVSPost2010PropOp29
 70
     1
102
RTVSPost2010Prop30
280
     1
102
RTVSPost2010PropOp30
 70
     1
102
RTVSPost2010Prop31
280
     0
102
RTVSPost2010PropOp31
 70
     1
102
RTVSPost2010Prop32
280
     0
102
RTVSPost2010PropOp32
 70
     1
102
RTVSPost2010Prop33
280
     0
102
RTVSPost2010PropOp33
 70
     1
102
RTVSPost2010Prop34
280
     0
102
RTVSPost2010PropOp34
 70
     1
102
RTVSPost2010Prop35
280
     0
102
RTVSPost2010PropOp35
 70
     1
102
RTVSPost2010Prop36
280
     0
102
RTVSPost2010PropOp36
 70
     1
102
RTVSPost2010Prop37
 90
       50
102
RTVSPost2010PropOp37
 70
     1
102
RTVSPost2010Prop38
140
0.0
102
RTVSPost2010PropOp38
 70
     1
102
RTVSPost2010Prop39
140
1.0
102
RTVSPost2010PropOp39
 70
     1
102
RTVSPost2010Prop40
 90
        0
102
RTVSPost2010PropOp40
 70
     1
102
RTVSPost2010Prop41ColorIndex
 90
       18
102
RTVSPost2010Prop41ColorRGB
 90
        0
102
RTVSPost2010PropOp41
 70
     1
102
RTVSPost2010Prop42
 90
       50
102
RTVSPost2010PropOp42
 70
     1
102
RTVSPost2010Prop43
 90
        3
102
RTVSPost2010PropOp43
 70
     1
102
RTVSPost2010Prop44ColorIndex
 90
        5
102
RTVSPost2010Prop44ColorRGB
 90
      255
102
RTVSPost2010PropOp44
 70
     1
102
RTVSPost2010Prop45
280
     0
102
RTVSPost2010PropOp45
 70
     1
102
RTVSPost2010Prop46
 90
       50
102
RTVSPost2010PropOp46
 70
     1
102
RTVSPost2010Prop47
 90
       50
102
RTVSPost2010PropOp47
 70
     1
102
RTVSPost2010Prop48
 90
       50
102
RTVSPost2010PropOp48
 70
     1
102
RTVSPost2010Prop49
280
     0
102
RTVSPost2010PropOp49
 70
     1
102
RTVSPost2010Prop50
 90
       50
102
RTVSPost2010PropOp50
 70
     1
102
RTVSPost2010Prop51ColorIndex
 90
      256
102
RTVSPost2010Prop51ColorRGB
 90
-16777216
102
RTVSPost2010PropOp51
 70
     0
102
RTVSPost2010Prop52
140
1.0
102
RTVSPost2010PropOp52
 70
     0
102
RTVSPost2010Prop53
 90
        2
102
RTVSPost2010PropOp53
 70
     1
102
RTVSPost2010Prop54
  1
strokes_ogs.tif
102
RTVSPost2010PropOp54
 70
     1
102
RTVSPost2010Prop55
280
     0
102
RTVSPost2010PropOp55
 70
     1
102
RTVSPost2010Prop56
140
1.0
102
RTVSPost2010PropOp56
 70
     1
102
RTVSPost2010Prop57
140
1.0
102
RTVSPost2010PropOp57
 70
     1
  0
ENDSEC
  0
EOF
