  0
SECTION
  2
HEADER
  9
$ACADVER
  1
AC1015
  9
$ACADMAINTVER
 70
     6
  9
$DWGCODEPAGE
  3
ANSI_932
  9
$INSBASE
 10
0.0
 20
0.0
 30
0.0
  9
$EXTMIN
 10
0.0
 20
0.0
 30
0.0
  9
$EXTMAX
 10
420.0
 20
297.0
 30
0.0
  9
$LIMMIN
 10
0.0
 20
0.0
  9
$LIMMAX
 10
420.0
 20
297.0
  9
$ORTHOMODE
 70
     0
  9
$REGENMODE
 70
     1
  9
$FILLMODE
 70
     1
  9
$QTEXTMODE
 70
     0
  9
$MIRRTEXT
 70
     1
  9
$LTSCALE
 40
1.0
  9
$ATTMODE
 70
     1
  9
$TEXTSIZE
 40
2.5
  9
$TRACEWID
 40
1.0
  9
$TEXTSTYLE
  7
ＭＳ ゴシック
  9
$CLAYER
  8
0
  9
$CELTYPE
  6
ByLayer
  9
$CECOLOR
 62
   256
  9
$CELTSCALE
 40
1.0
  9
$DISPSILH
 70
     0
  9
$DIMSCALE
 40
1.0
  9
$DIMASZ
 40
2.5
  9
$DIMEXO
 40
1.0
  9
$DIMDLI
 40
8.0
  9
$DIMRND
 40
0.0
  9
$DIMDLE
 40
4.0
  9
$DIMEXE
 40
1.0
  9
$DIMTP
 40
0.0
  9
$DIMTM
 40
0.0
  9
$DIMTXT
 40
3.5
  9
$DIMCEN
 40
2.5
  9
$DIMTSZ
 40
0.0
  9
$DIMTOL
 70
     0
  9
$DIMLIM
 70
     0
  9
$DIMTIH
 70
     0
  9
$DIMTOH
 70
     0
  9
$DIMSE1
 70
     0
  9
$DIMSE2
 70
     0
  9
$DIMTAD
 70
     1
  9
$DIMZIN
 70
     8
  9
$DIMBLK
  1

  9
$DIMASO
 70
     1
  9
$DIMSHO
 70
     1
  9
$DIMPOST
  1

  9
$DIMAPOST
  1

  9
$DIMALT
 70
     0
  9
$DIMALTD
 70
     3
  9
$DIMALTF
 40
0.03937
  9
$DIMLFAC
 40
1.0
  9
$DIMTOFL
 70
     1
  9
$DIMTVP
 40
0.0
  9
$DIMTIX
 70
     0
  9
$DIMSOXD
 70
     0
  9
$DIMSAH
 70
     1
  9
$DIMBLK1
  1
FXTIP_ARROW_S
  9
$DIMBLK2
  1
FXTIP_ARROW_E
  9
$DIMSTYLE
  2
FX_DIMINFO
  9
$DIMCLRD
 70
     5
  9
$DIMCLRE
 70
     5
  9
$DIMCLRT
 70
    94
  9
$DIMTFAC
 40
1.0
  9
$DIMGAP
 40
1.0
  9
$DIMJUST
 70
     0
  9
$DIMSD1
 70
     0
  9
$DIMSD2
 70
     0
  9
$DIMTOLJ
 70
     1
  9
$DIMTZIN
 70
     8
  9
$DIMALTZ
 70
     0
  9
$DIMALTTZ
 70
     0
  9
$DIMUPT
 70
     0
  9
$DIMDEC
 70
     2
  9
$DIMTDEC
 70
     2
  9
$DIMALTU
 70
     2
  9
$DIMALTTD
 70
     3
  9
$DIMTXSTY
  7
ＭＳ ゴシック
  9
$DIMAUNIT
 70
     0
  9
$DIMADEC
 70
     2
  9
$DIMALTRND
 40
0.0
  9
$DIMAZIN
 70
     2
  9
$DIMDSEP
 70
    46
  9
$DIMATFIT
 70
     3
  9
$DIMFRAC
 70
     0
  9
$DIMLDRBLK
  1
FXTIP_ARROW_S
  9
$DIMLUNIT
 70
     2
  9
$DIMLWD
 70
    -2
  9
$DIMLWE
 70
    -2
  9
$DIMTMOVE
 70
     0
  9
$LUNITS
 70
     2
  9
$LUPREC
 70
     4
  9
$SKETCHINC
 40
1.0
  9
$FILLETRAD
 40
10.0
  9
$AUNITS
 70
     0
  9
$AUPREC
 70
     0
  9
$MENU
  1
.
  9
$ELEVATION
 40
0.0
  9
$PELEVATION
 40
0.0
  9
$THICKNESS
 40
0.0
  9
$LIMCHECK
 70
     0
  9
$CHAMFERA
 40
0.0
  9
$CHAMFERB
 40
0.0
  9
$CHAMFERC
 40
0.0
  9
$CHAMFERD
 40
0.0
  9
$SKPOLY
 70
     0
  9
$TDCREATE
 40
2456828.560592454
  9
$TDUCREATE
 40
2456828.185592454
  9
$TDUPDATE
 40
2456828.560593356
  9
$TDUUPDATE
 40
2456828.185593356
  9
$TDINDWG
 40
0.0000000116
  9
$TDUSRTIMER
 40
0.0000000116
  9
$USRTIMER
 70
     1
  9
$ANGBASE
 50
0.0
  9
$ANGDIR
 70
     0
  9
$PDMODE
 70
     0
  9
$PDSIZE
 40
0.0
  9
$PLINEWID
 40
0.0
  9
$SPLFRAME
 70
     0
  9
$SPLINETYPE
 70
     6
  9
$SPLINESEGS
 70
     8
  9
$HANDSEED
  5
3CD
  9
$SURFTAB1
 70
     6
  9
$SURFTAB2
 70
     6
  9
$SURFTYPE
 70
     6
  9
$SURFU
 70
     6
  9
$SURFV
 70
     6
  9
$UCSBASE
  2

  9
$UCSNAME
  2

  9
$UCSORG
 10
0.0
 20
0.0
 30
0.0
  9
$UCSXDIR
 10
1.0
 20
0.0
 30
0.0
  9
$UCSYDIR
 10
0.0
 20
1.0
 30
0.0
  9
$UCSORTHOREF
  2

  9
$UCSORTHOVIEW
 70
     0
  9
$UCSORGTOP
 10
0.0
 20
0.0
 30
0.0
  9
$UCSORGBOTTOM
 10
0.0
 20
0.0
 30
0.0
  9
$UCSORGLEFT
 10
0.0
 20
0.0
 30
0.0
  9
$UCSORGRIGHT
 10
0.0
 20
0.0
 30
0.0
  9
$UCSORGFRONT
 10
0.0
 20
0.0
 30
0.0
  9
$UCSORGBACK
 10
0.0
 20
0.0
 30
0.0
  9
$PUCSBASE
  2

  9
$PUCSNAME
  2

  9
$PUCSORG
 10
0.0
 20
0.0
 30
0.0
  9
$PUCSXDIR
 10
1.0
 20
0.0
 30
0.0
  9
$PUCSYDIR
 10
0.0
 20
1.0
 30
0.0
  9
$PUCSORTHOREF
  2

  9
$PUCSORTHOVIEW
 70
     0
  9
$PUCSORGTOP
 10
0.0
 20
0.0
 30
0.0
  9
$PUCSORGBOTTOM
 10
0.0
 20
0.0
 30
0.0
  9
$PUCSORGLEFT
 10
0.0
 20
0.0
 30
0.0
  9
$PUCSORGRIGHT
 10
0.0
 20
0.0
 30
0.0
  9
$PUCSORGFRONT
 10
0.0
 20
0.0
 30
0.0
  9
$PUCSORGBACK
 10
0.0
 20
0.0
 30
0.0
  9
$USERI1
 70
     0
  9
$USERI2
 70
     0
  9
$USERI3
 70
     0
  9
$USERI4
 70
     0
  9
$USERI5
 70
     0
  9
$USERR1
 40
0.0
  9
$USERR2
 40
0.0
  9
$USERR3
 40
0.0
  9
$USERR4
 40
0.0
  9
$USERR5
 40
0.0
  9
$WORLDVIEW
 70
     1
  9
$SHADEDGE
 70
     3
  9
$SHADEDIF
 70
    70
  9
$TILEMODE
 70
     1
  9
$MAXACTVP
 70
    64
  9
$PINSBASE
 10
0.0
 20
0.0
 30
0.0
  9
$PLIMCHECK
 70
     0
  9
$PEXTMIN
 10
1.000000000000000E+20
 20
1.000000000000000E+20
 30
1.000000000000000E+20
  9
$PEXTMAX
 10
-1.000000000000000E+20
 20
-1.000000000000000E+20
 30
-1.000000000000000E+20
  9
$PLIMMIN
 10
0.0
 20
0.0
  9
$PLIMMAX
 10
420.0
 20
297.0
  9
$UNITMODE
 70
     0
  9
$VISRETAIN
 70
     1
  9
$PLINEGEN
 70
     0
  9
$PSLTSCALE
 70
     1
  9
$TREEDEPTH
 70
  3020
  9
$CMLSTYLE
  2
Standard
  9
$CMLJUST
 70
     0
  9
$CMLSCALE
 40
20.0
  9
$PROXYGRAPHICS
 70
     1
  9
$MEASUREMENT
 70
     1
  9
$CELWEIGHT
370
    -1
  9
$ENDCAPS
280
     0
  9
$JOINSTYLE
280
     0
  9
$LWDISPLAY
290
     0
  9
$INSUNITS
 70
     4
  9
$HYPERLINKBASE
  1

  9
$STYLESHEET
  1

  9
$XEDIT
290
     1
  9
$CEPSNTYPE
380
     0
  9
$PSTYLEMODE
290
     1
  9
$FINGERPRINTGUID
  2
{94ECCC5A-508D-48E0-9760-EAAA8400433F}
  9
$VERSIONGUID
  2
{FAEB1C32-E019-11D5-929B-00C0DF256EC4}
  9
$EXTNAMES
290
     1
  9
$PSVPSCALE
 40
0.0
  9
$OLESTARTUP
290
     0
  0
ENDSEC
  0
SECTION
  2
CLASSES
  0
CLASS
  1
ACDBDICTIONARYWDFLT
  2
AcDbDictionaryWithDefault
  3
ObjectDBX Classes
 90
        0
280
     0
281
     0
  0
CLASS
  1
VISUALSTYLE
  2
AcDbVisualStyle
  3
ObjectDBX Classes
 90
     4095
280
     0
281
     0
  0
CLASS
  1
MATERIAL
  2
AcDbMaterial
  3
ObjectDBX Classes
 90
     1153
280
     0
281
     0
  0
CLASS
  1
SCALE
  2
AcDbScale
  3
ObjectDBX Classes
 90
     1153
280
     0
281
     0
  0
CLASS
  1
SUN
  2
AcDbSun
  3
SCENEOE
 90
     1153
280
     0
281
     0
  0
CLASS
  1
DICTIONARYVAR
  2
AcDbDictionaryVar
  3
ObjectDBX Classes
 90
        0
280
     0
281
     0
  0
CLASS
  1
ACDBPLACEHOLDER
  2
AcDbPlaceHolder
  3
ObjectDBX Classes
 90
        0
280
     0
281
     0
  0
CLASS
  1
LAYOUT
  2
AcDbLayout
  3
ObjectDBX Classes
 90
        0
280
     0
281
     0
  0
ENDSEC
  0
SECTION
  2
TABLES
  0
TABLE
  2
VPORT
  5
8
330
0
100
AcDbSymbolTable
 70
     1
  0
VPORT
  5
29
330
8
100
AcDbSymbolTableRecord
100
AcDbViewportTableRecord
  2
*Active
 70
     0
 10
0.0
 20
0.0
 11
1.0
 21
1.0
 12
210.0
 22
148.5
 13
0.0
 23
0.0
 14
10.0
 24
10.0
 15
10.0
 25
10.0
 16
0.0
 26
0.0
 36
1.0
 17
0.0
 27
0.0
 37
0.0
 40
297.0
 41
1.414141414141414
 42
50.0
 43
0.0
 44
0.0
 50
0.0
 51
0.0
 71
     0
 72
   100
 73
     1
 74
     3
 75
     0
 76
     0
 77
     0
 78
     0
281
     0
 65
     1
110
0.0
120
0.0
130
0.0
111
1.0
121
0.0
131
0.0
112
0.0
122
1.0
132
0.0
 79
     0
146
0.0
  0
ENDTAB
  0
TABLE
  2
LTYPE
  5
5
330
0
100
AcDbSymbolTable
 70
     2
  0
LTYPE
  5
14
330
5
100
AcDbSymbolTableRecord
100
AcDbLinetypeTableRecord
  2
ByBlock
 70
     0
  3

 72
    65
 73
     0
 40
0.0
  0
LTYPE
  5
15
330
5
100
AcDbSymbolTableRecord
100
AcDbLinetypeTableRecord
  2
ByLayer
 70
     0
  3

 72
    65
 73
     0
 40
0.0
  0
LTYPE
  5
16
330
5
100
AcDbSymbolTableRecord
100
AcDbLinetypeTableRecord
  2
Continuous
 70
     0
  3
Solid line
 72
    65
 73
     0
 40
0.0
  0
LTYPE
  5
D9
330
5
100
AcDbSymbolTableRecord
100
AcDbLinetypeTableRecord
  2
0.5実線
 70
     0
  3

 72
    65
 73
     0
 40
0.0
  0
ENDTAB
  0
TABLE
  2
LAYER
  5
2
330
0
100
AcDbSymbolTable
 70
     4
  0
LAYER
  5
10
330
2
100
AcDbSymbolTableRecord
100
AcDbLayerTableRecord
  2
0
 70
     0
 62
     7
  6
Continuous
370
    -3
390
F
  0
LAYER
  5
D6
330
2
100
AcDbSymbolTableRecord
100
AcDbLayerTableRecord
  2
Defpoints
 70
     0
 62
     7
  6
Continuous
290
     0
370
    -3
390
F
  0
LAYER
  5
D8
330
2
100
AcDbSymbolTableRecord
100
AcDbLayerTableRecord
  2
GR2_01
 70
     0
 62
     1
  6
0.5実線
370
    30
390
F
  0
LAYER
  5
380
330
2
100
AcDbSymbolTableRecord
100
AcDbLayerTableRecord
  2
GR1_01
 70
     0
 62
     1
  6
0.5実線
370
    30
390
F
  0
ENDTAB
  0
TABLE
  2
STYLE
  5
3
330
0
100
AcDbSymbolTable
 70
     4
  0
STYLE
  5
11
330
3
100
AcDbSymbolTableRecord
100
AcDbTextStyleTableRecord
  2
Standard
 70
     0
 40
0.0
 41
1.0
 50
0.0
 71
     0
 42
2.5
  3
txt
  4

  0
STYLE
  5
6A
330
3
100
AcDbSymbolTableRecord
100
AcDbTextStyleTableRecord
  2
FX_VECTOR
 70
     0
 40
0.0
 41
1.0
 50
0.0
 71
     0
 42
2.5
  3
MONOTXT.SHX
  4
BigFont.shx
  0
STYLE
  5
D5
330
3
100
AcDbSymbolTableRecord
100
AcDbTextStyleTableRecord
  2
ＭＳ ゴシック
 70
     0
 40
0.0
 41
1.0
 50
0.0
 71
     0
 42
2.5
  3

  4

1001
ACAD
1000
ＭＳ ゴシック
1071
    32817
  0
STYLE
  5
D7
330
3
100
AcDbSymbolTableRecord
100
AcDbTextStyleTableRecord
  2
DEFAULT
 70
     0
 40
0.0
 41
1.0
 50
0.0
 71
     0
 42
2.5
  3

  4

1001
ACAD
1000
ＭＳ ゴシック
1071
    32817
  0
ENDTAB
  0
TABLE
  2
VIEW
  5
6
330
0
100
AcDbSymbolTable
 70
     0
  0
ENDTAB
  0
TABLE
  2
UCS
  5
7
330
0
100
AcDbSymbolTable
 70
     0
  0
ENDTAB
  0
TABLE
  2
APPID
  5
9
330
0
100
AcDbSymbolTable
 70
     1
  0
APPID
  5
12
330
9
100
AcDbSymbolTableRecord
100
AcDbRegAppTableRecord
  2
ACAD
 70
     0
  0
ENDTAB
  0
TABLE
  2
DIMSTYLE
  5
A
330
0
100
AcDbSymbolTable
 70
     2
100
AcDbDimStyleTable
  0
DIMSTYLE
105
27
330
A
100
AcDbSymbolTableRecord
100
AcDbDimStyleTableRecord
  2
ISO-25
 70
     0
 41
2.5
 42
0.625
 43
3.75
 44
1.25
 73
     0
 74
     0
 77
     1
 78
     8
140
2.5
141
2.5
143
0.03937007874016
147
0.625
171
     3
172
     1
178
     0
271
     2
272
     2
274
     3
278
    44
283
     0
284
     8
340
11
  0
DIMSTYLE
105
D4
102
{ACAD_REACTORS
330
ED
330
2A3
330
2AD
330
37F
102
}
330
A
100
AcDbSymbolTableRecord
100
AcDbDimStyleTableRecord
  2
FX_DIMINFO
 70
     0
 41
2.5
 42
1.0
 43
8.0
 44
1.0
 46
4.0
 73
     0
 74
     0
 77
     1
 78
     8
 79
     2
140
3.5
141
2.5
143
0.03937
147
1.0
171
     3
172
     1
173
     1
176
     5
177
     5
271
     2
178
    94
179
     2
271
     2
272
     2
274
     3
284
     8
340
D5
341
6E
343
6E
344
74
  0
ENDTAB
  0
TABLE
  2
BLOCK_RECORD
  5
1
330
0
100
AcDbSymbolTable
 70
    34
  0
BLOCK_RECORD
  5
1F
330
1
100
AcDbSymbolTableRecord
100
AcDbBlockTableRecord
  2
*Model_Space
340
22
  0
BLOCK_RECORD
  5
1B
330
1
100
AcDbSymbolTableRecord
100
AcDbBlockTableRecord
  2
*Paper_Space
340
1E
  0
BLOCK_RECORD
  5
23
330
1
100
AcDbSymbolTableRecord
100
AcDbBlockTableRecord
  2
*Paper_Space0
340
26
  0
BLOCK_RECORD
  5
6B
330
1
100
AcDbSymbolTableRecord
100
AcDbBlockTableRecord
  2
FXTIP_NONE
340
0
  0
BLOCK_RECORD
  5
6E
330
1
100
AcDbSymbolTableRecord
100
AcDbBlockTableRecord
  2
FXTIP_ARROW_S
340
0
102
{BLKREFS
331
F3
331
2A9
331
2B3
331
38B
102
}
  0
BLOCK_RECORD
  5
74
330
1
100
AcDbSymbolTableRecord
100
AcDbBlockTableRecord
  2
FXTIP_ARROW_E
340
0
102
{BLKREFS
331
F4
331
2AA
331
2B4
331
389
102
}
  0
BLOCK_RECORD
  5
7A
330
1
100
AcDbSymbolTableRecord
100
AcDbBlockTableRecord
  2
FXTIP_BLACKDOT_S
340
0
  0
BLOCK_RECORD
  5
80
330
1
100
AcDbSymbolTableRecord
100
AcDbBlockTableRecord
  2
FXTIP_BLACKDOT_E
340
0
  0
BLOCK_RECORD
  5
86
330
1
100
AcDbSymbolTableRecord
100
AcDbBlockTableRecord
  2
FXTIP_TRIANGLE_S
340
0
  0
BLOCK_RECORD
  5
8D
330
1
100
AcDbSymbolTableRecord
100
AcDbBlockTableRecord
  2
FXTIP_TRIANGLE_E
340
0
  0
BLOCK_RECORD
  5
94
330
1
100
AcDbSymbolTableRecord
100
AcDbBlockTableRecord
  2
FXTIP_ARCHITECT_S
340
0
  0
BLOCK_RECORD
  5
9A
330
1
100
AcDbSymbolTableRecord
100
AcDbBlockTableRecord
  2
FXTIP_ARCHITECT_E
340
0
  0
BLOCK_RECORD
  5
A0
330
1
100
AcDbSymbolTableRecord
100
AcDbBlockTableRecord
  2
FXTIP_CIVIL_S
340
0
  0
BLOCK_RECORD
  5
A6
330
1
100
AcDbSymbolTableRecord
100
AcDbBlockTableRecord
  2
FXTIP_CIVIL_E
340
0
  0
BLOCK_RECORD
  5
AC
330
1
100
AcDbSymbolTableRecord
100
AcDbBlockTableRecord
  2
FXTIP_WHITEDOT_S
340
0
  0
BLOCK_RECORD
  5
B1
330
1
100
AcDbSymbolTableRecord
100
AcDbBlockTableRecord
  2
FXTIP_WHITEDOT_E
340
0
  0
BLOCK_RECORD
  5
B6
330
1
100
AcDbSymbolTableRecord
100
AcDbBlockTableRecord
  2
FXTIP_UPARROW_S
340
0
  0
BLOCK_RECORD
  5
BB
330
1
100
AcDbSymbolTableRecord
100
AcDbBlockTableRecord
  2
FXTIP_UPARROW_E
340
0
  0
BLOCK_RECORD
  5
C0
330
1
100
AcDbSymbolTableRecord
100
AcDbBlockTableRecord
  2
FXTIP_DOWNARROW_S
340
0
  0
BLOCK_RECORD
  5
C5
330
1
100
AcDbSymbolTableRecord
100
AcDbBlockTableRecord
  2
FXTIP_DOWNARROW_E
340
0
  0
BLOCK_RECORD
  5
CA
330
1
100
AcDbSymbolTableRecord
100
AcDbBlockTableRecord
  2
FXTIP_BLACKTRIANGLE_S
340
0
  0
BLOCK_RECORD
  5
CF
330
1
100
AcDbSymbolTableRecord
100
AcDbBlockTableRecord
  2
FXTIP_BLACKTRIANGLE_E
340
0
  0
BLOCK_RECORD
  5
EE
330
1
100
AcDbSymbolTableRecord
100
AcDbBlockTableRecord
  2
*D20
340
0
  0
BLOCK_RECORD
  5
213
330
1
100
AcDbSymbolTableRecord
100
AcDbBlockTableRecord
  2
BLKF024
340
0
102
{BLKREFS
331
216
102
}
  0
BLOCK_RECORD
  5
220
330
1
100
AcDbSymbolTableRecord
100
AcDbBlockTableRecord
  2
BLKF025
340
0
102
{BLKREFS
331
223
102
}
  0
BLOCK_RECORD
  5
261
330
1
100
AcDbSymbolTableRecord
100
AcDbBlockTableRecord
  2
BLKF026
340
0
102
{BLKREFS
331
264
102
}
  0
BLOCK_RECORD
  5
280
330
1
100
AcDbSymbolTableRecord
100
AcDbBlockTableRecord
  2
BLKF027
340
0
102
{BLKREFS
331
283
102
}
  0
BLOCK_RECORD
  5
2A4
330
1
100
AcDbSymbolTableRecord
100
AcDbBlockTableRecord
  2
*D25
340
0
  0
BLOCK_RECORD
  5
2AE
330
1
100
AcDbSymbolTableRecord
100
AcDbBlockTableRecord
  2
*D26
340
0
  0
BLOCK_RECORD
  5
2D5
330
1
100
AcDbSymbolTableRecord
100
AcDbBlockTableRecord
  2
BLKF030
340
0
102
{BLKREFS
331
2D8
102
}
  0
BLOCK_RECORD
  5
2E7
330
1
100
AcDbSymbolTableRecord
100
AcDbBlockTableRecord
  2
BLKF031
340
0
102
{BLKREFS
331
2EA
102
}
  0
BLOCK_RECORD
  5
2F8
330
1
100
AcDbSymbolTableRecord
100
AcDbBlockTableRecord
  2
BLKF032
340
0
102
{BLKREFS
331
2FB
102
}
  0
BLOCK_RECORD
  5
30A
330
1
100
AcDbSymbolTableRecord
100
AcDbBlockTableRecord
  2
BLKF033
340
0
102
{BLKREFS
331
30D
102
}
  0
BLOCK_RECORD
  5
315
330
1
100
AcDbSymbolTableRecord
100
AcDbBlockTableRecord
  2
BLKF034
340
0
102
{BLKREFS
331
318
102
}
  0
BLOCK_RECORD
  5
31F
330
1
100
AcDbSymbolTableRecord
100
AcDbBlockTableRecord
  2
BLKF035
340
0
102
{BLKREFS
331
322
102
}
  0
BLOCK_RECORD
  5
381
330
1
100
AcDbSymbolTableRecord
100
AcDbBlockTableRecord
  2
*D33
340
0
  0
ENDTAB
  0
ENDSEC
  0
SECTION
  2
BLOCKS
  0
BLOCK
  5
20
330
1F
100
AcDbEntity
  8
0
100
AcDbBlockBegin
  2
*Model_Space
 70
     0
 10
0.0
 20
0.0
 30
0.0
  3
*Model_Space
  1
*Model_Space
  0
ENDBLK
  5
21
330
1F
100
AcDbEntity
  8
0
100
AcDbBlockEnd
  0
BLOCK
  5
1C
330
1B
100
AcDbEntity
 67
     1
  8
0
100
AcDbBlockBegin
  2
*Paper_Space
 70
     0
 10
0.0
 20
0.0
 30
0.0
  3
*Paper_Space
  1
*Paper_Space
  0
ENDBLK
  5
1D
330
1B
100
AcDbEntity
 67
     1
  8
0
100
AcDbBlockEnd
  0
BLOCK
  5
24
330
23
100
AcDbEntity
  8
0
100
AcDbBlockBegin
  2
*Paper_Space0
 70
     0
 10
0.0
 20
0.0
 30
0.0
  3
*Paper_Space0
  1
*Paper_Space0
  0
ENDBLK
  5
25
330
23
100
AcDbEntity
  8
0
100
AcDbBlockEnd
  0
BLOCK
  5
6C
330
6B
100
AcDbEntity
  8
0
100
AcDbBlockBegin
  2
FXTIP_NONE
 70
     0
 10
0.0
 20
0.0
 30
0.0
  3
FXTIP_NONE
  1
FXTIP_NONE
  0
ENDBLK
  5
6D
330
6B
100
AcDbEntity
  8
0
100
AcDbBlockEnd
  0
BLOCK
  5
6F
330
6E
100
AcDbEntity
  8
0
100
AcDbBlockBegin
  2
FXTIP_ARROW_S
 70
     0
 10
0.0
 20
0.0
 30
0.0
  3
FXTIP_ARROW_S
  1
FXTIP_ARROW_S
  0
LINE
  5
71
330
6E
100
AcDbEntity
  8
0
  6
Continuous
 62
     0
370
    -2
100
AcDbLine
 10
0.0
 20
0.0
 30
0.0
 11
-1.0
 21
0.0000000000000001
 31
0.0
  0
LINE
  5
72
330
6E
100
AcDbEntity
  8
0
  6
Continuous
 62
     0
370
    -2
100
AcDbLine
 10
0.0
 20
0.0
 30
0.0
 11
-0.9659258262890683
 21
-0.2588190451025206
 31
0.0
  0
LINE
  5
73
330
6E
100
AcDbEntity
  8
0
  6
Continuous
 62
     0
370
    -2
100
AcDbLine
 10
0.0
 20
0.0
 30
0.0
 11
-0.9659258262890683
 21
0.2588190451025209
 31
0.0
  0
ENDBLK
  5
70
330
6E
100
AcDbEntity
  8
0
100
AcDbBlockEnd
  0
BLOCK
  5
75
330
74
100
AcDbEntity
  8
0
100
AcDbBlockBegin
  2
FXTIP_ARROW_E
 70
     0
 10
0.0
 20
0.0
 30
0.0
  3
FXTIP_ARROW_E
  1
FXTIP_ARROW_E
  0
LINE
  5
77
330
74
100
AcDbEntity
  8
0
  6
Continuous
 62
     0
370
    -2
100
AcDbLine
 10
0.0
 20
0.0
 30
0.0
 11
-1.0
 21
0.0
 31
0.0
  0
LINE
  5
78
330
74
100
AcDbEntity
  8
0
  6
Continuous
 62
     0
370
    -2
100
AcDbLine
 10
0.0
 20
0.0
 30
0.0
 11
-0.9659258262890683
 21
0.2588190451025207
 31
0.0
  0
LINE
  5
79
330
74
100
AcDbEntity
  8
0
  6
Continuous
 62
     0
370
    -2
100
AcDbLine
 10
0.0
 20
0.0
 30
0.0
 11
-0.9659258262890683
 21
-0.2588190451025207
 31
0.0
  0
ENDBLK
  5
76
330
74
100
AcDbEntity
  8
0
100
AcDbBlockEnd
  0
BLOCK
  5
7B
330
7A
100
AcDbEntity
  8
0
100
AcDbBlockBegin
  2
FXTIP_BLACKDOT_S
 70
     0
 10
0.0
 20
0.0
 30
0.0
  3
FXTIP_BLACKDOT_S
  1
FXTIP_BLACKDOT_S
  0
LINE
  5
7D
330
7A
100
AcDbEntity
  8
0
  6
Continuous
 62
     0
370
    -2
100
AcDbLine
 10
0.0
 20
0.0
 30
0.0
 11
-1.0
 21
0.0000000000000001
 31
0.0
  0
LWPOLYLINE
  5
7E
330
7A
100
AcDbEntity
  8
0
  6
Continuous
 62
     0
370
    -2
100
AcDbPolyline
 90
        2
 70
     1
 43
0.2
 10
-0.1
 20
0.0
 42
1.0
 10
0.1
 20
0.0
 42
1.0
  0
CIRCLE
  5
7F
330
7A
100
AcDbEntity
  8
0
  6
Continuous
 62
     0
370
    -2
100
AcDbCircle
 10
0.0
 20
0.0
 30
0.0
 40
0.2
  0
ENDBLK
  5
7C
330
7A
100
AcDbEntity
  8
0
100
AcDbBlockEnd
  0
BLOCK
  5
81
330
80
100
AcDbEntity
  8
0
100
AcDbBlockBegin
  2
FXTIP_BLACKDOT_E
 70
     0
 10
0.0
 20
0.0
 30
0.0
  3
FXTIP_BLACKDOT_E
  1
FXTIP_BLACKDOT_E
  0
LINE
  5
83
330
80
100
AcDbEntity
  8
0
  6
Continuous
 62
     0
370
    -2
100
AcDbLine
 10
0.0
 20
0.0
 30
0.0
 11
-1.0
 21
0.0
 31
0.0
  0
LWPOLYLINE
  5
84
330
80
100
AcDbEntity
  8
0
  6
Continuous
 62
     0
370
    -2
100
AcDbPolyline
 90
        2
 70
     1
 43
0.2
 10
-0.1
 20
0.0
 42
1.0
 10
0.1
 20
0.0
 42
1.0
  0
CIRCLE
  5
85
330
80
100
AcDbEntity
  8
0
  6
Continuous
 62
     0
370
    -2
100
AcDbCircle
 10
0.0
 20
0.0
 30
0.0
 40
0.2
  0
ENDBLK
  5
82
330
80
100
AcDbEntity
  8
0
100
AcDbBlockEnd
  0
BLOCK
  5
87
330
86
100
AcDbEntity
  8
0
100
AcDbBlockBegin
  2
FXTIP_TRIANGLE_S
 70
     0
 10
0.0
 20
0.0
 30
0.0
  3
FXTIP_TRIANGLE_S
  1
FXTIP_TRIANGLE_S
  0
LINE
  5
89
330
86
100
AcDbEntity
  8
0
  6
Continuous
 62
     0
370
    -2
100
AcDbLine
 10
0.0
 20
0.0
 30
0.0
 11
-1.0
 21
0.0000000000000001
 31
0.0
  0
LINE
  5
8A
330
86
100
AcDbEntity
  8
0
  6
Continuous
 62
     0
370
    -2
100
AcDbLine
 10
0.0
 20
0.0
 30
0.0
 11
-0.9659258262890683
 21
-0.2588190451025206
 31
0.0
  0
LINE
  5
8B
330
86
100
AcDbEntity
  8
0
  6
Continuous
 62
     0
370
    -2
100
AcDbLine
 10
0.0
 20
0.0
 30
0.0
 11
-0.9659258262890683
 21
0.2588190451025209
 31
0.0
  0
LINE
  5
8C
330
86
100
AcDbEntity
  8
0
  6
Continuous
 62
     0
370
    -2
100
AcDbLine
 10
-0.9659258262890683
 20
-0.2588190451025206
 30
0.0
 11
-0.9659258262890683
 21
0.2588190451025209
 31
0.0
  0
ENDBLK
  5
88
330
86
100
AcDbEntity
  8
0
100
AcDbBlockEnd
  0
BLOCK
  5
8E
330
8D
100
AcDbEntity
  8
0
100
AcDbBlockBegin
  2
FXTIP_TRIANGLE_E
 70
     0
 10
0.0
 20
0.0
 30
0.0
  3
FXTIP_TRIANGLE_E
  1
FXTIP_TRIANGLE_E
  0
LINE
  5
90
330
8D
100
AcDbEntity
  8
0
  6
Continuous
 62
     0
370
    -2
100
AcDbLine
 10
0.0
 20
0.0
 30
0.0
 11
-1.0
 21
0.0
 31
0.0
  0
LINE
  5
91
330
8D
100
AcDbEntity
  8
0
  6
Continuous
 62
     0
370
    -2
100
AcDbLine
 10
0.0
 20
0.0
 30
0.0
 11
-0.9659258262890683
 21
0.2588190451025207
 31
0.0
  0
LINE
  5
92
330
8D
100
AcDbEntity
  8
0
  6
Continuous
 62
     0
370
    -2
100
AcDbLine
 10
0.0
 20
0.0
 30
0.0
 11
-0.9659258262890683
 21
-0.2588190451025207
 31
0.0
  0
LINE
  5
93
330
8D
100
AcDbEntity
  8
0
  6
Continuous
 62
     0
370
    -2
100
AcDbLine
 10
-0.9659258262890683
 20
0.2588190451025207
 30
0.0
 11
-0.9659258262890683
 21
-0.2588190451025207
 31
0.0
  0
ENDBLK
  5
8F
330
8D
100
AcDbEntity
  8
0
100
AcDbBlockEnd
  0
BLOCK
  5
95
330
94
100
AcDbEntity
  8
0
100
AcDbBlockBegin
  2
FXTIP_ARCHITECT_S
 70
     0
 10
0.0
 20
0.0
 30
0.0
  3
FXTIP_ARCHITECT_S
  1
FXTIP_ARCHITECT_S
  0
LINE
  5
97
330
94
100
AcDbEntity
  8
0
  6
Continuous
 62
     0
370
    -2
100
AcDbLine
 10
0.0
 20
0.0
 30
0.0
 11
-1.0
 21
0.0000000000000001
 31
0.0
  0
LINE
  5
98
330
94
100
AcDbEntity
  8
0
  6
Continuous
 62
     0
370
    -2
100
AcDbLine
 10
0.0
 20
0.0
 30
0.0
 11
-0.7071067811865476
 21
-0.7071067811865474
 31
0.0
  0
LINE
  5
99
330
94
100
AcDbEntity
  8
0
  6
Continuous
 62
     0
370
    -2
100
AcDbLine
 10
0.0
 20
0.0
 30
0.0
 11
0.7071067811865476
 21
0.7071067811865474
 31
0.0
  0
ENDBLK
  5
96
330
94
100
AcDbEntity
  8
0
100
AcDbBlockEnd
  0
BLOCK
  5
9B
330
9A
100
AcDbEntity
  8
0
100
AcDbBlockBegin
  2
FXTIP_ARCHITECT_E
 70
     0
 10
0.0
 20
0.0
 30
0.0
  3
FXTIP_ARCHITECT_E
  1
FXTIP_ARCHITECT_E
  0
LINE
  5
9D
330
9A
100
AcDbEntity
  8
0
  6
Continuous
 62
     0
370
    -2
100
AcDbLine
 10
0.0
 20
0.0
 30
0.0
 11
-1.0
 21
0.0
 31
0.0
  0
LINE
  5
9E
330
9A
100
AcDbEntity
  8
0
  6
Continuous
 62
     0
370
    -2
100
AcDbLine
 10
0.0
 20
0.0
 30
0.0
 11
0.7071067811865475
 21
0.7071067811865475
 31
0.0
  0
LINE
  5
9F
330
9A
100
AcDbEntity
  8
0
  6
Continuous
 62
     0
370
    -2
100
AcDbLine
 10
0.0
 20
0.0
 30
0.0
 11
-0.7071067811865475
 21
-0.7071067811865475
 31
0.0
  0
ENDBLK
  5
9C
330
9A
100
AcDbEntity
  8
0
100
AcDbBlockEnd
  0
BLOCK
  5
A1
330
A0
100
AcDbEntity
  8
0
100
AcDbBlockBegin
  2
FXTIP_CIVIL_S
 70
     0
 10
0.0
 20
0.0
 30
0.0
  3
FXTIP_CIVIL_S
  1
FXTIP_CIVIL_S
  0
LINE
  5
A3
330
A0
100
AcDbEntity
  8
0
  6
Continuous
 62
     0
370
    -2
100
AcDbLine
 10
0.0
 20
0.0
 30
0.0
 11
-1.0
 21
0.0000000000000001
 31
0.0
  0
LINE
  5
A4
330
A0
100
AcDbEntity
  8
0
  6
Continuous
 62
     0
370
    -2
100
AcDbLine
 10
0.0
 20
-0.1
 30
0.0
 11
-1.0
 21
-0.0999999999999999
 31
0.0
  0
LINE
  5
A5
330
A0
100
AcDbEntity
  8
0
  6
Continuous
 62
     0
370
    -2
100
AcDbLine
 10
0.0
 20
-0.2
 30
0.0
 11
-1.0
 21
-0.1999999999999999
 31
0.0
  0
ENDBLK
  5
A2
330
A0
100
AcDbEntity
  8
0
100
AcDbBlockEnd
  0
BLOCK
  5
A7
330
A6
100
AcDbEntity
  8
0
100
AcDbBlockBegin
  2
FXTIP_CIVIL_E
 70
     0
 10
0.0
 20
0.0
 30
0.0
  3
FXTIP_CIVIL_E
  1
FXTIP_CIVIL_E
  0
LINE
  5
A9
330
A6
100
AcDbEntity
  8
0
  6
Continuous
 62
     0
370
    -2
100
AcDbLine
 10
0.0
 20
0.0
 30
0.0
 11
-1.0
 21
0.0
 31
0.0
  0
LINE
  5
AA
330
A6
100
AcDbEntity
  8
0
  6
Continuous
 62
     0
370
    -2
100
AcDbLine
 10
0.0
 20
0.1
 30
0.0
 11
-1.0
 21
0.1
 31
0.0
  0
LINE
  5
AB
330
A6
100
AcDbEntity
  8
0
  6
Continuous
 62
     0
370
    -2
100
AcDbLine
 10
0.0
 20
0.2
 30
0.0
 11
-1.0
 21
0.2
 31
0.0
  0
ENDBLK
  5
A8
330
A6
100
AcDbEntity
  8
0
100
AcDbBlockEnd
  0
BLOCK
  5
AD
330
AC
100
AcDbEntity
  8
0
100
AcDbBlockBegin
  2
FXTIP_WHITEDOT_S
 70
     0
 10
0.0
 20
0.0
 30
0.0
  3
FXTIP_WHITEDOT_S
  1
FXTIP_WHITEDOT_S
  0
LINE
  5
AF
330
AC
100
AcDbEntity
  8
0
  6
Continuous
 62
     0
370
    -2
100
AcDbLine
 10
0.0
 20
0.0
 30
0.0
 11
-1.0
 21
0.0000000000000001
 31
0.0
  0
CIRCLE
  5
B0
330
AC
100
AcDbEntity
  8
0
  6
Continuous
 62
     0
370
    -2
100
AcDbCircle
 10
0.0
 20
0.0
 30
0.0
 40
0.2
  0
ENDBLK
  5
AE
330
AC
100
AcDbEntity
  8
0
100
AcDbBlockEnd
  0
BLOCK
  5
B2
330
B1
100
AcDbEntity
  8
0
100
AcDbBlockBegin
  2
FXTIP_WHITEDOT_E
 70
     0
 10
0.0
 20
0.0
 30
0.0
  3
FXTIP_WHITEDOT_E
  1
FXTIP_WHITEDOT_E
  0
LINE
  5
B4
330
B1
100
AcDbEntity
  8
0
  6
Continuous
 62
     0
370
    -2
100
AcDbLine
 10
0.0
 20
0.0
 30
0.0
 11
-1.0
 21
0.0
 31
0.0
  0
CIRCLE
  5
B5
330
B1
100
AcDbEntity
  8
0
  6
Continuous
 62
     0
370
    -2
100
AcDbCircle
 10
0.0
 20
0.0
 30
0.0
 40
0.2
  0
ENDBLK
  5
B3
330
B1
100
AcDbEntity
  8
0
100
AcDbBlockEnd
  0
BLOCK
  5
B7
330
B6
100
AcDbEntity
  8
0
100
AcDbBlockBegin
  2
FXTIP_UPARROW_S
 70
     0
 10
0.0
 20
0.0
 30
0.0
  3
FXTIP_UPARROW_S
  1
FXTIP_UPARROW_S
  0
LINE
  5
B9
330
B6
100
AcDbEntity
  8
0
  6
Continuous
 62
     0
370
    -2
100
AcDbLine
 10
0.0
 20
0.0
 30
0.0
 11
-1.0
 21
0.0000000000000001
 31
0.0
  0
LINE
  5
BA
330
B6
100
AcDbEntity
  8
0
  6
Continuous
 62
     0
370
    -2
100
AcDbLine
 10
0.0
 20
0.0
 30
0.0
 11
-0.9659258262890683
 21
-0.2588190451025206
 31
0.0
  0
ENDBLK
  5
B8
330
B6
100
AcDbEntity
  8
0
100
AcDbBlockEnd
  0
BLOCK
  5
BC
330
BB
100
AcDbEntity
  8
0
100
AcDbBlockBegin
  2
FXTIP_UPARROW_E
 70
     0
 10
0.0
 20
0.0
 30
0.0
  3
FXTIP_UPARROW_E
  1
FXTIP_UPARROW_E
  0
LINE
  5
BE
330
BB
100
AcDbEntity
  8
0
  6
Continuous
 62
     0
370
    -2
100
AcDbLine
 10
0.0
 20
0.0
 30
0.0
 11
-1.0
 21
0.0
 31
0.0
  0
LINE
  5
BF
330
BB
100
AcDbEntity
  8
0
  6
Continuous
 62
     0
370
    -2
100
AcDbLine
 10
0.0
 20
0.0
 30
0.0
 11
-0.9659258262890683
 21
0.2588190451025207
 31
0.0
  0
ENDBLK
  5
BD
330
BB
100
AcDbEntity
  8
0
100
AcDbBlockEnd
  0
BLOCK
  5
C1
330
C0
100
AcDbEntity
  8
0
100
AcDbBlockBegin
  2
FXTIP_DOWNARROW_S
 70
     0
 10
0.0
 20
0.0
 30
0.0
  3
FXTIP_DOWNARROW_S
  1
FXTIP_DOWNARROW_S
  0
LINE
  5
C3
330
C0
100
AcDbEntity
  8
0
  6
Continuous
 62
     0
370
    -2
100
AcDbLine
 10
0.0
 20
0.0
 30
0.0
 11
-1.0
 21
0.0000000000000001
 31
0.0
  0
LINE
  5
C4
330
C0
100
AcDbEntity
  8
0
  6
Continuous
 62
     0
370
    -2
100
AcDbLine
 10
0.0
 20
0.0
 30
0.0
 11
-0.9659258262890683
 21
0.2588190451025209
 31
0.0
  0
ENDBLK
  5
C2
330
C0
100
AcDbEntity
  8
0
100
AcDbBlockEnd
  0
BLOCK
  5
C6
330
C5
100
AcDbEntity
  8
0
100
AcDbBlockBegin
  2
FXTIP_DOWNARROW_E
 70
     0
 10
0.0
 20
0.0
 30
0.0
  3
FXTIP_DOWNARROW_E
  1
FXTIP_DOWNARROW_E
  0
LINE
  5
C8
330
C5
100
AcDbEntity
  8
0
  6
Continuous
 62
     0
370
    -2
100
AcDbLine
 10
0.0
 20
0.0
 30
0.0
 11
-1.0
 21
0.0
 31
0.0
  0
LINE
  5
C9
330
C5
100
AcDbEntity
  8
0
  6
Continuous
 62
     0
370
    -2
100
AcDbLine
 10
0.0
 20
0.0
 30
0.0
 11
-0.9659258262890683
 21
-0.2588190451025207
 31
0.0
  0
ENDBLK
  5
C7
330
C5
100
AcDbEntity
  8
0
100
AcDbBlockEnd
  0
BLOCK
  5
CB
330
CA
100
AcDbEntity
  8
0
100
AcDbBlockBegin
  2
FXTIP_BLACKTRIANGLE_S
 70
     0
 10
0.0
 20
0.0
 30
0.0
  3
FXTIP_BLACKTRIANGLE_S
  1
FXTIP_BLACKTRIANGLE_S
  0
LINE
  5
CD
330
CA
100
AcDbEntity
  8
0
  6
Continuous
 62
     0
370
    -2
100
AcDbLine
 10
0.0
 20
0.0
 30
0.0
 11
-1.0
 21
0.0000000000000001
 31
0.0
  0
SOLID
  5
CE
330
CA
100
AcDbEntity
  8
0
  6
Continuous
 62
     0
370
    -2
100
AcDbTrace
 10
0.0
 20
0.0
 30
0.0
 11
-0.9659258262890683
 21
-0.2588190451025206
 31
0.0
 12
-0.9659258262890683
 22
0.2588190451025209
 32
0.0
 13
-0.9659258262890683
 23
0.2588190451025209
 33
0.0
  0
ENDBLK
  5
CC
330
CA
100
AcDbEntity
  8
0
100
AcDbBlockEnd
  0
BLOCK
  5
D0
330
CF
100
AcDbEntity
  8
0
100
AcDbBlockBegin
  2
FXTIP_BLACKTRIANGLE_E
 70
     0
 10
0.0
 20
0.0
 30
0.0
  3
FXTIP_BLACKTRIANGLE_E
  1
FXTIP_BLACKTRIANGLE_E
  0
LINE
  5
D2
330
CF
100
AcDbEntity
  8
0
  6
Continuous
 62
     0
370
    -2
100
AcDbLine
 10
0.0
 20
0.0
 30
0.0
 11
-1.0
 21
0.0
 31
0.0
  0
SOLID
  5
D3
330
CF
100
AcDbEntity
  8
0
  6
Continuous
 62
     0
370
    -2
100
AcDbTrace
 10
0.0
 20
0.0
 30
0.0
 11
-0.9659258262890683
 21
0.2588190451025207
 31
0.0
 12
-0.9659258262890683
 22
-0.2588190451025207
 32
0.0
 13
-0.9659258262890683
 23
-0.2588190451025207
 33
0.0
  0
ENDBLK
  5
D1
330
CF
100
AcDbEntity
  8
0
100
AcDbBlockEnd
  0
BLOCK
  5
EF
330
EE
100
AcDbEntity
  8
0
100
AcDbBlockBegin
  2
*D20
 70
     1
 10
0.0
 20
0.0
 30
0.0
  3
*D20
  1
*D20
  0
TEXT
  5
F1
330
EE
100
AcDbEntity
  8
0
  6
ByBlock
 62
    94
370
    -2
100
AcDbText
 10
108.6308389837092
 20
107.9205932617188
 30
0.0
 40
2.651515151515151
  1
３１．５
 50
90.0
 41
0.8703296703296703
  7
ＭＳ ゴシック
 72
     1
 11
109.1151962280273
 21
113.9205932617188
 31
0.0
100
AcDbText
 73
     1
  0
LINE
  5
F2
330
EE
100
AcDbEntity
  8
0
  6
ByBlock
 62
     0
370
    -2
100
AcDbLine
 10
110.1151962010945
 20
97.6205765515389
 30
0.0
 11
110.1151962010945
 21
129.1205765515389
 31
0.0
  0
INSERT
  5
F3
330
EE
100
AcDbEntity
  8
0
  6
ByBlock
 62
     0
370
    -2
100
AcDbBlockReference
  2
FXTIP_ARROW_S
 10
110.1151962010945
 20
97.6205765515389
 30
0.0
 41
2.5
 42
2.5
 50
270.0
  0
INSERT
  5
F4
330
EE
100
AcDbEntity
  8
0
  6
ByBlock
 62
     0
370
    -2
100
AcDbBlockReference
  2
FXTIP_ARROW_E
 10
110.1151962010945
 20
129.1205765515389
 30
0.0
 41
2.5
 42
2.5
 50
90.0
  0
LINE
  5
F5
330
EE
100
AcDbEntity
  8
0
  6
ByBlock
 62
     0
370
    -2
100
AcDbLine
 10
95.44448377773801
 20
97.6205765515389
 30
0.0
 11
111.1151962010945
 21
97.62057655153893
 31
0.0
  0
LINE
  5
F6
330
EE
100
AcDbEntity
  8
0
  6
ByBlock
 62
     0
370
    -2
100
AcDbLine
 10
95.44448377773801
 20
129.1205765515389
 30
0.0
 11
111.1151962010945
 21
129.1205765515389
 31
0.0
  0
ENDBLK
  5
F0
330
EE
100
AcDbEntity
  8
0
100
AcDbBlockEnd
  0
BLOCK
  5
214
330
213
100
AcDbEntity
  8
0
100
AcDbBlockBegin
  2
BLKF024
 70
     0
 10
0.0
 20
0.0
 30
0.0
  3
BLKF024
  1
BLKF024
  0
CIRCLE
  5
217
330
213
100
AcDbEntity
  8
0
  6
ByBlock
 62
     0
370
    -2
100
AcDbCircle
 10
72.24448377773791
 20
250.6710877700624
 30
0.0
 40
2.75
  0
LINE
  5
218
330
213
100
AcDbEntity
  8
0
  6
ByBlock
 62
     0
370
    -2
100
AcDbLine
 10
70.4444837777379
 20
250.2710877700624
 30
0.0
 11
70.4444837777379
 21
251.0710877700624
 31
0.0
  0
LINE
  5
219
330
213
100
AcDbEntity
  8
0
  6
ByBlock
 62
     0
370
    -2
100
AcDbLine
 10
71.84448377773793
 20
252.4710877700624
 30
0.0
 11
72.64448377773789
 21
252.4710877700624
 31
0.0
  0
LINE
  5
21A
330
213
100
AcDbEntity
  8
0
  6
ByBlock
 62
     0
370
    -2
100
AcDbLine
 10
74.04448377773792
 20
250.2710877700624
 30
0.0
 11
74.04448377773792
 21
251.0710877700624
 31
0.0
  0
LINE
  5
21B
330
213
100
AcDbEntity
  8
0
  6
ByBlock
 62
     0
370
    -2
100
AcDbLine
 10
71.84448377773793
 20
248.8710877700623
 30
0.0
 11
72.64448377773789
 21
248.8710877700623
 31
0.0
  0
ARC
  5
21C
330
213
100
AcDbEntity
  8
0
  6
ByBlock
 62
     0
370
    -2
100
AcDbCircle
 10
70.4444837777379
 20
252.4710877700624
 30
0.0
 40
1.399999999999999
100
AcDbArc
 50
270.0
 51
0.0
  0
ARC
  5
21D
330
213
100
AcDbEntity
  8
0
  6
ByBlock
 62
     0
370
    -2
100
AcDbCircle
 10
70.4444837777379
 20
248.8710877700623
 30
0.0
 40
1.399999999999999
100
AcDbArc
 50
0.0
 51
90.0
  0
ARC
  5
21E
330
213
100
AcDbEntity
  8
0
  6
ByBlock
 62
     0
370
    -2
100
AcDbCircle
 10
74.04448377773792
 20
248.8710877700623
 30
0.0
 40
1.399999999999999
100
AcDbArc
 50
90.0
 51
180.0
  0
ARC
  5
21F
330
213
100
AcDbEntity
  8
0
  6
ByBlock
 62
     0
370
    -2
100
AcDbCircle
 10
74.04448377773792
 20
252.4710877700624
 30
0.0
 40
1.399999999999999
100
AcDbArc
 50
180.0
 51
270.0
  0
ENDBLK
  5
215
330
213
100
AcDbEntity
  8
0
100
AcDbBlockEnd
  0
BLOCK
  5
221
330
220
100
AcDbEntity
  8
0
100
AcDbBlockBegin
  2
BLKF025
 70
     0
 10
0.0
 20
0.0
 30
0.0
  3
BLKF025
  1
BLKF025
  0
CIRCLE
  5
224
330
220
100
AcDbEntity
  8
0
  6
ByBlock
 62
     0
370
    -2
100
AcDbCircle
 10
72.24448377773791
 20
180.6710877700623
 30
0.0
 40
2.75
  0
LINE
  5
225
330
220
100
AcDbEntity
  8
0
  6
ByBlock
 62
     0
370
    -2
100
AcDbLine
 10
70.4444837777379
 20
180.2710877700623
 30
0.0
 11
70.4444837777379
 21
181.0710877700623
 31
0.0
  0
LINE
  5
226
330
220
100
AcDbEntity
  8
0
  6
ByBlock
 62
     0
370
    -2
100
AcDbLine
 10
71.84448377773793
 20
182.4710877700623
 30
0.0
 11
72.64448377773789
 21
182.4710877700623
 31
0.0
  0
LINE
  5
227
330
220
100
AcDbEntity
  8
0
  6
ByBlock
 62
     0
370
    -2
100
AcDbLine
 10
74.04448377773792
 20
180.2710877700623
 30
0.0
 11
74.04448377773792
 21
181.0710877700623
 31
0.0
  0
LINE
  5
228
330
220
100
AcDbEntity
  8
0
  6
ByBlock
 62
     0
370
    -2
100
AcDbLine
 10
71.84448377773793
 20
178.8710877700623
 30
0.0
 11
72.64448377773789
 21
178.8710877700623
 31
0.0
  0
ARC
  5
229
330
220
100
AcDbEntity
  8
0
  6
ByBlock
 62
     0
370
    -2
100
AcDbCircle
 10
70.4444837777379
 20
182.4710877700623
 30
0.0
 40
1.399999999999999
100
AcDbArc
 50
270.0
 51
0.0
  0
ARC
  5
22A
330
220
100
AcDbEntity
  8
0
  6
ByBlock
 62
     0
370
    -2
100
AcDbCircle
 10
70.4444837777379
 20
178.8710877700623
 30
0.0
 40
1.399999999999999
100
AcDbArc
 50
0.0
 51
90.0
  0
ARC
  5
22B
330
220
100
AcDbEntity
  8
0
  6
ByBlock
 62
     0
370
    -2
100
AcDbCircle
 10
74.04448377773792
 20
178.8710877700623
 30
0.0
 40
1.399999999999999
100
AcDbArc
 50
90.0
 51
180.0
  0
ARC
  5
22C
330
220
100
AcDbEntity
  8
0
  6
ByBlock
 62
     0
370
    -2
100
AcDbCircle
 10
74.04448377773792
 20
182.4710877700623
 30
0.0
 40
1.399999999999999
100
AcDbArc
 50
180.0
 51
270.0
  0
ENDBLK
  5
222
330
220
100
AcDbEntity
  8
0
100
AcDbBlockEnd
  0
BLOCK
  5
262
330
261
100
AcDbEntity
  8
0
100
AcDbBlockBegin
  2
BLKF026
 70
     0
 10
0.0
 20
0.0
 30
0.0
  3
BLKF026
  1
BLKF026
  0
CIRCLE
  5
265
330
261
100
AcDbEntity
  8
0
  6
ByBlock
 62
     0
370
    -2
100
AcDbCircle
 10
202.7068285026875
 20
261.1710877700622
 30
0.0
 40
2.25
  0
LINE
  5
266
330
261
100
AcDbEntity
  8
0
  6
ByBlock
 62
     0
370
    -2
100
AcDbLine
 10
201.4068285026875
 20
260.7710877700624
 30
0.0
 11
201.4068285026875
 21
261.5710877700623
 31
0.0
  0
LINE
  5
267
330
261
100
AcDbEntity
  8
0
  6
ByBlock
 62
     0
370
    -2
100
AcDbLine
 10
202.3068285026875
 20
262.4710877700624
 30
0.0
 11
203.1068285026875
 21
262.4710877700624
 31
0.0
  0
LINE
  5
268
330
261
100
AcDbEntity
  8
0
  6
ByBlock
 62
     0
370
    -2
100
AcDbLine
 10
204.0068285026876
 20
260.7710877700624
 30
0.0
 11
204.0068285026876
 21
261.5710877700623
 31
0.0
  0
LINE
  5
269
330
261
100
AcDbEntity
  8
0
  6
ByBlock
 62
     0
370
    -2
100
AcDbLine
 10
202.3068285026875
 20
259.8710877700623
 30
0.0
 11
203.1068285026875
 21
259.8710877700623
 31
0.0
  0
ARC
  5
26A
330
261
100
AcDbEntity
  8
0
  6
ByBlock
 62
     0
370
    -2
100
AcDbCircle
 10
201.4068285026875
 20
262.4710877700624
 30
0.0
 40
0.9000000000000341
100
AcDbArc
 50
270.0
 51
0.0
  0
ARC
  5
26B
330
261
100
AcDbEntity
  8
0
  6
ByBlock
 62
     0
370
    -2
100
AcDbCircle
 10
201.4068285026875
 20
259.8710877700623
 30
0.0
 40
0.9000000000000341
100
AcDbArc
 50
0.0
 51
90.0
  0
ARC
  5
26C
330
261
100
AcDbEntity
  8
0
  6
ByBlock
 62
     0
370
    -2
100
AcDbCircle
 10
204.0068285026876
 20
259.8710877700623
 30
0.0
 40
0.9000000000000341
100
AcDbArc
 50
90.0
 51
180.0
  0
ARC
  5
26D
330
261
100
AcDbEntity
  8
0
  6
ByBlock
 62
     0
370
    -2
100
AcDbCircle
 10
204.0068285026876
 20
262.4710877700624
 30
0.0
 40
0.9000000000000341
100
AcDbArc
 50
180.0
 51
270.0
  0
ENDBLK
  5
263
330
261
100
AcDbEntity
  8
0
100
AcDbBlockEnd
  0
BLOCK
  5
281
330
280
100
AcDbEntity
  8
0
100
AcDbBlockBegin
  2
BLKF027
 70
     0
 10
0.0
 20
0.0
 30
0.0
  3
BLKF027
  1
BLKF027
  0
CIRCLE
  5
284
330
280
100
AcDbEntity
  8
0
  6
ByBlock
 62
     0
370
    -2
100
AcDbCircle
 10
202.7068285026875
 20
168.6710877700621
 30
0.0
 40
2.25
  0
LINE
  5
285
330
280
100
AcDbEntity
  8
0
  6
ByBlock
 62
     0
370
    -2
100
AcDbLine
 10
201.4068285026875
 20
168.2710877700623
 30
0.0
 11
201.4068285026875
 21
169.0710877700622
 31
0.0
  0
LINE
  5
286
330
280
100
AcDbEntity
  8
0
  6
ByBlock
 62
     0
370
    -2
100
AcDbLine
 10
202.3068285026875
 20
169.9710877700623
 30
0.0
 11
203.1068285026874
 21
169.9710877700623
 31
0.0
  0
LINE
  5
287
330
280
100
AcDbEntity
  8
0
  6
ByBlock
 62
     0
370
    -2
100
AcDbLine
 10
204.0068285026875
 20
168.2710877700623
 30
0.0
 11
204.0068285026875
 21
169.0710877700622
 31
0.0
  0
LINE
  5
288
330
280
100
AcDbEntity
  8
0
  6
ByBlock
 62
     0
370
    -2
100
AcDbLine
 10
202.3068285026875
 20
167.3710877700622
 30
0.0
 11
203.1068285026874
 21
167.3710877700622
 31
0.0
  0
ARC
  5
289
330
280
100
AcDbEntity
  8
0
  6
ByBlock
 62
     0
370
    -2
100
AcDbCircle
 10
201.4068285026875
 20
169.9710877700623
 30
0.0
 40
0.9000000000000341
100
AcDbArc
 50
270.0
 51
0.0
  0
ARC
  5
28A
330
280
100
AcDbEntity
  8
0
  6
ByBlock
 62
     0
370
    -2
100
AcDbCircle
 10
201.4068285026875
 20
167.3710877700622
 30
0.0
 40
0.9000000000000341
100
AcDbArc
 50
0.0
 51
90.0
  0
ARC
  5
28B
330
280
100
AcDbEntity
  8
0
  6
ByBlock
 62
     0
370
    -2
100
AcDbCircle
 10
204.0068285026875
 20
167.3710877700622
 30
0.0
 40
0.9000000000000341
100
AcDbArc
 50
90.0
 51
180.0
  0
ARC
  5
28C
330
280
100
AcDbEntity
  8
0
  6
ByBlock
 62
     0
370
    -2
100
AcDbCircle
 10
204.0068285026875
 20
169.9710877700623
 30
0.0
 40
0.9000000000000341
100
AcDbArc
 50
180.0
 51
270.0
  0
ENDBLK
  5
282
330
280
100
AcDbEntity
  8
0
100
AcDbBlockEnd
  0
BLOCK
  5
2A5
330
2A4
100
AcDbEntity
  8
0
100
AcDbBlockBegin
  2
*D25
 70
     1
 10
0.0
 20
0.0
 30
0.0
  3
*D25
  1
*D25
  0
TEXT
  5
2A7
330
2A4
100
AcDbEntity
  8
0
  6
ByBlock
 62
    94
370
    -2
100
AcDbText
 10
108.6308389837092
 20
210.1710815429688
 30
0.0
 40
2.651515151515151
  1
１０２
 50
90.0
 41
0.8703296703296705
  7
ＭＳ ゴシック
 72
     1
 11
109.1151962280273
 21
214.6710815429688
 31
0.0
100
AcDbText
 73
     1
  0
LINE
  5
2A8
330
2A4
100
AcDbEntity
  8
0
  6
ByBlock
 62
     0
370
    -2
100
AcDbLine
 10
110.1151962010945
 20
163.6710877700623
 30
0.0
 11
110.1151962010945
 21
265.6710877700623
 31
0.0
  0
INSERT
  5
2A9
330
2A4
100
AcDbEntity
  8
0
  6
ByBlock
 62
     0
370
    -2
100
AcDbBlockReference
  2
FXTIP_ARROW_S
 10
110.1151962010945
 20
163.6710877700623
 30
0.0
 41
2.5
 42
2.5
 50
270.0
  0
INSERT
  5
2AA
330
2A4
100
AcDbEntity
  8
0
  6
ByBlock
 62
     0
370
    -2
100
AcDbBlockReference
  2
FXTIP_ARROW_E
 10
110.1151962010945
 20
265.6710877700623
 30
0.0
 41
2.5
 42
2.5
 50
90.0
  0
LINE
  5
2AB
330
2A4
100
AcDbEntity
  8
0
  6
ByBlock
 62
     0
370
    -2
100
AcDbLine
 10
94.94448377773796
 20
163.6710877700623
 30
0.0
 11
111.1151962010945
 21
163.6710877700623
 31
0.0
  0
LINE
  5
2AC
330
2A4
100
AcDbEntity
  8
0
  6
ByBlock
 62
     0
370
    -2
100
AcDbLine
 10
94.9444837777379
 20
265.6710877700623
 30
0.0
 11
111.1151962010945
 21
265.6710877700623
 31
0.0
  0
ENDBLK
  5
2A6
330
2A4
100
AcDbEntity
  8
0
100
AcDbBlockEnd
  0
BLOCK
  5
2AF
330
2AE
100
AcDbEntity
  8
0
100
AcDbBlockBegin
  2
*D26
 70
     1
 10
0.0
 20
0.0
 30
0.0
  3
*D26
  1
*D26
  0
TEXT
  5
2B1
330
2AE
100
AcDbEntity
  8
0
  6
ByBlock
 62
    94
370
    -2
100
AcDbText
 10
75.24446868896484
 20
142.7965825861151
 30
0.0
 40
2.651515151515151
  1
２７．４
 41
0.8703296703296703
  7
ＭＳ ゴシック
 72
     1
 11
81.24446868896484
 21
142.3122253417969
 31
0.0
100
AcDbText
 73
     1
  0
LINE
  5
2B2
330
2AE
100
AcDbEntity
  8
0
  6
ByBlock
 62
     0
370
    -2
100
AcDbLine
 10
67.54448377773792
 20
141.3122109158186
 30
0.0
 11
94.94448377773796
 21
141.3122109158186
 31
0.0
  0
INSERT
  5
2B3
330
2AE
100
AcDbEntity
  8
0
  6
ByBlock
 62
     0
370
    -2
100
AcDbBlockReference
  2
FXTIP_ARROW_S
 10
67.54448377773792
 20
141.3122109158186
 30
0.0
 41
2.5
 42
2.5
 50
180.0
  0
INSERT
  5
2B4
330
2AE
100
AcDbEntity
  8
0
  6
ByBlock
 62
     0
370
    -2
100
AcDbBlockReference
  2
FXTIP_ARROW_E
 10
94.94448377773796
 20
141.3122109158186
 30
0.0
 41
2.5
 42
2.5
 50
360.0
  0
LINE
  5
2B5
330
2AE
100
AcDbEntity
  8
0
  6
ByBlock
 62
     0
370
    -2
100
AcDbLine
 10
67.54448377773792
 20
163.6710877700623
 30
0.0
 11
67.54448377773792
 21
140.3122109158186
 31
0.0
  0
LINE
  5
2B6
330
2AE
100
AcDbEntity
  8
0
  6
ByBlock
 62
     0
370
    -2
100
AcDbLine
 10
94.94448377773796
 20
163.6710877700623
 30
0.0
 11
94.94448377773796
 21
140.3122109158186
 31
0.0
  0
ENDBLK
  5
2B0
330
2AE
100
AcDbEntity
  8
0
100
AcDbBlockEnd
  0
BLOCK
  5
2D6
330
2D5
100
AcDbEntity
  8
0
100
AcDbBlockBegin
  2
BLKF030
 70
     0
 10
0.0
 20
0.0
 30
0.0
  3
BLKF030
  1
BLKF030
  0
LINE
  5
2D9
330
2D5
100
AcDbEntity
  8
0
  6
ByBlock
 62
     0
370
    -2
100
AcDbLine
 10
87.24448377773803
 20
119.4205765515391
 30
0.0
 11
87.24448377773803
 21
116.4205765515391
 31
0.0
  0
LINE
  5
2DA
330
2D5
100
AcDbEntity
  8
0
  6
ByBlock
 62
     0
370
    -2
100
AcDbLine
 10
86.44448377773801
 20
119.4205765515392
 30
0.0
 11
86.44448377773801
 21
116.5205765515392
 31
0.0
  0
LINE
  5
2DB
330
2D5
100
AcDbEntity
  8
0
  6
ByBlock
 62
     0
370
    -2
100
AcDbLine
 10
78.24448377773803
 20
119.4205765515391
 30
0.0
 11
78.24448377773803
 21
116.4205765515391
 31
0.0
  0
LINE
  5
2DC
330
2D5
100
AcDbEntity
  8
0
  6
ByBlock
 62
     0
370
    -2
100
AcDbLine
 10
79.04448377773804
 20
119.4205765515391
 30
0.0
 11
79.04448377773804
 21
116.5205765515391
 31
0.0
  0
LINE
  5
2DD
330
2D5
100
AcDbEntity
  8
0
  6
ByBlock
 62
     0
370
    -2
100
AcDbLine
 10
87.24448377773803
 20
119.4205765515392
 30
0.0
 11
86.44448377773801
 21
119.4205765515392
 31
0.0
  0
LINE
  5
2DE
330
2D5
100
AcDbEntity
  8
0
  6
ByBlock
 62
     0
370
    -2
100
AcDbLine
 10
86.34448377773805
 20
116.4205765515391
 30
0.0
 11
79.144483777738
 21
116.4205765515391
 31
0.0
  0
LINE
  5
2DF
330
2D5
100
AcDbEntity
  8
0
  6
ByBlock
 62
     0
370
    -2
100
AcDbLine
 10
86.44448377773801
 20
115.6205765515391
 30
0.0
 11
79.04448377773804
 21
115.6205765515391
 31
0.0
  0
LINE
  5
2E0
330
2D5
100
AcDbEntity
  8
0
  6
ByBlock
 62
     0
370
    -2
100
AcDbLine
 10
87.24448377773803
 20
104.1205765515393
 30
0.0
 11
78.24448377773803
 21
104.1205765515393
 31
0.0
  0
ARC
  5
2E1
330
2D5
100
AcDbEntity
  8
0
  6
ByBlock
 62
     0
370
    -2
100
AcDbCircle
 10
79.144483777738
 20
116.5205765515391
 30
0.0
 40
0.1
100
AcDbArc
 50
180.0
 51
270.0
  0
ARC
  5
2E2
330
2D5
100
AcDbEntity
  8
0
  6
ByBlock
 62
     0
370
    -2
100
AcDbCircle
 10
86.34448377773805
 20
116.5205765515392
 30
0.0
 40
0.1
100
AcDbArc
 50
270.0
 51
0.0
  0
ARC
  5
2E3
330
2D5
100
AcDbEntity
  8
0
  6
ByBlock
 62
     0
370
    -2
100
AcDbCircle
 10
86.44448377773801
 20
116.4205765515391
 30
0.0
 40
0.8
100
AcDbArc
 50
270.0
 51
0.0
  0
ARC
  5
2E4
330
2D5
100
AcDbEntity
  8
0
  6
ByBlock
 62
     0
370
    -2
100
AcDbCircle
 10
79.04448377773804
 20
116.4205765515391
 30
0.0
 40
0.8
100
AcDbArc
 50
180.0
 51
270.0
  0
LINE
  5
2E5
330
2D5
100
AcDbEntity
  8
0
  6
ByBlock
 62
     0
370
    -2
100
AcDbLine
 10
87.24448377773803
 20
116.4205765515391
 30
0.0
 11
87.24448377773803
 21
104.1205765515393
 31
0.0
  0
LINE
  5
2E6
330
2D5
100
AcDbEntity
  8
0
  6
ByBlock
 62
     0
370
    -2
100
AcDbLine
 10
78.24448377773803
 20
116.4205765515391
 30
0.0
 11
78.24448377773803
 21
104.1205765515393
 31
0.0
  0
INSERT
  5
2EA
330
2D5
100
AcDbEntity
  8
0
  6
ByBlock
 62
     0
370
    -2
100
AcDbBlockReference
  2
BLKF031
 10
0.0
 20
0.0
 30
0.0
  0
LINE
  5
2F4
330
2D5
100
AcDbEntity
  8
0
  6
ByBlock
 62
     0
370
    -2
100
AcDbLine
 10
79.04448377773804
 20
119.4205765515391
 30
0.0
 11
78.24448377773803
 21
119.4205765515391
 31
0.0
  0
ENDBLK
  5
2D7
330
2D5
100
AcDbEntity
  8
0
100
AcDbBlockEnd
  0
BLOCK
  5
2E8
330
2E7
100
AcDbEntity
  8
0
100
AcDbBlockBegin
  2
BLKF031
 70
     0
 10
0.0
 20
0.0
 30
0.0
  3
BLKF031
  1
BLKF031
  0
CIRCLE
  5
2EB
330
2E7
100
AcDbEntity
  8
0
  6
ByBlock
 62
     0
370
    -2
100
AcDbCircle
 10
82.74448377773803
 20
108.2705765515392
 30
0.0
 40
2.75
  0
LINE
  5
2EC
330
2E7
100
AcDbEntity
  8
0
  6
ByBlock
 62
     0
370
    -2
100
AcDbLine
 10
80.94448377773801
 20
107.8705765515392
 30
0.0
 11
80.94448377773801
 21
108.6705765515392
 31
0.0
  0
LINE
  5
2ED
330
2E7
100
AcDbEntity
  8
0
  6
ByBlock
 62
     0
370
    -2
100
AcDbLine
 10
82.34448377773799
 20
110.0705765515392
 30
0.0
 11
83.14448377773806
 21
110.0705765515392
 31
0.0
  0
LINE
  5
2EE
330
2E7
100
AcDbEntity
  8
0
  6
ByBlock
 62
     0
370
    -2
100
AcDbLine
 10
84.54448377773804
 20
107.8705765515392
 30
0.0
 11
84.54448377773804
 21
108.6705765515392
 31
0.0
  0
LINE
  5
2EF
330
2E7
100
AcDbEntity
  8
0
  6
ByBlock
 62
     0
370
    -2
100
AcDbLine
 10
82.34448377773799
 20
106.4705765515392
 30
0.0
 11
83.14448377773806
 21
106.4705765515392
 31
0.0
  0
ARC
  5
2F0
330
2E7
100
AcDbEntity
  8
0
  6
ByBlock
 62
     0
370
    -2
100
AcDbCircle
 10
80.94448377773801
 20
110.0705765515392
 30
0.0
 40
1.399999999999999
100
AcDbArc
 50
270.0
 51
0.0
  0
ARC
  5
2F1
330
2E7
100
AcDbEntity
  8
0
  6
ByBlock
 62
     0
370
    -2
100
AcDbCircle
 10
80.94448377773801
 20
106.4705765515392
 30
0.0
 40
1.399999999999999
100
AcDbArc
 50
0.0
 51
90.0
  0
ARC
  5
2F2
330
2E7
100
AcDbEntity
  8
0
  6
ByBlock
 62
     0
370
    -2
100
AcDbCircle
 10
84.54448377773804
 20
106.4705765515392
 30
0.0
 40
1.399999999999999
100
AcDbArc
 50
90.0
 51
180.0
  0
ARC
  5
2F3
330
2E7
100
AcDbEntity
  8
0
  6
ByBlock
 62
     0
370
    -2
100
AcDbCircle
 10
84.54448377773804
 20
110.0705765515392
 30
0.0
 40
1.399999999999999
100
AcDbArc
 50
180.0
 51
270.0
  0
ENDBLK
  5
2E9
330
2E7
100
AcDbEntity
  8
0
100
AcDbBlockEnd
  0
BLOCK
  5
2F9
330
2F8
100
AcDbEntity
  8
0
100
AcDbBlockBegin
  2
BLKF032
 70
     0
 10
0.0
 20
0.0
 30
0.0
  3
BLKF032
  1
BLKF032
  0
LINE
  5
2FC
330
2F8
100
AcDbEntity
  8
0
  6
ByBlock
 62
     0
370
    -2
100
AcDbLine
 10
79.99448377773803
 20
117.4200013850091
 30
0.0
 11
80.0366051824007
 21
118.2237256648568
 31
0.0
  0
LINE
  5
2FD
330
2F8
100
AcDbEntity
  8
0
  6
ByBlock
 62
     0
370
    -2
100
AcDbLine
 10
85.49448377773803
 20
117.4200013850091
 30
0.0
 11
85.45236237307535
 21
118.2237256648568
 31
0.0
  0
LINE
  5
2FE
330
2F8
100
AcDbEntity
  8
0
  6
ByBlock
 62
     0
370
    -2
100
AcDbLine
 10
79.99448377773803
 20
117.4200013850091
 30
0.0
 11
85.49448377773803
 21
117.4200013850091
 31
0.0
  0
ARC
  5
2FF
330
2F8
100
AcDbEntity
  8
0
  6
ByBlock
 62
     0
370
    -2
100
AcDbCircle
 10
81.03523471715528
 20
118.1713897086139
 30
0.0
 40
1.0
100
AcDbArc
 50
106.5513675242212
 51
177.0000000000001
  0
ARC
  5
300
330
2F8
100
AcDbEntity
  8
0
  6
ByBlock
 62
     0
370
    -2
100
AcDbCircle
 10
84.45373283832078
 20
118.1713897086139
 30
0.0
 40
1.0
100
AcDbArc
 50
2.999999999999886
 51
73.4486324757788
  0
ARC
  5
301
330
2F8
100
AcDbEntity
  8
0
  6
ByBlock
 62
     0
370
    -2
100
AcDbCircle
 10
82.74448377773803
 20
112.4200013850091
 30
0.0
 40
7.0
100
AcDbArc
 50
73.4486324757788
 51
106.5513675242212
  0
LINE
  5
302
330
2F8
100
AcDbEntity
  8
0
  6
ByBlock
 62
     0
370
    -2
100
AcDbLine
 10
81.24448377773803
 20
115.6205765515391
 30
0.0
 11
81.24448377773803
 21
111.4200013850091
 31
0.0
  0
LINE
  5
303
330
2F8
100
AcDbEntity
  8
0
  6
ByBlock
 62
     0
370
    -2
100
AcDbLine
 10
84.24448377773803
 20
115.6205765515391
 30
0.0
 11
84.24448377773803
 21
111.4200013850091
 31
0.0
  0
LINE
  5
304
330
2F8
100
AcDbEntity
  8
0
  6
ByBlock
 62
     0
370
    -2
100
AcDbLine
 10
81.24448377773803
 20
111.4200013850091
 30
0.0
 11
84.24448377773803
 21
111.4200013850091
 31
0.0
  0
LINE
  5
305
330
2F8
100
AcDbEntity
  8
0
  6
ByBlock
 62
     5
370
    -2
100
AcDbLine
 10
81.54448377773804
 20
115.6205765515391
 30
0.0
 11
81.54448377773804
 21
111.4200013850091
 31
0.0
  0
LINE
  5
306
330
2F8
100
AcDbEntity
  8
0
  6
ByBlock
 62
     5
370
    -2
100
AcDbLine
 10
83.94448377773801
 20
115.6205765515391
 30
0.0
 11
83.94448377773801
 21
111.4200013850091
 31
0.0
  0
ENDBLK
  5
2FA
330
2F8
100
AcDbEntity
  8
0
100
AcDbBlockEnd
  0
BLOCK
  5
30B
330
30A
100
AcDbEntity
  8
0
100
AcDbBlockBegin
  2
BLKF033
 70
     0
 10
0.0
 20
0.0
 30
0.0
  3
BLKF033
  1
BLKF033
  0
LINE
  5
30E
330
30A
100
AcDbEntity
  8
0
  6
ByBlock
 62
     0
370
    -2
100
AcDbLine
 10
190.4760120911404
 20
161.8710877700622
 30
0.0
 11
190.5181334958031
 21
161.0673634902146
 31
0.0
  0
LINE
  5
30F
330
30A
100
AcDbEntity
  8
0
  6
ByBlock
 62
     0
370
    -2
100
AcDbLine
 10
195.9760120911404
 20
161.8710877700624
 30
0.0
 11
195.9338906864777
 21
161.0673634902147
 31
0.0
  0
LINE
  5
310
330
30A
100
AcDbEntity
  8
0
  6
ByBlock
 62
     0
370
    -2
100
AcDbLine
 10
190.4760120911404
 20
161.8710877700622
 30
0.0
 11
195.9760120911404
 21
161.8710877700624
 31
0.0
  0
ARC
  5
311
330
30A
100
AcDbEntity
  8
0
  6
ByBlock
 62
     0
370
    -2
100
AcDbCircle
 10
191.5167630305577
 20
161.1196994464575
 30
0.0
 40
1.0
100
AcDbArc
 50
183.0000000000007
 51
253.4486324757787
  0
ARC
  5
312
330
30A
100
AcDbEntity
  8
0
  6
ByBlock
 62
     0
370
    -2
100
AcDbCircle
 10
194.9352611517232
 20
161.1196994464576
 30
0.0
 40
1.0
100
AcDbArc
 50
286.5513675242212
 51
357.0000000000009
  0
ARC
  5
313
330
30A
100
AcDbEntity
  8
0
  6
ByBlock
 62
     0
370
    -2
100
AcDbCircle
 10
193.2260120911403
 20
166.8710877700623
 30
0.0
 40
7.0
100
AcDbArc
 50
253.44863247578
 51
286.5513675242219
  0
ENDBLK
  5
30C
330
30A
100
AcDbEntity
  8
0
100
AcDbBlockEnd
  0
BLOCK
  5
316
330
315
100
AcDbEntity
  8
0
100
AcDbBlockBegin
  2
BLKF034
 70
     0
 10
0.0
 20
0.0
 30
0.0
  3
BLKF034
  1
BLKF034
  0
LINE
  5
319
330
315
100
AcDbEntity
  8
0
  6
ByBlock
 62
     0
370
    -2
100
AcDbLine
 10
84.24448377773797
 20
162.6710877700623
 30
0.0
 11
84.24448377773797
 21
163.6710877700623
 31
0.0
  0
LINE
  5
31A
330
315
100
AcDbEntity
  8
0
  6
ByBlock
 62
     0
370
    -2
100
AcDbLine
 10
81.24448377773797
 20
162.6710877700623
 30
0.0
 11
81.24448377773797
 21
163.6710877700623
 31
0.0
  0
LINE
  5
31B
330
315
100
AcDbEntity
  8
0
  6
ByBlock
 62
     5
370
    -2
100
AcDbLine
 10
83.94448377773801
 20
162.6710877700623
 30
0.0
 11
83.94448377773801
 21
163.6710877700623
 31
0.0
  0
LINE
  5
31C
330
315
100
AcDbEntity
  8
0
  6
ByBlock
 62
     5
370
    -2
100
AcDbLine
 10
81.54448377773798
 20
162.6710877700623
 30
0.0
 11
81.54448377773798
 21
163.6710877700623
 31
0.0
  0
ENDBLK
  5
317
330
315
100
AcDbEntity
  8
0
100
AcDbBlockEnd
  0
BLOCK
  5
320
330
31F
100
AcDbEntity
  8
0
100
AcDbBlockBegin
  2
BLKF035
 70
     0
 10
0.0
 20
0.0
 30
0.0
  3
BLKF035
  1
BLKF035
  0
LINE
  5
323
330
31F
100
AcDbEntity
  8
0
  6
ByBlock
 62
     0
370
    -2
100
AcDbLine
 10
194.7260120911403
 20
162.6710877700623
 30
0.0
 11
194.7260120911403
 21
163.6710877700623
 31
0.0
  0
LINE
  5
324
330
31F
100
AcDbEntity
  8
0
  6
ByBlock
 62
     0
370
    -2
100
AcDbLine
 10
191.7260120911403
 20
162.6710877700623
 30
0.0
 11
191.7260120911403
 21
163.6710877700623
 31
0.0
  0
LINE
  5
325
330
31F
100
AcDbEntity
  8
0
  6
ByBlock
 62
     5
370
    -2
100
AcDbLine
 10
194.4260120911404
 20
162.6710877700623
 30
0.0
 11
194.4260120911404
 21
163.6710877700623
 31
0.0
  0
LINE
  5
326
330
31F
100
AcDbEntity
  8
0
  6
ByBlock
 62
     5
370
    -2
100
AcDbLine
 10
192.0260120911403
 20
162.6710877700623
 30
0.0
 11
192.0260120911403
 21
163.6710877700623
 31
0.0
  0
ENDBLK
  5
321
330
31F
100
AcDbEntity
  8
0
100
AcDbBlockEnd
  0
BLOCK
  5
382
330
381
100
AcDbEntity
  8
0
100
AcDbBlockBegin
  2
*D33
 70
     1
 10
0.0
 20
0.0
 30
0.0
  3
*D33
  1
*D33
  0
TEXT
  5
384
330
381
100
AcDbEntity
  8
0
  6
ByBlock
 62
    94
370
    -2
100
AcDbText
 10
108.6308389837092
 20
136.4799194335938
 30
0.0
 40
2.651515151515151
  1
（９．５）
 50
90.0
 41
0.8703296703296703
  7
ＭＳ ゴシック
 72
     1
 11
109.1151962280273
 21
143.9799194335938
 31
0.0
100
AcDbText
 73
     1
  0
LINE
  5
385
330
381
100
AcDbEntity
  8
0
  6
ByBlock
 62
     0
370
    -2
100
AcDbLine
 10
110.1151962010945
 20
152.1710877700623
 30
0.0
 11
110.1151962010945
 21
163.6710877700623
 31
0.0
  0
LINE
  5
386
330
381
100
AcDbEntity
  8
0
  6
ByBlock
 62
     0
370
    -2
100
AcDbLine
 10
88.24448377773804
 20
152.1710877700623
 30
0.0
 11
111.1151962010944
 21
152.1710877700623
 31
0.0
  0
LINE
  5
387
330
381
100
AcDbEntity
  8
0
  6
ByBlock
 62
     0
370
    -2
100
AcDbLine
 10
94.94448377773796
 20
163.6710877700623
 30
0.0
 11
111.1151962010945
 21
163.6710877700623
 31
0.0
  0
LINE
  5
388
330
381
100
AcDbEntity
  8
0
  6
ByBlock
 62
     0
370
    -2
100
AcDbLine
 10
110.1151962010945
 20
135.7887609832345
 30
0.0
 11
110.1151962010945
 21
152.1710877700623
 31
0.0
  0
INSERT
  5
389
330
381
100
AcDbEntity
  8
0
  6
ByBlock
 62
     0
370
    -2
100
AcDbBlockReference
  2
FXTIP_ARROW_E
 10
110.1151962010945
 20
152.1710877700623
 30
0.0
 41
2.5
 42
2.5
 50
90.0
  0
LINE
  5
38A
330
381
100
AcDbEntity
  8
0
  6
ByBlock
 62
     0
370
    -2
100
AcDbLine
 10
110.1151962010945
 20
163.6710877700623
 30
0.0
 11
110.1151962010945
 21
167.6710877700623
 31
0.0
  0
INSERT
  5
38B
330
381
100
AcDbEntity
  8
0
  6
ByBlock
 62
     0
370
    -2
100
AcDbBlockReference
  2
FXTIP_ARROW_S
 10
110.1151962010945
 20
163.6710877700623
 30
0.0
 41
2.5
 42
2.5
 50
270.0
  0
ENDBLK
  5
383
330
381
100
AcDbEntity
  8
0
100
AcDbBlockEnd
  0
ENDSEC
  0
SECTION
  2
ENTITIES
  0
LINE
  5
DA
330
1F
100
AcDbEntity
  8
GR2_01
 62
   234
370
    20
100
AcDbLine
 10
77.99448377773797
 20
92.8705765515389
 30
0.0
 11
82.24448377773797
 21
92.8705765515389
 31
0.0
  0
LINE
  5
DB
330
1F
100
AcDbEntity
  8
GR2_01
 62
   234
370
    20
100
AcDbLine
 10
77.6944837777379
 20
93.17057655153891
 30
0.0
 11
77.99448377773797
 21
92.8705765515389
 31
0.0
  0
LINE
  5
DC
330
1F
100
AcDbEntity
  8
GR2_01
 62
   234
370
    20
100
AcDbLine
 10
82.24448377773791
 20
96.12057655153896
 30
0.0
 11
83.74448377773803
 21
96.12057655153896
 31
0.0
  0
LINE
  5
DD
330
1F
100
AcDbEntity
  8
GR2_01
 62
   234
370
    20
100
AcDbLine
 10
82.24448377773791
 20
96.12057655153893
 30
0.0
 11
82.24448377773797
 21
92.8705765515389
 31
0.0
  0
LINE
  5
DE
330
1F
100
AcDbEntity
  8
GR2_01
 62
   234
370
    20
100
AcDbLine
 10
83.74448377773803
 20
96.12057655153893
 30
0.0
 11
83.74448377773808
 21
92.8705765515389
 31
0.0
  0
LINE
  5
DF
330
1F
100
AcDbEntity
  8
GR2_01
 62
   234
370
    20
100
AcDbLine
 10
86.99448377773774
 20
93.17057655153894
 30
0.0
 11
86.69448377773767
 21
92.8705765515389
 31
0.0
  0
LINE
  5
E0
330
1F
100
AcDbEntity
  8
GR2_01
 62
   234
370
    20
100
AcDbLine
 10
83.74448377773808
 20
92.87057655153893
 30
0.0
 11
86.69448377773767
 21
92.87057655153893
 31
0.0
  0
LINE
  5
E1
330
1F
100
AcDbEntity
  8
GR2_01
 62
   234
370
    20
100
AcDbLine
 10
86.99448377773786
 20
97.6205765515389
 30
0.0
 11
86.99448377773774
 21
93.17057655153894
 31
0.0
  0
LINE
  5
E2
330
1F
100
AcDbEntity
  8
GR2_01
 62
    94
370
    20
100
AcDbLine
 10
77.6944837777379
 20
93.17057655153886
 30
0.0
 11
79.1944837777379
 21
93.17057655153889
 31
0.0
  0
LINE
  5
E3
330
1F
100
AcDbEntity
  8
GR2_01
 62
    94
370
    20
100
AcDbLine
 10
83.74448377773808
 20
93.17057655153889
 30
0.0
 11
84.99448377773786
 21
93.17057655153891
 31
0.0
  0
LINE
  5
E4
330
1F
100
AcDbEntity
  8
GR2_01
 62
    94
370
    20
100
AcDbLine
 10
77.99448377773791
 20
97.62057655153889
 30
0.0
 11
77.99448377773797
 21
92.87057655153887
 31
0.0
  0
LINE
  5
E5
330
1F
100
AcDbEntity
  8
GR2_01
 62
   234
370
    20
100
AcDbLine
 10
84.99448377773786
 20
97.6205765515389
 30
0.0
 11
84.99448377773786
 21
92.87057655153896
 31
0.0
  0
LINE
  5
E6
330
1F
100
AcDbEntity
  8
GR2_01
 62
   234
370
    20
100
AcDbLine
 10
77.6944837777379
 20
97.6205765515389
 30
0.0
 11
77.6944837777379
 21
93.17057655153891
 31
0.0
  0
LINE
  5
E7
330
1F
100
AcDbEntity
  8
GR2_01
 62
   234
370
    20
100
AcDbLine
 10
79.1944837777379
 20
97.6205765515389
 30
0.0
 11
79.1944837777379
 21
92.8705765515389
 31
0.0
  0
LINE
  5
E8
330
1F
100
AcDbEntity
  8
GR2_01
 62
   234
370
    20
100
AcDbLine
 10
86.1245237777378
 20
97.6205765515389
 30
0.0
 11
86.12452377773786
 21
92.87057655153893
 31
0.0
  0
LINE
  5
E9
330
1F
100
AcDbEntity
  8
GR2_01
 62
   234
370
    20
100
AcDbLine
 10
85.39448377773783
 20
97.6205765515389
 30
0.0
 11
85.39448377773789
 21
92.87057655153896
 31
0.0
  0
LINE
  5
EA
330
1F
100
AcDbEntity
  8
GR2_01
 62
    94
370
    20
100
AcDbLine
 10
87.74448377773791
 20
131.5405765515389
 30
0.0
 11
88.34448377773793
 21
131.5405765515389
 31
0.0
  0
LINE
  5
EB
330
1F
100
AcDbEntity
  8
GR2_01
 62
    94
370
    20
100
AcDbLine
 10
88.84448377773793
 20
130.6745511477544
 30
0.0
 11
88.84448377773793
 21
129.1205765515389
 31
0.0
  0
LINE
  5
EC
330
1F
100
AcDbEntity
  8
GR2_01
 62
    94
370
    20
100
AcDbLine
 10
87.24448377773791
 20
130.6745511477544
 30
0.0
 11
87.24448377773791
 21
129.1205765515389
 31
0.0
  0
DIMENSION
  5
ED
330
1F
100
AcDbEntity
  8
GR2_01
 62
     5
370
    20
100
AcDbDimension
  2
*D20
 10
110.1151962010945
 20
129.1205765515389
 30
0.0
 11
109.1151962280273
 21
113.9205932617188
 31
0.0
 70
    33
 71
     5
 42
-1.0
  3
FX_DIMINFO
100
AcDbAlignedDimension
 13
94.44448377773801
 23
97.6205765515389
 33
0.0
 14
94.44448377773801
 24
129.1205765515389
 34
0.0
1001
ACAD
1000
DSTYLE
1002
{
1070
   173
1070
     1
1070
   344
1005
74
1070
   343
1005
6E
1070
   178
1070
    94
1002
}
  0
LINE
  5
F7
330
1F
100
AcDbEntity
  8
GR2_01
 62
    94
370
    20
100
AcDbLine
 10
164.1656898200491
 20
260.6710877700621
 30
0.0
 11
164.1656898200491
 21
186.1710877700621
 31
0.0
  0
LINE
  5
F8
330
1F
100
AcDbEntity
  8
GR2_01
 62
    94
370
    20
100
AcDbLine
 10
159.4156898200491
 20
260.6710877700621
 30
0.0
 11
164.1656898200491
 21
260.6710877700621
 31
0.0
  0
LINE
  5
F9
330
1F
100
AcDbEntity
  8
GR2_01
 62
    94
370
    20
100
AcDbLine
 10
157.8156898200491
 20
186.1710877700621
 30
0.0
 11
164.1656898200491
 21
186.1710877700621
 31
0.0
  0
LINE
  5
FA
330
1F
100
AcDbEntity
  8
GR2_01
 62
   234
370
    20
100
AcDbLine
 10
197.9760120911405
 20
186.5953518387745
 30
0.0
 11
197.9760120911405
 21
254.3317105020157
 31
0.0
  0
LINE
  5
FB
330
1F
100
AcDbEntity
  8
GR2_01
 62
   234
370
    20
100
AcDbLine
 10
197.8517480224284
 20
186.4710877700624
 30
0.0
 11
196.7760120911405
 21
186.4710877700625
 31
0.0
  0
LINE
  5
FC
330
1F
100
AcDbEntity
  8
GR2_01
 62
   234
370
    20
100
AcDbLine
 10
198.2760120911404
 20
186.4710877700626
 30
0.0
 11
197.9760120911404
 21
186.1710877700625
 31
0.0
  0
LINE
  5
FD
330
1F
100
AcDbEntity
  8
GR2_01
 62
   234
370
    20
100
AcDbLine
 10
197.9760120911404
 20
186.5953518387745
 30
0.0
 11
197.8517480224284
 21
186.4710877700625
 31
0.0
  0
LINE
  5
FE
330
1F
100
AcDbEntity
  8
GR2_01
 62
   234
370
    20
100
AcDbLine
 10
197.9760120911404
 20
186.5953518387745
 30
0.0
 11
198.2760120911404
 21
186.4710877700626
 31
0.0
  0
LINE
  5
FF
330
1F
100
AcDbEntity
  8
GR2_01
 62
   234
370
    20
100
AcDbLine
 10
197.8517480224284
 20
186.4710877700625
 30
0.0
 11
197.9760120911405
 21
186.1710877700625
 31
0.0
  0
LINE
  5
100
330
1F
100
AcDbEntity
  8
GR2_01
 62
   234
370
    20
100
AcDbLine
 10
190.9760120911405
 20
186.1710877700625
 30
0.0
 11
190.9760120911405
 21
187.1710877700625
 31
0.0
  0
LINE
  5
101
330
1F
100
AcDbEntity
  8
GR2_01
 62
   234
370
    20
100
AcDbLine
 10
192.2260120911403
 20
186.1710877700625
 30
0.0
 11
192.2260120911403
 21
192.6210877700624
 31
0.0
  0
LINE
  5
102
330
1F
100
AcDbEntity
  8
GR2_01
 62
   234
370
    20
100
AcDbLine
 10
188.9760120911405
 20
190.9127451568364
 30
0.0
 11
188.9760120911405
 21
192.6210877700624
 31
0.0
  0
LINE
  5
103
330
1F
100
AcDbEntity
  8
GR2_01
 62
   234
370
    20
100
AcDbLine
 10
197.2260120911405
 20
222.7910877700623
 30
0.0
 11
193.4760120911405
 21
222.7910877700623
 31
0.0
  0
LINE
  5
104
330
1F
100
AcDbEntity
  8
GR2_01
 62
   234
370
    20
100
AcDbLine
 10
197.2260120911405
 20
219.2910877700623
 30
0.0
 11
193.4760120911405
 21
219.2910877700623
 31
0.0
  0
LINE
  5
105
330
1F
100
AcDbEntity
  8
GR2_01
 62
   234
370
    20
100
AcDbLine
 10
197.2260120911405
 20
219.2910877700623
 30
0.0
 11
197.2260120911405
 21
222.7910877700623
 31
0.0
  0
LINE
  5
106
330
1F
100
AcDbEntity
  8
GR2_01
 62
   234
370
    20
100
AcDbLine
 10
197.2260120911405
 20
215.1710877700623
 30
0.0
 11
193.4760120911405
 21
215.1710877700623
 31
0.0
  0
LINE
  5
107
330
1F
100
AcDbEntity
  8
GR2_01
 62
   234
370
    20
100
AcDbLine
 10
197.2260120911405
 20
211.6710877700623
 30
0.0
 11
193.4760120911405
 21
211.6710877700623
 31
0.0
  0
LINE
  5
108
330
1F
100
AcDbEntity
  8
GR2_01
 62
   234
370
    20
100
AcDbLine
 10
197.2260120911405
 20
211.6710877700623
 30
0.0
 11
197.2260120911405
 21
215.1710877700623
 31
0.0
  0
LINE
  5
109
330
1F
100
AcDbEntity
  8
GR2_01
 62
   234
370
    20
100
AcDbLine
 10
197.2260120911405
 20
230.4110877700624
 30
0.0
 11
193.4760120911405
 21
230.4110877700624
 31
0.0
  0
LINE
  5
10A
330
1F
100
AcDbEntity
  8
GR2_01
 62
   234
370
    20
100
AcDbLine
 10
197.2260120911405
 20
226.9110877700624
 30
0.0
 11
193.4760120911405
 21
226.9110877700624
 31
0.0
  0
LINE
  5
10B
330
1F
100
AcDbEntity
  8
GR2_01
 62
   234
370
    20
100
AcDbLine
 10
197.2260120911405
 20
226.9110877700624
 30
0.0
 11
197.2260120911405
 21
230.4110877700624
 31
0.0
  0
LINE
  5
10C
330
1F
100
AcDbEntity
  8
GR2_01
 62
   234
370
    20
100
AcDbLine
 10
193.7260120911405
 20
215.1710877700623
 30
0.0
 11
193.7260120911405
 21
219.2910877700623
 31
0.0
  0
LINE
  5
10D
330
1F
100
AcDbEntity
  8
GR2_01
 62
   234
370
    20
100
AcDbLine
 10
193.7260120911405
 20
222.7910877700623
 30
0.0
 11
193.7260120911405
 21
226.9110877700624
 31
0.0
  0
LINE
  5
10E
330
1F
100
AcDbEntity
  8
GR2_01
 62
   234
370
    20
100
AcDbLine
 10
193.7260120911405
 20
230.4110877700624
 30
0.0
 11
193.7260120911405
 21
234.5310877700624
 31
0.0
  0
LINE
  5
10F
330
1F
100
AcDbEntity
  8
GR2_01
 62
   234
370
    20
100
AcDbLine
 10
197.2260120911405
 20
207.5510877700623
 30
0.0
 11
193.4760120911405
 21
207.5510877700623
 31
0.0
  0
LINE
  5
110
330
1F
100
AcDbEntity
  8
GR2_01
 62
   234
370
    20
100
AcDbLine
 10
197.2260120911405
 20
204.0510877700623
 30
0.0
 11
193.4760120911405
 21
204.0510877700623
 31
0.0
  0
LINE
  5
111
330
1F
100
AcDbEntity
  8
GR2_01
 62
   234
370
    20
100
AcDbLine
 10
197.2260120911405
 20
204.0510877700623
 30
0.0
 11
197.2260120911405
 21
207.5510877700623
 31
0.0
  0
LINE
  5
112
330
1F
100
AcDbEntity
  8
GR2_01
 62
   234
370
    20
100
AcDbLine
 10
193.7260120911405
 20
211.6710877700623
 30
0.0
 11
193.7260120911405
 21
207.5510877700623
 31
0.0
  0
LINE
  5
113
330
1F
100
AcDbEntity
  8
GR2_01
 62
   234
370
    20
100
AcDbLine
 10
197.2260120911405
 20
199.9310877700622
 30
0.0
 11
193.4760120911405
 21
199.9310877700622
 31
0.0
  0
LINE
  5
114
330
1F
100
AcDbEntity
  8
GR2_01
 62
   234
370
    20
100
AcDbLine
 10
197.2260120911405
 20
196.4310877700622
 30
0.0
 11
193.4760120911405
 21
196.4310877700622
 31
0.0
  0
LINE
  5
115
330
1F
100
AcDbEntity
  8
GR2_01
 62
   234
370
    20
100
AcDbLine
 10
197.2260120911405
 20
196.4310877700622
 30
0.0
 11
197.2260120911405
 21
199.9310877700622
 31
0.0
  0
LINE
  5
116
330
1F
100
AcDbEntity
  8
GR2_01
 62
   234
370
    20
100
AcDbLine
 10
193.7260120911405
 20
204.0510877700623
 30
0.0
 11
193.7260120911405
 21
199.9310877700622
 31
0.0
  0
LINE
  5
117
330
1F
100
AcDbEntity
  8
GR2_01
 62
   234
370
    20
100
AcDbLine
 10
197.2260120911405
 20
192.3110877700622
 30
0.0
 11
193.4760120911405
 21
192.3110877700623
 31
0.0
  0
LINE
  5
118
330
1F
100
AcDbEntity
  8
GR2_01
 62
   234
370
    20
100
AcDbLine
 10
197.2260120911405
 20
188.8110877700622
 30
0.0
 11
193.4760120911405
 21
188.8110877700622
 31
0.0
  0
LINE
  5
119
330
1F
100
AcDbEntity
  8
GR2_01
 62
   234
370
    20
100
AcDbLine
 10
197.2260120911405
 20
188.8110877700622
 30
0.0
 11
197.2260120911405
 21
192.3110877700622
 31
0.0
  0
LINE
  5
11A
330
1F
100
AcDbEntity
  8
GR2_01
 62
   234
370
    20
100
AcDbLine
 10
193.7260120911405
 20
196.4310877700623
 30
0.0
 11
193.7260120911405
 21
192.3110877700623
 31
0.0
  0
LINE
  5
11B
330
1F
100
AcDbEntity
  8
GR2_01
 62
   234
370
    20
100
AcDbLine
 10
193.7260120911405
 20
188.8110877700623
 30
0.0
 11
193.7260120911405
 21
186.1710877700625
 31
0.0
  0
LINE
  5
11C
330
1F
100
AcDbEntity
  8
GR2_01
 62
   234
370
    20
100
AcDbLine
 10
188.9760120911405
 20
203.7410877700623
 30
0.0
 11
192.4760120911405
 21
203.7410877700623
 31
0.0
  0
LINE
  5
11D
330
1F
100
AcDbEntity
  8
GR2_01
 62
   234
370
    20
100
AcDbLine
 10
188.9760120911405
 20
200.2410877700624
 30
0.0
 11
192.4760120911405
 21
200.2410877700624
 31
0.0
  0
LINE
  5
11E
330
1F
100
AcDbEntity
  8
GR2_01
 62
   234
370
    20
100
AcDbLine
 10
188.9760120911405
 20
196.1210877700624
 30
0.0
 11
192.4760120911405
 21
196.1210877700624
 31
0.0
  0
LINE
  5
11F
330
1F
100
AcDbEntity
  8
GR2_01
 62
   234
370
    20
100
AcDbLine
 10
188.9760120911405
 20
192.6210877700624
 30
0.0
 11
192.4760120911405
 21
192.6210877700624
 31
0.0
  0
LINE
  5
120
330
1F
100
AcDbEntity
  8
GR2_01
 62
   234
370
    20
100
AcDbLine
 10
189.2760120911405
 20
190.6938707608241
 30
0.0
 11
189.2760120911405
 21
192.6210877700624
 31
0.0
  0
LINE
  5
121
330
1F
100
AcDbEntity
  8
GR2_01
 62
   234
370
    20
100
AcDbLine
 10
192.2260120911403
 20
186.4710877700625
 30
0.0
 11
190.9760120911405
 21
186.4710877700625
 31
0.0
  0
LINE
  5
122
330
1F
100
AcDbEntity
  8
GR2_01
 62
   234
370
    20
100
AcDbLine
 10
197.2260120911405
 20
223.8510877700624
 30
0.0
 11
193.7260120911405
 21
223.8510877700624
 31
0.0
  0
LINE
  5
123
330
1F
100
AcDbEntity
  8
GR2_01
 62
   234
370
    20
100
AcDbLine
 10
197.2260120911405
 20
225.8510877700624
 30
0.0
 11
193.7260120911405
 21
225.8510877700624
 31
0.0
  0
LINE
  5
124
330
1F
100
AcDbEntity
  8
GR2_01
 62
   234
370
    20
100
AcDbLine
 10
197.2260120911405
 20
225.8510877700624
 30
0.0
 11
197.2260120911405
 21
223.8510877700624
 31
0.0
  0
LINE
  5
125
330
1F
100
AcDbEntity
  8
GR2_01
 62
   234
370
    20
100
AcDbLine
 10
197.2260120911405
 20
216.2310877700623
 30
0.0
 11
193.7260120911405
 21
216.2310877700623
 31
0.0
  0
LINE
  5
126
330
1F
100
AcDbEntity
  8
GR2_01
 62
   234
370
    20
100
AcDbLine
 10
197.2260120911405
 20
218.2310877700623
 30
0.0
 11
193.7260120911405
 21
218.2310877700623
 31
0.0
  0
LINE
  5
127
330
1F
100
AcDbEntity
  8
GR2_01
 62
   234
370
    20
100
AcDbLine
 10
197.2260120911405
 20
208.6110877700623
 30
0.0
 11
193.7260120911405
 21
208.6110877700623
 31
0.0
  0
LINE
  5
128
330
1F
100
AcDbEntity
  8
GR2_01
 62
   234
370
    20
100
AcDbLine
 10
197.2260120911405
 20
210.6110877700623
 30
0.0
 11
193.7260120911405
 21
210.6110877700623
 31
0.0
  0
LINE
  5
129
330
1F
100
AcDbEntity
  8
GR2_01
 62
   234
370
    20
100
AcDbLine
 10
197.2260120911405
 20
218.2310877700623
 30
0.0
 11
197.2260120911405
 21
216.2310877700623
 31
0.0
  0
LINE
  5
12A
330
1F
100
AcDbEntity
  8
GR2_01
 62
   234
370
    20
100
AcDbLine
 10
197.2260120911405
 20
210.6110877700623
 30
0.0
 11
197.2260120911405
 21
208.6110877700623
 31
0.0
  0
LINE
  5
12B
330
1F
100
AcDbEntity
  8
GR2_01
 62
   234
370
    20
100
AcDbLine
 10
197.2260120911405
 20
200.9910877700623
 30
0.0
 11
193.7260120911405
 21
200.9910877700623
 31
0.0
  0
LINE
  5
12C
330
1F
100
AcDbEntity
  8
GR2_01
 62
   234
370
    20
100
AcDbLine
 10
197.2260120911405
 20
202.9910877700623
 30
0.0
 11
193.7260120911405
 21
202.9910877700623
 31
0.0
  0
LINE
  5
12D
330
1F
100
AcDbEntity
  8
GR2_01
 62
   234
370
    20
100
AcDbLine
 10
197.2260120911405
 20
202.9910877700623
 30
0.0
 11
197.2260120911405
 21
200.9910877700623
 31
0.0
  0
LINE
  5
12E
330
1F
100
AcDbEntity
  8
GR2_01
 62
   234
370
    20
100
AcDbLine
 10
197.2260120911405
 20
193.3710877700623
 30
0.0
 11
193.7260120911405
 21
193.3710877700623
 31
0.0
  0
LINE
  5
12F
330
1F
100
AcDbEntity
  8
GR2_01
 62
   234
370
    20
100
AcDbLine
 10
197.2260120911405
 20
195.3710877700623
 30
0.0
 11
193.7260120911405
 21
195.3710877700623
 31
0.0
  0
LINE
  5
130
330
1F
100
AcDbEntity
  8
GR2_01
 62
   234
370
    20
100
AcDbLine
 10
197.2260120911405
 20
195.3710877700623
 30
0.0
 11
197.2260120911405
 21
193.3710877700623
 31
0.0
  0
LINE
  5
131
330
1F
100
AcDbEntity
  8
GR2_01
 62
   234
370
    20
100
AcDbLine
 10
197.2260120911405
 20
233.4710877700624
 30
0.0
 11
193.7260120911405
 21
233.4710877700624
 31
0.0
  0
LINE
  5
132
330
1F
100
AcDbEntity
  8
GR2_01
 62
   234
370
    20
100
AcDbLine
 10
197.2260120911405
 20
231.4710877700624
 30
0.0
 11
193.7260120911405
 21
231.4710877700624
 31
0.0
  0
LINE
  5
133
330
1F
100
AcDbEntity
  8
GR2_01
 62
   234
370
    20
100
AcDbLine
 10
197.2260120911405
 20
231.4710877700624
 30
0.0
 11
197.2260120911405
 21
233.4710877700624
 31
0.0
  0
LINE
  5
134
330
1F
100
AcDbEntity
  8
GR2_01
 62
   234
370
    20
100
AcDbLine
 10
196.7760120911405
 20
187.7510877700624
 30
0.0
 11
193.7260120911405
 21
187.7510877700624
 31
0.0
  0
LINE
  5
135
330
1F
100
AcDbEntity
  8
GR2_01
 62
   234
370
    20
100
AcDbLine
 10
188.9760120911405
 20
211.3610877700624
 30
0.0
 11
192.4760120911405
 21
211.3610877700624
 31
0.0
  0
LINE
  5
136
330
1F
100
AcDbEntity
  8
GR2_01
 62
   234
370
    20
100
AcDbLine
 10
188.9760120911405
 20
207.8610877700624
 30
0.0
 11
192.4760120911405
 21
207.8610877700624
 31
0.0
  0
LINE
  5
137
330
1F
100
AcDbEntity
  8
GR2_01
 62
   234
370
    20
100
AcDbLine
 10
193.4760120911405
 20
211.6710877700623
 30
0.0
 11
193.4760120911405
 21
215.1710877700623
 31
0.0
  0
LINE
  5
138
330
1F
100
AcDbEntity
  8
GR2_01
 62
   234
370
    20
100
AcDbLine
 10
193.4760120911405
 20
207.5510877700623
 30
0.0
 11
193.4760120911405
 21
204.0510877700623
 31
0.0
  0
LINE
  5
139
330
1F
100
AcDbEntity
  8
GR2_01
 62
   234
370
    20
100
AcDbLine
 10
193.4760120911405
 20
199.9310877700622
 30
0.0
 11
193.4760120911405
 21
196.4310877700622
 31
0.0
  0
LINE
  5
13A
330
1F
100
AcDbEntity
  8
GR2_01
 62
   234
370
    20
100
AcDbLine
 10
193.4760120911405
 20
192.3110877700623
 30
0.0
 11
193.4760120911405
 21
188.8110877700622
 31
0.0
  0
LINE
  5
13B
330
1F
100
AcDbEntity
  8
GR2_01
 62
   234
370
    20
100
AcDbLine
 10
193.4760120911405
 20
219.2910877700623
 30
0.0
 11
193.4760120911405
 21
222.7910877700623
 31
0.0
  0
LINE
  5
13C
330
1F
100
AcDbEntity
  8
GR2_01
 62
   234
370
    20
100
AcDbLine
 10
193.4760120911405
 20
226.9110877700624
 30
0.0
 11
193.4760120911405
 21
230.4110877700624
 31
0.0
  0
LINE
  5
13D
330
1F
100
AcDbEntity
  8
GR2_01
 62
    94
370
    20
100
AcDbLine
 10
191.4760120911405
 20
192.6210877700624
 30
0.0
 11
191.4760120911405
 21
196.1210877700624
 31
0.0
  0
LINE
  5
13E
330
1F
100
AcDbEntity
  8
GR2_01
 62
    94
370
    20
100
AcDbLine
 10
191.4760120911405
 20
207.8610877700624
 30
0.0
 11
191.4760120911405
 21
211.3610877700624
 31
0.0
  0
LINE
  5
13F
330
1F
100
AcDbEntity
  8
GR2_01
 62
    94
370
    20
100
AcDbLine
 10
191.4760120911405
 20
200.2410877700624
 30
0.0
 11
191.4760120911405
 21
203.7410877700623
 31
0.0
  0
LINE
  5
140
330
1F
100
AcDbEntity
  8
GR2_01
 62
   234
370
    20
100
AcDbLine
 10
192.4760120911405
 20
207.8610877700624
 30
0.0
 11
192.4760120911405
 21
211.3610877700624
 31
0.0
  0
LINE
  5
141
330
1F
100
AcDbEntity
  8
GR2_01
 62
   234
370
    20
100
AcDbLine
 10
192.4760120911405
 20
200.2410877700624
 30
0.0
 11
192.4760120911405
 21
203.7410877700624
 31
0.0
  0
LINE
  5
142
330
1F
100
AcDbEntity
  8
GR2_01
 62
   234
370
    20
100
AcDbLine
 10
192.4760120911405
 20
192.6210877700624
 30
0.0
 11
192.4760120911405
 21
196.1210877700624
 31
0.0
  0
LINE
  5
143
330
1F
100
AcDbEntity
  8
GR2_01
 62
   234
370
    20
100
AcDbLine
 10
192.2260120911405
 20
203.7410877700624
 30
0.0
 11
192.2260120911405
 21
207.8610877700624
 31
0.0
  0
LINE
  5
144
330
1F
100
AcDbEntity
  8
GR2_01
 62
   234
370
    20
100
AcDbLine
 10
192.2260120911405
 20
196.1210877700624
 30
0.0
 11
192.2260120911405
 21
200.2410877700624
 31
0.0
  0
LINE
  5
145
330
1F
100
AcDbEntity
  8
GR2_01
 62
   234
370
    20
100
AcDbLine
 10
197.2260120911405
 20
238.0310877700624
 30
0.0
 11
193.4760120911405
 21
238.0310877700624
 31
0.0
  0
LINE
  5
146
330
1F
100
AcDbEntity
  8
GR2_01
 62
   234
370
    20
100
AcDbLine
 10
197.2260120911405
 20
234.5310877700624
 30
0.0
 11
193.4760120911405
 21
234.5310877700624
 31
0.0
  0
LINE
  5
147
330
1F
100
AcDbEntity
  8
GR2_01
 62
   234
370
    20
100
AcDbLine
 10
197.2260120911405
 20
234.5310877700624
 30
0.0
 11
197.2260120911405
 21
238.0310877700624
 31
0.0
  0
LINE
  5
148
330
1F
100
AcDbEntity
  8
GR2_01
 62
   234
370
    20
100
AcDbLine
 10
193.7260120911405
 20
238.0310877700624
 30
0.0
 11
193.7260120911405
 21
242.1510877700624
 31
0.0
  0
LINE
  5
149
330
1F
100
AcDbEntity
  8
GR2_01
 62
   234
370
    20
100
AcDbLine
 10
197.2260120911405
 20
241.0910877700624
 30
0.0
 11
193.7260120911405
 21
241.0910877700624
 31
0.0
  0
LINE
  5
14A
330
1F
100
AcDbEntity
  8
GR2_01
 62
   234
370
    20
100
AcDbLine
 10
197.2260120911405
 20
239.0910877700624
 30
0.0
 11
193.7260120911405
 21
239.0910877700624
 31
0.0
  0
LINE
  5
14B
330
1F
100
AcDbEntity
  8
GR2_01
 62
   234
370
    20
100
AcDbLine
 10
197.2260120911405
 20
239.0910877700624
 30
0.0
 11
197.2260120911405
 21
241.0910877700624
 31
0.0
  0
LINE
  5
14C
330
1F
100
AcDbEntity
  8
GR2_01
 62
   234
370
    20
100
AcDbLine
 10
193.4760120911405
 20
234.5310877700624
 30
0.0
 11
193.4760120911405
 21
238.0310877700624
 31
0.0
  0
LINE
  5
14D
330
1F
100
AcDbEntity
  8
GR2_01
 62
   234
370
    20
100
AcDbLine
 10
197.2260120911405
 20
245.6510877700624
 30
0.0
 11
193.4760120911405
 21
245.6510877700624
 31
0.0
  0
LINE
  5
14E
330
1F
100
AcDbEntity
  8
GR2_01
 62
   234
370
    20
100
AcDbLine
 10
197.2260120911405
 20
242.1510877700624
 30
0.0
 11
193.4760120911405
 21
242.1510877700624
 31
0.0
  0
LINE
  5
14F
330
1F
100
AcDbEntity
  8
GR2_01
 62
   234
370
    20
100
AcDbLine
 10
197.2260120911405
 20
242.1510877700624
 30
0.0
 11
197.2260120911405
 21
245.6510877700624
 31
0.0
  0
LINE
  5
150
330
1F
100
AcDbEntity
  8
GR2_01
 62
   234
370
    20
100
AcDbLine
 10
193.7260120911405
 20
245.6510877700624
 30
0.0
 11
193.7260120911405
 21
249.7710877700623
 31
0.0
  0
LINE
  5
151
330
1F
100
AcDbEntity
  8
GR2_01
 62
   234
370
    20
100
AcDbLine
 10
197.2260120911405
 20
248.7110877700624
 30
0.0
 11
193.7260120911405
 21
248.7110877700624
 31
0.0
  0
LINE
  5
152
330
1F
100
AcDbEntity
  8
GR2_01
 62
   234
370
    20
100
AcDbLine
 10
197.2260120911405
 20
246.7110877700624
 30
0.0
 11
193.7260120911405
 21
246.7110877700624
 31
0.0
  0
LINE
  5
153
330
1F
100
AcDbEntity
  8
GR2_01
 62
   234
370
    20
100
AcDbLine
 10
197.2260120911405
 20
246.7110877700624
 30
0.0
 11
197.2260120911405
 21
248.7110877700624
 31
0.0
  0
LINE
  5
154
330
1F
100
AcDbEntity
  8
GR2_01
 62
   234
370
    20
100
AcDbLine
 10
193.4760120911405
 20
242.1510877700624
 30
0.0
 11
193.4760120911405
 21
245.6510877700624
 31
0.0
  0
LINE
  5
155
330
1F
100
AcDbEntity
  8
GR2_01
 62
   234
370
    20
100
AcDbLine
 10
197.2260120911405
 20
253.2710877700623
 30
0.0
 11
193.4760120911405
 21
253.2710877700623
 31
0.0
  0
LINE
  5
156
330
1F
100
AcDbEntity
  8
GR2_01
 62
   234
370
    20
100
AcDbLine
 10
197.2260120911405
 20
249.7710877700623
 30
0.0
 11
193.4760120911405
 21
249.7710877700623
 31
0.0
  0
LINE
  5
157
330
1F
100
AcDbEntity
  8
GR2_01
 62
   234
370
    20
100
AcDbLine
 10
197.2260120911405
 20
249.7710877700623
 30
0.0
 11
197.2260120911405
 21
253.2710877700623
 31
0.0
  0
LINE
  5
158
330
1F
100
AcDbEntity
  8
GR2_01
 62
   234
370
    20
100
AcDbLine
 10
193.7260120911405
 20
253.2710877700623
 30
0.0
 11
193.7260120911405
 21
257.2836055763661
 31
0.0
  0
LINE
  5
159
330
1F
100
AcDbEntity
  8
GR2_01
 62
   234
370
    20
100
AcDbLine
 10
193.4760120911405
 20
249.7710877700623
 30
0.0
 11
193.4760120911405
 21
253.2710877700623
 31
0.0
  0
LINE
  5
15A
330
1F
100
AcDbEntity
  8
GR2_01
 62
   234
370
    20
100
AcDbLine
 10
188.9760120911406
 20
257.0810877700624
 30
0.0
 11
192.4760120911405
 21
257.0810877700624
 31
0.0
  0
LINE
  5
15B
330
1F
100
AcDbEntity
  8
GR2_01
 62
   234
370
    20
100
AcDbLine
 10
188.9760120911405
 20
253.5810877700624
 30
0.0
 11
192.4760120911405
 21
253.5810877700624
 31
0.0
  0
LINE
  5
15C
330
1F
100
AcDbEntity
  8
GR2_01
 62
   234
370
    20
100
AcDbLine
 10
192.4760120911405
 20
253.5810877700624
 30
0.0
 11
192.4760120911405
 21
257.7739734530323
 31
0.0
  0
LINE
  5
15D
330
1F
100
AcDbEntity
  8
GR2_01
 62
   234
370
    20
100
AcDbLine
 10
189.2760120911405
 20
258.9968237013503
 30
0.0
 11
189.2760120911405
 21
257.0810877700624
 31
0.0
  0
LINE
  5
15E
330
1F
100
AcDbEntity
  8
GR2_01
 62
   234
370
    20
100
AcDbLine
 10
188.9760120911405
 20
257.0810877700624
 30
0.0
 11
188.9760120911405
 21
259.1210877700623
 31
0.0
  0
LINE
  5
15F
330
1F
100
AcDbEntity
  8
GR2_01
 62
   234
370
    20
100
AcDbLine
 10
198.2760120911405
 20
186.4710877700626
 30
0.0
 11
198.2760120911405
 21
254.3317105020157
 31
0.0
  0
ARC
  5
160
330
1F
100
AcDbEntity
  8
GR2_01
 62
   234
370
    20
100
AcDbCircle
 10
194.7260120911405
 20
261.6710877700622
 30
0.0
 40
5.5
100
AcDbArc
 50
204.1477399170226
 51
236.5685374418164
  0
LINE
  5
161
330
1F
100
AcDbEntity
  8
GR2_01
 62
   234
370
    20
100
AcDbLine
 10
189.2760120911406
 20
259.4210877700622
 30
0.0
 11
189.7072971161693
 21
259.4210877700622
 31
0.0
  0
LINE
  5
162
330
1F
100
AcDbEntity
  8
GR2_01
 62
   234
370
    20
100
AcDbLine
 10
189.2760120911405
 20
259.4210877700622
 30
0.0
 11
188.9760120911406
 21
259.1210877700623
 31
0.0
  0
LINE
  5
163
330
1F
100
AcDbEntity
  8
GR2_01
 62
   234
370
    20
100
AcDbLine
 10
189.4002761598525
 20
259.1210877700623
 30
0.0
 11
189.2760120911405
 21
258.9968237013503
 31
0.0
  0
LINE
  5
164
330
1F
100
AcDbEntity
  8
GR2_01
 62
   234
370
    20
100
AcDbLine
 10
189.4002761598525
 20
259.1210877700623
 30
0.0
 11
189.2760120911406
 21
259.4210877700622
 31
0.0
  0
LINE
  5
165
330
1F
100
AcDbEntity
  8
GR2_01
 62
   234
370
    20
100
AcDbLine
 10
189.2760120911405
 20
258.9968237013504
 30
0.0
 11
188.9760120911406
 21
259.1210877700623
 31
0.0
  0
LINE
  5
166
330
1F
100
AcDbEntity
  8
GR2_01
 62
   234
370
    20
100
AcDbLine
 10
189.8528714200743
 20
259.1210877700623
 30
0.0
 11
189.4002761598525
 21
259.1210877700623
 31
0.0
  0
LINE
  5
167
330
1F
100
AcDbEntity
  8
GR2_01
 62
   234
370
    20
100
AcDbLine
 10
189.2760120911405
 20
200.2410877700624
 30
0.0
 11
189.2760120911405
 21
196.1210877700624
 31
0.0
  0
LINE
  5
168
330
1F
100
AcDbEntity
  8
GR2_01
 62
    94
370
    20
100
AcDbLine
 10
189.4328720911405
 20
192.6210877700624
 30
0.0
 11
189.4328720911405
 21
196.1210877700624
 31
0.0
  0
LINE
  5
169
330
1F
100
AcDbEntity
  8
GR2_01
 62
   234
370
    20
100
AcDbLine
 10
190.8760120911405
 20
206.6360877700623
 30
0.0
 11
190.8760120911404
 21
204.9660877700624
 31
0.0
  0
LINE
  5
16A
330
1F
100
AcDbEntity
  8
GR2_01
 62
   234
370
    20
100
AcDbLine
 10
189.9760120911405
 20
206.6360877700623
 30
0.0
 11
190.8760120911405
 21
206.6360877700623
 31
0.0
  0
LINE
  5
16B
330
1F
100
AcDbEntity
  8
GR2_01
 62
   234
370
    20
100
AcDbLine
 10
190.2760120911404
 20
204.6660877700624
 30
0.0
 11
190.2760120911403
 21
204.0182457871581
 31
0.0
  0
LINE
  5
16C
330
1F
100
AcDbEntity
  8
GR2_01
 62
   234
370
    20
100
AcDbLine
 10
189.9760120911405
 20
204.9660877700624
 30
0.0
 11
190.8760120911404
 21
204.9660877700624
 31
0.0
  0
LINE
  5
16D
330
1F
100
AcDbEntity
  8
GR2_01
 62
   234
370
    20
100
AcDbLine
 10
189.4760120911405
 20
205.9196270208264
 30
0.0
 11
189.8459735481623
 21
206.9360877700623
 31
0.0
  0
LINE
  5
16E
330
1F
100
AcDbEntity
  8
GR2_01
 62
   234
370
    20
100
AcDbLine
 10
189.8708000051451
 20
204.1657309250252
 30
0.0
 11
190.2760120911403
 21
204.0182457871581
 31
0.0
  0
LINE
  5
16F
330
1F
100
AcDbEntity
  8
GR2_01
 62
   234
370
    20
100
AcDbLine
 10
189.2760120911405
 20
207.8610877700623
 30
0.0
 11
189.2760120911405
 21
203.7410877700623
 31
0.0
  0
LINE
  5
170
330
1F
100
AcDbEntity
  8
GR2_01
 62
   234
370
    20
100
AcDbLine
 10
189.8459735481623
 20
206.9360877700623
 30
0.0
 11
192.2260120911405
 21
206.9360877700623
 31
0.0
  0
LINE
  5
171
330
1F
100
AcDbEntity
  8
GR2_01
 62
   234
370
    20
100
AcDbLine
 10
190.2760120911404
 20
204.6660877700624
 30
0.0
 11
192.2260120911405
 21
204.6660877700623
 31
0.0
  0
LINE
  5
172
330
1F
100
AcDbEntity
  8
GR2_01
 62
   234
370
    20
100
AcDbLine
 10
188.9760120911405
 20
196.1210877700624
 30
0.0
 11
188.9760120911405
 21
200.2410877700624
 31
0.0
  0
LINE
  5
173
330
1F
100
AcDbEntity
  8
GR2_01
 62
   234
370
    20
100
AcDbLine
 10
188.9760120911405
 20
203.7410877700623
 30
0.0
 11
188.9760120911405
 21
207.8610877700624
 31
0.0
  0
LINE
  5
174
330
1F
100
AcDbEntity
  8
GR2_01
 62
    94
370
    20
100
AcDbLine
 10
189.4760120911405
 20
207.8610877700624
 30
0.0
 11
189.4760120911405
 21
211.3610877700623
 31
0.0
  0
LINE
  5
175
330
1F
100
AcDbEntity
  8
GR2_01
 62
    94
370
    20
100
AcDbLine
 10
190.2260120911405
 20
207.8610877700624
 30
0.0
 11
190.2260120911405
 21
211.3610877700623
 31
0.0
  0
LINE
  5
176
330
1F
100
AcDbEntity
  8
GR2_01
 62
    94
370
    20
100
AcDbLine
 10
190.2260120911405
 20
192.6210877700624
 30
0.0
 11
190.2260120911405
 21
196.1210877700624
 31
0.0
  0
LINE
  5
177
330
1F
100
AcDbEntity
  8
GR2_01
 62
    94
370
    20
100
AcDbLine
 10
189.4328720911405
 20
200.2410877700623
 30
0.0
 11
189.4328720911405
 21
203.7410877700623
 31
0.0
  0
LINE
  5
178
330
1F
100
AcDbEntity
  8
GR2_01
 62
    94
370
    20
100
AcDbLine
 10
190.2260120911405
 20
200.2410877700624
 30
0.0
 11
190.2260120911405
 21
203.7410877700623
 31
0.0
  0
LINE
  5
179
330
1F
100
AcDbEntity
  8
GR2_01
 62
   234
370
    20
100
AcDbLine
 10
188.9760120911405
 20
218.9810877700624
 30
0.0
 11
192.4760120911405
 21
218.9810877700624
 31
0.0
  0
LINE
  5
17A
330
1F
100
AcDbEntity
  8
GR2_01
 62
   234
370
    20
100
AcDbLine
 10
188.9760120911405
 20
215.4810877700624
 30
0.0
 11
192.4760120911405
 21
215.4810877700624
 31
0.0
  0
LINE
  5
17B
330
1F
100
AcDbEntity
  8
GR2_01
 62
    94
370
    20
100
AcDbLine
 10
191.4760120911405
 20
215.4810877700624
 30
0.0
 11
191.4760120911405
 21
218.9810877700624
 31
0.0
  0
LINE
  5
17C
330
1F
100
AcDbEntity
  8
GR2_01
 62
   234
370
    20
100
AcDbLine
 10
192.4760120911405
 20
215.4810877700624
 30
0.0
 11
192.4760120911405
 21
218.9810877700624
 31
0.0
  0
LINE
  5
17D
330
1F
100
AcDbEntity
  8
GR2_01
 62
   234
370
    20
100
AcDbLine
 10
192.2260120911405
 20
211.3610877700624
 30
0.0
 11
192.2260120911405
 21
215.4810877700624
 31
0.0
  0
LINE
  5
17E
330
1F
100
AcDbEntity
  8
GR2_01
 62
   234
370
    20
100
AcDbLine
 10
189.2760120911405
 20
215.4810877700623
 30
0.0
 11
189.2760120911405
 21
211.3610877700623
 31
0.0
  0
LINE
  5
17F
330
1F
100
AcDbEntity
  8
GR2_01
 62
   234
370
    20
100
AcDbLine
 10
188.9760120911405
 20
211.3610877700624
 30
0.0
 11
188.9760120911405
 21
215.4810877700624
 31
0.0
  0
LINE
  5
180
330
1F
100
AcDbEntity
  8
GR2_01
 62
    94
370
    20
100
AcDbLine
 10
189.4760120911405
 20
215.4810877700624
 30
0.0
 11
189.4760120911405
 21
218.9810877700623
 31
0.0
  0
LINE
  5
181
330
1F
100
AcDbEntity
  8
GR2_01
 62
    94
370
    20
100
AcDbLine
 10
190.2260120911405
 20
215.4810877700624
 30
0.0
 11
190.2260120911405
 21
218.9810877700623
 31
0.0
  0
LINE
  5
182
330
1F
100
AcDbEntity
  8
GR2_01
 62
   234
370
    20
100
AcDbLine
 10
188.9760120911405
 20
226.6010877700624
 30
0.0
 11
192.4760120911405
 21
226.6010877700624
 31
0.0
  0
LINE
  5
183
330
1F
100
AcDbEntity
  8
GR2_01
 62
   234
370
    20
100
AcDbLine
 10
188.9760120911405
 20
223.1010877700624
 30
0.0
 11
192.4760120911405
 21
223.1010877700624
 31
0.0
  0
LINE
  5
184
330
1F
100
AcDbEntity
  8
GR2_01
 62
    94
370
    20
100
AcDbLine
 10
191.4760120911405
 20
223.1010877700624
 30
0.0
 11
191.4760120911405
 21
226.6010877700624
 31
0.0
  0
LINE
  5
185
330
1F
100
AcDbEntity
  8
GR2_01
 62
   234
370
    20
100
AcDbLine
 10
192.4760120911405
 20
223.1010877700624
 30
0.0
 11
192.4760120911405
 21
226.6010877700624
 31
0.0
  0
LINE
  5
186
330
1F
100
AcDbEntity
  8
GR2_01
 62
   234
370
    20
100
AcDbLine
 10
192.2260120911405
 20
218.9810877700624
 30
0.0
 11
192.2260120911405
 21
223.1010877700624
 31
0.0
  0
LINE
  5
187
330
1F
100
AcDbEntity
  8
GR2_01
 62
   234
370
    20
100
AcDbLine
 10
188.9760120911405
 20
218.9810877700624
 30
0.0
 11
188.9760120911405
 21
223.1010877700624
 31
0.0
  0
LINE
  5
188
330
1F
100
AcDbEntity
  8
GR2_01
 62
    94
370
    20
100
AcDbLine
 10
189.4760120911405
 20
223.1010877700624
 30
0.0
 11
189.4760120911405
 21
226.6010877700623
 31
0.0
  0
LINE
  5
189
330
1F
100
AcDbEntity
  8
GR2_01
 62
    94
370
    20
100
AcDbLine
 10
190.2260120911405
 20
223.1010877700624
 30
0.0
 11
190.2260120911405
 21
226.6010877700623
 31
0.0
  0
LINE
  5
18A
330
1F
100
AcDbEntity
  8
GR2_01
 62
   234
370
    20
100
AcDbLine
 10
188.9760120911405
 20
234.2210877700624
 30
0.0
 11
192.4760120911405
 21
234.2210877700624
 31
0.0
  0
LINE
  5
18B
330
1F
100
AcDbEntity
  8
GR2_01
 62
   234
370
    20
100
AcDbLine
 10
188.9760120911405
 20
230.7210877700624
 30
0.0
 11
192.4760120911405
 21
230.7210877700624
 31
0.0
  0
LINE
  5
18C
330
1F
100
AcDbEntity
  8
GR2_01
 62
    94
370
    20
100
AcDbLine
 10
191.4760120911405
 20
230.7210877700624
 30
0.0
 11
191.4760120911405
 21
234.2210877700624
 31
0.0
  0
LINE
  5
18D
330
1F
100
AcDbEntity
  8
GR2_01
 62
   234
370
    20
100
AcDbLine
 10
192.4760120911405
 20
230.7210877700624
 30
0.0
 11
192.4760120911405
 21
234.2210877700624
 31
0.0
  0
LINE
  5
18E
330
1F
100
AcDbEntity
  8
GR2_01
 62
   234
370
    20
100
AcDbLine
 10
192.2260120911405
 20
226.6010877700624
 30
0.0
 11
192.2260120911405
 21
230.7210877700624
 31
0.0
  0
LINE
  5
18F
330
1F
100
AcDbEntity
  8
GR2_01
 62
   234
370
    20
100
AcDbLine
 10
189.2760120911405
 20
230.7210877700623
 30
0.0
 11
189.2760120911405
 21
226.6010877700623
 31
0.0
  0
LINE
  5
190
330
1F
100
AcDbEntity
  8
GR2_01
 62
   234
370
    20
100
AcDbLine
 10
188.9760120911405
 20
226.6010877700624
 30
0.0
 11
188.9760120911405
 21
230.7210877700624
 31
0.0
  0
LINE
  5
191
330
1F
100
AcDbEntity
  8
GR2_01
 62
    94
370
    20
100
AcDbLine
 10
189.4760120911405
 20
230.7210877700624
 30
0.0
 11
189.4760120911405
 21
234.2210877700623
 31
0.0
  0
LINE
  5
192
330
1F
100
AcDbEntity
  8
GR2_01
 62
    94
370
    20
100
AcDbLine
 10
190.2260120911405
 20
230.7210877700624
 30
0.0
 11
190.2260120911405
 21
234.2210877700623
 31
0.0
  0
LINE
  5
193
330
1F
100
AcDbEntity
  8
GR2_01
 62
   234
370
    20
100
AcDbLine
 10
188.9760120911405
 20
241.8410877700624
 30
0.0
 11
192.4760120911405
 21
241.8410877700624
 31
0.0
  0
LINE
  5
194
330
1F
100
AcDbEntity
  8
GR2_01
 62
   234
370
    20
100
AcDbLine
 10
188.9760120911405
 20
238.3410877700624
 30
0.0
 11
192.4760120911405
 21
238.3410877700624
 31
0.0
  0
LINE
  5
195
330
1F
100
AcDbEntity
  8
GR2_01
 62
    94
370
    20
100
AcDbLine
 10
191.4760120911405
 20
238.3410877700624
 30
0.0
 11
191.4760120911405
 21
241.8410877700624
 31
0.0
  0
LINE
  5
196
330
1F
100
AcDbEntity
  8
GR2_01
 62
   234
370
    20
100
AcDbLine
 10
192.4760120911405
 20
238.3410877700624
 30
0.0
 11
192.4760120911405
 21
241.8410877700624
 31
0.0
  0
LINE
  5
197
330
1F
100
AcDbEntity
  8
GR2_01
 62
   234
370
    20
100
AcDbLine
 10
192.2260120911405
 20
234.2210877700624
 30
0.0
 11
192.2260120911405
 21
238.3410877700624
 31
0.0
  0
LINE
  5
198
330
1F
100
AcDbEntity
  8
GR2_01
 62
   234
370
    20
100
AcDbLine
 10
189.2760120911405
 20
238.3410877700623
 30
0.0
 11
189.2760120911405
 21
234.2210877700624
 31
0.0
  0
LINE
  5
199
330
1F
100
AcDbEntity
  8
GR2_01
 62
   234
370
    20
100
AcDbLine
 10
188.9760120911405
 20
234.2210877700624
 30
0.0
 11
188.9760120911405
 21
238.3410877700624
 31
0.0
  0
LINE
  5
19A
330
1F
100
AcDbEntity
  8
GR2_01
 62
    94
370
    20
100
AcDbLine
 10
189.4760120911405
 20
238.3410877700624
 30
0.0
 11
189.4760120911405
 21
241.8410877700623
 31
0.0
  0
LINE
  5
19B
330
1F
100
AcDbEntity
  8
GR2_01
 62
    94
370
    20
100
AcDbLine
 10
190.2260120911405
 20
238.3410877700624
 30
0.0
 11
190.2260120911405
 21
241.8410877700623
 31
0.0
  0
LINE
  5
19C
330
1F
100
AcDbEntity
  8
GR2_01
 62
   234
370
    20
100
AcDbLine
 10
188.9760120911405
 20
249.4610877700624
 30
0.0
 11
192.4760120911405
 21
249.4610877700624
 31
0.0
  0
LINE
  5
19D
330
1F
100
AcDbEntity
  8
GR2_01
 62
   234
370
    20
100
AcDbLine
 10
188.9760120911405
 20
245.9610877700624
 30
0.0
 11
192.4760120911405
 21
245.9610877700624
 31
0.0
  0
LINE
  5
19E
330
1F
100
AcDbEntity
  8
GR2_01
 62
    94
370
    20
100
AcDbLine
 10
191.4760120911405
 20
245.9610877700624
 30
0.0
 11
191.4760120911405
 21
249.4610877700624
 31
0.0
  0
LINE
  5
19F
330
1F
100
AcDbEntity
  8
GR2_01
 62
   234
370
    20
100
AcDbLine
 10
192.4760120911405
 20
245.9610877700624
 30
0.0
 11
192.4760120911405
 21
249.4610877700624
 31
0.0
  0
LINE
  5
1A0
330
1F
100
AcDbEntity
  8
GR2_01
 62
   234
370
    20
100
AcDbLine
 10
192.2260120911405
 20
241.8410877700624
 30
0.0
 11
192.2260120911405
 21
245.9610877700624
 31
0.0
  0
LINE
  5
1A1
330
1F
100
AcDbEntity
  8
GR2_01
 62
   234
370
    20
100
AcDbLine
 10
189.2760120911405
 20
245.9610877700624
 30
0.0
 11
189.2760120911405
 21
241.8410877700623
 31
0.0
  0
LINE
  5
1A2
330
1F
100
AcDbEntity
  8
GR2_01
 62
   234
370
    20
100
AcDbLine
 10
188.9760120911405
 20
241.8410877700624
 30
0.0
 11
188.9760120911405
 21
245.9610877700624
 31
0.0
  0
LINE
  5
1A3
330
1F
100
AcDbEntity
  8
GR2_01
 62
    94
370
    20
100
AcDbLine
 10
189.4760120911405
 20
245.9610877700624
 30
0.0
 11
189.4760120911405
 21
249.4610877700624
 31
0.0
  0
LINE
  5
1A4
330
1F
100
AcDbEntity
  8
GR2_01
 62
    94
370
    20
100
AcDbLine
 10
190.2260120911405
 20
245.9610877700624
 30
0.0
 11
190.2260120911405
 21
249.4610877700624
 31
0.0
  0
LINE
  5
1A5
330
1F
100
AcDbEntity
  8
GR2_01
 62
   234
370
    20
100
AcDbLine
 10
192.2260120911405
 20
249.4610877700624
 30
0.0
 11
192.2260120911405
 21
253.5810877700624
 31
0.0
  0
LINE
  5
1A6
330
1F
100
AcDbEntity
  8
GR2_01
 62
   234
370
    20
100
AcDbLine
 10
189.2760120911405
 20
253.5810877700624
 30
0.0
 11
189.2760120911405
 21
249.4610877700624
 31
0.0
  0
LINE
  5
1A7
330
1F
100
AcDbEntity
  8
GR2_01
 62
   234
370
    20
100
AcDbLine
 10
188.9760120911405
 20
249.4610877700624
 30
0.0
 11
188.9760120911405
 21
253.5810877700624
 31
0.0
  0
LINE
  5
1A8
330
1F
100
AcDbEntity
  8
GR2_01
 62
    94
370
    20
100
AcDbLine
 10
191.4760120911405
 20
253.5810877700624
 30
0.0
 11
191.4760120911405
 21
257.0810877700624
 31
0.0
  0
LINE
  5
1A9
330
1F
100
AcDbEntity
  8
GR2_01
 62
    94
370
    20
100
AcDbLine
 10
189.4760120911405
 20
253.5810877700624
 30
0.0
 11
189.4760120911405
 21
257.0810877700623
 31
0.0
  0
LINE
  5
1AA
330
1F
100
AcDbEntity
  8
GR2_01
 62
    94
370
    20
100
AcDbLine
 10
190.2260120911405
 20
253.5810877700624
 30
0.0
 11
190.2260120911405
 21
257.0810877700623
 31
0.0
  0
ARC
  5
1AB
330
1F
100
AcDbEntity
  8
GR2_01
 62
   234
370
    20
100
AcDbCircle
 10
186.4760120911405
 20
187.1710877700625
 30
0.0
 40
4.5
100
AcDbArc
 50
0.0
 51
63.6122000387566
  0
LINE
  5
1AC
330
1F
100
AcDbEntity
  8
GR2_01
 62
   234
370
    20
100
AcDbLine
 10
193.7260120911405
 20
255.8785839976471
 30
0.0
 11
197.9760120911405
 21
254.3317105020157
 31
0.0
  0
LINE
  5
1AD
330
1F
100
AcDbEntity
  8
GR2_01
 62
   234
370
    20
100
AcDbLine
 10
198.4760120911405
 20
254.3317105020157
 30
0.0
 11
198.4760120911405
 21
257.1710877700621
 31
0.0
  0
LINE
  5
1AE
330
1F
100
AcDbEntity
  8
GR2_01
 62
   234
370
    20
100
AcDbLine
 10
198.4760120911405
 20
254.3317105020157
 30
0.0
 11
193.7260120911405
 21
254.3317105020157
 31
0.0
  0
LINE
  5
1AF
330
1F
100
AcDbEntity
  8
GR2_01
 62
   234
370
    20
100
AcDbLine
 10
196.7760120911405
 20
186.1710877700625
 30
0.0
 11
196.7760120911405
 21
187.7510877700624
 31
0.0
  0
LINE
  5
1B0
330
1F
100
AcDbEntity
  8
GR2_01
 62
   234
370
    20
100
AcDbLine
 10
190.9760120911405
 20
186.1710877700621
 30
0.0
 11
198.7760120911405
 21
186.1710877700621
 31
0.0
  0
LINE
  5
1B1
330
1F
100
AcDbEntity
  8
GR2_01
 62
   234
370
    20
100
AcDbLine
 10
189.9760120911405
 20
204.1274368574379
 30
0.0
 11
189.9760120911405
 21
206.9360877700623
 31
0.0
  0
LINE
  5
1B2
330
1F
100
AcDbEntity
  8
GR2_01
 62
    94
370
    20
100
AcDbLine
 10
191.1760120911404
 20
206.9360877700623
 30
0.0
 11
191.1760120911404
 21
204.6660877700624
 31
0.0
  0
LINE
  5
1B3
330
1F
100
AcDbEntity
  8
GR2_01
 62
   234
370
    20
100
AcDbLine
 10
190.8760120911405
 20
199.0160877700624
 30
0.0
 11
190.8760120911404
 21
197.3460877700624
 31
0.0
  0
LINE
  5
1B4
330
1F
100
AcDbEntity
  8
GR2_01
 62
   234
370
    20
100
AcDbLine
 10
189.9760120911405
 20
199.0160877700623
 30
0.0
 11
190.8760120911405
 21
199.0160877700623
 31
0.0
  0
LINE
  5
1B5
330
1F
100
AcDbEntity
  8
GR2_01
 62
   234
370
    20
100
AcDbLine
 10
190.2760120911404
 20
197.0460877700624
 30
0.0
 11
190.2760120911403
 21
196.3982457871581
 31
0.0
  0
LINE
  5
1B6
330
1F
100
AcDbEntity
  8
GR2_01
 62
   234
370
    20
100
AcDbLine
 10
189.9760120911405
 20
197.3460877700624
 30
0.0
 11
190.8760120911404
 21
197.3460877700624
 31
0.0
  0
LINE
  5
1B7
330
1F
100
AcDbEntity
  8
GR2_01
 62
   234
370
    20
100
AcDbLine
 10
189.4760120911405
 20
198.2996270208265
 30
0.0
 11
189.8459735481623
 21
199.3160877700624
 31
0.0
  0
LINE
  5
1B8
330
1F
100
AcDbEntity
  8
GR2_01
 62
   234
370
    20
100
AcDbLine
 10
189.8708000051451
 20
196.5457309250253
 30
0.0
 11
190.2760120911403
 21
196.3982457871581
 31
0.0
  0
LINE
  5
1B9
330
1F
100
AcDbEntity
  8
GR2_01
 62
   234
370
    20
100
AcDbLine
 10
189.8459735481623
 20
199.3160877700624
 30
0.0
 11
192.2260120911405
 21
199.3160877700624
 31
0.0
  0
LINE
  5
1BA
330
1F
100
AcDbEntity
  8
GR2_01
 62
   234
370
    20
100
AcDbLine
 10
190.2760120911404
 20
197.0460877700624
 30
0.0
 11
192.2260120911405
 21
197.0460877700624
 31
0.0
  0
LINE
  5
1BB
330
1F
100
AcDbEntity
  8
GR2_01
 62
   234
370
    20
100
AcDbLine
 10
189.9760120911405
 20
196.5074368574379
 30
0.0
 11
189.9760120911405
 21
199.3160877700624
 31
0.0
  0
LINE
  5
1BC
330
1F
100
AcDbEntity
  8
GR2_01
 62
    94
370
    20
100
AcDbLine
 10
191.1760120911404
 20
199.3160877700624
 30
0.0
 11
191.1760120911404
 21
197.0460877700624
 31
0.0
  0
LINE
  5
1BD
330
1F
100
AcDbEntity
  8
GR2_01
 62
   234
370
    20
100
AcDbLine
 10
190.8760120911405
 20
214.2560877700624
 30
0.0
 11
190.8760120911405
 21
212.5860877700624
 31
0.0
  0
LINE
  5
1BE
330
1F
100
AcDbEntity
  8
GR2_01
 62
   234
370
    20
100
AcDbLine
 10
189.9760120911405
 20
214.2560877700623
 30
0.0
 11
190.8760120911405
 21
214.2560877700623
 31
0.0
  0
LINE
  5
1BF
330
1F
100
AcDbEntity
  8
GR2_01
 62
   234
370
    20
100
AcDbLine
 10
190.2760120911404
 20
212.2860877700624
 30
0.0
 11
190.2760120911403
 21
211.638245787158
 31
0.0
  0
LINE
  5
1C0
330
1F
100
AcDbEntity
  8
GR2_01
 62
   234
370
    20
100
AcDbLine
 10
189.9760120911405
 20
212.5860877700624
 30
0.0
 11
190.8760120911404
 21
212.5860877700624
 31
0.0
  0
LINE
  5
1C1
330
1F
100
AcDbEntity
  8
GR2_01
 62
   234
370
    20
100
AcDbLine
 10
189.4760120911405
 20
213.5396270208265
 30
0.0
 11
189.8459735481623
 21
214.5560877700623
 31
0.0
  0
LINE
  5
1C2
330
1F
100
AcDbEntity
  8
GR2_01
 62
   234
370
    20
100
AcDbLine
 10
189.8708000051451
 20
211.7857309250252
 30
0.0
 11
190.2760120911403
 21
211.638245787158
 31
0.0
  0
LINE
  5
1C3
330
1F
100
AcDbEntity
  8
GR2_01
 62
   234
370
    20
100
AcDbLine
 10
189.8459735481623
 20
214.5560877700623
 30
0.0
 11
192.2260120911405
 21
214.5560877700623
 31
0.0
  0
LINE
  5
1C4
330
1F
100
AcDbEntity
  8
GR2_01
 62
   234
370
    20
100
AcDbLine
 10
190.2760120911404
 20
212.2860877700624
 30
0.0
 11
192.2260120911405
 21
212.2860877700624
 31
0.0
  0
LINE
  5
1C5
330
1F
100
AcDbEntity
  8
GR2_01
 62
   234
370
    20
100
AcDbLine
 10
189.9760120911405
 20
211.7474368574379
 30
0.0
 11
189.9760120911405
 21
214.5560877700623
 31
0.0
  0
LINE
  5
1C6
330
1F
100
AcDbEntity
  8
GR2_01
 62
    94
370
    20
100
AcDbLine
 10
191.1760120911405
 20
214.5560877700623
 30
0.0
 11
191.1760120911404
 21
212.2860877700624
 31
0.0
  0
LINE
  5
1C7
330
1F
100
AcDbEntity
  8
GR2_01
 62
   234
370
    20
100
AcDbLine
 10
190.8760120911405
 20
221.8760877700624
 30
0.0
 11
190.8760120911405
 21
220.2060877700624
 31
0.0
  0
LINE
  5
1C8
330
1F
100
AcDbEntity
  8
GR2_01
 62
   234
370
    20
100
AcDbLine
 10
189.9760120911405
 20
221.8760877700623
 30
0.0
 11
190.8760120911405
 21
221.8760877700623
 31
0.0
  0
LINE
  5
1C9
330
1F
100
AcDbEntity
  8
GR2_01
 62
   234
370
    20
100
AcDbLine
 10
190.2760120911404
 20
219.9060877700624
 30
0.0
 11
190.2760120911403
 21
219.258245787158
 31
0.0
  0
LINE
  5
1CA
330
1F
100
AcDbEntity
  8
GR2_01
 62
   234
370
    20
100
AcDbLine
 10
189.9760120911405
 20
220.2060877700624
 30
0.0
 11
190.8760120911404
 21
220.2060877700624
 31
0.0
  0
LINE
  5
1CB
330
1F
100
AcDbEntity
  8
GR2_01
 62
   234
370
    20
100
AcDbLine
 10
189.4760120911405
 20
221.1596270208263
 30
0.0
 11
189.8459735481623
 21
222.1760877700623
 31
0.0
  0
LINE
  5
1CC
330
1F
100
AcDbEntity
  8
GR2_01
 62
   234
370
    20
100
AcDbLine
 10
189.8708000051451
 20
219.4057309250252
 30
0.0
 11
190.2760120911403
 21
219.258245787158
 31
0.0
  0
LINE
  5
1CD
330
1F
100
AcDbEntity
  8
GR2_01
 62
   234
370
    20
100
AcDbLine
 10
189.8459735481623
 20
222.1760877700623
 30
0.0
 11
192.2260120911405
 21
222.1760877700623
 31
0.0
  0
LINE
  5
1CE
330
1F
100
AcDbEntity
  8
GR2_01
 62
   234
370
    20
100
AcDbLine
 10
190.2760120911404
 20
219.9060877700624
 30
0.0
 11
192.2260120911405
 21
219.9060877700624
 31
0.0
  0
LINE
  5
1CF
330
1F
100
AcDbEntity
  8
GR2_01
 62
   234
370
    20
100
AcDbLine
 10
189.9760120911405
 20
219.3674368574379
 30
0.0
 11
189.9760120911405
 21
222.1760877700623
 31
0.0
  0
LINE
  5
1D0
330
1F
100
AcDbEntity
  8
GR2_01
 62
    94
370
    20
100
AcDbLine
 10
191.1760120911405
 20
222.1760877700623
 30
0.0
 11
191.1760120911404
 21
219.9060877700624
 31
0.0
  0
LINE
  5
1D1
330
1F
100
AcDbEntity
  8
GR2_01
 62
   234
370
    20
100
AcDbLine
 10
190.8760120911405
 20
229.4960877700623
 30
0.0
 11
190.8760120911405
 21
227.8260877700624
 31
0.0
  0
LINE
  5
1D2
330
1F
100
AcDbEntity
  8
GR2_01
 62
   234
370
    20
100
AcDbLine
 10
189.9760120911405
 20
229.4960877700623
 30
0.0
 11
190.8760120911405
 21
229.4960877700623
 31
0.0
  0
LINE
  5
1D3
330
1F
100
AcDbEntity
  8
GR2_01
 62
   234
370
    20
100
AcDbLine
 10
190.2760120911404
 20
227.5260877700624
 30
0.0
 11
190.2760120911403
 21
226.8782457871581
 31
0.0
  0
LINE
  5
1D4
330
1F
100
AcDbEntity
  8
GR2_01
 62
   234
370
    20
100
AcDbLine
 10
189.9760120911405
 20
227.8260877700623
 30
0.0
 11
190.8760120911404
 21
227.8260877700623
 31
0.0
  0
LINE
  5
1D5
330
1F
100
AcDbEntity
  8
GR2_01
 62
   234
370
    20
100
AcDbLine
 10
189.4760120911405
 20
228.7796270208264
 30
0.0
 11
189.8459735481623
 21
229.7960877700622
 31
0.0
  0
LINE
  5
1D6
330
1F
100
AcDbEntity
  8
GR2_01
 62
   234
370
    20
100
AcDbLine
 10
189.8708000051451
 20
227.0257309250252
 30
0.0
 11
190.2760120911403
 21
226.8782457871581
 31
0.0
  0
LINE
  5
1D7
330
1F
100
AcDbEntity
  8
GR2_01
 62
   234
370
    20
100
AcDbLine
 10
189.8459735481623
 20
229.7960877700622
 30
0.0
 11
192.2260120911405
 21
229.7960877700622
 31
0.0
  0
LINE
  5
1D8
330
1F
100
AcDbEntity
  8
GR2_01
 62
   234
370
    20
100
AcDbLine
 10
190.2760120911404
 20
227.5260877700624
 30
0.0
 11
192.2260120911405
 21
227.5260877700624
 31
0.0
  0
LINE
  5
1D9
330
1F
100
AcDbEntity
  8
GR2_01
 62
   234
370
    20
100
AcDbLine
 10
189.9760120911405
 20
226.9874368574378
 30
0.0
 11
189.9760120911405
 21
229.7960877700622
 31
0.0
  0
LINE
  5
1DA
330
1F
100
AcDbEntity
  8
GR2_01
 62
    94
370
    20
100
AcDbLine
 10
191.1760120911405
 20
229.7960877700623
 30
0.0
 11
191.1760120911404
 21
227.5260877700624
 31
0.0
  0
LINE
  5
1DB
330
1F
100
AcDbEntity
  8
GR2_01
 62
   234
370
    20
100
AcDbLine
 10
190.8760120911405
 20
237.1160877700624
 30
0.0
 11
190.8760120911405
 21
235.4460877700624
 31
0.0
  0
LINE
  5
1DC
330
1F
100
AcDbEntity
  8
GR2_01
 62
   234
370
    20
100
AcDbLine
 10
189.9760120911405
 20
237.1160877700623
 30
0.0
 11
190.8760120911405
 21
237.1160877700623
 31
0.0
  0
LINE
  5
1DD
330
1F
100
AcDbEntity
  8
GR2_01
 62
   234
370
    20
100
AcDbLine
 10
190.2760120911404
 20
235.1460877700624
 30
0.0
 11
190.2760120911403
 21
234.4982457871581
 31
0.0
  0
LINE
  5
1DE
330
1F
100
AcDbEntity
  8
GR2_01
 62
   234
370
    20
100
AcDbLine
 10
189.9760120911405
 20
235.4460877700624
 30
0.0
 11
190.8760120911405
 21
235.4460877700624
 31
0.0
  0
LINE
  5
1DF
330
1F
100
AcDbEntity
  8
GR2_01
 62
   234
370
    20
100
AcDbLine
 10
189.4760120911405
 20
236.3996270208264
 30
0.0
 11
189.8459735481623
 21
237.4160877700623
 31
0.0
  0
LINE
  5
1E0
330
1F
100
AcDbEntity
  8
GR2_01
 62
   234
370
    20
100
AcDbLine
 10
189.8708000051451
 20
234.6457309250252
 30
0.0
 11
190.2760120911404
 21
234.4982457871581
 31
0.0
  0
LINE
  5
1E1
330
1F
100
AcDbEntity
  8
GR2_01
 62
   234
370
    20
100
AcDbLine
 10
189.8459735481623
 20
237.4160877700623
 30
0.0
 11
192.2260120911405
 21
237.4160877700623
 31
0.0
  0
LINE
  5
1E2
330
1F
100
AcDbEntity
  8
GR2_01
 62
   234
370
    20
100
AcDbLine
 10
190.2760120911404
 20
235.1460877700624
 30
0.0
 11
192.2260120911405
 21
235.1460877700624
 31
0.0
  0
LINE
  5
1E3
330
1F
100
AcDbEntity
  8
GR2_01
 62
   234
370
    20
100
AcDbLine
 10
189.9760120911405
 20
234.6074368574379
 30
0.0
 11
189.9760120911405
 21
237.4160877700623
 31
0.0
  0
LINE
  5
1E4
330
1F
100
AcDbEntity
  8
GR2_01
 62
    94
370
    20
100
AcDbLine
 10
191.1760120911405
 20
237.4160877700623
 30
0.0
 11
191.1760120911404
 21
235.1460877700624
 31
0.0
  0
LINE
  5
1E5
330
1F
100
AcDbEntity
  8
GR2_01
 62
   234
370
    20
100
AcDbLine
 10
190.8760120911405
 20
252.3560877700623
 30
0.0
 11
190.8760120911405
 21
250.6860877700624
 31
0.0
  0
LINE
  5
1E6
330
1F
100
AcDbEntity
  8
GR2_01
 62
   234
370
    20
100
AcDbLine
 10
189.9760120911405
 20
252.3560877700623
 30
0.0
 11
190.8760120911405
 21
252.3560877700623
 31
0.0
  0
LINE
  5
1E7
330
1F
100
AcDbEntity
  8
GR2_01
 62
   234
370
    20
100
AcDbLine
 10
190.2760120911404
 20
250.3860877700624
 30
0.0
 11
190.2760120911403
 21
249.7382457871581
 31
0.0
  0
LINE
  5
1E8
330
1F
100
AcDbEntity
  8
GR2_01
 62
   234
370
    20
100
AcDbLine
 10
189.9760120911405
 20
250.6860877700624
 30
0.0
 11
190.8760120911405
 21
250.6860877700624
 31
0.0
  0
LINE
  5
1E9
330
1F
100
AcDbEntity
  8
GR2_01
 62
   234
370
    20
100
AcDbLine
 10
189.4760120911405
 20
251.6396270208264
 30
0.0
 11
189.8459735481623
 21
252.6560877700623
 31
0.0
  0
LINE
  5
1EA
330
1F
100
AcDbEntity
  8
GR2_01
 62
   234
370
    20
100
AcDbLine
 10
189.8708000051451
 20
249.8857309250252
 30
0.0
 11
190.2760120911404
 21
249.7382457871581
 31
0.0
  0
LINE
  5
1EB
330
1F
100
AcDbEntity
  8
GR2_01
 62
   234
370
    20
100
AcDbLine
 10
189.8459735481623
 20
252.6560877700623
 30
0.0
 11
192.2260120911405
 21
252.6560877700623
 31
0.0
  0
LINE
  5
1EC
330
1F
100
AcDbEntity
  8
GR2_01
 62
   234
370
    20
100
AcDbLine
 10
190.2760120911404
 20
250.3860877700624
 30
0.0
 11
192.2260120911405
 21
250.3860877700623
 31
0.0
  0
LINE
  5
1ED
330
1F
100
AcDbEntity
  8
GR2_01
 62
   234
370
    20
100
AcDbLine
 10
189.9760120911405
 20
249.8474368574379
 30
0.0
 11
189.9760120911405
 21
252.6560877700623
 31
0.0
  0
LINE
  5
1EE
330
1F
100
AcDbEntity
  8
GR2_01
 62
    94
370
    20
100
AcDbLine
 10
191.1760120911405
 20
252.6560877700623
 30
0.0
 11
191.1760120911404
 21
250.3860877700624
 31
0.0
  0
LINE
  5
1EF
330
1F
100
AcDbEntity
  8
GR2_01
 62
   234
370
    20
100
AcDbLine
 10
190.8760120911405
 20
244.7360877700624
 30
0.0
 11
190.8760120911405
 21
243.0660877700624
 31
0.0
  0
LINE
  5
1F0
330
1F
100
AcDbEntity
  8
GR2_01
 62
   234
370
    20
100
AcDbLine
 10
189.9760120911405
 20
244.7360877700624
 30
0.0
 11
190.8760120911405
 21
244.7360877700623
 31
0.0
  0
LINE
  5
1F1
330
1F
100
AcDbEntity
  8
GR2_01
 62
   234
370
    20
100
AcDbLine
 10
190.2760120911404
 20
242.7660877700624
 30
0.0
 11
190.2760120911403
 21
242.1182457871581
 31
0.0
  0
LINE
  5
1F2
330
1F
100
AcDbEntity
  8
GR2_01
 62
   234
370
    20
100
AcDbLine
 10
189.9760120911405
 20
243.0660877700623
 30
0.0
 11
190.8760120911405
 21
243.0660877700623
 31
0.0
  0
LINE
  5
1F3
330
1F
100
AcDbEntity
  8
GR2_01
 62
   234
370
    20
100
AcDbLine
 10
189.4760120911405
 20
244.0196270208264
 30
0.0
 11
189.8459735481623
 21
245.0360877700624
 31
0.0
  0
LINE
  5
1F4
330
1F
100
AcDbEntity
  8
GR2_01
 62
   234
370
    20
100
AcDbLine
 10
189.8708000051451
 20
242.2657309250253
 30
0.0
 11
190.2760120911404
 21
242.1182457871581
 31
0.0
  0
LINE
  5
1F5
330
1F
100
AcDbEntity
  8
GR2_01
 62
   234
370
    20
100
AcDbLine
 10
189.8459735481623
 20
245.0360877700624
 30
0.0
 11
192.2260120911405
 21
245.0360877700624
 31
0.0
  0
LINE
  5
1F6
330
1F
100
AcDbEntity
  8
GR2_01
 62
   234
370
    20
100
AcDbLine
 10
190.2760120911404
 20
242.7660877700624
 30
0.0
 11
192.2260120911405
 21
242.7660877700624
 31
0.0
  0
LINE
  5
1F7
330
1F
100
AcDbEntity
  8
GR2_01
 62
   234
370
    20
100
AcDbLine
 10
189.9760120911405
 20
242.2274368574378
 30
0.0
 11
189.9760120911405
 21
245.0360877700624
 31
0.0
  0
LINE
  5
1F8
330
1F
100
AcDbEntity
  8
GR2_01
 62
    94
370
    20
100
AcDbLine
 10
191.1760120911405
 20
245.0360877700624
 30
0.0
 11
191.1760120911404
 21
242.7660877700624
 31
0.0
  0
LINE
  5
1F9
330
1F
100
AcDbEntity
  8
GR2_01
 62
   234
370
    20
100
AcDbLine
 10
189.4760120911405
 20
197.1095464974968
 30
0.0
 11
189.4760120911405
 21
198.2996270208264
 31
0.0
  0
ARC
  5
1FA
330
1F
100
AcDbEntity
  8
GR2_01
 62
   234
370
    20
100
AcDbCircle
 10
190.0760120911405
 20
197.1095464974968
 30
0.0
 40
0.6
100
AcDbArc
 50
180.0
 51
250.0000000000008
  0
LINE
  5
1FB
330
1F
100
AcDbEntity
  8
GR2_01
 62
   234
370
    20
100
AcDbLine
 10
189.4760120911405
 20
204.7295464974968
 30
0.0
 11
189.4760120911405
 21
205.9196270208264
 31
0.0
  0
ARC
  5
1FC
330
1F
100
AcDbEntity
  8
GR2_01
 62
   234
370
    20
100
AcDbCircle
 10
190.0760120911405
 20
204.7295464974968
 30
0.0
 40
0.6
100
AcDbArc
 50
180.0
 51
250.0000000000008
  0
LINE
  5
1FD
330
1F
100
AcDbEntity
  8
GR2_01
 62
   234
370
    20
100
AcDbLine
 10
189.4760120911405
 20
212.3495464974968
 30
0.0
 11
189.4760120911405
 21
213.5396270208265
 31
0.0
  0
ARC
  5
1FE
330
1F
100
AcDbEntity
  8
GR2_01
 62
   234
370
    20
100
AcDbCircle
 10
190.0760120911405
 20
212.3495464974968
 30
0.0
 40
0.6
100
AcDbArc
 50
180.0
 51
250.0000000000008
  0
LINE
  5
1FF
330
1F
100
AcDbEntity
  8
GR2_01
 62
   234
370
    20
100
AcDbLine
 10
189.4760120911405
 20
219.9695464974968
 30
0.0
 11
189.4760120911405
 21
221.1596270208265
 31
0.0
  0
ARC
  5
200
330
1F
100
AcDbEntity
  8
GR2_01
 62
   234
370
    20
100
AcDbCircle
 10
190.0760120911405
 20
219.9695464974968
 30
0.0
 40
0.6
100
AcDbArc
 50
180.0
 51
250.0000000000008
  0
LINE
  5
201
330
1F
100
AcDbEntity
  8
GR2_01
 62
   234
370
    20
100
AcDbLine
 10
189.4760120911405
 20
227.5895464974968
 30
0.0
 11
189.4760120911405
 21
228.7796270208264
 31
0.0
  0
ARC
  5
202
330
1F
100
AcDbEntity
  8
GR2_01
 62
   234
370
    20
100
AcDbCircle
 10
190.0760120911405
 20
227.5895464974968
 30
0.0
 40
0.6
100
AcDbArc
 50
180.0
 51
250.0000000000008
  0
LINE
  5
203
330
1F
100
AcDbEntity
  8
GR2_01
 62
   234
370
    20
100
AcDbLine
 10
189.4760120911405
 20
235.2095464974968
 30
0.0
 11
189.4760120911405
 21
236.3996270208264
 31
0.0
  0
ARC
  5
204
330
1F
100
AcDbEntity
  8
GR2_01
 62
   234
370
    20
100
AcDbCircle
 10
190.0760120911405
 20
235.2095464974968
 30
0.0
 40
0.6
100
AcDbArc
 50
180.0
 51
250.0000000000008
  0
LINE
  5
205
330
1F
100
AcDbEntity
  8
GR2_01
 62
   234
370
    20
100
AcDbLine
 10
189.4760120911405
 20
242.8295464974968
 30
0.0
 11
189.4760120911405
 21
244.0196270208265
 31
0.0
  0
ARC
  5
206
330
1F
100
AcDbEntity
  8
GR2_01
 62
   234
370
    20
100
AcDbCircle
 10
190.0760120911405
 20
242.8295464974968
 30
0.0
 40
0.6
100
AcDbArc
 50
180.0
 51
250.0000000000008
  0
LINE
  5
207
330
1F
100
AcDbEntity
  8
GR2_01
 62
   234
370
    20
100
AcDbLine
 10
189.4760120911405
 20
250.4495464974968
 30
0.0
 11
189.4760120911405
 21
251.6396270208264
 31
0.0
  0
ARC
  5
208
330
1F
100
AcDbEntity
  8
GR2_01
 62
   234
370
    20
100
AcDbCircle
 10
190.0760120911405
 20
250.4495464974968
 30
0.0
 40
0.6
100
AcDbArc
 50
180.0
 51
250.0000000000008
  0
LINE
  5
209
330
1F
100
AcDbEntity
  8
GR2_01
 62
   234
370
    20
100
AcDbLine
 10
188.4760120911405
 20
191.2022166442114
 30
0.0
 11
188.4760120911405
 21
260.6710877700621
 31
0.0
  0
LINE
  5
20A
330
1F
100
AcDbEntity
  8
GR2_01
 62
   234
370
    20
100
AcDbLine
 10
198.7760120911405
 20
186.1710877700621
 30
0.0
 11
198.7760120911405
 21
257.1710877700621
 31
0.0
  0
ARC
  5
20B
330
1F
100
AcDbEntity
  8
GR2_01
 62
   234
370
    20
100
AcDbCircle
 10
194.7260120911405
 20
261.6710877700621
 30
0.0
 40
4.5
100
AcDbArc
 50
192.8395884069041
 51
270.0
  0
LINE
  5
20C
330
1F
100
AcDbEntity
  8
GR2_01
 62
   234
370
    20
100
AcDbLine
 10
194.7260120911405
 20
257.1710877700621
 30
0.0
 11
198.7760120911405
 21
257.1710877700621
 31
0.0
  0
LINE
  5
20D
330
1F
100
AcDbEntity
  8
GR2_01
 62
   234
370
    20
100
AcDbLine
 10
188.4760120911405
 20
260.6710877700621
 30
0.0
 11
190.3385298974444
 21
260.6710877700621
 31
0.0
  0
LINE
  5
20E
330
1F
100
AcDbEntity
  8
GR2_01
 62
    94
370
    20
100
AcDbLine
 10
68.54448377773792
 20
265.6710877700625
 30
0.0
 11
93.9444837777379
 21
265.6710877700623
 31
0.0
  0
ARC
  5
20F
330
1F
100
AcDbEntity
  8
GR2_01
 62
    94
370
    20
100
AcDbCircle
 10
93.9444837777379
 20
264.6710877700623
 30
0.0
 40
1.0
100
AcDbArc
 50
0.0
 51
90.0
  0
ARC
  5
210
330
1F
100
AcDbEntity
  8
GR2_01
 62
    94
370
    20
100
AcDbCircle
 10
68.54448377773792
 20
264.6710877700625
 30
0.0
 40
1.0
100
AcDbArc
 50
89.99999999999962
 51
180.0
  0
LINE
  5
211
330
1F
100
AcDbEntity
  8
GR2_01
 62
    94
370
    20
100
AcDbLine
 10
87.74448377773791
 20
131.5405765515389
 30
0.0
 11
87.24448377773791
 21
130.6745511477544
 31
0.0
  0
LINE
  5
212
330
1F
100
AcDbEntity
  8
GR2_01
 62
    94
370
    20
100
AcDbLine
 10
88.34448377773793
 20
131.5405765515389
 30
0.0
 11
88.84448377773793
 21
130.6745511477544
 31
0.0
  0
INSERT
  5
216
330
1F
100
AcDbEntity
  8
GR2_01
 62
    94
370
    20
100
AcDbBlockReference
  2
BLKF024
 10
0.0
 20
0.0
 30
0.0
  0
INSERT
  5
223
330
1F
100
AcDbEntity
  8
GR2_01
 62
    94
370
    20
100
AcDbBlockReference
  2
BLKF025
 10
0.0
 20
0.0
 30
0.0
  0
CIRCLE
  5
22D
330
1F
100
AcDbEntity
  8
GR2_01
 62
    94
370
    20
100
AcDbCircle
 10
72.24448377773791
 20
250.6710877700624
 30
0.0
 40
3.0
  0
CIRCLE
  5
22E
330
1F
100
AcDbEntity
  8
GR2_01
 62
    94
370
    20
100
AcDbCircle
 10
72.24448377773791
 20
180.6710877700623
 30
0.0
 40
3.0
  0
LINE
  5
22F
330
1F
100
AcDbEntity
  8
GR2_01
 62
    94
370
    20
100
AcDbLine
 10
94.9444837777379
 20
264.6710877700623
 30
0.0
 11
94.94448377773796
 21
164.6710877700623
 31
0.0
  0
LINE
  5
230
330
1F
100
AcDbEntity
  8
GR2_01
 62
    94
370
    20
100
AcDbLine
 10
67.54448377773792
 20
264.6710877700625
 30
0.0
 11
67.54448377773792
 21
164.6710877700623
 31
0.0
  0
LINE
  5
231
330
1F
100
AcDbEntity
  8
GR2_01
 62
    94
370
    20
100
AcDbLine
 10
68.54448377773792
 20
163.6710877700623
 30
0.0
 11
93.94448377773796
 21
163.6710877700623
 31
0.0
  0
ARC
  5
232
330
1F
100
AcDbEntity
  8
GR2_01
 62
    94
370
    20
100
AcDbCircle
 10
93.94448377773796
 20
164.6710877700623
 30
0.0
 40
1.0
100
AcDbArc
 50
270.0
 51
0.0
  0
ARC
  5
233
330
1F
100
AcDbEntity
  8
GR2_01
 62
    94
370
    20
100
AcDbCircle
 10
68.54448377773792
 20
164.6710877700623
 30
0.0
 40
1.0
100
AcDbArc
 50
180.0
 51
270.0
  0
CIRCLE
  5
234
330
1F
100
AcDbEntity
  8
GR2_01
 62
    94
370
    20
100
AcDbCircle
 10
72.24448377773791
 20
250.6710877700623
 30
0.0
 40
3.25
  0
CIRCLE
  5
235
330
1F
100
AcDbEntity
  8
GR2_01
 62
    94
370
    20
100
AcDbCircle
 10
72.24448377773791
 20
180.6710877700623
 30
0.0
 40
3.25
  0
LINE
  5
236
330
1F
100
AcDbEntity
  8
GR2_01
 62
    94
370
    20
100
AcDbLine
 10
93.24448377773786
 20
259.6710877700623
 30
0.0
 11
93.24448377773786
 21
173.4710877700623
 31
0.0
  0
LINE
  5
237
330
1F
100
AcDbEntity
  8
GR2_01
 62
    94
370
    20
100
AcDbLine
 10
76.94448377773824
 20
165.4710877700623
 30
0.0
 11
84.19448377773807
 21
165.4710877700623
 31
0.0
  0
LINE
  5
238
330
1F
100
AcDbEntity
  8
GR2_01
 62
    94
370
    20
100
AcDbLine
 10
86.54448377773804
 20
262.6710877700623
 30
0.0
 11
89.54448377773804
 21
262.6710877700623
 31
0.0
  0
ARC
  5
239
330
1F
100
AcDbEntity
  8
GR2_01
 62
    94
370
    20
100
AcDbCircle
 10
88.99448377773803
 20
168.6710877700623
 30
0.0
 40
4.5
100
AcDbArc
 50
90.0
 51
180.0
  0
LINE
  5
23A
330
1F
100
AcDbEntity
  8
GR2_01
 62
    94
370
    20
100
AcDbLine
 10
88.99448377773803
 20
173.1710877700623
 30
0.0
 11
92.9444837777379
 21
173.1710877700623
 31
0.0
  0
LINE
  5
23B
330
1F
100
AcDbEntity
  8
GR2_01
 62
    94
370
    20
100
AcDbLine
 10
84.49448377773803
 20
168.6710877700623
 30
0.0
 11
84.49448377773803
 21
165.7710877700623
 31
0.0
  0
CIRCLE
  5
23C
330
1F
100
AcDbEntity
  8
GR2_01
 62
    94
370
    20
100
AcDbCircle
 10
88.99448377773803
 20
168.6710877700623
 30
0.0
 40
2.0
  0
CIRCLE
  5
23D
330
1F
100
AcDbEntity
  8
GR2_01
 62
    94
370
    20
100
AcDbCircle
 10
88.99448377773803
 20
168.6710877700623
 30
0.0
 40
1.6
  0
CIRCLE
  5
23E
330
1F
100
AcDbEntity
  8
GR2_01
 62
    94
370
    20
100
AcDbCircle
 10
80.49448377773803
 20
260.6710877700623
 30
0.0
 40
2.0
  0
CIRCLE
  5
23F
330
1F
100
AcDbEntity
  8
GR2_01
 62
    94
370
    20
100
AcDbCircle
 10
80.49448377773803
 20
260.6710877700623
 30
0.0
 40
1.6
  0
ARC
  5
240
330
1F
100
AcDbEntity
  8
GR2_01
 62
    94
370
    20
100
AcDbCircle
 10
80.49448377773803
 20
260.6710877700623
 30
0.0
 40
4.3
100
AcDbArc
 50
270.0
 51
0.0
  0
LINE
  5
241
330
1F
100
AcDbEntity
  8
GR2_01
 62
    94
370
    20
100
AcDbLine
 10
84.79448377773798
 20
260.6710877700623
 30
0.0
 11
84.79448377773798
 21
263.5710877700623
 31
0.0
  0
LINE
  5
242
330
1F
100
AcDbEntity
  8
GR2_01
 62
    94
370
    20
100
AcDbLine
 10
80.49448377773803
 20
256.3710877700623
 30
0.0
 11
76.94448377773801
 21
256.3710877700623
 31
0.0
  0
LINE
  5
243
330
1F
100
AcDbEntity
  8
GR2_01
 62
    94
370
    20
100
AcDbLine
 10
90.54448377773781
 20
260.2710877700625
 30
0.0
 11
90.54448377773815
 21
263.5710877700622
 31
0.0
  0
LINE
  5
244
330
1F
100
AcDbEntity
  8
GR2_01
 62
    94
370
    20
100
AcDbLine
 10
90.84448377773799
 20
259.9710877700623
 30
0.0
 11
92.9444837777379
 21
259.9710877700623
 31
0.0
  0
ARC
  5
245
330
1F
100
AcDbEntity
  8
GR2_01
 62
    94
370
    20
100
AcDbCircle
 10
90.84448377773799
 20
260.2710877700624
 30
0.0
 40
0.3
100
AcDbArc
 50
179.9999999999892
 51
270.0
  0
ARC
  5
246
330
1F
100
AcDbEntity
  8
GR2_01
 62
    94
370
    20
100
AcDbCircle
 10
92.9444837777379
 20
259.6710877700623
 30
0.0
 40
0.3
100
AcDbArc
 50
0.0
 51
90.0
  0
ARC
  5
247
330
1F
100
AcDbEntity
  8
GR2_01
 62
    94
370
    20
100
AcDbCircle
 10
76.94448377773801
 20
256.0710877700623
 30
0.0
 40
0.3
100
AcDbArc
 50
90.0
 51
180.0
  0
ARC
  5
248
330
1F
100
AcDbEntity
  8
GR2_01
 62
    94
370
    20
100
AcDbCircle
 10
92.9444837777379
 20
173.4710877700623
 30
0.0
 40
0.3
100
AcDbArc
 50
270.0
 51
0.0
  0
ARC
  5
249
330
1F
100
AcDbEntity
  8
GR2_01
 62
    94
370
    20
100
AcDbCircle
 10
84.19448377773807
 20
165.7710877700623
 30
0.0
 40
0.3
100
AcDbArc
 50
270.0
 51
0.0
  0
ARC
  5
24A
330
1F
100
AcDbEntity
  8
GR2_01
 62
    94
370
    20
100
AcDbCircle
 10
76.94448377773824
 20
165.7710877700623
 30
0.0
 40
0.3
100
AcDbArc
 50
180.0
 51
270.0
  0
CIRCLE
  5
24B
330
1F
100
AcDbEntity
  8
GR2_01
 62
    94
370
    20
100
AcDbCircle
 10
88.99448377773803
 20
168.6710877700623
 30
0.0
 40
3.15
  0
CIRCLE
  5
24C
330
1F
100
AcDbEntity
  8
GR2_01
 62
    94
370
    20
100
AcDbCircle
 10
80.4944837777378
 20
260.6710877700622
 30
0.0
 40
3.15
  0
LINE
  5
24D
330
1F
100
AcDbEntity
  8
GR2_01
 62
    94
370
    20
100
AcDbLine
 10
86.54448377773798
 20
172.4127451568363
 30
0.0
 11
86.54448377773798
 21
187.6710877700622
 31
0.0
  0
LINE
  5
24E
330
1F
100
AcDbEntity
  8
GR2_01
 62
    94
370
    20
100
AcDbLine
 10
89.54448377773804
 20
173.1710877700623
 30
0.0
 11
89.54448377773804
 21
262.6710877700623
 31
0.0
  0
LINE
  5
24F
330
1F
100
AcDbEntity
  8
GR2_01
 62
    94
370
    20
100
AcDbLine
 10
76.64448377773806
 20
256.0710877700623
 30
0.0
 11
76.64448377773829
 21
165.7710877700623
 31
0.0
  0
LINE
  5
250
330
1F
100
AcDbEntity
  8
GR2_01
 62
    94
370
    20
100
AcDbLine
 10
85.09448377773799
 20
263.8710877700624
 30
0.0
 11
90.24448377773814
 21
263.8710877700623
 31
0.0
  0
ARC
  5
251
330
1F
100
AcDbEntity
  8
GR2_01
 62
    94
370
    20
100
AcDbCircle
 10
90.24448377773814
 20
263.5710877700622
 30
0.0
 40
0.3
100
AcDbArc
 50
359.9999999999946
 51
90.0
  0
ARC
  5
252
330
1F
100
AcDbEntity
  8
GR2_01
 62
    94
370
    20
100
AcDbCircle
 10
85.09448377773799
 20
263.5710877700623
 30
0.0
 40
0.3
100
AcDbArc
 50
89.99999999999726
 51
180.0
  0
LINE
  5
253
330
1F
100
AcDbEntity
  8
GR2_01
 62
    94
370
    20
100
AcDbLine
 10
181.0068285026876
 20
264.6710877700622
 30
0.0
 11
181.0068285026876
 21
164.6710877700624
 31
0.0
  0
LINE
  5
254
330
1F
100
AcDbEntity
  8
GR2_01
 62
    94
370
    20
100
AcDbLine
 10
208.4068285026875
 20
264.6710877700622
 30
0.0
 11
208.4068285026875
 21
164.6710877700623
 31
0.0
  0
CIRCLE
  5
255
330
1F
100
AcDbEntity
  8
GR2_01
 62
    94
370
    20
100
AcDbCircle
 10
202.7068285026875
 20
261.1710877700622
 30
0.0
 40
3.25
  0
ARC
  5
256
330
1F
100
AcDbEntity
  8
GR2_01
 62
    94
370
    20
100
AcDbCircle
 10
207.4068285026875
 20
264.6710877700622
 30
0.0
 40
1.0
100
AcDbArc
 50
0.0
 51
90.0
  0
ARC
  5
257
330
1F
100
AcDbEntity
  8
GR2_01
 62
    94
370
    20
100
AcDbCircle
 10
182.0068285026876
 20
264.6710877700622
 30
0.0
 40
1.0
100
AcDbArc
 50
90.0
 51
180.0
  0
LINE
  5
258
330
1F
100
AcDbEntity
  8
GR2_01
 62
    94
370
    20
100
AcDbLine
 10
182.0068285026876
 20
265.6710877700622
 30
0.0
 11
207.4068285026875
 21
265.6710877700622
 31
0.0
  0
CIRCLE
  5
259
330
1F
100
AcDbEntity
  8
GR2_01
 62
   234
370
    20
100
AcDbCircle
 10
203.7068285026876
 20
250.6710877700623
 30
0.0
 40
3.5
  0
CIRCLE
  5
25A
330
1F
100
AcDbEntity
  8
GR2_01
 62
   234
370
    20
100
AcDbCircle
 10
203.7068285026876
 20
180.6710877700623
 30
0.0
 40
3.5
  0
CIRCLE
  5
25B
330
1F
100
AcDbEntity
  8
GR2_01
 62
    94
370
    20
100
AcDbCircle
 10
203.7068285026875
 20
250.6710877700623
 30
0.0
 40
1.5
  0
CIRCLE
  5
25C
330
1F
100
AcDbEntity
  8
GR2_01
 62
    94
370
    20
100
AcDbCircle
 10
203.7068285026876
 20
180.6710877700623
 30
0.0
 40
1.5
  0
LINE
  5
25D
330
1F
100
AcDbEntity
  8
GR2_01
 62
    94
370
    20
100
AcDbLine
 10
189.7068285026875
 20
259.6710877700622
 30
0.0
 11
189.7068285026875
 21
265.6710877700625
 31
0.0
  0
LINE
  5
25E
330
1F
100
AcDbEntity
  8
GR2_01
 62
    94
370
    20
100
AcDbLine
 10
198.3068285026876
 20
265.6710877700625
 30
0.0
 11
198.3068285026876
 21
257.2810877700619
 31
0.0
  0
LINE
  5
25F
330
1F
100
AcDbEntity
  8
GR2_01
 62
    94
370
    20
100
AcDbLine
 10
208.4068285026875
 20
173.1710877700625
 30
0.0
 11
181.0068285026876
 21
173.1710877700625
 31
0.0
  0
LINE
  5
260
330
1F
100
AcDbEntity
  8
GR2_01
 62
    94
370
    20
100
AcDbLine
 10
182.4068285026874
 20
191.3710877700625
 30
0.0
 11
181.0068285026876
 21
191.3710877700625
 31
0.0
  0
INSERT
  5
264
330
1F
100
AcDbEntity
  8
GR2_01
 62
    94
370
    20
100
AcDbBlockReference
  2
BLKF026
 10
0.0
 20
0.0
 30
0.0
  0
LINE
  5
26E
330
1F
100
AcDbEntity
  8
GR2_01
 62
    94
370
    20
100
AcDbLine
 10
194.7068285026875
 20
257.2710877700619
 30
0.0
 11
199.5068285026877
 21
257.2710877700619
 31
0.0
  0
LINE
  5
26F
330
1F
100
AcDbEntity
  8
GR2_01
 62
    94
370
    20
100
AcDbLine
 10
199.5068285026877
 20
185.6710877700625
 30
0.0
 11
199.5068285026877
 21
257.2710877700619
 31
0.0
  0
LINE
  5
270
330
1F
100
AcDbEntity
  8
GR2_01
 62
    94
370
    20
100
AcDbLine
 10
187.7068285026875
 20
259.6710877700622
 30
0.0
 11
187.7068285026875
 21
185.6710877700625
 31
0.0
  0
LINE
  5
271
330
1F
100
AcDbEntity
  8
GR2_01
 62
    94
370
    20
100
AcDbLine
 10
190.8068285026875
 20
259.6710877700622
 30
0.0
 11
187.7068285026875
 21
259.6710877700622
 31
0.0
  0
LINE
  5
272
330
1F
100
AcDbEntity
  8
GR2_01
 62
    94
370
    20
100
AcDbLine
 10
199.5068285026877
 20
185.6710877700625
 30
0.0
 11
187.7068285026875
 21
185.6710877700625
 31
0.0
  0
ARC
  5
273
330
1F
100
AcDbEntity
  8
GR2_01
 62
    94
370
    20
100
AcDbCircle
 10
194.7260120911405
 20
261.6710877700622
 30
0.0
 40
4.4
100
AcDbArc
 50
207.0356917894131
 51
270.0
  0
LINE
  5
274
330
1F
100
AcDbEntity
  8
GR2_01
 62
    94
370
    20
100
AcDbLine
 10
197.1068285026875
 20
185.6710877700625
 30
0.0
 11
197.1068285026875
 21
173.1710877700625
 31
0.0
  0
LINE
  5
275
330
1F
100
AcDbEntity
  8
GR2_01
 62
    94
370
    20
100
AcDbLine
 10
182.4068285026874
 20
191.9710877700626
 30
0.0
 11
182.4068285026874
 21
183.3710877700625
 31
0.0
  0
LINE
  5
276
330
1F
100
AcDbEntity
  8
GR2_01
 62
    94
370
    20
100
AcDbLine
 10
190.0068285026875
 20
183.1710877700626
 30
0.0
 11
182.6068285026874
 21
183.1710877700625
 31
0.0
  0
LINE
  5
277
330
1F
100
AcDbEntity
  8
GR2_01
 62
    94
370
    20
100
AcDbLine
 10
190.2068285026875
 20
183.3710877700626
 30
0.0
 11
190.2068285026875
 21
185.6710877700625
 31
0.0
  0
LINE
  5
278
330
1F
100
AcDbEntity
  8
GR2_01
 62
    94
370
    20
100
AcDbLine
 10
187.7068285026875
 20
192.1710877700625
 30
0.0
 11
182.6068285026875
 21
192.1710877700625
 31
0.0
  0
ARC
  5
279
330
1F
100
AcDbEntity
  8
GR2_01
 62
    94
370
    20
100
AcDbCircle
 10
182.6068285026875
 20
191.9710877700626
 30
0.0
 40
0.2
100
AcDbArc
 50
90.0
 51
180.0
  0
ARC
  5
27A
330
1F
100
AcDbEntity
  8
GR2_01
 62
    94
370
    20
100
AcDbCircle
 10
182.6068285026874
 20
183.3710877700625
 30
0.0
 40
0.2
100
AcDbArc
 50
180.0
 51
270.0
  0
ARC
  5
27B
330
1F
100
AcDbEntity
  8
GR2_01
 62
    94
370
    20
100
AcDbCircle
 10
190.0068285026875
 20
183.3710877700626
 30
0.0
 40
0.2
100
AcDbArc
 50
270.0
 51
0.0
  0
LINE
  5
27C
330
1F
100
AcDbEntity
  8
GR2_01
 62
    94
370
    20
100
AcDbLine
 10
182.0068285026876
 20
163.6710877700624
 30
0.0
 11
207.4068285026875
 21
163.6710877700624
 31
0.0
  0
ARC
  5
27D
330
1F
100
AcDbEntity
  8
GR2_01
 62
    94
370
    20
100
AcDbCircle
 10
207.4068285026875
 20
164.6710877700623
 30
0.0
 40
1.0
100
AcDbArc
 50
270.0
 51
0.0
  0
ARC
  5
27E
330
1F
100
AcDbEntity
  8
GR2_01
 62
    94
370
    20
100
AcDbCircle
 10
182.0068285026876
 20
164.6710877700624
 30
0.0
 40
1.0
100
AcDbArc
 50
180.0
 51
270.0
  0
CIRCLE
  5
27F
330
1F
100
AcDbEntity
  8
GR2_01
 62
    94
370
    20
100
AcDbCircle
 10
202.6876449142345
 20
168.6710877700623
 30
0.0
 40
3.25
  0
INSERT
  5
283
330
1F
100
AcDbEntity
  8
GR2_01
 62
    94
370
    20
100
AcDbBlockReference
  2
BLKF027
 10
0.0
 20
0.0
 30
0.0
  0
LINE
  5
28D
330
1F
100
AcDbEntity
  8
GR2_01
 62
    94
370
    20
100
AcDbLine
 10
67.54448377773804
 20
115.1205765515389
 30
0.0
 11
67.54448377773804
 21
128.620576551539
 31
0.0
  0
LINE
  5
28E
330
1F
100
AcDbEntity
  8
GR2_01
 62
    94
370
    20
100
AcDbLine
 10
68.04448377773804
 20
129.120576551539
 30
0.0
 11
94.44448377773801
 21
129.1205765515389
 31
0.0
  0
LINE
  5
28F
330
1F
100
AcDbEntity
  8
GR2_01
 62
    94
370
    20
100
AcDbLine
 10
94.94448377773801
 20
115.1205765515389
 30
0.0
 11
94.94448377773801
 21
128.6205765515388
 31
0.0
  0
ARC
  5
290
330
1F
100
AcDbEntity
  8
GR2_01
 62
    94
370
    20
100
AcDbCircle
 10
94.44448377773801
 20
128.6205765515388
 30
0.0
 40
0.5
100
AcDbArc
 50
0.0
 51
90.0
  0
ARC
  5
291
330
1F
100
AcDbEntity
  8
GR2_01
 62
    94
370
    20
100
AcDbCircle
 10
68.04448377773804
 20
128.620576551539
 30
0.0
 40
0.5
100
AcDbArc
 50
90.0
 51
180.0
  0
LINE
  5
292
330
1F
100
AcDbEntity
  8
GR2_01
 62
    94
370
    20
100
AcDbLine
 10
67.54448377773798
 20
115.1205765515389
 30
0.0
 11
81.24448377773797
 21
115.1205765515389
 31
0.0
  0
LINE
  5
293
330
1F
100
AcDbEntity
  8
GR2_01
 62
    94
370
    20
100
AcDbLine
 10
68.04448377773792
 20
97.62057655153889
 30
0.0
 11
94.44448377773801
 21
97.6205765515389
 31
0.0
  0
LINE
  5
294
330
1F
100
AcDbEntity
  8
GR2_01
 62
    94
370
    20
100
AcDbLine
 10
67.54448377773792
 20
114.6205765515389
 30
0.0
 11
77.74448377773803
 21
114.6205765515389
 31
0.0
  0
LINE
  5
295
330
1F
100
AcDbEntity
  8
GR2_01
 62
    94
370
    20
100
AcDbLine
 10
68.43823377773788
 20
115.1205765515389
 30
0.0
 11
68.34448377773788
 21
114.6205765515389
 31
0.0
  0
LINE
  5
296
330
1F
100
AcDbEntity
  8
GR2_01
 62
    94
370
    20
100
AcDbLine
 10
94.05073377773795
 20
115.1205765515389
 30
0.0
 11
94.14448377773795
 21
114.6205765515389
 31
0.0
  0
LINE
  5
297
330
1F
100
AcDbEntity
  8
GR2_01
 62
    94
370
    20
100
AcDbLine
 10
67.54448377773792
 20
114.6205765515389
 30
0.0
 11
67.54448377773792
 21
98.12057655153889
 31
0.0
  0
LINE
  5
298
330
1F
100
AcDbEntity
  8
GR2_01
 62
    94
370
    20
100
AcDbLine
 10
94.94448377773801
 20
114.6205765515389
 30
0.0
 11
94.94448377773801
 21
98.12057655153892
 31
0.0
  0
ARC
  5
299
330
1F
100
AcDbEntity
  8
GR2_01
 62
    94
370
    20
100
AcDbCircle
 10
94.44448377773801
 20
98.12057655153892
 30
0.0
 40
0.5
100
AcDbArc
 50
270.0
 51
0.0
  0
ARC
  5
29A
330
1F
100
AcDbEntity
  8
GR2_01
 62
    94
370
    20
100
AcDbCircle
 10
68.04448377773792
 20
98.12057655153889
 30
0.0
 40
0.5
100
AcDbArc
 50
180.0
 51
270.0
  0
LINE
  5
29B
330
1F
100
AcDbEntity
  8
GR2_01
 62
    94
370
    20
100
AcDbLine
 10
88.84448377773799
 20
174.6910877700623
 30
0.0
 11
87.24448377773803
 21
174.6910877700623
 31
0.0
  0
LINE
  5
29C
330
1F
100
AcDbEntity
  8
GR2_01
 62
    94
370
    20
100
AcDbLine
 10
87.24448377773803
 20
174.6910877700623
 30
0.0
 11
87.24448377773803
 21
260.6910877700623
 31
0.0
  0
LINE
  5
29D
330
1F
100
AcDbEntity
  8
GR2_01
 62
    94
370
    20
100
AcDbLine
 10
88.84448377773799
 20
174.6910877700623
 30
0.0
 11
88.84448377773799
 21
260.6910877700623
 31
0.0
  0
LINE
  5
29E
330
1F
100
AcDbEntity
  8
GR2_01
 62
    94
370
    20
100
AcDbLine
 10
88.84448377773799
 20
260.6910877700623
 30
0.0
 11
87.24448377773803
 21
260.6910877700623
 31
0.0
  0
LINE
  5
29F
330
1F
100
AcDbEntity
  8
GR2_01
 62
    94
370
    20
100
AcDbLine
 10
69.04448377773792
 20
264.1710877700625
 30
0.0
 11
75.04448377773792
 21
264.1710877700625
 31
0.0
  0
LINE
  5
2A0
330
1F
100
AcDbEntity
  8
GR2_01
 62
    94
370
    20
100
AcDbLine
 10
75.04448377773792
 20
264.1710877700625
 30
0.0
 11
75.04448377773792
 21
256.1710877700625
 31
0.0
  0
LINE
  5
2A1
330
1F
100
AcDbEntity
  8
GR2_01
 62
    94
370
    20
100
AcDbLine
 10
75.04448377773792
 20
256.1710877700625
 30
0.0
 11
69.04448377773792
 21
256.1710877700625
 31
0.0
  0
LINE
  5
2A2
330
1F
100
AcDbEntity
  8
GR2_01
 62
    94
370
    20
100
AcDbLine
 10
69.04448377773792
 20
264.1710877700625
 30
0.0
 11
69.04448377773792
 21
256.1710877700625
 31
0.0
  0
DIMENSION
  5
2A3
330
1F
100
AcDbEntity
  8
GR2_01
 62
     5
370
    20
100
AcDbDimension
  2
*D25
 10
110.1151962010945
 20
265.6710877700623
 30
0.0
 11
109.1151962280273
 21
214.6710815429688
 31
0.0
 70
    33
 71
     5
 42
-1.0
  3
FX_DIMINFO
100
AcDbAlignedDimension
 13
93.94448377773796
 23
163.6710877700623
 33
0.0
 14
93.9444837777379
 24
265.6710877700623
 34
0.0
1001
ACAD
1000
DSTYLE
1002
{
1070
   173
1070
     1
1070
   344
1005
74
1070
   343
1005
6E
1070
   178
1070
    94
1002
}
  0
DIMENSION
  5
2AD
330
1F
100
AcDbEntity
  8
GR2_01
 62
     5
370
    20
100
AcDbDimension
  2
*D26
 10
94.94448377773796
 20
141.3122109158186
 30
0.0
 11
81.24446868896484
 21
142.3122253417969
 31
0.0
 70
    33
 71
     5
 42
-1.0
  3
FX_DIMINFO
100
AcDbAlignedDimension
 13
67.54448377773792
 23
164.6710877700623
 33
0.0
 14
94.94448377773796
 24
164.6710877700623
 34
0.0
1001
ACAD
1000
DSTYLE
1002
{
1070
   173
1070
     1
1070
   344
1005
74
1070
   343
1005
6E
1070
   178
1070
    94
1002
}
  0
LINE
  5
2B7
330
1F
100
AcDbEntity
  8
GR2_01
 62
    94
370
    20
100
AcDbLine
 10
140.6656898200491
 20
243.1710877700622
 30
0.0
 11
140.6656898200491
 21
186.1710877700624
 31
0.0
  0
ARC
  5
2B8
330
1F
100
AcDbEntity
  8
GR2_01
 62
    94
370
    20
100
AcDbCircle
 10
140.1656898200491
 20
243.1710877700622
 30
0.0
 40
0.5
100
AcDbArc
 50
0.0
 51
90.0
  0
LINE
  5
2B9
330
1F
100
AcDbEntity
  8
GR2_01
 62
    94
370
    20
100
AcDbLine
 10
87.74448377773803
 20
102.9205765515393
 30
0.0
 11
77.74448377773803
 21
102.9205765515393
 31
0.0
  0
LINE
  5
2BA
330
1F
100
AcDbEntity
  8
GR2_01
 62
    94
370
    20
100
AcDbLine
 10
77.74448377773803
 20
115.1205765515389
 30
0.0
 11
77.74448377773803
 21
102.9205765515393
 31
0.0
  0
LINE
  5
2BB
330
1F
100
AcDbEntity
  8
GR2_01
 62
    94
370
    20
100
AcDbLine
 10
87.74448377773803
 20
102.9205765515393
 30
0.0
 11
87.74448377773803
 21
115.1205765515389
 31
0.0
  0
LINE
  5
2BC
330
1F
100
AcDbEntity
  8
GR2_01
 62
    94
370
    20
100
AcDbLine
 10
144.415689820049
 20
252.1710877700626
 30
0.0
 11
144.415689820049
 21
242.1710877700627
 31
0.0
  0
LINE
  5
2BD
330
1F
100
AcDbEntity
  8
GR2_01
 62
    94
370
    20
100
AcDbLine
 10
144.415689820049
 20
242.1710877700627
 30
0.0
 11
146.415689820049
 21
242.1710877700627
 31
0.0
  0
LINE
  5
2BE
330
1F
100
AcDbEntity
  8
GR2_01
 62
    94
370
    20
100
AcDbLine
 10
146.415689820049
 20
242.1710877700627
 30
0.0
 11
146.415689820049
 21
252.1710877700626
 31
0.0
  0
LINE
  5
2BF
330
1F
100
AcDbEntity
  8
GR2_01
 62
    94
370
    20
100
AcDbLine
 10
146.415689820049
 20
252.1710877700626
 30
0.0
 11
144.415689820049
 21
252.1710877700626
 31
0.0
  0
LINE
  5
2C0
330
1F
100
AcDbEntity
  8
GR2_01
 62
    94
370
    20
100
AcDbLine
 10
144.415689820049
 20
187.1710877700627
 30
0.0
 11
144.415689820049
 21
177.1710877700627
 31
0.0
  0
LINE
  5
2C1
330
1F
100
AcDbEntity
  8
GR2_01
 62
    94
370
    20
100
AcDbLine
 10
144.415689820049
 20
177.1710877700627
 30
0.0
 11
146.415689820049
 21
177.1710877700627
 31
0.0
  0
LINE
  5
2C2
330
1F
100
AcDbEntity
  8
GR2_01
 62
    94
370
    20
100
AcDbLine
 10
146.415689820049
 20
177.1710877700627
 30
0.0
 11
146.415689820049
 21
187.1710877700627
 31
0.0
  0
LINE
  5
2C3
330
1F
100
AcDbEntity
  8
GR2_01
 62
    94
370
    20
100
AcDbLine
 10
146.415689820049
 20
187.1710877700627
 30
0.0
 11
144.415689820049
 21
187.1710877700627
 31
0.0
  0
LINE
  5
2C4
330
1F
100
AcDbEntity
  8
GR2_01
 62
    94
370
    20
100
AcDbLine
 10
142.4156898200491
 20
265.6710877700625
 30
0.0
 11
158.9156898200491
 21
265.6710877700625
 31
0.0
  0
LINE
  5
2C5
330
1F
100
AcDbEntity
  8
GR2_01
 62
    94
370
    20
100
AcDbLine
 10
142.4156898200491
 20
163.6710877700623
 30
0.0
 11
158.915689820049
 21
163.6710877700623
 31
0.0
  0
LINE
  5
2C6
330
1F
100
AcDbEntity
  8
GR2_01
 62
    94
370
    20
100
AcDbLine
 10
129.6656898200491
 20
243.1710877700623
 30
0.0
 11
129.6656898200491
 21
186.1710877700623
 31
0.0
  0
LINE
  5
2C7
330
1F
100
AcDbEntity
  8
GR2_01
 62
    94
370
    20
100
AcDbLine
 10
130.1656898200491
 20
185.6710877700623
 30
0.0
 11
140.1656898200491
 21
185.6710877700623
 31
0.0
  0
LINE
  5
2C8
330
1F
100
AcDbEntity
  8
GR2_01
 62
    94
370
    20
100
AcDbLine
 10
130.1656898200491
 20
243.6710877700623
 30
0.0
 11
140.1656898200491
 21
243.6710877700622
 31
0.0
  0
ARC
  5
2C9
330
1F
100
AcDbEntity
  8
GR2_01
 62
    94
370
    20
100
AcDbCircle
 10
130.1656898200491
 20
243.1710877700623
 30
0.0
 40
0.5
100
AcDbArc
 50
90.0
 51
180.0
  0
ARC
  5
2CA
330
1F
100
AcDbEntity
  8
GR2_01
 62
    94
370
    20
100
AcDbCircle
 10
140.1656898200491
 20
186.1710877700624
 30
0.0
 40
0.5
100
AcDbArc
 50
270.0
 51
0.0
  0
ARC
  5
2CB
330
1F
100
AcDbEntity
  8
GR2_01
 62
    94
370
    20
100
AcDbCircle
 10
130.1656898200491
 20
186.1710877700623
 30
0.0
 40
0.5
100
AcDbArc
 50
180.0
 51
270.0
  0
LINE
  5
2CC
330
1F
100
AcDbEntity
  8
GR2_01
 62
    94
370
    20
100
AcDbLine
 10
79.54448377773804
 20
191.6710877700623
 30
0.0
 11
79.54448377773804
 21
237.6710877700622
 31
0.0
  0
LINE
  5
2CD
330
1F
100
AcDbEntity
  8
GR2_01
 62
    94
370
    20
100
AcDbLine
 10
84.54448377773798
 20
239.6710877700622
 30
0.0
 11
81.54448377773804
 21
239.6710877700622
 31
0.0
  0
LINE
  5
2CE
330
1F
100
AcDbEntity
  8
GR2_01
 62
    94
370
    20
100
AcDbLine
 10
81.54448377773804
 20
189.6710877700623
 30
0.0
 11
84.54448377773804
 21
189.6710877700622
 31
0.0
  0
ARC
  5
2CF
330
1F
100
AcDbEntity
  8
GR2_01
 62
    94
370
    20
100
AcDbCircle
 10
81.54448377773804
 20
237.6710877700622
 30
0.0
 40
2.0
100
AcDbArc
 50
89.99999999999962
 51
180.0
  0
ARC
  5
2D0
330
1F
100
AcDbEntity
  8
GR2_01
 62
    94
370
    20
100
AcDbCircle
 10
81.54448377773804
 20
191.6710877700623
 30
0.0
 40
2.0
100
AcDbArc
 50
180.0
 51
269.9999999999996
  0
LINE
  5
2D1
330
1F
100
AcDbEntity
  8
GR2_01
 62
    94
370
    20
100
AcDbLine
 10
86.54448377773798
 20
241.6710877700622
 30
0.0
 11
86.54448377773804
 21
262.6710877700623
 31
0.0
  0
ARC
  5
2D2
330
1F
100
AcDbEntity
  8
GR2_01
 62
    94
370
    20
100
AcDbCircle
 10
84.54448377773798
 20
241.6710877700622
 30
0.0
 40
2.0
100
AcDbArc
 50
269.9999999999996
 51
0.0
  0
ARC
  5
2D3
330
1F
100
AcDbEntity
  8
GR2_01
 62
    94
370
    20
100
AcDbCircle
 10
84.54448377773798
 20
187.6710877700622
 30
0.0
 40
2.0
100
AcDbArc
 50
0.0
 51
89.99999999999962
  0
LINE
  5
2D4
330
1F
100
AcDbEntity
  8
GR2_01
 62
    94
370
    20
100
AcDbLine
 10
87.74448377773803
 20
114.6205765515389
 30
0.0
 11
94.94448377773801
 21
114.6205765515389
 31
0.0
  0
INSERT
  5
2D8
330
1F
100
AcDbEntity
  8
GR2_01
 62
    94
370
    20
100
AcDbBlockReference
  2
BLKF030
 10
0.0
 20
0.0
 30
0.0
  0
LINE
  5
2F5
330
1F
100
AcDbEntity
  8
GR2_01
 62
    94
370
    20
100
AcDbLine
 10
79.54448377773804
 20
117.4205765515391
 30
0.0
 11
79.54448377773804
 21
116.4205765515391
 31
0.0
  0
LINE
  5
2F6
330
1F
100
AcDbEntity
  8
GR2_01
 62
    94
370
    20
100
AcDbLine
 10
85.94448377773801
 20
117.4205765515391
 30
0.0
 11
85.94448377773801
 21
116.4205765515391
 31
0.0
  0
LINE
  5
2F7
330
1F
100
AcDbEntity
  8
GR2_01
 62
    94
370
    20
100
AcDbLine
 10
85.94448377773801
 20
117.4205765515391
 30
0.0
 11
79.54448377773804
 21
117.4205765515391
 31
0.0
  0
INSERT
  5
2FB
330
1F
100
AcDbEntity
  8
GR2_01
 62
    94
370
    20
100
AcDbBlockReference
  2
BLKF032
 10
0.0
 20
0.0
 30
0.0
  0
LINE
  5
307
330
1F
100
AcDbEntity
  8
GR2_01
 62
    94
370
    20
100
AcDbLine
 10
84.24448377773803
 20
115.1205765515389
 30
0.0
 11
94.94448377773801
 21
115.1205765515389
 31
0.0
  0
CIRCLE
  5
308
330
1F
100
AcDbEntity
  8
GR2_01
 62
    94
370
    20
100
AcDbCircle
 10
193.2260120911404
 20
155.6710877700623
 30
0.0
 40
1.5
  0
CIRCLE
  5
309
330
1F
100
AcDbEntity
  8
GR2_01
 62
     5
370
    20
100
AcDbCircle
 10
193.2260120911404
 20
155.6710877700623
 30
0.0
 40
1.199999999999989
  0
INSERT
  5
30D
330
1F
100
AcDbEntity
  8
GR2_01
 62
    94
370
    20
100
AcDbBlockReference
  2
BLKF033
 10
0.0
 20
0.0
 30
0.0
  0
LINE
  5
314
330
1F
100
AcDbEntity
  8
GR2_01
 62
    94
370
    20
100
AcDbLine
 10
196.9260120911404
 20
162.6710877700623
 30
0.0
 11
189.5260120911404
 21
162.6710877700623
 31
0.0
  0
INSERT
  5
318
330
1F
100
AcDbEntity
  8
GR2_01
 62
    94
370
    20
100
AcDbBlockReference
  2
BLKF034
 10
0.0
 20
0.0
 30
0.0
  0
LINE
  5
31D
330
1F
100
AcDbEntity
  8
GR2_01
 62
    94
370
    20
100
AcDbLine
 10
189.5260120911404
 20
162.6710877700623
 30
0.0
 11
189.5260120911404
 21
163.6710877700624
 31
0.0
  0
LINE
  5
31E
330
1F
100
AcDbEntity
  8
GR2_01
 62
    94
370
    20
100
AcDbLine
 10
196.9260120911404
 20
162.6710877700623
 30
0.0
 11
196.9260120911404
 21
163.6710877700624
 31
0.0
  0
INSERT
  5
322
330
1F
100
AcDbEntity
  8
GR2_01
 62
    94
370
    20
100
AcDbBlockReference
  2
BLKF035
 10
0.0
 20
0.0
 30
0.0
  0
LINE
  5
327
330
1F
100
AcDbEntity
  8
GR2_01
 62
    94
370
    20
100
AcDbLine
 10
79.54448377773804
 20
158.8710877700623
 30
0.0
 11
85.94448377773801
 21
158.8710877700623
 31
0.0
  0
LINE
  5
328
330
1F
100
AcDbEntity
  8
GR2_01
 62
    94
370
    20
100
AcDbLine
 10
85.94448377773801
 20
152.4710877700623
 30
0.0
 11
85.94448377773801
 21
158.8710877700623
 31
0.0
  0
LINE
  5
329
330
1F
100
AcDbEntity
  8
GR2_01
 62
    94
370
    20
100
AcDbLine
 10
85.94448377773801
 20
152.4710877700623
 30
0.0
 11
79.54448377773804
 21
152.4710877700623
 31
0.0
  0
LINE
  5
32A
330
1F
100
AcDbEntity
  8
GR2_01
 62
    94
370
    20
100
AcDbLine
 10
79.54448377773804
 20
152.4710877700623
 30
0.0
 11
79.54448377773804
 21
158.8710877700623
 31
0.0
  0
CIRCLE
  5
32B
330
1F
100
AcDbEntity
  8
GR2_01
 62
    94
370
    20
100
AcDbCircle
 10
82.74448377773803
 20
155.4797990581229
 30
0.0
 40
2.75
  0
LINE
  5
32C
330
1F
100
AcDbEntity
  8
GR2_01
 62
    94
370
    20
100
AcDbLine
 10
80.97666755024221
 20
154.9555607670735
 30
0.0
 11
80.9210199189738
 21
155.7536230084646
 31
0.0
  0
LINE
  5
32D
330
1F
100
AcDbEntity
  8
GR2_01
 62
    94
370
    20
100
AcDbLine
 10
82.22024548668861
 20
157.2476152856188
 30
0.0
 11
83.01830772807978
 21
157.3032629168871
 31
0.0
  0
LINE
  5
32E
330
1F
100
AcDbEntity
  8
GR2_01
 62
    94
370
    20
100
AcDbLine
 10
84.56794763650225
 20
155.2059751077812
 30
0.0
 11
84.51230000523384
 21
156.0040373491723
 31
0.0
  0
LINE
  5
32F
330
1F
100
AcDbEntity
  8
GR2_01
 62
    94
370
    20
100
AcDbLine
 10
82.47065982739628
 20
153.6563351993587
 30
0.0
 11
83.26872206878744
 21
153.7119828306271
 31
0.0
  0
ARC
  5
330
330
1F
100
AcDbEntity
  8
GR2_01
 62
    94
370
    20
100
AcDbCircle
 10
80.82363656425412
 20
157.1502319308991
 30
0.0
 40
1.400000000000006
100
AcDbArc
 50
273.988689
 51
3.988689000000039
  0
ARC
  5
331
330
1F
100
AcDbEntity
  8
GR2_01
 62
    94
370
    20
100
AcDbCircle
 10
81.07405090496184
 20
153.558951844639
 30
0.0
 40
1.400000000000006
100
AcDbArc
 50
3.988688999999993
 51
93.98868899999998
  0
ARC
  5
332
330
1F
100
AcDbEntity
  8
GR2_01
 62
    94
370
    20
100
AcDbCircle
 10
84.66533099122194
 20
153.8093661853467
 30
0.0
 40
1.400000000000006
100
AcDbArc
 50
93.98868899999998
 51
183.988689
  0
ARC
  5
333
330
1F
100
AcDbEntity
  8
GR2_01
 62
    94
370
    20
100
AcDbCircle
 10
84.41491665051421
 20
157.4006462716068
 30
0.0
 40
1.400000000000006
100
AcDbArc
 50
183.988689
 51
273.988689
  0
LINE
  5
334
330
1F
100
AcDbEntity
  8
GR2_01
 62
    94
370
    20
100
AcDbLine
 10
79.04448377773804
 20
162.6710877700623
 30
0.0
 11
86.44448377773801
 21
162.6710877700623
 31
0.0
  0
LINE
  5
335
330
1F
100
AcDbEntity
  8
GR2_01
 62
    94
370
    20
100
AcDbLine
 10
78.24448377773803
 20
152.1710877700623
 30
0.0
 11
87.24448377773808
 21
152.1710877700623
 31
0.0
  0
LINE
  5
336
330
1F
100
AcDbEntity
  8
GR2_01
 62
    94
370
    20
100
AcDbLine
 10
78.24448377773803
 20
163.6710877700623
 30
0.0
 11
78.24448377773803
 21
162.6710877700623
 31
0.0
  0
LINE
  5
337
330
1F
100
AcDbEntity
  8
GR2_01
 62
    94
370
    20
100
AcDbLine
 10
79.04448377773804
 20
163.6710877700623
 30
0.0
 11
79.04448377773804
 21
152.1710877700623
 31
0.0
  0
LINE
  5
338
330
1F
100
AcDbEntity
  8
GR2_01
 62
    94
370
    20
100
AcDbLine
 10
87.24448377773803
 20
163.6710877700623
 30
0.0
 11
87.24448377773803
 21
162.6710877700623
 31
0.0
  0
LINE
  5
339
330
1F
100
AcDbEntity
  8
GR2_01
 62
    94
370
    20
100
AcDbLine
 10
86.44448377773801
 20
163.6710877700623
 30
0.0
 11
86.44448377773801
 21
152.1710877700623
 31
0.0
  0
ARC
  5
33A
330
1F
100
AcDbEntity
  8
GR2_01
 62
    94
370
    20
100
AcDbCircle
 10
86.44448377773801
 20
162.6710877700623
 30
0.0
 40
0.8
100
AcDbArc
 50
270.0
 51
0.0
  0
ARC
  5
33B
330
1F
100
AcDbEntity
  8
GR2_01
 62
    94
370
    20
100
AcDbCircle
 10
79.04448377773804
 20
162.6710877700623
 30
0.0
 40
0.8
100
AcDbArc
 50
180.0
 51
270.0
  0
LINE
  5
33C
330
1F
100
AcDbEntity
  8
GR2_01
 62
    94
370
    20
100
AcDbLine
 10
87.24448377773808
 20
160.8710877700623
 30
0.0
 11
87.24448377773803
 21
152.1710877700623
 31
0.0
  0
LINE
  5
33D
330
1F
100
AcDbEntity
  8
GR2_01
 62
    94
370
    20
100
AcDbLine
 10
78.24448377773803
 20
160.8710877700623
 30
0.0
 11
78.24448377773803
 21
152.1710877700623
 31
0.0
  0
LINE
  5
33E
330
1F
100
AcDbEntity
  8
GR2_01
 62
    94
370
    20
100
AcDbLine
 10
78.24448377773803
 20
160.8710877700623
 30
0.0
 11
79.04448377773804
 21
160.8710877700623
 31
0.0
  0
LINE
  5
33F
330
1F
100
AcDbEntity
  8
GR2_01
 62
    94
370
    20
100
AcDbLine
 10
86.44448377773801
 20
160.8710877700623
 30
0.0
 11
87.24448377773808
 21
160.8710877700623
 31
0.0
  0
LINE
  5
340
330
1F
100
AcDbEntity
  8
GR2_01
 62
    94
370
    20
100
AcDbLine
 10
159.415689820049
 20
164.1710877700623
 30
0.0
 11
159.4156898200491
 21
173.1710877700627
 31
0.0
  0
LINE
  5
341
330
1F
100
AcDbEntity
  8
GR2_01
 62
    94
370
    20
100
AcDbLine
 10
142.4156898200491
 20
265.6710877700625
 30
0.0
 11
142.4156898200491
 21
163.6710877700628
 31
0.0
  0
LINE
  5
342
330
1F
100
AcDbEntity
  8
GR2_01
 62
    94
370
    20
100
AcDbLine
 10
141.9156898200491
 20
264.7773377700625
 30
0.0
 11
142.4156898200491
 21
264.8710877700625
 31
0.0
  0
LINE
  5
343
330
1F
100
AcDbEntity
  8
GR2_01
 62
    94
370
    20
100
AcDbLine
 10
141.9156898200491
 20
199.1710877700629
 30
0.0
 11
142.4156898200491
 21
199.1710877700629
 31
0.0
  0
LINE
  5
344
330
1F
100
AcDbEntity
  8
GR2_01
 62
    94
370
    20
100
AcDbLine
 10
141.9156898200491
 20
208.1710877700629
 30
0.0
 11
142.4156898200491
 21
208.1710877700629
 31
0.0
  0
LINE
  5
345
330
1F
100
AcDbEntity
  8
GR2_01
 62
    94
370
    20
100
AcDbLine
 10
141.9156898200491
 20
222.6710877700629
 30
0.0
 11
142.4156898200491
 21
222.6710877700629
 31
0.0
  0
LINE
  5
346
330
1F
100
AcDbEntity
  8
GR2_01
 62
    94
370
    20
100
AcDbLine
 10
141.9156898200491
 20
231.6710877700629
 30
0.0
 11
142.4156898200491
 21
231.6710877700629
 31
0.0
  0
LINE
  5
347
330
1F
100
AcDbEntity
  8
GR2_01
 62
    94
370
    20
100
AcDbLine
 10
159.4156898200491
 20
173.1710877700627
 30
0.0
 11
157.815689820049
 21
173.1710877700627
 31
0.0
  0
LINE
  5
348
330
1F
100
AcDbEntity
  8
GR2_01
 62
    94
370
    20
100
AcDbLine
 10
157.8156898200491
 20
173.1710877700627
 30
0.0
 11
157.8156898200491
 21
191.371087770063
 31
0.0
  0
LINE
  5
349
330
1F
100
AcDbEntity
  8
GR2_01
 62
    94
370
    20
100
AcDbLine
 10
159.4156898200491
 20
191.371087770063
 30
0.0
 11
157.8156898200491
 21
191.371087770063
 31
0.0
  0
LINE
  5
34A
330
1F
100
AcDbEntity
  8
GR2_01
 62
    94
370
    20
100
AcDbLine
 10
159.4156898200491
 20
191.3710877700629
 30
0.0
 11
159.4156898200491
 21
265.1710877700625
 31
0.0
  0
LINE
  5
34B
330
1F
100
AcDbEntity
  8
GR2_01
 62
    94
370
    20
100
AcDbLine
 10
141.915689820049
 20
164.5648377700628
 30
0.0
 11
142.4156898200491
 21
164.4710877700628
 31
0.0
  0
LINE
  5
34C
330
1F
100
AcDbEntity
  8
GR2_01
 62
    94
370
    20
100
AcDbLine
 10
142.4156898200491
 20
186.6710877700627
 30
0.0
 11
141.9156898200491
 21
186.6710877700627
 31
0.0
  0
LINE
  5
34D
330
1F
100
AcDbEntity
  8
GR2_01
 62
    94
370
    20
100
AcDbLine
 10
142.4156898200491
 20
177.6710877700627
 30
0.0
 11
141.9156898200491
 21
177.6710877700627
 31
0.0
  0
LINE
  5
34E
330
1F
100
AcDbEntity
  8
GR2_01
 62
    94
370
    20
100
AcDbLine
 10
142.4156898200491
 20
251.6710877700626
 30
0.0
 11
141.9156898200491
 21
251.6710877700626
 31
0.0
  0
LINE
  5
34F
330
1F
100
AcDbEntity
  8
GR2_01
 62
    94
370
    20
100
AcDbLine
 10
142.4156898200491
 20
242.6710877700627
 30
0.0
 11
141.9156898200491
 21
242.6710877700627
 31
0.0
  0
ARC
  5
350
330
1F
100
AcDbEntity
  8
GR2_01
 62
    94
370
    20
100
AcDbCircle
 10
158.9156898200491
 20
265.1710877700625
 30
0.0
 40
0.5
100
AcDbArc
 50
0.0
 51
90.0
  0
ARC
  5
351
330
1F
100
AcDbEntity
  8
GR2_01
 62
    94
370
    20
100
AcDbCircle
 10
158.915689820049
 20
164.1710877700623
 30
0.0
 40
0.5
100
AcDbArc
 50
270.0
 51
0.0
  0
LINE
  5
352
330
1F
100
AcDbEntity
  8
GR2_01
 62
    94
370
    20
100
AcDbLine
 10
125.4956898200486
 20
176.6910877700624
 30
0.0
 11
125.4956898200497
 21
258.6910877700624
 31
0.0
  0
LINE
  5
353
330
1F
100
AcDbEntity
  8
GR2_01
 62
    94
370
    20
100
AcDbLine
 10
127.4956898200497
 20
260.6910877700624
 30
0.0
 11
125.4956898200497
 21
258.6910877700624
 31
0.0
  0
LINE
  5
354
330
1F
100
AcDbEntity
  8
GR2_01
 62
    94
370
    20
100
AcDbLine
 10
127.4956898200486
 20
174.6910877700624
 30
0.0
 11
125.4956898200486
 21
176.6910877700624
 31
0.0
  0
LINE
  5
355
330
1F
100
AcDbEntity
  8
GR2_01
 62
    94
370
    20
100
AcDbLine
 10
127.915689820049
 20
260.6910877700624
 30
0.0
 11
127.4956898200497
 21
260.6910877700624
 31
0.0
  0
LINE
  5
356
330
1F
100
AcDbEntity
  8
GR2_01
 62
    94
370
    20
100
AcDbLine
 10
127.915689820049
 20
174.6910877700624
 30
0.0
 11
127.4956898200486
 21
174.6910877700624
 31
0.0
  0
LINE
  5
357
330
1F
100
AcDbEntity
  8
GR2_01
 62
    94
370
    20
100
AcDbLine
 10
127.915689820049
 20
265.1710877700625
 30
0.0
 11
127.915689820049
 21
164.1710877700625
 31
0.0
  0
LINE
  5
358
330
1F
100
AcDbEntity
  8
GR2_01
 62
    94
370
    20
100
AcDbLine
 10
141.9156898200491
 20
265.6710877700625
 30
0.0
 11
141.915689820049
 21
163.6710877700625
 31
0.0
  0
LINE
  5
359
330
1F
100
AcDbEntity
  8
GR2_01
 62
    94
370
    20
100
AcDbLine
 10
128.415689820049
 20
163.6710877700625
 30
0.0
 11
141.915689820049
 21
163.6710877700625
 31
0.0
  0
LINE
  5
35A
330
1F
100
AcDbEntity
  8
GR2_01
 62
    94
370
    20
100
AcDbLine
 10
141.9156898200491
 20
265.6710877700625
 30
0.0
 11
128.415689820049
 21
265.6710877700625
 31
0.0
  0
ARC
  5
35B
330
1F
100
AcDbEntity
  8
GR2_01
 62
    94
370
    20
100
AcDbCircle
 10
128.415689820049
 20
265.1710877700625
 30
0.0
 40
0.5
100
AcDbArc
 50
90.0
 51
180.0
  0
ARC
  5
35C
330
1F
100
AcDbEntity
  8
GR2_01
 62
    94
370
    20
100
AcDbCircle
 10
128.415689820049
 20
164.1710877700625
 30
0.0
 40
0.5
100
AcDbArc
 50
180.0
 51
270.0
  0
LINE
  5
35D
330
1F
100
AcDbEntity
  8
GR2_01
 62
    94
370
    20
100
AcDbLine
 10
144.6156898200486
 20
162.6710877700623
 30
0.0
 11
144.6156898200486
 21
163.6710877700623
 31
0.0
  0
LINE
  5
35E
330
1F
100
AcDbEntity
  8
GR2_01
 62
    94
370
    20
100
AcDbLine
 10
152.9156898200486
 20
163.6710877700623
 30
0.0
 11
152.9156898200486
 21
161.8710877700624
 31
0.0
  0
LINE
  5
35F
330
1F
100
AcDbEntity
  8
GR2_01
 62
    94
370
    20
100
AcDbLine
 10
142.4156898200487
 20
161.8710877700622
 30
0.0
 11
152.9156898200487
 21
161.8710877700624
 31
0.0
  0
LINE
  5
360
330
1F
100
AcDbEntity
  8
GR2_01
 62
    94
370
    20
100
AcDbLine
 10
137.6156898200487
 20
160.3710877700622
 30
0.0
 11
137.6156898200488
 21
152.6710877700622
 31
0.0
  0
LINE
  5
361
330
1F
100
AcDbEntity
  8
GR2_01
 62
    94
370
    20
100
AcDbLine
 10
138.1156898200488
 20
152.1710877700622
 30
0.0
 11
141.4156898200488
 21
152.1710877700622
 31
0.0
  0
LINE
  5
362
330
1F
100
AcDbEntity
  8
GR2_01
 62
    94
370
    20
100
AcDbLine
 10
138.1156898200487
 20
160.8710877700622
 30
0.0
 11
141.4156898200487
 21
160.8710877700622
 31
0.0
  0
LINE
  5
363
330
1F
100
AcDbEntity
  8
GR2_01
 62
    94
370
    20
100
AcDbLine
 10
142.4156898200487
 20
162.6710877700622
 30
0.0
 11
144.6156898200486
 21
162.6710877700622
 31
0.0
  0
LINE
  5
364
330
1F
100
AcDbEntity
  8
GR2_01
 62
    94
370
    20
100
AcDbLine
 10
141.4156898200487
 20
160.8710877700622
 30
0.0
 11
141.4156898200488
 21
152.1710877700622
 31
0.0
  0
ARC
  5
365
330
1F
100
AcDbEntity
  8
GR2_01
 62
    94
370
    20
100
AcDbCircle
 10
142.4156898200487
 20
160.8710877700623
 30
0.0
 40
1.0
100
AcDbArc
 50
90.0
 51
180.0000000000016
  0
ARC
  5
366
330
1F
100
AcDbEntity
  8
GR2_01
 62
    94
370
    20
100
AcDbCircle
 10
142.4156898200487
 20
160.8710877700622
 30
0.0
 40
1.8
100
AcDbArc
 50
90.0
 51
180.0000000000009
  0
ARC
  5
367
330
1F
100
AcDbEntity
  8
GR2_01
 62
    94
370
    20
100
AcDbCircle
 10
138.1156898200487
 20
160.3710877700622
 30
0.0
 40
0.4999999999999716
100
AcDbArc
 50
90.0
 51
180.0000000000032
  0
ARC
  5
368
330
1F
100
AcDbEntity
  8
GR2_01
 62
    94
370
    20
100
AcDbCircle
 10
138.1156898200488
 20
152.6710877700622
 30
0.0
 40
0.5
100
AcDbArc
 50
180.0
 51
270.0
  0
LINE
  5
369
330
1F
100
AcDbEntity
  8
GR2_01
 62
    94
370
    20
100
AcDbLine
 10
146.0156898200487
 20
161.8710877700623
 30
0.0
 11
146.0578112247113
 21
161.0673634902146
 31
0.0
  0
LINE
  5
36A
330
1F
100
AcDbEntity
  8
GR2_01
 62
    94
370
    20
100
AcDbLine
 10
151.5156898200487
 20
161.8710877700624
 30
0.0
 11
151.473568415386
 21
161.0673634902147
 31
0.0
  0
ARC
  5
36B
330
1F
100
AcDbEntity
  8
GR2_01
 62
    94
370
    20
100
AcDbCircle
 10
147.0564407594659
 20
161.1196994464576
 30
0.0
 40
1.0
100
AcDbArc
 50
183.0000000000007
 51
253.4486324757787
  0
ARC
  5
36C
330
1F
100
AcDbEntity
  8
GR2_01
 62
    94
370
    20
100
AcDbCircle
 10
150.4749388806314
 20
161.1196994464576
 30
0.0
 40
1.0
100
AcDbArc
 50
286.5513675242212
 51
357.0000000000009
  0
ARC
  5
36D
330
1F
100
AcDbEntity
  8
GR2_01
 62
    94
370
    20
100
AcDbCircle
 10
148.7656898200486
 20
166.8710877700624
 30
0.0
 40
7.0
100
AcDbArc
 50
253.44863247578
 51
286.5513675242219
  0
LINE
  5
36E
330
1F
100
AcDbEntity
  8
GR2_01
 62
    94
370
    20
100
AcDbLine
 10
141.4156898200487
 20
154.1710877700622
 30
0.0
 11
145.6162649865787
 21
154.1710877700622
 31
0.0
  0
LINE
  5
36F
330
1F
100
AcDbEntity
  8
GR2_01
 62
    94
370
    20
100
AcDbLine
 10
141.4156898200487
 20
157.1710877700622
 30
0.0
 11
145.6162649865787
 21
157.1710877700622
 31
0.0
  0
LINE
  5
370
330
1F
100
AcDbEntity
  8
GR2_01
 62
    94
370
    20
100
AcDbLine
 10
145.6162649865787
 20
154.1710877700622
 30
0.0
 11
145.6162649865787
 21
157.1710877700622
 31
0.0
  0
LINE
  5
371
330
1F
100
AcDbEntity
  8
GR2_01
 62
     5
370
    20
100
AcDbLine
 10
141.4156898200487
 20
154.4710877700622
 30
0.0
 11
145.6162649865787
 21
154.4710877700622
 31
0.0
  0
LINE
  5
372
330
1F
100
AcDbEntity
  8
GR2_01
 62
     5
370
    20
100
AcDbLine
 10
141.4156898200487
 20
156.8710877700622
 30
0.0
 11
145.6162649865787
 21
156.8710877700622
 31
0.0
  0
LINE
  5
373
330
1F
100
AcDbEntity
  8
GR2_01
 62
    94
370
    20
100
AcDbLine
 10
188.7260120911404
 20
152.1710877700623
 30
0.0
 11
197.7260120911404
 21
152.1710877700623
 31
0.0
  0
LINE
  5
374
330
1F
100
AcDbEntity
  8
GR2_01
 62
    94
370
    20
100
AcDbLine
 10
188.7260120911404
 20
163.6710877700624
 30
0.0
 11
188.7260120911404
 21
162.6710877700623
 31
0.0
  0
LINE
  5
375
330
1F
100
AcDbEntity
  8
GR2_01
 62
    94
370
    20
100
AcDbLine
 10
197.7260120911404
 20
163.6710877700624
 30
0.0
 11
197.7260120911404
 21
162.6710877700623
 31
0.0
  0
LINE
  5
376
330
1F
100
AcDbEntity
  8
GR2_01
 62
    94
370
    20
100
AcDbLine
 10
189.5260120911404
 20
161.8710877700623
 30
0.0
 11
196.9260120911404
 21
161.8710877700623
 31
0.0
  0
ARC
  5
377
330
1F
100
AcDbEntity
  8
GR2_01
 62
    94
370
    20
100
AcDbCircle
 10
196.9260120911404
 20
162.6710877700623
 30
0.0
 40
0.8
100
AcDbArc
 50
270.0
 51
0.0
  0
ARC
  5
378
330
1F
100
AcDbEntity
  8
GR2_01
 62
    94
370
    20
100
AcDbCircle
 10
189.5260120911404
 20
162.6710877700623
 30
0.0
 40
0.8
100
AcDbArc
 50
180.0
 51
270.0
  0
LINE
  5
379
330
1F
100
AcDbEntity
  8
GR2_01
 62
    94
370
    20
100
AcDbLine
 10
189.5260120911404
 20
161.8710877700623
 30
0.0
 11
189.5260120911404
 21
160.8710877700623
 31
0.0
  0
LINE
  5
37A
330
1F
100
AcDbEntity
  8
GR2_01
 62
    94
370
    20
100
AcDbLine
 10
196.9260120911404
 20
161.8710877700623
 30
0.0
 11
196.9260120911404
 21
160.8710877700623
 31
0.0
  0
LINE
  5
37B
330
1F
100
AcDbEntity
  8
GR2_01
 62
    94
370
    20
100
AcDbLine
 10
197.7260120911404
 20
160.8710877700623
 30
0.0
 11
197.7260120911404
 21
152.1710877700623
 31
0.0
  0
LINE
  5
37C
330
1F
100
AcDbEntity
  8
GR2_01
 62
    94
370
    20
100
AcDbLine
 10
188.7260120911404
 20
160.8710877700623
 30
0.0
 11
188.7260120911404
 21
152.1710877700623
 31
0.0
  0
LINE
  5
37D
330
1F
100
AcDbEntity
  8
GR2_01
 62
    94
370
    20
100
AcDbLine
 10
188.7260120911404
 20
160.8710877700623
 30
0.0
 11
189.5260120911404
 21
160.8710877700623
 31
0.0
  0
LINE
  5
37E
330
1F
100
AcDbEntity
  8
GR2_01
 62
    94
370
    20
100
AcDbLine
 10
196.9260120911404
 20
160.8710877700623
 30
0.0
 11
197.7260120911404
 21
160.8710877700623
 31
0.0
  0
DIMENSION
  5
37F
330
1F
100
AcDbEntity
  8
GR1_01
 62
     5
370
    20
100
AcDbDimension
  2
*D33
 10
110.1151962010945
 20
163.6710877700623
 30
0.0
 11
109.1151962280273
 21
143.9799194335938
 31
0.0
 70
    32
 71
     5
 42
-1.0
  3
FX_DIMINFO
100
AcDbAlignedDimension
 13
87.24448377773804
 23
152.1710877700623
 33
0.0
 14
93.94448377773796
 24
163.6710877700623
 34
0.0
 50
90.0
100
AcDbRotatedDimension
1001
ACAD
1000
DSTYLE
1002
{
1070
   173
1070
     1
1070
   344
1005
74
1070
   343
1005
6E
1070
   178
1070
    94
1002
}
  0
ENDSEC
  0
SECTION
  2
OBJECTS
  0
DICTIONARY
  5
C
330
0
100
AcDbDictionary
281
     1
  3
ACAD_GROUP
350
D
  3
ACAD_LAYOUT
350
1A
  3
ACAD_MATERIAL
350
43
  3
ACAD_MLEADERSTYLE
350
38E
  3
ACAD_MLINESTYLE
350
17
  3
ACAD_PLOTSETTINGS
350
19
  3
ACAD_PLOTSTYLENAME
350
E
  3
ACAD_SCALELIST
350
47
  3
ACAD_VISUALSTYLE
350
2A
  3
AcDbVariableDictionary
350
38C
  0
DICTIONARY
  5
D
102
{ACAD_REACTORS
330
C
102
}
330
C
100
AcDbDictionary
281
     1
  0
DICTIONARY
  5
1A
102
{ACAD_REACTORS
330
C
102
}
330
C
100
AcDbDictionary
281
     1
  3
Layout1
350
1E
  3
Layout2
350
26
  3
Model
350
22
  0
DICTIONARY
  5
43
102
{ACAD_REACTORS
330
C
102
}
330
C
100
AcDbDictionary
281
     1
  3
ByBlock
350
45
  3
ByLayer
350
44
  3
Global
350
46
  0
DICTIONARY
  5
38E
102
{ACAD_REACTORS
330
C
102
}
330
C
100
AcDbDictionary
281
     1
  0
DICTIONARY
  5
17
102
{ACAD_REACTORS
330
C
102
}
330
C
100
AcDbDictionary
281
     1
  3
Standard
350
18
  0
DICTIONARY
  5
19
102
{ACAD_REACTORS
330
C
102
}
330
C
100
AcDbDictionary
281
     1
  0
ACDBDICTIONARYWDFLT
  5
E
102
{ACAD_REACTORS
330
C
102
}
330
C
100
AcDbDictionary
281
     1
  3
Normal
350
F
100
AcDbDictionaryWithDefault
340
F
  0
DICTIONARY
  5
47
102
{ACAD_REACTORS
330
C
102
}
330
C
100
AcDbDictionary
281
     1
  3
A0
350
48
  3
A1
350
49
  3
A2
350
4A
  3
A3
350
4B
  3
A4
350
4C
  3
A5
350
4D
  3
A6
350
4E
  3
A7
350
4F
  3
A8
350
50
  3
A9
350
51
  3
B0
350
52
  3
B1
350
53
  3
B2
350
54
  3
B3
350
55
  3
B4
350
56
  3
B5
350
57
  3
B6
350
58
  3
B7
350
59
  3
B8
350
5A
  3
B9
350
5B
  3
C0
350
5C
  3
C1
350
5D
  3
C2
350
5E
  3
C3
350
5F
  3
C4
350
60
  3
C5
350
61
  3
C6
350
62
  3
C7
350
63
  3
C8
350
64
  3
C9
350
65
  3
D0
350
66
  3
D1
350
67
  3
D2
350
68
  0
DICTIONARY
  5
2A
102
{ACAD_REACTORS
330
C
102
}
330
C
100
AcDbDictionary
281
     1
  3
2dWireframe
350
2F
  3
Basic
350
32
  3
Brighten
350
36
  3
ColorChange
350
3A
  3
Conceptual
350
34
  3
Dim
350
35
  3
EdgeColorOff
350
3D
  3
Facepattern
350
39
  3
Flat
350
2B
  3
FlatWithEdges
350
2C
  3
Gouraud
350
2D
  3
GouraudWithEdges
350
2E
  3
Hidden
350
31
  3
JitterOff
350
3B
  3
Linepattern
350
38
  3
OverhangOff
350
3C
  3
Realistic
350
33
  3
Shaded
350
42
  3
Shaded with edges
350
41
  3
Shades of Gray
350
3E
  3
Sketchy
350
3F
  3
Thicken
350
37
  3
Wireframe
350
30
  3
X-Ray
350
40
  0
DICTIONARY
  5
38C
102
{ACAD_REACTORS
330
C
102
}
330
C
100
AcDbDictionary
281
     1
  3
CANNOSCALE
350
395
  3
DIMASSOC
350
393
  3
HIDETEXT
350
394
  3
MSLTSCALE
350
396
  3
PSOLHEIGHT
350
390
  3
PSOLWIDTH
350
38F
  0
LAYOUT
  5
1E
102
{ACAD_REACTORS
330
1A
102
}
330
1A
100
AcDbPlotSettings
  1

  2
none_device
  4

  6

 40
0.0
 41
0.0
 42
0.0
 43
0.0
 44
0.0
 45
0.0
 46
0.0
 47
0.0
 48
0.0
 49
0.0
140
0.0
141
0.0
142
1.0
143
1.0
 70
   688
 72
     1
 73
     0
 74
     5
  7

 75
    16
147
1.0
148
0.0
149
0.0
100
AcDbLayout
  1
Layout1
 70
     1
 71
     1
 10
0.0
 20
0.0
 11
420.0
 21
297.0
 12
0.0
 22
0.0
 32
0.0
 14
1.000000000000000E+20
 24
1.000000000000000E+20
 34
1.000000000000000E+20
 15
-1.000000000000000E+20
 25
-1.000000000000000E+20
 35
-1.000000000000000E+20
146
0.0
 13
0.0
 23
0.0
 33
0.0
 16
1.0
 26
0.0
 36
0.0
 17
0.0
 27
1.0
 37
0.0
 76
     0
330
1B
  0
LAYOUT
  5
26
102
{ACAD_REACTORS
330
1A
102
}
330
1A
100
AcDbPlotSettings
  1

  2
none_device
  4

  6

 40
0.0
 41
0.0
 42
0.0
 43
0.0
 44
0.0
 45
0.0
 46
0.0
 47
0.0
 48
0.0
 49
0.0
140
0.0
141
0.0
142
1.0
143
1.0
 70
   688
 72
     1
 73
     0
 74
     5
  7

 75
    16
147
1.0
148
0.0
149
0.0
100
AcDbLayout
  1
Layout2
 70
     1
 71
     2
 10
0.0
 20
0.0
 11
0.0
 21
0.0
 12
0.0
 22
0.0
 32
0.0
 14
0.0
 24
0.0
 34
0.0
 15
0.0
 25
0.0
 35
0.0
146
0.0
 13
0.0
 23
0.0
 33
0.0
 16
1.0
 26
0.0
 36
0.0
 17
0.0
 27
1.0
 37
0.0
 76
     0
330
23
  0
LAYOUT
  5
22
102
{ACAD_REACTORS
330
1A
102
}
330
1A
100
AcDbPlotSettings
  1

  2
none_device
  4
Letter_(8.50_x_11.00_Inches)
  6

 40
6.35
 41
6.35
 42
6.35000508
 43
6.35000508
 44
215.9
 45
279.4
 46
0.0
 47
0.0
 48
0.0
 49
0.0
140
0.0
141
0.0
142
1.0
143
1.0
 70
  1712
 72
     1
 73
     0
 74
     0
  7

 75
     0
147
1.0
148
0.0
149
0.0
100
AcDbLayout
  1
Model
 70
     1
 71
     0
 10
0.0
 20
0.0
 11
420.0
 21
297.0
 12
0.0
 22
0.0
 32
0.0
 14
0.0
 24
0.0
 34
0.0
 15
420.0
 25
297.0
 35
0.0
146
0.0
 13
0.0
 23
0.0
 33
0.0
 16
1.0
 26
0.0
 36
0.0
 17
0.0
 27
1.0
 37
0.0
 76
     0
330
1F
331
29
  0
MATERIAL
  5
45
102
{ACAD_REACTORS
330
43
102
}
102
{ACAD_XDICTIONARY
360
3C9
102
}
330
43
100
AcDbMaterial
  1
ByBlock
  0
MATERIAL
  5
44
102
{ACAD_REACTORS
330
43
102
}
102
{ACAD_XDICTIONARY
360
3C7
102
}
330
43
100
AcDbMaterial
  1
ByLayer
  0
MATERIAL
  5
46
102
{ACAD_REACTORS
330
43
102
}
102
{ACAD_XDICTIONARY
360
3CB
102
}
330
43
100
AcDbMaterial
  1
Global
  0
MLINESTYLE
  5
18
102
{ACAD_REACTORS
330
17
102
}
330
17
100
AcDbMlineStyle
  2
Standard
 70
     0
  3

 62
   256
 51
90.0
 52
90.0
 71
     2
 49
0.5
 62
   256
  6
BYLAYER
 49
-0.5
 62
   256
  6
BYLAYER
  0
ACDBPLACEHOLDER
  5
F
102
{ACAD_REACTORS
330
E
102
}
330
E
  0
SCALE
  5
48
102
{ACAD_REACTORS
330
47
102
}
330
47
100
AcDbScale
 70
     0
300
1:1
140
1.0
141
1.0
290
     1
  0
SCALE
  5
49
102
{ACAD_REACTORS
330
47
102
}
330
47
100
AcDbScale
 70
     0
300
1:2
140
1.0
141
2.0
290
     0
  0
SCALE
  5
4A
102
{ACAD_REACTORS
330
47
102
}
330
47
100
AcDbScale
 70
     0
300
1:4
140
1.0
141
4.0
290
     0
  0
SCALE
  5
4B
102
{ACAD_REACTORS
330
47
102
}
330
47
100
AcDbScale
 70
     0
300
1:5
140
1.0
141
5.0
290
     0
  0
SCALE
  5
4C
102
{ACAD_REACTORS
330
47
102
}
330
47
100
AcDbScale
 70
     0
300
1:8
140
1.0
141
8.0
290
     0
  0
SCALE
  5
4D
102
{ACAD_REACTORS
330
47
102
}
330
47
100
AcDbScale
 70
     0
300
1:10
140
1.0
141
10.0
290
     0
  0
SCALE
  5
4E
102
{ACAD_REACTORS
330
47
102
}
330
47
100
AcDbScale
 70
     0
300
1:16
140
1.0
141
16.0
290
     0
  0
SCALE
  5
4F
102
{ACAD_REACTORS
330
47
102
}
330
47
100
AcDbScale
 70
     0
300
1:20
140
1.0
141
20.0
290
     0
  0
SCALE
  5
50
102
{ACAD_REACTORS
330
47
102
}
330
47
100
AcDbScale
 70
     0
300
1:30
140
1.0
141
30.0
290
     0
  0
SCALE
  5
51
102
{ACAD_REACTORS
330
47
102
}
330
47
100
AcDbScale
 70
     0
300
1:40
140
1.0
141
40.0
290
     0
  0
SCALE
  5
52
102
{ACAD_REACTORS
330
47
102
}
330
47
100
AcDbScale
 70
     0
300
1:50
140
1.0
141
50.0
290
     0
  0
SCALE
  5
53
102
{ACAD_REACTORS
330
47
102
}
330
47
100
AcDbScale
 70
     0
300
1:100
140
1.0
141
100.0
290
     0
  0
SCALE
  5
54
102
{ACAD_REACTORS
330
47
102
}
330
47
100
AcDbScale
 70
     0
300
2:1
140
2.0
141
1.0
290
     0
  0
SCALE
  5
55
102
{ACAD_REACTORS
330
47
102
}
330
47
100
AcDbScale
 70
     0
300
4:1
140
4.0
141
1.0
290
     0
  0
SCALE
  5
56
102
{ACAD_REACTORS
330
47
102
}
330
47
100
AcDbScale
 70
     0
300
8:1
140
8.0
141
1.0
290
     0
  0
SCALE
  5
57
102
{ACAD_REACTORS
330
47
102
}
330
47
100
AcDbScale
 70
     0
300
10:1
140
10.0
141
1.0
290
     0
  0
SCALE
  5
58
102
{ACAD_REACTORS
330
47
102
}
330
47
100
AcDbScale
 70
     0
300
100:1
140
100.0
141
1.0
290
     0
  0
SCALE
  5
59
102
{ACAD_REACTORS
330
47
102
}
330
47
100
AcDbScale
 70
     0
300
1/128" = 1'-0"
140
0.0078125
141
12.0
290
     0
  0
SCALE
  5
5A
102
{ACAD_REACTORS
330
47
102
}
330
47
100
AcDbScale
 70
     0
300
1/64" = 1'-0"
140
0.015625
141
12.0
290
     0
  0
SCALE
  5
5B
102
{ACAD_REACTORS
330
47
102
}
330
47
100
AcDbScale
 70
     0
300
1/32" = 1'-0"
140
0.03125
141
12.0
290
     0
  0
SCALE
  5
5C
102
{ACAD_REACTORS
330
47
102
}
330
47
100
AcDbScale
 70
     0
300
1/16" = 1'-0"
140
0.0625
141
12.0
290
     0
  0
SCALE
  5
5D
102
{ACAD_REACTORS
330
47
102
}
330
47
100
AcDbScale
 70
     0
300
3/32" = 1'-0"
140
0.09375
141
12.0
290
     0
  0
SCALE
  5
5E
102
{ACAD_REACTORS
330
47
102
}
330
47
100
AcDbScale
 70
     0
300
1/8" = 1'-0"
140
0.125
141
12.0
290
     0
  0
SCALE
  5
5F
102
{ACAD_REACTORS
330
47
102
}
330
47
100
AcDbScale
 70
     0
300
3/16" = 1'-0"
140
0.1875
141
12.0
290
     0
  0
SCALE
  5
60
102
{ACAD_REACTORS
330
47
102
}
330
47
100
AcDbScale
 70
     0
300
1/4" = 1'-0"
140
0.25
141
12.0
290
     0
  0
SCALE
  5
61
102
{ACAD_REACTORS
330
47
102
}
330
47
100
AcDbScale
 70
     0
300
3/8" = 1'-0"
140
0.375
141
12.0
290
     0
  0
SCALE
  5
62
102
{ACAD_REACTORS
330
47
102
}
330
47
100
AcDbScale
 70
     0
300
1/2" = 1'-0"
140
0.5
141
12.0
290
     0
  0
SCALE
  5
63
102
{ACAD_REACTORS
330
47
102
}
330
47
100
AcDbScale
 70
     0
300
3/4" = 1'-0"
140
0.75
141
12.0
290
     0
  0
SCALE
  5
64
102
{ACAD_REACTORS
330
47
102
}
330
47
100
AcDbScale
 70
     0
300
1" = 1'-0"
140
1.0
141
12.0
290
     0
  0
SCALE
  5
65
102
{ACAD_REACTORS
330
47
102
}
330
47
100
AcDbScale
 70
     0
300
1-1/2" = 1'-0"
140
1.5
141
12.0
290
     0
  0
SCALE
  5
66
102
{ACAD_REACTORS
330
47
102
}
330
47
100
AcDbScale
 70
     0
300
3" = 1'-0"
140
3.0
141
12.0
290
     0
  0
SCALE
  5
67
102
{ACAD_REACTORS
330
47
102
}
330
47
100
AcDbScale
 70
     0
300
6" = 1'-0"
140
6.0
141
12.0
290
     0
  0
SCALE
  5
68
102
{ACAD_REACTORS
330
47
102
}
330
47
100
AcDbScale
 70
     0
300
1'-0" = 1'-0"
140
12.0
141
12.0
290
     0
  0
VISUALSTYLE
  5
2F
102
{ACAD_REACTORS
330
2A
102
}
102
{ACAD_XDICTIONARY
360
39F
102
}
330
2A
100
AcDbVisualStyle
  2
2dWireframe
 70
     4
 71
     0
 72
     2
 73
     0
 90
        0
 40
0.6
 41
30.0
 62
     5
 63
     7
 74
     1
 91
        4
 64
     7
 65
   257
 75
     1
175
     1
 42
1.0
 92
        0
 66
   257
 43
1.0
 76
     1
 77
     6
 78
     2
 67
     7
 79
     5
170
     0
171
     0
290
     0
174
     0
 93
        1
 44
0.0
173
     0
291
     0
 45
0.0
1001
ACAD
1000
AcDbSavedByObjectVersion
1070
     0
  0
VISUALSTYLE
  5
32
102
{ACAD_REACTORS
330
2A
102
}
102
{ACAD_XDICTIONARY
360
3A5
102
}
330
2A
100
AcDbVisualStyle
  2
Basic
 70
     7
 71
     1
 72
     0
 73
     1
 90
        0
 40
0.6
 41
30.0
 62
     5
 63
     7
 74
     0
 91
        4
 64
     7
 65
   257
 75
     1
175
     1
 42
1.0
 92
        8
 66
     7
 43
1.0
 76
     1
 77
     6
 78
     2
 67
     7
 79
     5
170
     0
171
     0
290
     0
174
     0
 93
        1
 44
0.0
173
     0
291
     1
 45
0.0
1001
ACAD
1000
AcDbSavedByObjectVersion
1070
     0
  0
VISUALSTYLE
  5
36
102
{ACAD_REACTORS
330
2A
102
}
102
{ACAD_XDICTIONARY
360
3AD
102
}
330
2A
100
AcDbVisualStyle
  2
Brighten
 70
    12
 71
     2
 72
     2
 73
     0
 90
        0
 40
0.6
 41
30.0
 62
     5
 63
     7
 74
     1
 91
        4
 64
     7
 65
   257
 75
     1
175
     1
 42
1.0
 92
        8
 66
     7
 43
1.0
 76
     1
 77
     6
 78
     2
 67
     7
 79
     5
170
     0
171
     0
290
     0
174
     0
 93
        1
 44
50.0
173
     0
291
     1
 45
0.0
1001
ACAD
1000
AcDbSavedByObjectVersion
1070
     0
  0
VISUALSTYLE
  5
3A
102
{ACAD_REACTORS
330
2A
102
}
102
{ACAD_XDICTIONARY
360
3B5
102
}
330
2A
100
AcDbVisualStyle
  2
ColorChange
 70
    16
 71
     2
 72
     2
 73
     3
 90
        0
 40
0.6
 41
30.0
 62
     5
 63
     8
 74
     1
 91
        4
 64
     7
 65
   257
 75
     1
175
     1
 42
1.0
 92
        8
 66
     8
 43
1.0
 76
     1
 77
     6
 78
     2
 67
     7
 79
     5
170
     0
171
     0
290
     0
174
     0
 93
        1
 44
0.0
173
     0
291
     1
 45
0.0
1001
ACAD
1000
AcDbSavedByObjectVersion
1070
     0
  0
VISUALSTYLE
  5
34
102
{ACAD_REACTORS
330
2A
102
}
102
{ACAD_XDICTIONARY
360
3A9
102
}
330
2A
100
AcDbVisualStyle
  2
Conceptual
 70
     9
 71
     3
 72
     2
 73
     0
 90
        0
 40
0.6
 41
30.0
 62
     5
 63
     7
 74
     2
 91
        2
 64
     7
 65
   257
 75
     1
175
     1
 42
179.0
 92
        8
 66
     7
 43
1.0
 76
     1
 77
     6
 78
     2
 67
     7
 79
     3
170
     0
171
     0
290
     0
174
     0
 93
        1
 44
0.0
173
     0
291
     0
 45
0.0
1001
ACAD
1000
AcDbSavedByObjectVersion
1070
     0
  0
VISUALSTYLE
  5
35
102
{ACAD_REACTORS
330
2A
102
}
102
{ACAD_XDICTIONARY
360
3AB
102
}
330
2A
100
AcDbVisualStyle
  2
Dim
 70
    11
 71
     2
 72
     2
 73
     0
 90
        0
 40
0.6
 41
30.0
 62
     5
 63
     7
 74
     1
 91
        4
 64
     7
 65
   257
 75
     1
175
     1
 42
1.0
 92
        8
 66
     7
 43
1.0
 76
     1
 77
     6
 78
     2
 67
     7
 79
     5
170
     0
171
     0
290
     0
174
     0
 93
        1
 44
-50.0
173
     0
291
     1
 45
0.0
1001
ACAD
1000
AcDbSavedByObjectVersion
1070
     0
  0
VISUALSTYLE
  5
3D
102
{ACAD_REACTORS
330
2A
102
}
102
{ACAD_XDICTIONARY
360
3BB
102
}
330
2A
100
AcDbVisualStyle
  2
EdgeColorOff
 70
    22
 71
     2
 72
     2
 73
     0
 90
        0
 40
0.6
 41
30.0
 62
     5
 63
     7
 74
     1
 91
        4
 64
     7
 65
   257
 75
     1
175
     1
 42
1.0
 92
        8
 66
     7
 43
1.0
 76
     1
 77
     6
 78
     2
 67
     7
 79
     5
170
     0
171
     0
290
     0
174
     0
 93
        1
 44
0.0
173
     0
291
     1
 45
0.0
1001
ACAD
1000
AcDbSavedByObjectVersion
1070
     0
  0
VISUALSTYLE
  5
39
102
{ACAD_REACTORS
330
2A
102
}
102
{ACAD_XDICTIONARY
360
3B3
102
}
330
2A
100
AcDbVisualStyle
  2
Facepattern
 70
    15
 71
     2
 72
     2
 73
     0
 90
        0
 40
0.6
 41
30.0
 62
     5
 63
     7
 74
     1
 91
        4
 64
     7
 65
   257
 75
     1
175
     1
 42
1.0
 92
        8
 66
     7
 43
1.0
 76
     1
 77
     6
 78
     2
 67
     7
 79
     5
170
     0
171
     0
290
     0
174
     0
 93
        1
 44
0.0
173
     0
291
     1
 45
0.0
1001
ACAD
1000
AcDbSavedByObjectVersion
1070
     0
  0
VISUALSTYLE
  5
2B
102
{ACAD_REACTORS
330
2A
102
}
102
{ACAD_XDICTIONARY
360
397
102
}
330
2A
100
AcDbVisualStyle
  2
Flat
 70
     0
 71
     2
 72
     1
 73
     1
 90
        2
 40
0.6
 41
30.0
 62
     5
 63
     7
 74
     0
 91
        0
 64
     7
 65
   257
 75
     1
175
     1
 42
1.0
 92
        8
 66
     7
 43
1.0
 76
     1
 77
     6
 78
     2
 67
     7
 79
     5
170
     0
171
     0
290
     0
174
     0
 93
       13
 44
0.0
173
     0
291
     1
 45
0.0
1001
ACAD
1000
AcDbSavedByObjectVersion
1070
     0
  0
VISUALSTYLE
  5
2C
102
{ACAD_REACTORS
330
2A
102
}
102
{ACAD_XDICTIONARY
360
399
102
}
330
2A
100
AcDbVisualStyle
  2
FlatWithEdges
 70
     1
 71
     2
 72
     1
 73
     1
 90
        2
 40
0.6
 41
30.0
 62
     5
 63
     7
 74
     1
 91
        0
 64
     7
 65
   257
 75
     1
175
     1
 42
1.0
 92
        0
 66
   257
 43
1.0
 76
     1
 77
     6
 78
     2
 67
     7
 79
     5
170
     0
171
     0
290
     0
174
     0
 93
       13
 44
0.0
173
     0
291
     1
 45
0.0
1001
ACAD
1000
AcDbSavedByObjectVersion
1070
     0
  0
VISUALSTYLE
  5
2D
102
{ACAD_REACTORS
330
2A
102
}
102
{ACAD_XDICTIONARY
360
39B
102
}
330
2A
100
AcDbVisualStyle
  2
Gouraud
 70
     2
 71
     2
 72
     2
 73
     1
 90
        2
 40
0.6
 41
30.0
 62
     5
 63
     7
 74
     0
 91
        0
 64
     7
 65
   257
 75
     1
175
     1
 42
1.0
 92
        0
 66
     7
 43
1.0
 76
     1
 77
     6
 78
     2
 67
     7
 79
     5
170
     0
171
     0
290
     0
174
     0
 93
       13
 44
0.0
173
     0
291
     1
 45
0.0
1001
ACAD
1000
AcDbSavedByObjectVersion
1070
     0
  0
VISUALSTYLE
  5
2E
102
{ACAD_REACTORS
330
2A
102
}
102
{ACAD_XDICTIONARY
360
39D
102
}
330
2A
100
AcDbVisualStyle
  2
GouraudWithEdges
 70
     3
 71
     2
 72
     2
 73
     1
 90
        2
 40
0.6
 41
30.0
 62
     5
 63
     7
 74
     1
 91
        0
 64
     7
 65
   257
 75
     1
175
     1
 42
1.0
 92
        0
 66
   257
 43
1.0
 76
     1
 77
     6
 78
     2
 67
     7
 79
     5
170
     0
171
     0
290
     0
174
     0
 93
       13
 44
0.0
173
     0
291
     1
 45
0.0
1001
ACAD
1000
AcDbSavedByObjectVersion
1070
     0
  0
VISUALSTYLE
  5
31
102
{ACAD_REACTORS
330
2A
102
}
102
{ACAD_XDICTIONARY
360
3A3
102
}
330
2A
100
AcDbVisualStyle
  2
Hidden
 70
     6
 71
     1
 72
     2
 73
     2
 90
        0
 40
0.6
 41
30.0
 62
     5
 63
     7
 74
     2
 91
        2
 64
     7
 65
   257
 75
     2
175
     1
 42
40.0
 92
        0
 66
   257
 43
1.0
 76
     1
 77
     6
 78
     2
 67
     7
 79
     3
170
     0
171
     0
290
     0
174
     0
 93
        1
 44
0.0
173
     0
291
     0
 45
0.0
1001
ACAD
1000
AcDbSavedByObjectVersion
1070
     0
  0
VISUALSTYLE
  5
3B
102
{ACAD_REACTORS
330
2A
102
}
102
{ACAD_XDICTIONARY
360
3B7
102
}
330
2A
100
AcDbVisualStyle
  2
JitterOff
 70
    20
 71
     2
 72
     2
 73
     0
 90
        0
 40
0.6
 41
30.0
 62
     5
 63
     7
 74
     1
 91
        4
 64
     7
 65
   257
 75
     1
175
     1
 42
1.0
 92
       10
 66
     7
 43
1.0
 76
     1
 77
     6
 78
     2
 67
     7
 79
     5
170
     0
171
     0
290
     0
174
     0
 93
        1
 44
0.0
173
     0
291
     1
 45
0.0
1001
ACAD
1000
AcDbSavedByObjectVersion
1070
     0
  0
VISUALSTYLE
  5
38
102
{ACAD_REACTORS
330
2A
102
}
102
{ACAD_XDICTIONARY
360
3B1
102
}
330
2A
100
AcDbVisualStyle
  2
Linepattern
 70
    14
 71
     2
 72
     2
 73
     0
 90
        0
 40
0.6
 41
30.0
 62
     5
 63
     7
 74
     1
 91
        4
 64
     7
 65
   257
 75
     7
175
     7
 42
1.0
 92
        8
 66
     7
 43
1.0
 76
     1
 77
     6
 78
     2
 67
     7
 79
     5
170
     0
171
     0
290
     0
174
     0
 93
        1
 44
0.0
173
     0
291
     1
 45
0.0
1001
ACAD
1000
AcDbSavedByObjectVersion
1070
     0
  0
VISUALSTYLE
  5
3C
102
{ACAD_REACTORS
330
2A
102
}
102
{ACAD_XDICTIONARY
360
3B9
102
}
330
2A
100
AcDbVisualStyle
  2
OverhangOff
 70
    21
 71
     2
 72
     2
 73
     0
 90
        0
 40
0.6
 41
30.0
 62
     5
 63
     7
 74
     1
 91
        4
 64
     7
 65
   257
 75
     1
175
     1
 42
1.0
 92
        9
 66
     7
 43
1.0
 76
     1
 77
     6
 78
     2
 67
     7
 79
     5
170
     0
171
     0
290
     0
174
     0
 93
        1
 44
0.0
173
     0
291
     1
 45
0.0
1001
ACAD
1000
AcDbSavedByObjectVersion
1070
     0
  0
VISUALSTYLE
  5
33
102
{ACAD_REACTORS
330
2A
102
}
102
{ACAD_XDICTIONARY
360
3A7
102
}
330
2A
100
AcDbVisualStyle
  2
Realistic
 70
     8
 71
     2
 72
     3
 73
     0
 90
        2
 40
0.6
 41
30.0
 62
     5
 63
     7
 74
     0
 91
        0
 64
     7
 65
   257
 75
     1
175
     1
 42
1.0
 92
        8
 66
   257
 43
1.0
 76
     1
 77
     6
 78
     2
 67
     7
 79
     3
170
     0
171
     0
290
     0
174
     0
 93
       13
 44
0.0
173
     0
291
     0
 45
0.0
1001
ACAD
1000
AcDbSavedByObjectVersion
1070
     0
  0
VISUALSTYLE
  5
42
102
{ACAD_REACTORS
330
2A
102
}
102
{ACAD_XDICTIONARY
360
3C5
102
}
330
2A
100
AcDbVisualStyle
  2
Shaded
 70
    27
 71
     2
 72
     2
 73
     1
 90
        2
 40
0.6
 41
30.0
 62
     5
 63
     7
 74
     0
 91
        4
 64
     7
 65
   257
 75
     1
175
     1
 42
1.0
 92
        8
 66
   257
 43
1.0
 76
     1
 77
     6
 78
     2
 67
     8
 79
     3
170
     0
171
     0
290
     0
174
     0
 93
        5
 44
0.0
173
     0
291
     0
 45
0.0
1001
ACAD
1000
AcDbSavedByObjectVersion
1070
     0
  0
VISUALSTYLE
  5
41
102
{ACAD_REACTORS
330
2A
102
}
102
{ACAD_XDICTIONARY
360
3C3
102
}
330
2A
100
AcDbVisualStyle
  2
Shaded with edges
 70
    26
 71
     2
 72
     2
 73
     1
 90
        2
 40
0.6
 41
30.0
 62
     5
 63
     7
 74
     1
 91
       10
 64
     7
 65
   257
 75
     2
175
     1
 42
1.0
 92
        8
 66
   257
 43
1.0
 76
     1
 77
     6
 78
     2
 67
     7
 79
     3
170
     0
171
     0
290
     0
174
     0
 93
        5
 44
0.0
173
     0
291
     0
 45
0.0
1001
ACAD
1000
AcDbSavedByObjectVersion
1070
     0
  0
VISUALSTYLE
  5
3E
102
{ACAD_REACTORS
330
2A
102
}
102
{ACAD_XDICTIONARY
360
3BD
102
}
330
2A
100
AcDbVisualStyle
  2
Shades of Gray
 70
    23
 71
     2
 72
     2
 73
     3
 90
        0
 40
0.6
 41
30.0
 62
     5
 63
     7
 74
     2
 91
        2
 64
     7
 65
     7
 75
     1
175
     1
 42
40.0
 92
        8
 66
     7
 43
1.0
 76
     1
 77
     6
 78
     2
 67
     7
 79
     3
170
     0
171
     0
290
     0
174
     0
 93
        1
 44
0.0
173
     0
291
     0
 45
0.0
1001
ACAD
1000
AcDbSavedByObjectVersion
1070
     0
  0
VISUALSTYLE
  5
3F
102
{ACAD_REACTORS
330
2A
102
}
102
{ACAD_XDICTIONARY
360
3BF
102
}
330
2A
100
AcDbVisualStyle
  2
Sketchy
 70
    24
 71
     1
 72
     2
 73
     2
 90
        0
 40
0.6
 41
30.0
 62
     5
 63
     7
 74
     2
 91
        2
 64
     7
 65
     7
 75
     1
175
     1
 42
40.0
 92
       11
 66
     7
 43
1.0
 76
     1
 77
     6
 78
     2
 67
     7
 79
     6
170
     0
171
     0
290
     0
174
     0
 93
        1
 44
0.0
173
     0
291
     0
 45
0.0
1001
ACAD
1000
AcDbSavedByObjectVersion
1070
     0
  0
VISUALSTYLE
  5
37
102
{ACAD_REACTORS
330
2A
102
}
102
{ACAD_XDICTIONARY
360
3AF
102
}
330
2A
100
AcDbVisualStyle
  2
Thicken
 70
    13
 71
     2
 72
     2
 73
     0
 90
        0
 40
0.6
 41
30.0
 62
     5
 63
     7
 74
     1
 91
        4
 64
     7
 65
   257
 75
     1
175
     1
 42
1.0
 92
       12
 66
     7
 43
1.0
 76
     1
 77
     6
 78
     2
 67
     7
 79
     5
170
     0
171
     0
290
     0
174
     0
 93
        1
 44
0.0
173
     0
291
     1
 45
0.0
1001
ACAD
1000
AcDbSavedByObjectVersion
1070
     0
  0
VISUALSTYLE
  5
30
102
{ACAD_REACTORS
330
2A
102
}
102
{ACAD_XDICTIONARY
360
3A1
102
}
330
2A
100
AcDbVisualStyle
  2
Wireframe
 70
     5
 71
     0
 72
     2
 73
     0
 90
        0
 40
0.6
 41
30.0
 62
     5
 63
     7
 74
     1
 91
        4
 64
     7
 65
   257
 75
     1
175
     1
 42
1.0
 92
        0
 66
   257
 43
1.0
 76
     1
 77
     6
 78
     2
 67
     7
 79
     3
170
     0
171
     0
290
     0
174
     0
 93
        1
 44
0.0
173
     0
291
     0
 45
0.0
1001
ACAD
1000
AcDbSavedByObjectVersion
1070
     0
  0
VISUALSTYLE
  5
40
102
{ACAD_REACTORS
330
2A
102
}
102
{ACAD_XDICTIONARY
360
3C1
102
}
330
2A
100
AcDbVisualStyle
  2
X-Ray
 70
    25
 71
     2
 72
     2
 73
     1
 90
        1
 40
0.5
 41
30.0
 62
     5
 63
     7
 74
     1
 91
        0
 64
     7
 65
   257
 75
     1
175
     1
 42
1.0
 92
        8
 66
     7
 43
1.0
 76
     1
 77
     6
 78
     2
 67
     7
 79
     3
170
     0
171
     0
290
     0
174
     0
 93
       13
 44
0.0
173
     0
291
     0
 45
0.0
1001
ACAD
1000
AcDbSavedByObjectVersion
1070
     0
  0
DICTIONARYVAR
  5
395
102
{ACAD_REACTORS
330
38C
102
}
330
38C
100
DictionaryVariables
280
     0
  1
1:1
  0
DICTIONARYVAR
  5
393
102
{ACAD_REACTORS
330
38C
102
}
330
38C
100
DictionaryVariables
280
     0
  1
2
  0
DICTIONARYVAR
  5
394
102
{ACAD_REACTORS
330
38C
102
}
330
38C
100
DictionaryVariables
280
     0
  1
1
  0
DICTIONARYVAR
  5
396
102
{ACAD_REACTORS
330
38C
102
}
330
38C
100
DictionaryVariables
280
     0
  1
1
  0
DICTIONARYVAR
  5
390
102
{ACAD_REACTORS
330
38C
102
}
330
38C
100
DictionaryVariables
280
     0
  1
80.000000
  0
DICTIONARYVAR
  5
38F
102
{ACAD_REACTORS
330
38C
102
}
330
38C
100
DictionaryVariables
280
     0
  1
5.000000
  0
DICTIONARY
  5
3C9
330
45
100
AcDbDictionary
280
     1
281
     1
  3
ACAD_XREC_ROUNDTRIP
360
3CA
  0
DICTIONARY
  5
3C7
330
44
100
AcDbDictionary
280
     1
281
     1
  3
ACAD_XREC_ROUNDTRIP
360
3C8
  0
DICTIONARY
  5
3CB
330
46
100
AcDbDictionary
280
     1
281
     1
  3
ACAD_XREC_ROUNDTRIP
360
3CC
  0
DICTIONARY
  5
39F
330
2F
100
AcDbDictionary
280
     1
281
     1
  3
ACAD_XREC_ROUNDTRIP
360
3A0
  0
DICTIONARY
  5
3A5
330
32
100
AcDbDictionary
280
     1
281
     1
  3
ACAD_XREC_ROUNDTRIP
360
3A6
  0
DICTIONARY
  5
3AD
330
36
100
AcDbDictionary
280
     1
281
     1
  3
ACAD_XREC_ROUNDTRIP
360
3AE
  0
DICTIONARY
  5
3B5
330
3A
100
AcDbDictionary
280
     1
281
     1
  3
ACAD_XREC_ROUNDTRIP
360
3B6
  0
DICTIONARY
  5
3A9
330
34
100
AcDbDictionary
280
     1
281
     1
  3
ACAD_XREC_ROUNDTRIP
360
3AA
  0
DICTIONARY
  5
3AB
330
35
100
AcDbDictionary
280
     1
281
     1
  3
ACAD_XREC_ROUNDTRIP
360
3AC
  0
DICTIONARY
  5
3BB
330
3D
100
AcDbDictionary
280
     1
281
     1
  3
ACAD_XREC_ROUNDTRIP
360
3BC
  0
DICTIONARY
  5
3B3
330
39
100
AcDbDictionary
280
     1
281
     1
  3
ACAD_XREC_ROUNDTRIP
360
3B4
  0
DICTIONARY
  5
397
330
2B
100
AcDbDictionary
280
     1
281
     1
  3
ACAD_XREC_ROUNDTRIP
360
398
  0
DICTIONARY
  5
399
330
2C
100
AcDbDictionary
280
     1
281
     1
  3
ACAD_XREC_ROUNDTRIP
360
39A
  0
DICTIONARY
  5
39B
330
2D
100
AcDbDictionary
280
     1
281
     1
  3
ACAD_XREC_ROUNDTRIP
360
39C
  0
DICTIONARY
  5
39D
330
2E
100
AcDbDictionary
280
     1
281
     1
  3
ACAD_XREC_ROUNDTRIP
360
39E
  0
DICTIONARY
  5
3A3
330
31
100
AcDbDictionary
280
     1
281
     1
  3
ACAD_XREC_ROUNDTRIP
360
3A4
  0
DICTIONARY
  5
3B7
330
3B
100
AcDbDictionary
280
     1
281
     1
  3
ACAD_XREC_ROUNDTRIP
360
3B8
  0
DICTIONARY
  5
3B1
330
38
100
AcDbDictionary
280
     1
281
     1
  3
ACAD_XREC_ROUNDTRIP
360
3B2
  0
DICTIONARY
  5
3B9
330
3C
100
AcDbDictionary
280
     1
281
     1
  3
ACAD_XREC_ROUNDTRIP
360
3BA
  0
DICTIONARY
  5
3A7
330
33
100
AcDbDictionary
280
     1
281
     1
  3
ACAD_XREC_ROUNDTRIP
360
3A8
  0
DICTIONARY
  5
3C5
330
42
100
AcDbDictionary
280
     1
281
     1
  3
ACAD_XREC_ROUNDTRIP
360
3C6
  0
DICTIONARY
  5
3C3
330
41
100
AcDbDictionary
280
     1
281
     1
  3
ACAD_XREC_ROUNDTRIP
360
3C4
  0
DICTIONARY
  5
3BD
330
3E
100
AcDbDictionary
280
     1
281
     1
  3
ACAD_XREC_ROUNDTRIP
360
3BE
  0
DICTIONARY
  5
3BF
330
3F
100
AcDbDictionary
280
     1
281
     1
  3
ACAD_XREC_ROUNDTRIP
360
3C0
  0
DICTIONARY
  5
3AF
330
37
100
AcDbDictionary
280
     1
281
     1
  3
ACAD_XREC_ROUNDTRIP
360
3B0
  0
DICTIONARY
  5
3A1
330
30
100
AcDbDictionary
280
     1
281
     1
  3
ACAD_XREC_ROUNDTRIP
360
3A2
  0
DICTIONARY
  5
3C1
330
40
100
AcDbDictionary
280
     1
281
     1
  3
ACAD_XREC_ROUNDTRIP
360
3C2
  0
XRECORD
  5
3CA
102
{ACAD_REACTORS
330
3C9
102
}
330
3C9
100
AcDbXrecord
280
     1
102
MATERIAL
148
0.0
149
0.0
149
0.0
 93
        0
 94
      127
282
     0
 72
     1
 77
     1
171
     1
175
     1
179
     1
273
     0
  0
XRECORD
  5
3C8
102
{ACAD_REACTORS
330
3C7
102
}
330
3C7
100
AcDbXrecord
280
     1
102
MATERIAL
148
0.0
149
0.0
149
0.0
 93
        0
 94
      127
282
     0
 72
     1
 77
     1
171
     1
175
     1
179
     1
273
     0
  0
XRECORD
  5
3CC
102
{ACAD_REACTORS
330
3CB
102
}
330
3CB
100
AcDbXrecord
280
     1
102
MATERIAL
148
0.0
149
0.0
149
0.0
 93
        0
 94
      127
282
     0
 72
     1
 77
     1
171
     1
175
     1
179
     1
273
     0
  0
XRECORD
  5
3A0
102
{ACAD_REACTORS
330
39F
102
}
330
39F
100
AcDbXrecord
280
     1
102
RTVSPropertyOp0
 70
     1
102
RTVSPropertyOp1
 70
     1
102
RTVSPropertyOp2
 70
     1
102
RTVSPropertyOp3
 70
     1
102
RTVSPropertyOp4
 70
     1
102
RTVSPropertyOp5
 70
     1
102
RTVSPropertyOp6
 70
     1
102
RTVSPropertyOp7
 70
     1
102
RTVSPropertyOp8
 70
     1
102
RTVSPropertyOp9
 70
     1
102
RTVSPropertyOp10
 70
     1
102
RTVSPropertyOp11
 70
     1
102
RTVSPropertyOp12
 70
     1
102
RTVSPropertyOp13
 70
     1
102
RTVSPropertyOp14
 70
     1
102
RTVSPropertyOp15
 70
     1
102
RTVSPropertyOp16
 70
     1
102
RTVSPropertyOp17
 70
     1
102
RTVSPropertyOp18
 70
     1
102
RTVSPropertyOp19
 70
     1
102
RTVSPropertyOp20
 70
     1
102
RTVSPropertyOp21
 70
     1
102
RTVSPropertyOp22
 70
     1
102
RTVSPropertyOp23
 70
     1
102
RTVSPropertyOp24
 70
     1
102
RTVSPropertyOp25
 70
     1
102
RTVSPropertyOp26
 70
     1
102
RTVSPropertyOp27
 70
     1
102
RTVSPropertyOp28
 70
     1
102
RTVSPropertyOp29
 70
     1
102
RTVSPropertyOp30
 70
     1
102
RTVSPropertyOp31
 70
     1
102
RTVSPropertyOp32
 70
     1
102
RTVSPropertyOp33
 70
     1
102
RTVSPropertyOp34
 70
     1
102
RTVSPropertyOp35
 70
     1
102
RTVSPropertyOp36
 70
     1
102
RTVSPropertyOp37
 70
     1
102
RTVSPropertyOp38
 70
     1
102
RTVSPropertyOp39
 70
     1
102
RTVSPropertyOp40
 70
     1
102
RTVSPropertyOp41
 70
     1
102
RTVSPropertyOp42
 70
     1
102
RTVSPropertyOp43
 70
     1
102
RTVSPropertyOp44
 70
     1
102
RTVSPropertyOp45
 70
     1
102
RTVSPropertyOp46
 70
     1
102
RTVSPropertyOp47
 70
     1
102
RTVSPropertyOp48
 70
     1
102
RTVSPropertyOp49
 70
     1
102
RTVSPropertyOp50
 70
     1
102
RTVSPropertyOp51
 70
     0
102
RTVSPropertyOp52
 70
     0
102
RTVSPropertyOp53
 70
     1
102
RTVSPropertyOp54
 70
     1
102
RTVSPropertyOp55
 70
     1
102
RTVSPropertyOp56
 70
     1
102
RTVSPropertyOp57
 70
     1
102
RTVSPost2010Prop28
280
     1
102
RTVSPost2010PropOp28
 70
     1
102
RTVSPost2010Prop29
280
     1
102
RTVSPost2010PropOp29
 70
     1
102
RTVSPost2010Prop30
280
     0
102
RTVSPost2010PropOp30
 70
     1
102
RTVSPost2010Prop31
280
     0
102
RTVSPost2010PropOp31
 70
     1
102
RTVSPost2010Prop32
280
     0
102
RTVSPost2010PropOp32
 70
     1
102
RTVSPost2010Prop33
280
     0
102
RTVSPost2010PropOp33
 70
     1
102
RTVSPost2010Prop34
280
     0
102
RTVSPost2010PropOp34
 70
     1
102
RTVSPost2010Prop35
280
     0
102
RTVSPost2010PropOp35
 70
     1
102
RTVSPost2010Prop36
280
     0
102
RTVSPost2010PropOp36
 70
     1
102
RTVSPost2010Prop37
 90
       50
102
RTVSPost2010PropOp37
 70
     1
102
RTVSPost2010Prop38
140
0.0
102
RTVSPost2010PropOp38
 70
     1
102
RTVSPost2010Prop39
140
1.0
102
RTVSPost2010PropOp39
 70
     1
102
RTVSPost2010Prop40
 90
        0
102
RTVSPost2010PropOp40
 70
     1
102
RTVSPost2010Prop41ColorIndex
 90
       18
102
RTVSPost2010Prop41ColorRGB
 90
        0
102
RTVSPost2010PropOp41
 70
     1
102
RTVSPost2010Prop42
 90
       50
102
RTVSPost2010PropOp42
 70
     1
102
RTVSPost2010Prop43
 90
        3
102
RTVSPost2010PropOp43
 70
     1
102
RTVSPost2010Prop44ColorIndex
 90
        5
102
RTVSPost2010Prop44ColorRGB
 90
      255
102
RTVSPost2010PropOp44
 70
     1
102
RTVSPost2010Prop45
280
     0
102
RTVSPost2010PropOp45
 70
     1
102
RTVSPost2010Prop46
 90
       50
102
RTVSPost2010PropOp46
 70
     1
102
RTVSPost2010Prop47
 90
       50
102
RTVSPost2010PropOp47
 70
     1
102
RTVSPost2010Prop48
 90
       50
102
RTVSPost2010PropOp48
 70
     1
102
RTVSPost2010Prop49
280
     0
102
RTVSPost2010PropOp49
 70
     1
102
RTVSPost2010Prop50
 90
       50
102
RTVSPost2010PropOp50
 70
     1
102
RTVSPost2010Prop51ColorIndex
 90
      256
102
RTVSPost2010Prop51ColorRGB
 90
-16777216
102
RTVSPost2010PropOp51
 70
     0
102
RTVSPost2010Prop52
140
1.0
102
RTVSPost2010PropOp52
 70
     0
102
RTVSPost2010Prop53
 90
        2
102
RTVSPost2010PropOp53
 70
     1
102
RTVSPost2010Prop54
  1
strokes_ogs.tif
102
RTVSPost2010PropOp54
 70
     1
102
RTVSPost2010Prop55
280
     0
102
RTVSPost2010PropOp55
 70
     1
102
RTVSPost2010Prop56
140
1.0
102
RTVSPost2010PropOp56
 70
     1
102
RTVSPost2010Prop57
140
1.0
102
RTVSPost2010PropOp57
 70
     1
  0
XRECORD
  5
3A6
102
{ACAD_REACTORS
330
3A5
102
}
330
3A5
100
AcDbXrecord
280
     1
102
RTVSPropertyOp0
 70
     1
102
RTVSPropertyOp1
 70
     1
102
RTVSPropertyOp2
 70
     1
102
RTVSPropertyOp3
 70
     1
102
RTVSPropertyOp4
 70
     1
102
RTVSPropertyOp5
 70
     1
102
RTVSPropertyOp6
 70
     1
102
RTVSPropertyOp7
 70
     1
102
RTVSPropertyOp8
 70
     1
102
RTVSPropertyOp9
 70
     1
102
RTVSPropertyOp10
 70
     1
102
RTVSPropertyOp11
 70
     1
102
RTVSPropertyOp12
 70
     1
102
RTVSPropertyOp13
 70
     1
102
RTVSPropertyOp14
 70
     1
102
RTVSPropertyOp15
 70
     1
102
RTVSPropertyOp16
 70
     1
102
RTVSPropertyOp17
 70
     1
102
RTVSPropertyOp18
 70
     1
102
RTVSPropertyOp19
 70
     1
102
RTVSPropertyOp20
 70
     1
102
RTVSPropertyOp21
 70
     1
102
RTVSPropertyOp22
 70
     1
102
RTVSPropertyOp23
 70
     1
102
RTVSPropertyOp24
 70
     1
102
RTVSPropertyOp25
 70
     1
102
RTVSPropertyOp26
 70
     1
102
RTVSPropertyOp27
 70
     1
102
RTVSPropertyOp28
 70
     1
102
RTVSPropertyOp29
 70
     1
102
RTVSPropertyOp30
 70
     1
102
RTVSPropertyOp31
 70
     1
102
RTVSPropertyOp32
 70
     1
102
RTVSPropertyOp33
 70
     1
102
RTVSPropertyOp34
 70
     1
102
RTVSPropertyOp35
 70
     1
102
RTVSPropertyOp36
 70
     1
102
RTVSPropertyOp37
 70
     1
102
RTVSPropertyOp38
 70
     1
102
RTVSPropertyOp39
 70
     1
102
RTVSPropertyOp40
 70
     1
102
RTVSPropertyOp41
 70
     1
102
RTVSPropertyOp42
 70
     1
102
RTVSPropertyOp43
 70
     1
102
RTVSPropertyOp44
 70
     1
102
RTVSPropertyOp45
 70
     1
102
RTVSPropertyOp46
 70
     1
102
RTVSPropertyOp47
 70
     1
102
RTVSPropertyOp48
 70
     1
102
RTVSPropertyOp49
 70
     1
102
RTVSPropertyOp50
 70
     1
102
RTVSPropertyOp51
 70
     0
102
RTVSPropertyOp52
 70
     0
102
RTVSPropertyOp53
 70
     1
102
RTVSPropertyOp54
 70
     1
102
RTVSPropertyOp55
 70
     1
102
RTVSPropertyOp56
 70
     1
102
RTVSPropertyOp57
 70
     1
102
RTVSPost2010Prop28
280
     0
102
RTVSPost2010PropOp28
 70
     1
102
RTVSPost2010Prop29
280
     1
102
RTVSPost2010PropOp29
 70
     1
102
RTVSPost2010Prop30
280
     1
102
RTVSPost2010PropOp30
 70
     1
102
RTVSPost2010Prop31
280
     0
102
RTVSPost2010PropOp31
 70
     1
102
RTVSPost2010Prop32
280
     0
102
RTVSPost2010PropOp32
 70
     1
102
RTVSPost2010Prop33
280
     0
102
RTVSPost2010PropOp33
 70
     1
102
RTVSPost2010Prop34
280
     0
102
RTVSPost2010PropOp34
 70
     1
102
RTVSPost2010Prop35
280
     0
102
RTVSPost2010PropOp35
 70
     1
102
RTVSPost2010Prop36
280
     0
102
RTVSPost2010PropOp36
 70
     1
102
RTVSPost2010Prop37
 90
       50
102
RTVSPost2010PropOp37
 70
     1
102
RTVSPost2010Prop38
140
0.0
102
RTVSPost2010PropOp38
 70
     1
102
RTVSPost2010Prop39
140
1.0
102
RTVSPost2010PropOp39
 70
     1
102
RTVSPost2010Prop40
 90
        0
102
RTVSPost2010PropOp40
 70
     1
102
RTVSPost2010Prop41ColorIndex
 90
       18
102
RTVSPost2010Prop41ColorRGB
 90
        0
102
RTVSPost2010PropOp41
 70
     1
102
RTVSPost2010Prop42
 90
       50
102
RTVSPost2010PropOp42
 70
     1
102
RTVSPost2010Prop43
 90
        3
102
RTVSPost2010PropOp43
 70
     1
102
RTVSPost2010Prop44ColorIndex
 90
        5
102
RTVSPost2010Prop44ColorRGB
 90
      255
102
RTVSPost2010PropOp44
 70
     1
102
RTVSPost2010Prop45
280
     0
102
RTVSPost2010PropOp45
 70
     1
102
RTVSPost2010Prop46
 90
       50
102
RTVSPost2010PropOp46
 70
     1
102
RTVSPost2010Prop47
 90
       50
102
RTVSPost2010PropOp47
 70
     1
102
RTVSPost2010Prop48
 90
       50
102
RTVSPost2010PropOp48
 70
     1
102
RTVSPost2010Prop49
280
     0
102
RTVSPost2010PropOp49
 70
     1
102
RTVSPost2010Prop50
 90
       50
102
RTVSPost2010PropOp50
 70
     1
102
RTVSPost2010Prop51ColorIndex
 90
      256
102
RTVSPost2010Prop51ColorRGB
 90
-16777216
102
RTVSPost2010PropOp51
 70
     0
102
RTVSPost2010Prop52
140
1.0
102
RTVSPost2010PropOp52
 70
     0
102
RTVSPost2010Prop53
 90
        2
102
RTVSPost2010PropOp53
 70
     1
102
RTVSPost2010Prop54
  1
strokes_ogs.tif
102
RTVSPost2010PropOp54
 70
     1
102
RTVSPost2010Prop55
280
     0
102
RTVSPost2010PropOp55
 70
     1
102
RTVSPost2010Prop56
140
1.0
102
RTVSPost2010PropOp56
 70
     1
102
RTVSPost2010Prop57
140
1.0
102
RTVSPost2010PropOp57
 70
     1
  0
XRECORD
  5
3AE
102
{ACAD_REACTORS
330
3AD
102
}
330
3AD
100
AcDbXrecord
280
     1
102
RTVSPropertyOp0
 70
     1
102
RTVSPropertyOp1
 70
     1
102
RTVSPropertyOp2
 70
     1
102
RTVSPropertyOp3
 70
     1
102
RTVSPropertyOp4
 70
     1
102
RTVSPropertyOp5
 70
     1
102
RTVSPropertyOp6
 70
     1
102
RTVSPropertyOp7
 70
     1
102
RTVSPropertyOp8
 70
     1
102
RTVSPropertyOp9
 70
     1
102
RTVSPropertyOp10
 70
     1
102
RTVSPropertyOp11
 70
     1
102
RTVSPropertyOp12
 70
     1
102
RTVSPropertyOp13
 70
     1
102
RTVSPropertyOp14
 70
     1
102
RTVSPropertyOp15
 70
     1
102
RTVSPropertyOp16
 70
     1
102
RTVSPropertyOp17
 70
     1
102
RTVSPropertyOp18
 70
     1
102
RTVSPropertyOp19
 70
     1
102
RTVSPropertyOp20
 70
     1
102
RTVSPropertyOp21
 70
     1
102
RTVSPropertyOp22
 70
     1
102
RTVSPropertyOp23
 70
     1
102
RTVSPropertyOp24
 70
     1
102
RTVSPropertyOp25
 70
     1
102
RTVSPropertyOp26
 70
     1
102
RTVSPropertyOp27
 70
     1
102
RTVSPropertyOp28
 70
     1
102
RTVSPropertyOp29
 70
     1
102
RTVSPropertyOp30
 70
     1
102
RTVSPropertyOp31
 70
     1
102
RTVSPropertyOp32
 70
     1
102
RTVSPropertyOp33
 70
     1
102
RTVSPropertyOp34
 70
     1
102
RTVSPropertyOp35
 70
     1
102
RTVSPropertyOp36
 70
     1
102
RTVSPropertyOp37
 70
     1
102
RTVSPropertyOp38
 70
     1
102
RTVSPropertyOp39
 70
     1
102
RTVSPropertyOp40
 70
     1
102
RTVSPropertyOp41
 70
     1
102
RTVSPropertyOp42
 70
     1
102
RTVSPropertyOp43
 70
     1
102
RTVSPropertyOp44
 70
     1
102
RTVSPropertyOp45
 70
     1
102
RTVSPropertyOp46
 70
     1
102
RTVSPropertyOp47
 70
     1
102
RTVSPropertyOp48
 70
     1
102
RTVSPropertyOp49
 70
     1
102
RTVSPropertyOp50
 70
     1
102
RTVSPropertyOp51
 70
     0
102
RTVSPropertyOp52
 70
     0
102
RTVSPropertyOp53
 70
     1
102
RTVSPropertyOp54
 70
     1
102
RTVSPropertyOp55
 70
     1
102
RTVSPropertyOp56
 70
     1
102
RTVSPropertyOp57
 70
     1
102
RTVSPost2010Prop28
280
     0
102
RTVSPost2010PropOp28
 70
     1
102
RTVSPost2010Prop29
280
     1
102
RTVSPost2010PropOp29
 70
     1
102
RTVSPost2010Prop30
280
     1
102
RTVSPost2010PropOp30
 70
     1
102
RTVSPost2010Prop31
280
     0
102
RTVSPost2010PropOp31
 70
     1
102
RTVSPost2010Prop32
280
     0
102
RTVSPost2010PropOp32
 70
     1
102
RTVSPost2010Prop33
280
     0
102
RTVSPost2010PropOp33
 70
     1
102
RTVSPost2010Prop34
280
     0
102
RTVSPost2010PropOp34
 70
     1
102
RTVSPost2010Prop35
280
     0
102
RTVSPost2010PropOp35
 70
     1
102
RTVSPost2010Prop36
280
     0
102
RTVSPost2010PropOp36
 70
     1
102
RTVSPost2010Prop37
 90
       50
102
RTVSPost2010PropOp37
 70
     1
102
RTVSPost2010Prop38
140
0.0
102
RTVSPost2010PropOp38
 70
     1
102
RTVSPost2010Prop39
140
1.0
102
RTVSPost2010PropOp39
 70
     1
102
RTVSPost2010Prop40
 90
        0
102
RTVSPost2010PropOp40
 70
     1
102
RTVSPost2010Prop41ColorIndex
 90
       18
102
RTVSPost2010Prop41ColorRGB
 90
        0
102
RTVSPost2010PropOp41
 70
     1
102
RTVSPost2010Prop42
 90
       50
102
RTVSPost2010PropOp42
 70
     1
102
RTVSPost2010Prop43
 90
        3
102
RTVSPost2010PropOp43
 70
     1
102
RTVSPost2010Prop44ColorIndex
 90
        5
102
RTVSPost2010Prop44ColorRGB
 90
      255
102
RTVSPost2010PropOp44
 70
     1
102
RTVSPost2010Prop45
280
     0
102
RTVSPost2010PropOp45
 70
     1
102
RTVSPost2010Prop46
 90
       50
102
RTVSPost2010PropOp46
 70
     1
102
RTVSPost2010Prop47
 90
       50
102
RTVSPost2010PropOp47
 70
     1
102
RTVSPost2010Prop48
 90
       50
102
RTVSPost2010PropOp48
 70
     1
102
RTVSPost2010Prop49
280
     0
102
RTVSPost2010PropOp49
 70
     1
102
RTVSPost2010Prop50
 90
       50
102
RTVSPost2010PropOp50
 70
     1
102
RTVSPost2010Prop51ColorIndex
 90
      256
102
RTVSPost2010Prop51ColorRGB
 90
-16777216
102
RTVSPost2010PropOp51
 70
     0
102
RTVSPost2010Prop52
140
1.0
102
RTVSPost2010PropOp52
 70
     0
102
RTVSPost2010Prop53
 90
        2
102
RTVSPost2010PropOp53
 70
     1
102
RTVSPost2010Prop54
  1
strokes_ogs.tif
102
RTVSPost2010PropOp54
 70
     1
102
RTVSPost2010Prop55
280
     0
102
RTVSPost2010PropOp55
 70
     1
102
RTVSPost2010Prop56
140
1.0
102
RTVSPost2010PropOp56
 70
     1
102
RTVSPost2010Prop57
140
1.0
102
RTVSPost2010PropOp57
 70
     1
  0
XRECORD
  5
3B6
102
{ACAD_REACTORS
330
3B5
102
}
330
3B5
100
AcDbXrecord
280
     1
102
RTVSPropertyOp0
 70
     1
102
RTVSPropertyOp1
 70
     1
102
RTVSPropertyOp2
 70
     1
102
RTVSPropertyOp3
 70
     1
102
RTVSPropertyOp4
 70
     1
102
RTVSPropertyOp5
 70
     1
102
RTVSPropertyOp6
 70
     1
102
RTVSPropertyOp7
 70
     1
102
RTVSPropertyOp8
 70
     1
102
RTVSPropertyOp9
 70
     1
102
RTVSPropertyOp10
 70
     1
102
RTVSPropertyOp11
 70
     1
102
RTVSPropertyOp12
 70
     1
102
RTVSPropertyOp13
 70
     1
102
RTVSPropertyOp14
 70
     1
102
RTVSPropertyOp15
 70
     1
102
RTVSPropertyOp16
 70
     1
102
RTVSPropertyOp17
 70
     1
102
RTVSPropertyOp18
 70
     1
102
RTVSPropertyOp19
 70
     1
102
RTVSPropertyOp20
 70
     1
102
RTVSPropertyOp21
 70
     1
102
RTVSPropertyOp22
 70
     1
102
RTVSPropertyOp23
 70
     1
102
RTVSPropertyOp24
 70
     1
102
RTVSPropertyOp25
 70
     1
102
RTVSPropertyOp26
 70
     1
102
RTVSPropertyOp27
 70
     1
102
RTVSPropertyOp28
 70
     1
102
RTVSPropertyOp29
 70
     1
102
RTVSPropertyOp30
 70
     1
102
RTVSPropertyOp31
 70
     1
102
RTVSPropertyOp32
 70
     1
102
RTVSPropertyOp33
 70
     1
102
RTVSPropertyOp34
 70
     1
102
RTVSPropertyOp35
 70
     1
102
RTVSPropertyOp36
 70
     1
102
RTVSPropertyOp37
 70
     1
102
RTVSPropertyOp38
 70
     1
102
RTVSPropertyOp39
 70
     1
102
RTVSPropertyOp40
 70
     1
102
RTVSPropertyOp41
 70
     1
102
RTVSPropertyOp42
 70
     1
102
RTVSPropertyOp43
 70
     1
102
RTVSPropertyOp44
 70
     1
102
RTVSPropertyOp45
 70
     1
102
RTVSPropertyOp46
 70
     1
102
RTVSPropertyOp47
 70
     1
102
RTVSPropertyOp48
 70
     1
102
RTVSPropertyOp49
 70
     1
102
RTVSPropertyOp50
 70
     1
102
RTVSPropertyOp51
 70
     0
102
RTVSPropertyOp52
 70
     0
102
RTVSPropertyOp53
 70
     1
102
RTVSPropertyOp54
 70
     1
102
RTVSPropertyOp55
 70
     1
102
RTVSPropertyOp56
 70
     1
102
RTVSPropertyOp57
 70
     1
102
RTVSPost2010Prop28
280
     0
102
RTVSPost2010PropOp28
 70
     1
102
RTVSPost2010Prop29
280
     1
102
RTVSPost2010PropOp29
 70
     1
102
RTVSPost2010Prop30
280
     1
102
RTVSPost2010PropOp30
 70
     1
102
RTVSPost2010Prop31
280
     0
102
RTVSPost2010PropOp31
 70
     1
102
RTVSPost2010Prop32
280
     0
102
RTVSPost2010PropOp32
 70
     1
102
RTVSPost2010Prop33
280
     0
102
RTVSPost2010PropOp33
 70
     1
102
RTVSPost2010Prop34
280
     0
102
RTVSPost2010PropOp34
 70
     1
102
RTVSPost2010Prop35
280
     0
102
RTVSPost2010PropOp35
 70
     1
102
RTVSPost2010Prop36
280
     0
102
RTVSPost2010PropOp36
 70
     1
102
RTVSPost2010Prop37
 90
       50
102
RTVSPost2010PropOp37
 70
     1
102
RTVSPost2010Prop38
140
0.0
102
RTVSPost2010PropOp38
 70
     1
102
RTVSPost2010Prop39
140
1.0
102
RTVSPost2010PropOp39
 70
     1
102
RTVSPost2010Prop40
 90
        0
102
RTVSPost2010PropOp40
 70
     1
102
RTVSPost2010Prop41ColorIndex
 90
       18
102
RTVSPost2010Prop41ColorRGB
 90
        0
102
RTVSPost2010PropOp41
 70
     1
102
RTVSPost2010Prop42
 90
       50
102
RTVSPost2010PropOp42
 70
     1
102
RTVSPost2010Prop43
 90
        3
102
RTVSPost2010PropOp43
 70
     1
102
RTVSPost2010Prop44ColorIndex
 90
        5
102
RTVSPost2010Prop44ColorRGB
 90
      255
102
RTVSPost2010PropOp44
 70
     1
102
RTVSPost2010Prop45
280
     0
102
RTVSPost2010PropOp45
 70
     1
102
RTVSPost2010Prop46
 90
       50
102
RTVSPost2010PropOp46
 70
     1
102
RTVSPost2010Prop47
 90
       50
102
RTVSPost2010PropOp47
 70
     1
102
RTVSPost2010Prop48
 90
       50
102
RTVSPost2010PropOp48
 70
     1
102
RTVSPost2010Prop49
280
     0
102
RTVSPost2010PropOp49
 70
     1
102
RTVSPost2010Prop50
 90
       50
102
RTVSPost2010PropOp50
 70
     1
102
RTVSPost2010Prop51ColorIndex
 90
      256
102
RTVSPost2010Prop51ColorRGB
 90
-16777216
102
RTVSPost2010PropOp51
 70
     0
102
RTVSPost2010Prop52
140
1.0
102
RTVSPost2010PropOp52
 70
     0
102
RTVSPost2010Prop53
 90
        2
102
RTVSPost2010PropOp53
 70
     1
102
RTVSPost2010Prop54
  1
strokes_ogs.tif
102
RTVSPost2010PropOp54
 70
     1
102
RTVSPost2010Prop55
280
     0
102
RTVSPost2010PropOp55
 70
     1
102
RTVSPost2010Prop56
140
1.0
102
RTVSPost2010PropOp56
 70
     1
102
RTVSPost2010Prop57
140
1.0
102
RTVSPost2010PropOp57
 70
     1
  0
XRECORD
  5
3AA
102
{ACAD_REACTORS
330
3A9
102
}
330
3A9
100
AcDbXrecord
280
     1
102
RTVSPropertyOp0
 70
     1
102
RTVSPropertyOp1
 70
     1
102
RTVSPropertyOp2
 70
     1
102
RTVSPropertyOp3
 70
     1
102
RTVSPropertyOp4
 70
     1
102
RTVSPropertyOp5
 70
     1
102
RTVSPropertyOp6
 70
     1
102
RTVSPropertyOp7
 70
     1
102
RTVSPropertyOp8
 70
     1
102
RTVSPropertyOp9
 70
     1
102
RTVSPropertyOp10
 70
     1
102
RTVSPropertyOp11
 70
     1
102
RTVSPropertyOp12
 70
     1
102
RTVSPropertyOp13
 70
     1
102
RTVSPropertyOp14
 70
     1
102
RTVSPropertyOp15
 70
     1
102
RTVSPropertyOp16
 70
     1
102
RTVSPropertyOp17
 70
     1
102
RTVSPropertyOp18
 70
     1
102
RTVSPropertyOp19
 70
     1
102
RTVSPropertyOp20
 70
     1
102
RTVSPropertyOp21
 70
     1
102
RTVSPropertyOp22
 70
     1
102
RTVSPropertyOp23
 70
     1
102
RTVSPropertyOp24
 70
     1
102
RTVSPropertyOp25
 70
     1
102
RTVSPropertyOp26
 70
     1
102
RTVSPropertyOp27
 70
     1
102
RTVSPropertyOp28
 70
     1
102
RTVSPropertyOp29
 70
     1
102
RTVSPropertyOp30
 70
     1
102
RTVSPropertyOp31
 70
     1
102
RTVSPropertyOp32
 70
     1
102
RTVSPropertyOp33
 70
     1
102
RTVSPropertyOp34
 70
     1
102
RTVSPropertyOp35
 70
     1
102
RTVSPropertyOp36
 70
     1
102
RTVSPropertyOp37
 70
     1
102
RTVSPropertyOp38
 70
     1
102
RTVSPropertyOp39
 70
     1
102
RTVSPropertyOp40
 70
     1
102
RTVSPropertyOp41
 70
     1
102
RTVSPropertyOp42
 70
     1
102
RTVSPropertyOp43
 70
     1
102
RTVSPropertyOp44
 70
     1
102
RTVSPropertyOp45
 70
     1
102
RTVSPropertyOp46
 70
     1
102
RTVSPropertyOp47
 70
     1
102
RTVSPropertyOp48
 70
     1
102
RTVSPropertyOp49
 70
     1
102
RTVSPropertyOp50
 70
     1
102
RTVSPropertyOp51
 70
     0
102
RTVSPropertyOp52
 70
     0
102
RTVSPropertyOp53
 70
     1
102
RTVSPropertyOp54
 70
     1
102
RTVSPropertyOp55
 70
     1
102
RTVSPropertyOp56
 70
     1
102
RTVSPropertyOp57
 70
     1
102
RTVSPost2010Prop28
280
     0
102
RTVSPost2010PropOp28
 70
     1
102
RTVSPost2010Prop29
280
     1
102
RTVSPost2010PropOp29
 70
     1
102
RTVSPost2010Prop30
280
     1
102
RTVSPost2010PropOp30
 70
     1
102
RTVSPost2010Prop31
280
     0
102
RTVSPost2010PropOp31
 70
     1
102
RTVSPost2010Prop32
280
     0
102
RTVSPost2010PropOp32
 70
     1
102
RTVSPost2010Prop33
280
     0
102
RTVSPost2010PropOp33
 70
     1
102
RTVSPost2010Prop34
280
     0
102
RTVSPost2010PropOp34
 70
     1
102
RTVSPost2010Prop35
280
     0
102
RTVSPost2010PropOp35
 70
     1
102
RTVSPost2010Prop36
280
     0
102
RTVSPost2010PropOp36
 70
     1
102
RTVSPost2010Prop37
 90
       50
102
RTVSPost2010PropOp37
 70
     1
102
RTVSPost2010Prop38
140
0.0
102
RTVSPost2010PropOp38
 70
     1
102
RTVSPost2010Prop39
140
1.0
102
RTVSPost2010PropOp39
 70
     1
102
RTVSPost2010Prop40
 90
        0
102
RTVSPost2010PropOp40
 70
     1
102
RTVSPost2010Prop41ColorIndex
 90
       18
102
RTVSPost2010Prop41ColorRGB
 90
        0
102
RTVSPost2010PropOp41
 70
     1
102
RTVSPost2010Prop42
 90
       50
102
RTVSPost2010PropOp42
 70
     1
102
RTVSPost2010Prop43
 90
        3
102
RTVSPost2010PropOp43
 70
     1
102
RTVSPost2010Prop44ColorIndex
 90
        5
102
RTVSPost2010Prop44ColorRGB
 90
      255
102
RTVSPost2010PropOp44
 70
     1
102
RTVSPost2010Prop45
280
     0
102
RTVSPost2010PropOp45
 70
     1
102
RTVSPost2010Prop46
 90
       50
102
RTVSPost2010PropOp46
 70
     1
102
RTVSPost2010Prop47
 90
       50
102
RTVSPost2010PropOp47
 70
     1
102
RTVSPost2010Prop48
 90
       50
102
RTVSPost2010PropOp48
 70
     1
102
RTVSPost2010Prop49
280
     0
102
RTVSPost2010PropOp49
 70
     1
102
RTVSPost2010Prop50
 90
       50
102
RTVSPost2010PropOp50
 70
     1
102
RTVSPost2010Prop51ColorIndex
 90
      256
102
RTVSPost2010Prop51ColorRGB
 90
-16777216
102
RTVSPost2010PropOp51
 70
     0
102
RTVSPost2010Prop52
140
1.0
102
RTVSPost2010PropOp52
 70
     0
102
RTVSPost2010Prop53
 90
        2
102
RTVSPost2010PropOp53
 70
     1
102
RTVSPost2010Prop54
  1
strokes_ogs.tif
102
RTVSPost2010PropOp54
 70
     1
102
RTVSPost2010Prop55
280
     0
102
RTVSPost2010PropOp55
 70
     1
102
RTVSPost2010Prop56
140
1.0
102
RTVSPost2010PropOp56
 70
     1
102
RTVSPost2010Prop57
140
1.0
102
RTVSPost2010PropOp57
 70
     1
  0
XRECORD
  5
3AC
102
{ACAD_REACTORS
330
3AB
102
}
330
3AB
100
AcDbXrecord
280
     1
102
RTVSPropertyOp0
 70
     1
102
RTVSPropertyOp1
 70
     1
102
RTVSPropertyOp2
 70
     1
102
RTVSPropertyOp3
 70
     1
102
RTVSPropertyOp4
 70
     1
102
RTVSPropertyOp5
 70
     1
102
RTVSPropertyOp6
 70
     1
102
RTVSPropertyOp7
 70
     1
102
RTVSPropertyOp8
 70
     1
102
RTVSPropertyOp9
 70
     1
102
RTVSPropertyOp10
 70
     1
102
RTVSPropertyOp11
 70
     1
102
RTVSPropertyOp12
 70
     1
102
RTVSPropertyOp13
 70
     1
102
RTVSPropertyOp14
 70
     1
102
RTVSPropertyOp15
 70
     1
102
RTVSPropertyOp16
 70
     1
102
RTVSPropertyOp17
 70
     1
102
RTVSPropertyOp18
 70
     1
102
RTVSPropertyOp19
 70
     1
102
RTVSPropertyOp20
 70
     1
102
RTVSPropertyOp21
 70
     1
102
RTVSPropertyOp22
 70
     1
102
RTVSPropertyOp23
 70
     1
102
RTVSPropertyOp24
 70
     1
102
RTVSPropertyOp25
 70
     1
102
RTVSPropertyOp26
 70
     1
102
RTVSPropertyOp27
 70
     1
102
RTVSPropertyOp28
 70
     1
102
RTVSPropertyOp29
 70
     1
102
RTVSPropertyOp30
 70
     1
102
RTVSPropertyOp31
 70
     1
102
RTVSPropertyOp32
 70
     1
102
RTVSPropertyOp33
 70
     1
102
RTVSPropertyOp34
 70
     1
102
RTVSPropertyOp35
 70
     1
102
RTVSPropertyOp36
 70
     1
102
RTVSPropertyOp37
 70
     1
102
RTVSPropertyOp38
 70
     1
102
RTVSPropertyOp39
 70
     1
102
RTVSPropertyOp40
 70
     1
102
RTVSPropertyOp41
 70
     1
102
RTVSPropertyOp42
 70
     1
102
RTVSPropertyOp43
 70
     1
102
RTVSPropertyOp44
 70
     1
102
RTVSPropertyOp45
 70
     1
102
RTVSPropertyOp46
 70
     1
102
RTVSPropertyOp47
 70
     1
102
RTVSPropertyOp48
 70
     1
102
RTVSPropertyOp49
 70
     1
102
RTVSPropertyOp50
 70
     1
102
RTVSPropertyOp51
 70
     0
102
RTVSPropertyOp52
 70
     0
102
RTVSPropertyOp53
 70
     1
102
RTVSPropertyOp54
 70
     1
102
RTVSPropertyOp55
 70
     1
102
RTVSPropertyOp56
 70
     1
102
RTVSPropertyOp57
 70
     1
102
RTVSPost2010Prop28
280
     0
102
RTVSPost2010PropOp28
 70
     1
102
RTVSPost2010Prop29
280
     1
102
RTVSPost2010PropOp29
 70
     1
102
RTVSPost2010Prop30
280
     1
102
RTVSPost2010PropOp30
 70
     1
102
RTVSPost2010Prop31
280
     0
102
RTVSPost2010PropOp31
 70
     1
102
RTVSPost2010Prop32
280
     0
102
RTVSPost2010PropOp32
 70
     1
102
RTVSPost2010Prop33
280
     0
102
RTVSPost2010PropOp33
 70
     1
102
RTVSPost2010Prop34
280
     0
102
RTVSPost2010PropOp34
 70
     1
102
RTVSPost2010Prop35
280
     0
102
RTVSPost2010PropOp35
 70
     1
102
RTVSPost2010Prop36
280
     0
102
RTVSPost2010PropOp36
 70
     1
102
RTVSPost2010Prop37
 90
       50
102
RTVSPost2010PropOp37
 70
     1
102
RTVSPost2010Prop38
140
0.0
102
RTVSPost2010PropOp38
 70
     1
102
RTVSPost2010Prop39
140
1.0
102
RTVSPost2010PropOp39
 70
     1
102
RTVSPost2010Prop40
 90
        0
102
RTVSPost2010PropOp40
 70
     1
102
RTVSPost2010Prop41ColorIndex
 90
       18
102
RTVSPost2010Prop41ColorRGB
 90
        0
102
RTVSPost2010PropOp41
 70
     1
102
RTVSPost2010Prop42
 90
       50
102
RTVSPost2010PropOp42
 70
     1
102
RTVSPost2010Prop43
 90
        3
102
RTVSPost2010PropOp43
 70
     1
102
RTVSPost2010Prop44ColorIndex
 90
        5
102
RTVSPost2010Prop44ColorRGB
 90
      255
102
RTVSPost2010PropOp44
 70
     1
102
RTVSPost2010Prop45
280
     0
102
RTVSPost2010PropOp45
 70
     1
102
RTVSPost2010Prop46
 90
       50
102
RTVSPost2010PropOp46
 70
     1
102
RTVSPost2010Prop47
 90
       50
102
RTVSPost2010PropOp47
 70
     1
102
RTVSPost2010Prop48
 90
       50
102
RTVSPost2010PropOp48
 70
     1
102
RTVSPost2010Prop49
280
     0
102
RTVSPost2010PropOp49
 70
     1
102
RTVSPost2010Prop50
 90
       50
102
RTVSPost2010PropOp50
 70
     1
102
RTVSPost2010Prop51ColorIndex
 90
      256
102
RTVSPost2010Prop51ColorRGB
 90
-16777216
102
RTVSPost2010PropOp51
 70
     0
102
RTVSPost2010Prop52
140
1.0
102
RTVSPost2010PropOp52
 70
     0
102
RTVSPost2010Prop53
 90
        2
102
RTVSPost2010PropOp53
 70
     1
102
RTVSPost2010Prop54
  1
strokes_ogs.tif
102
RTVSPost2010PropOp54
 70
     1
102
RTVSPost2010Prop55
280
     0
102
RTVSPost2010PropOp55
 70
     1
102
RTVSPost2010Prop56
140
1.0
102
RTVSPost2010PropOp56
 70
     1
102
RTVSPost2010Prop57
140
1.0
102
RTVSPost2010PropOp57
 70
     1
  0
XRECORD
  5
3BC
102
{ACAD_REACTORS
330
3BB
102
}
330
3BB
100
AcDbXrecord
280
     1
102
RTVSPropertyOp0
 70
     0
102
RTVSPropertyOp1
 70
     0
102
RTVSPropertyOp2
 70
     0
102
RTVSPropertyOp3
 70
     0
102
RTVSPropertyOp4
 70
     0
102
RTVSPropertyOp5
 70
     0
102
RTVSPropertyOp6
 70
     0
102
RTVSPropertyOp7
 70
     0
102
RTVSPropertyOp8
 70
     0
102
RTVSPropertyOp9
 70
     0
102
RTVSPropertyOp10
 70
     0
102
RTVSPropertyOp11
 70
     0
102
RTVSPropertyOp12
 70
     0
102
RTVSPropertyOp13
 70
     0
102
RTVSPropertyOp14
 70
     2
102
RTVSPropertyOp15
 70
     0
102
RTVSPropertyOp16
 70
     0
102
RTVSPropertyOp17
 70
     0
102
RTVSPropertyOp18
 70
     0
102
RTVSPropertyOp19
 70
     0
102
RTVSPropertyOp20
 70
     0
102
RTVSPropertyOp21
 70
     0
102
RTVSPropertyOp22
 70
     0
102
RTVSPropertyOp23
 70
     0
102
RTVSPropertyOp24
 70
     0
102
RTVSPropertyOp25
 70
     0
102
RTVSPropertyOp26
 70
     0
102
RTVSPropertyOp27
 70
     0
102
RTVSPropertyOp28
 70
     0
102
RTVSPropertyOp29
 70
     0
102
RTVSPropertyOp30
 70
     0
102
RTVSPropertyOp31
 70
     0
102
RTVSPropertyOp32
 70
     0
102
RTVSPropertyOp33
 70
     0
102
RTVSPropertyOp34
 70
     0
102
RTVSPropertyOp35
 70
     0
102
RTVSPropertyOp36
 70
     0
102
RTVSPropertyOp37
 70
     0
102
RTVSPropertyOp38
 70
     0
102
RTVSPropertyOp39
 70
     0
102
RTVSPropertyOp40
 70
     0
102
RTVSPropertyOp41
 70
     0
102
RTVSPropertyOp42
 70
     0
102
RTVSPropertyOp43
 70
     0
102
RTVSPropertyOp44
 70
     0
102
RTVSPropertyOp45
 70
     0
102
RTVSPropertyOp46
 70
     0
102
RTVSPropertyOp47
 70
     0
102
RTVSPropertyOp48
 70
     0
102
RTVSPropertyOp49
 70
     0
102
RTVSPropertyOp50
 70
     0
102
RTVSPropertyOp51
 70
     0
102
RTVSPropertyOp52
 70
     0
102
RTVSPropertyOp53
 70
     0
102
RTVSPropertyOp54
 70
     0
102
RTVSPropertyOp55
 70
     0
102
RTVSPropertyOp56
 70
     0
102
RTVSPropertyOp57
 70
     0
102
RTVSPost2010Prop28
280
     0
102
RTVSPost2010PropOp28
 70
     0
102
RTVSPost2010Prop29
280
     1
102
RTVSPost2010PropOp29
 70
     0
102
RTVSPost2010Prop30
280
     1
102
RTVSPost2010PropOp30
 70
     0
102
RTVSPost2010Prop31
280
     0
102
RTVSPost2010PropOp31
 70
     0
102
RTVSPost2010Prop32
280
     0
102
RTVSPost2010PropOp32
 70
     0
102
RTVSPost2010Prop33
280
     0
102
RTVSPost2010PropOp33
 70
     0
102
RTVSPost2010Prop34
280
     0
102
RTVSPost2010PropOp34
 70
     0
102
RTVSPost2010Prop35
280
     0
102
RTVSPost2010PropOp35
 70
     0
102
RTVSPost2010Prop36
280
     0
102
RTVSPost2010PropOp36
 70
     0
102
RTVSPost2010Prop37
 90
       50
102
RTVSPost2010PropOp37
 70
     0
102
RTVSPost2010Prop38
140
0.0
102
RTVSPost2010PropOp38
 70
     0
102
RTVSPost2010Prop39
140
1.0
102
RTVSPost2010PropOp39
 70
     0
102
RTVSPost2010Prop40
 90
        0
102
RTVSPost2010PropOp40
 70
     0
102
RTVSPost2010Prop41ColorIndex
 90
       18
102
RTVSPost2010Prop41ColorRGB
 90
        0
102
RTVSPost2010PropOp41
 70
     0
102
RTVSPost2010Prop42
 90
       50
102
RTVSPost2010PropOp42
 70
     0
102
RTVSPost2010Prop43
 90
        3
102
RTVSPost2010PropOp43
 70
     0
102
RTVSPost2010Prop44ColorIndex
 90
        5
102
RTVSPost2010Prop44ColorRGB
 90
      255
102
RTVSPost2010PropOp44
 70
     0
102
RTVSPost2010Prop45
280
     0
102
RTVSPost2010PropOp45
 70
     0
102
RTVSPost2010Prop46
 90
       50
102
RTVSPost2010PropOp46
 70
     0
102
RTVSPost2010Prop47
 90
       50
102
RTVSPost2010PropOp47
 70
     0
102
RTVSPost2010Prop48
 90
       50
102
RTVSPost2010PropOp48
 70
     0
102
RTVSPost2010Prop49
280
     0
102
RTVSPost2010PropOp49
 70
     0
102
RTVSPost2010Prop50
 90
       50
102
RTVSPost2010PropOp50
 70
     0
102
RTVSPost2010Prop51ColorIndex
 90
      256
102
RTVSPost2010Prop51ColorRGB
 90
-16777216
102
RTVSPost2010PropOp51
 70
     0
102
RTVSPost2010Prop52
140
1.0
102
RTVSPost2010PropOp52
 70
     0
102
RTVSPost2010Prop53
 90
        2
102
RTVSPost2010PropOp53
 70
     0
102
RTVSPost2010Prop54
  1
strokes_ogs.tif
102
RTVSPost2010PropOp54
 70
     0
102
RTVSPost2010Prop55
280
     0
102
RTVSPost2010PropOp55
 70
     0
102
RTVSPost2010Prop56
140
1.0
102
RTVSPost2010PropOp56
 70
     0
102
RTVSPost2010Prop57
140
1.0
102
RTVSPost2010PropOp57
 70
     0
  0
XRECORD
  5
3B4
102
{ACAD_REACTORS
330
3B3
102
}
330
3B3
100
AcDbXrecord
280
     1
102
RTVSPropertyOp0
 70
     1
102
RTVSPropertyOp1
 70
     1
102
RTVSPropertyOp2
 70
     1
102
RTVSPropertyOp3
 70
     1
102
RTVSPropertyOp4
 70
     1
102
RTVSPropertyOp5
 70
     1
102
RTVSPropertyOp6
 70
     1
102
RTVSPropertyOp7
 70
     1
102
RTVSPropertyOp8
 70
     1
102
RTVSPropertyOp9
 70
     1
102
RTVSPropertyOp10
 70
     1
102
RTVSPropertyOp11
 70
     1
102
RTVSPropertyOp12
 70
     1
102
RTVSPropertyOp13
 70
     1
102
RTVSPropertyOp14
 70
     1
102
RTVSPropertyOp15
 70
     1
102
RTVSPropertyOp16
 70
     1
102
RTVSPropertyOp17
 70
     1
102
RTVSPropertyOp18
 70
     1
102
RTVSPropertyOp19
 70
     1
102
RTVSPropertyOp20
 70
     1
102
RTVSPropertyOp21
 70
     1
102
RTVSPropertyOp22
 70
     1
102
RTVSPropertyOp23
 70
     1
102
RTVSPropertyOp24
 70
     1
102
RTVSPropertyOp25
 70
     1
102
RTVSPropertyOp26
 70
     1
102
RTVSPropertyOp27
 70
     1
102
RTVSPropertyOp28
 70
     1
102
RTVSPropertyOp29
 70
     1
102
RTVSPropertyOp30
 70
     1
102
RTVSPropertyOp31
 70
     1
102
RTVSPropertyOp32
 70
     1
102
RTVSPropertyOp33
 70
     1
102
RTVSPropertyOp34
 70
     1
102
RTVSPropertyOp35
 70
     1
102
RTVSPropertyOp36
 70
     1
102
RTVSPropertyOp37
 70
     1
102
RTVSPropertyOp38
 70
     1
102
RTVSPropertyOp39
 70
     1
102
RTVSPropertyOp40
 70
     1
102
RTVSPropertyOp41
 70
     1
102
RTVSPropertyOp42
 70
     1
102
RTVSPropertyOp43
 70
     1
102
RTVSPropertyOp44
 70
     1
102
RTVSPropertyOp45
 70
     1
102
RTVSPropertyOp46
 70
     1
102
RTVSPropertyOp47
 70
     1
102
RTVSPropertyOp48
 70
     1
102
RTVSPropertyOp49
 70
     1
102
RTVSPropertyOp50
 70
     1
102
RTVSPropertyOp51
 70
     0
102
RTVSPropertyOp52
 70
     0
102
RTVSPropertyOp53
 70
     1
102
RTVSPropertyOp54
 70
     1
102
RTVSPropertyOp55
 70
     1
102
RTVSPropertyOp56
 70
     1
102
RTVSPropertyOp57
 70
     1
102
RTVSPost2010Prop28
280
     0
102
RTVSPost2010PropOp28
 70
     1
102
RTVSPost2010Prop29
280
     1
102
RTVSPost2010PropOp29
 70
     1
102
RTVSPost2010Prop30
280
     1
102
RTVSPost2010PropOp30
 70
     1
102
RTVSPost2010Prop31
280
     0
102
RTVSPost2010PropOp31
 70
     1
102
RTVSPost2010Prop32
280
     0
102
RTVSPost2010PropOp32
 70
     1
102
RTVSPost2010Prop33
280
     0
102
RTVSPost2010PropOp33
 70
     1
102
RTVSPost2010Prop34
280
     0
102
RTVSPost2010PropOp34
 70
     1
102
RTVSPost2010Prop35
280
     0
102
RTVSPost2010PropOp35
 70
     1
102
RTVSPost2010Prop36
280
     0
102
RTVSPost2010PropOp36
 70
     1
102
RTVSPost2010Prop37
 90
       50
102
RTVSPost2010PropOp37
 70
     1
102
RTVSPost2010Prop38
140
0.0
102
RTVSPost2010PropOp38
 70
     1
102
RTVSPost2010Prop39
140
1.0
102
RTVSPost2010PropOp39
 70
     1
102
RTVSPost2010Prop40
 90
        0
102
RTVSPost2010PropOp40
 70
     1
102
RTVSPost2010Prop41ColorIndex
 90
       18
102
RTVSPost2010Prop41ColorRGB
 90
        0
102
RTVSPost2010PropOp41
 70
     1
102
RTVSPost2010Prop42
 90
       50
102
RTVSPost2010PropOp42
 70
     1
102
RTVSPost2010Prop43
 90
        3
102
RTVSPost2010PropOp43
 70
     1
102
RTVSPost2010Prop44ColorIndex
 90
        5
102
RTVSPost2010Prop44ColorRGB
 90
      255
102
RTVSPost2010PropOp44
 70
     1
102
RTVSPost2010Prop45
280
     0
102
RTVSPost2010PropOp45
 70
     1
102
RTVSPost2010Prop46
 90
       50
102
RTVSPost2010PropOp46
 70
     1
102
RTVSPost2010Prop47
 90
       50
102
RTVSPost2010PropOp47
 70
     1
102
RTVSPost2010Prop48
 90
       50
102
RTVSPost2010PropOp48
 70
     1
102
RTVSPost2010Prop49
280
     0
102
RTVSPost2010PropOp49
 70
     1
102
RTVSPost2010Prop50
 90
       50
102
RTVSPost2010PropOp50
 70
     1
102
RTVSPost2010Prop51ColorIndex
 90
      256
102
RTVSPost2010Prop51ColorRGB
 90
-16777216
102
RTVSPost2010PropOp51
 70
     0
102
RTVSPost2010Prop52
140
1.0
102
RTVSPost2010PropOp52
 70
     0
102
RTVSPost2010Prop53
 90
        2
102
RTVSPost2010PropOp53
 70
     1
102
RTVSPost2010Prop54
  1
strokes_ogs.tif
102
RTVSPost2010PropOp54
 70
     1
102
RTVSPost2010Prop55
280
     0
102
RTVSPost2010PropOp55
 70
     1
102
RTVSPost2010Prop56
140
1.0
102
RTVSPost2010PropOp56
 70
     1
102
RTVSPost2010Prop57
140
1.0
102
RTVSPost2010PropOp57
 70
     1
  0
XRECORD
  5
398
102
{ACAD_REACTORS
330
397
102
}
330
397
100
AcDbXrecord
280
     1
102
RTVSPropertyOp0
 70
     1
102
RTVSPropertyOp1
 70
     1
102
RTVSPropertyOp2
 70
     1
102
RTVSPropertyOp3
 70
     1
102
RTVSPropertyOp4
 70
     1
102
RTVSPropertyOp5
 70
     1
102
RTVSPropertyOp6
 70
     1
102
RTVSPropertyOp7
 70
     1
102
RTVSPropertyOp8
 70
     1
102
RTVSPropertyOp9
 70
     1
102
RTVSPropertyOp10
 70
     1
102
RTVSPropertyOp11
 70
     1
102
RTVSPropertyOp12
 70
     1
102
RTVSPropertyOp13
 70
     1
102
RTVSPropertyOp14
 70
     1
102
RTVSPropertyOp15
 70
     1
102
RTVSPropertyOp16
 70
     1
102
RTVSPropertyOp17
 70
     1
102
RTVSPropertyOp18
 70
     1
102
RTVSPropertyOp19
 70
     1
102
RTVSPropertyOp20
 70
     1
102
RTVSPropertyOp21
 70
     1
102
RTVSPropertyOp22
 70
     1
102
RTVSPropertyOp23
 70
     1
102
RTVSPropertyOp24
 70
     1
102
RTVSPropertyOp25
 70
     1
102
RTVSPropertyOp26
 70
     1
102
RTVSPropertyOp27
 70
     1
102
RTVSPropertyOp28
 70
     1
102
RTVSPropertyOp29
 70
     1
102
RTVSPropertyOp30
 70
     1
102
RTVSPropertyOp31
 70
     1
102
RTVSPropertyOp32
 70
     1
102
RTVSPropertyOp33
 70
     1
102
RTVSPropertyOp34
 70
     1
102
RTVSPropertyOp35
 70
     1
102
RTVSPropertyOp36
 70
     1
102
RTVSPropertyOp37
 70
     1
102
RTVSPropertyOp38
 70
     1
102
RTVSPropertyOp39
 70
     1
102
RTVSPropertyOp40
 70
     1
102
RTVSPropertyOp41
 70
     1
102
RTVSPropertyOp42
 70
     1
102
RTVSPropertyOp43
 70
     1
102
RTVSPropertyOp44
 70
     1
102
RTVSPropertyOp45
 70
     1
102
RTVSPropertyOp46
 70
     1
102
RTVSPropertyOp47
 70
     1
102
RTVSPropertyOp48
 70
     1
102
RTVSPropertyOp49
 70
     1
102
RTVSPropertyOp50
 70
     1
102
RTVSPropertyOp51
 70
     0
102
RTVSPropertyOp52
 70
     0
102
RTVSPropertyOp53
 70
     1
102
RTVSPropertyOp54
 70
     1
102
RTVSPropertyOp55
 70
     1
102
RTVSPropertyOp56
 70
     1
102
RTVSPropertyOp57
 70
     1
102
RTVSPost2010Prop28
280
     0
102
RTVSPost2010PropOp28
 70
     1
102
RTVSPost2010Prop29
280
     1
102
RTVSPost2010PropOp29
 70
     1
102
RTVSPost2010Prop30
280
     1
102
RTVSPost2010PropOp30
 70
     1
102
RTVSPost2010Prop31
280
     0
102
RTVSPost2010PropOp31
 70
     1
102
RTVSPost2010Prop32
280
     0
102
RTVSPost2010PropOp32
 70
     1
102
RTVSPost2010Prop33
280
     0
102
RTVSPost2010PropOp33
 70
     1
102
RTVSPost2010Prop34
280
     0
102
RTVSPost2010PropOp34
 70
     1
102
RTVSPost2010Prop35
280
     0
102
RTVSPost2010PropOp35
 70
     1
102
RTVSPost2010Prop36
280
     0
102
RTVSPost2010PropOp36
 70
     1
102
RTVSPost2010Prop37
 90
       50
102
RTVSPost2010PropOp37
 70
     1
102
RTVSPost2010Prop38
140
0.0
102
RTVSPost2010PropOp38
 70
     1
102
RTVSPost2010Prop39
140
1.0
102
RTVSPost2010PropOp39
 70
     1
102
RTVSPost2010Prop40
 90
        0
102
RTVSPost2010PropOp40
 70
     1
102
RTVSPost2010Prop41ColorIndex
 90
       18
102
RTVSPost2010Prop41ColorRGB
 90
        0
102
RTVSPost2010PropOp41
 70
     1
102
RTVSPost2010Prop42
 90
       50
102
RTVSPost2010PropOp42
 70
     1
102
RTVSPost2010Prop43
 90
        3
102
RTVSPost2010PropOp43
 70
     1
102
RTVSPost2010Prop44ColorIndex
 90
        5
102
RTVSPost2010Prop44ColorRGB
 90
      255
102
RTVSPost2010PropOp44
 70
     1
102
RTVSPost2010Prop45
280
     0
102
RTVSPost2010PropOp45
 70
     1
102
RTVSPost2010Prop46
 90
       50
102
RTVSPost2010PropOp46
 70
     1
102
RTVSPost2010Prop47
 90
       50
102
RTVSPost2010PropOp47
 70
     1
102
RTVSPost2010Prop48
 90
       50
102
RTVSPost2010PropOp48
 70
     1
102
RTVSPost2010Prop49
280
     0
102
RTVSPost2010PropOp49
 70
     1
102
RTVSPost2010Prop50
 90
       50
102
RTVSPost2010PropOp50
 70
     1
102
RTVSPost2010Prop51ColorIndex
 90
      256
102
RTVSPost2010Prop51ColorRGB
 90
-16777216
102
RTVSPost2010PropOp51
 70
     0
102
RTVSPost2010Prop52
140
1.0
102
RTVSPost2010PropOp52
 70
     0
102
RTVSPost2010Prop53
 90
        2
102
RTVSPost2010PropOp53
 70
     1
102
RTVSPost2010Prop54
  1
strokes_ogs.tif
102
RTVSPost2010PropOp54
 70
     1
102
RTVSPost2010Prop55
280
     0
102
RTVSPost2010PropOp55
 70
     1
102
RTVSPost2010Prop56
140
1.0
102
RTVSPost2010PropOp56
 70
     1
102
RTVSPost2010Prop57
140
1.0
102
RTVSPost2010PropOp57
 70
     1
  0
XRECORD
  5
39A
102
{ACAD_REACTORS
330
399
102
}
330
399
100
AcDbXrecord
280
     1
102
RTVSPropertyOp0
 70
     1
102
RTVSPropertyOp1
 70
     1
102
RTVSPropertyOp2
 70
     1
102
RTVSPropertyOp3
 70
     1
102
RTVSPropertyOp4
 70
     1
102
RTVSPropertyOp5
 70
     1
102
RTVSPropertyOp6
 70
     1
102
RTVSPropertyOp7
 70
     1
102
RTVSPropertyOp8
 70
     1
102
RTVSPropertyOp9
 70
     1
102
RTVSPropertyOp10
 70
     1
102
RTVSPropertyOp11
 70
     1
102
RTVSPropertyOp12
 70
     1
102
RTVSPropertyOp13
 70
     1
102
RTVSPropertyOp14
 70
     1
102
RTVSPropertyOp15
 70
     1
102
RTVSPropertyOp16
 70
     1
102
RTVSPropertyOp17
 70
     1
102
RTVSPropertyOp18
 70
     1
102
RTVSPropertyOp19
 70
     1
102
RTVSPropertyOp20
 70
     1
102
RTVSPropertyOp21
 70
     1
102
RTVSPropertyOp22
 70
     1
102
RTVSPropertyOp23
 70
     1
102
RTVSPropertyOp24
 70
     1
102
RTVSPropertyOp25
 70
     1
102
RTVSPropertyOp26
 70
     1
102
RTVSPropertyOp27
 70
     1
102
RTVSPropertyOp28
 70
     1
102
RTVSPropertyOp29
 70
     1
102
RTVSPropertyOp30
 70
     1
102
RTVSPropertyOp31
 70
     1
102
RTVSPropertyOp32
 70
     1
102
RTVSPropertyOp33
 70
     1
102
RTVSPropertyOp34
 70
     1
102
RTVSPropertyOp35
 70
     1
102
RTVSPropertyOp36
 70
     1
102
RTVSPropertyOp37
 70
     1
102
RTVSPropertyOp38
 70
     1
102
RTVSPropertyOp39
 70
     1
102
RTVSPropertyOp40
 70
     1
102
RTVSPropertyOp41
 70
     1
102
RTVSPropertyOp42
 70
     1
102
RTVSPropertyOp43
 70
     1
102
RTVSPropertyOp44
 70
     1
102
RTVSPropertyOp45
 70
     1
102
RTVSPropertyOp46
 70
     1
102
RTVSPropertyOp47
 70
     1
102
RTVSPropertyOp48
 70
     1
102
RTVSPropertyOp49
 70
     1
102
RTVSPropertyOp50
 70
     1
102
RTVSPropertyOp51
 70
     0
102
RTVSPropertyOp52
 70
     0
102
RTVSPropertyOp53
 70
     1
102
RTVSPropertyOp54
 70
     1
102
RTVSPropertyOp55
 70
     1
102
RTVSPropertyOp56
 70
     1
102
RTVSPropertyOp57
 70
     1
102
RTVSPost2010Prop28
280
     0
102
RTVSPost2010PropOp28
 70
     1
102
RTVSPost2010Prop29
280
     1
102
RTVSPost2010PropOp29
 70
     1
102
RTVSPost2010Prop30
280
     1
102
RTVSPost2010PropOp30
 70
     1
102
RTVSPost2010Prop31
280
     0
102
RTVSPost2010PropOp31
 70
     1
102
RTVSPost2010Prop32
280
     0
102
RTVSPost2010PropOp32
 70
     1
102
RTVSPost2010Prop33
280
     0
102
RTVSPost2010PropOp33
 70
     1
102
RTVSPost2010Prop34
280
     0
102
RTVSPost2010PropOp34
 70
     1
102
RTVSPost2010Prop35
280
     0
102
RTVSPost2010PropOp35
 70
     1
102
RTVSPost2010Prop36
280
     0
102
RTVSPost2010PropOp36
 70
     1
102
RTVSPost2010Prop37
 90
       50
102
RTVSPost2010PropOp37
 70
     1
102
RTVSPost2010Prop38
140
0.0
102
RTVSPost2010PropOp38
 70
     1
102
RTVSPost2010Prop39
140
1.0
102
RTVSPost2010PropOp39
 70
     1
102
RTVSPost2010Prop40
 90
        0
102
RTVSPost2010PropOp40
 70
     1
102
RTVSPost2010Prop41ColorIndex
 90
       18
102
RTVSPost2010Prop41ColorRGB
 90
        0
102
RTVSPost2010PropOp41
 70
     1
102
RTVSPost2010Prop42
 90
       50
102
RTVSPost2010PropOp42
 70
     1
102
RTVSPost2010Prop43
 90
        3
102
RTVSPost2010PropOp43
 70
     1
102
RTVSPost2010Prop44ColorIndex
 90
        5
102
RTVSPost2010Prop44ColorRGB
 90
      255
102
RTVSPost2010PropOp44
 70
     1
102
RTVSPost2010Prop45
280
     0
102
RTVSPost2010PropOp45
 70
     1
102
RTVSPost2010Prop46
 90
       50
102
RTVSPost2010PropOp46
 70
     1
102
RTVSPost2010Prop47
 90
       50
102
RTVSPost2010PropOp47
 70
     1
102
RTVSPost2010Prop48
 90
       50
102
RTVSPost2010PropOp48
 70
     1
102
RTVSPost2010Prop49
280
     0
102
RTVSPost2010PropOp49
 70
     1
102
RTVSPost2010Prop50
 90
       50
102
RTVSPost2010PropOp50
 70
     1
102
RTVSPost2010Prop51ColorIndex
 90
      256
102
RTVSPost2010Prop51ColorRGB
 90
-16777216
102
RTVSPost2010PropOp51
 70
     0
102
RTVSPost2010Prop52
140
1.0
102
RTVSPost2010PropOp52
 70
     0
102
RTVSPost2010Prop53
 90
        2
102
RTVSPost2010PropOp53
 70
     1
102
RTVSPost2010Prop54
  1
strokes_ogs.tif
102
RTVSPost2010PropOp54
 70
     1
102
RTVSPost2010Prop55
280
     0
102
RTVSPost2010PropOp55
 70
     1
102
RTVSPost2010Prop56
140
1.0
102
RTVSPost2010PropOp56
 70
     1
102
RTVSPost2010Prop57
140
1.0
102
RTVSPost2010PropOp57
 70
     1
  0
XRECORD
  5
39C
102
{ACAD_REACTORS
330
39B
102
}
330
39B
100
AcDbXrecord
280
     1
102
RTVSPropertyOp0
 70
     1
102
RTVSPropertyOp1
 70
     1
102
RTVSPropertyOp2
 70
     1
102
RTVSPropertyOp3
 70
     1
102
RTVSPropertyOp4
 70
     1
102
RTVSPropertyOp5
 70
     1
102
RTVSPropertyOp6
 70
     1
102
RTVSPropertyOp7
 70
     1
102
RTVSPropertyOp8
 70
     1
102
RTVSPropertyOp9
 70
     1
102
RTVSPropertyOp10
 70
     1
102
RTVSPropertyOp11
 70
     1
102
RTVSPropertyOp12
 70
     1
102
RTVSPropertyOp13
 70
     1
102
RTVSPropertyOp14
 70
     1
102
RTVSPropertyOp15
 70
     1
102
RTVSPropertyOp16
 70
     1
102
RTVSPropertyOp17
 70
     1
102
RTVSPropertyOp18
 70
     1
102
RTVSPropertyOp19
 70
     1
102
RTVSPropertyOp20
 70
     1
102
RTVSPropertyOp21
 70
     1
102
RTVSPropertyOp22
 70
     1
102
RTVSPropertyOp23
 70
     1
102
RTVSPropertyOp24
 70
     1
102
RTVSPropertyOp25
 70
     1
102
RTVSPropertyOp26
 70
     1
102
RTVSPropertyOp27
 70
     1
102
RTVSPropertyOp28
 70
     1
102
RTVSPropertyOp29
 70
     1
102
RTVSPropertyOp30
 70
     1
102
RTVSPropertyOp31
 70
     1
102
RTVSPropertyOp32
 70
     1
102
RTVSPropertyOp33
 70
     1
102
RTVSPropertyOp34
 70
     1
102
RTVSPropertyOp35
 70
     1
102
RTVSPropertyOp36
 70
     1
102
RTVSPropertyOp37
 70
     1
102
RTVSPropertyOp38
 70
     1
102
RTVSPropertyOp39
 70
     1
102
RTVSPropertyOp40
 70
     1
102
RTVSPropertyOp41
 70
     1
102
RTVSPropertyOp42
 70
     1
102
RTVSPropertyOp43
 70
     1
102
RTVSPropertyOp44
 70
     1
102
RTVSPropertyOp45
 70
     1
102
RTVSPropertyOp46
 70
     1
102
RTVSPropertyOp47
 70
     1
102
RTVSPropertyOp48
 70
     1
102
RTVSPropertyOp49
 70
     1
102
RTVSPropertyOp50
 70
     1
102
RTVSPropertyOp51
 70
     0
102
RTVSPropertyOp52
 70
     0
102
RTVSPropertyOp53
 70
     1
102
RTVSPropertyOp54
 70
     1
102
RTVSPropertyOp55
 70
     1
102
RTVSPropertyOp56
 70
     1
102
RTVSPropertyOp57
 70
     1
102
RTVSPost2010Prop28
280
     0
102
RTVSPost2010PropOp28
 70
     1
102
RTVSPost2010Prop29
280
     1
102
RTVSPost2010PropOp29
 70
     1
102
RTVSPost2010Prop30
280
     1
102
RTVSPost2010PropOp30
 70
     1
102
RTVSPost2010Prop31
280
     0
102
RTVSPost2010PropOp31
 70
     1
102
RTVSPost2010Prop32
280
     0
102
RTVSPost2010PropOp32
 70
     1
102
RTVSPost2010Prop33
280
     0
102
RTVSPost2010PropOp33
 70
     1
102
RTVSPost2010Prop34
280
     0
102
RTVSPost2010PropOp34
 70
     1
102
RTVSPost2010Prop35
280
     0
102
RTVSPost2010PropOp35
 70
     1
102
RTVSPost2010Prop36
280
     0
102
RTVSPost2010PropOp36
 70
     1
102
RTVSPost2010Prop37
 90
       50
102
RTVSPost2010PropOp37
 70
     1
102
RTVSPost2010Prop38
140
0.0
102
RTVSPost2010PropOp38
 70
     1
102
RTVSPost2010Prop39
140
1.0
102
RTVSPost2010PropOp39
 70
     1
102
RTVSPost2010Prop40
 90
        0
102
RTVSPost2010PropOp40
 70
     1
102
RTVSPost2010Prop41ColorIndex
 90
       18
102
RTVSPost2010Prop41ColorRGB
 90
        0
102
RTVSPost2010PropOp41
 70
     1
102
RTVSPost2010Prop42
 90
       50
102
RTVSPost2010PropOp42
 70
     1
102
RTVSPost2010Prop43
 90
        3
102
RTVSPost2010PropOp43
 70
     1
102
RTVSPost2010Prop44ColorIndex
 90
        5
102
RTVSPost2010Prop44ColorRGB
 90
      255
102
RTVSPost2010PropOp44
 70
     1
102
RTVSPost2010Prop45
280
     0
102
RTVSPost2010PropOp45
 70
     1
102
RTVSPost2010Prop46
 90
       50
102
RTVSPost2010PropOp46
 70
     1
102
RTVSPost2010Prop47
 90
       50
102
RTVSPost2010PropOp47
 70
     1
102
RTVSPost2010Prop48
 90
       50
102
RTVSPost2010PropOp48
 70
     1
102
RTVSPost2010Prop49
280
     0
102
RTVSPost2010PropOp49
 70
     1
102
RTVSPost2010Prop50
 90
       50
102
RTVSPost2010PropOp50
 70
     1
102
RTVSPost2010Prop51ColorIndex
 90
      256
102
RTVSPost2010Prop51ColorRGB
 90
-16777216
102
RTVSPost2010PropOp51
 70
     0
102
RTVSPost2010Prop52
140
1.0
102
RTVSPost2010PropOp52
 70
     0
102
RTVSPost2010Prop53
 90
        2
102
RTVSPost2010PropOp53
 70
     1
102
RTVSPost2010Prop54
  1
strokes_ogs.tif
102
RTVSPost2010PropOp54
 70
     1
102
RTVSPost2010Prop55
280
     0
102
RTVSPost2010PropOp55
 70
     1
102
RTVSPost2010Prop56
140
1.0
102
RTVSPost2010PropOp56
 70
     1
102
RTVSPost2010Prop57
140
1.0
102
RTVSPost2010PropOp57
 70
     1
  0
XRECORD
  5
39E
102
{ACAD_REACTORS
330
39D
102
}
330
39D
100
AcDbXrecord
280
     1
102
RTVSPropertyOp0
 70
     1
102
RTVSPropertyOp1
 70
     1
102
RTVSPropertyOp2
 70
     1
102
RTVSPropertyOp3
 70
     1
102
RTVSPropertyOp4
 70
     1
102
RTVSPropertyOp5
 70
     1
102
RTVSPropertyOp6
 70
     1
102
RTVSPropertyOp7
 70
     1
102
RTVSPropertyOp8
 70
     1
102
RTVSPropertyOp9
 70
     1
102
RTVSPropertyOp10
 70
     1
102
RTVSPropertyOp11
 70
     1
102
RTVSPropertyOp12
 70
     1
102
RTVSPropertyOp13
 70
     1
102
RTVSPropertyOp14
 70
     1
102
RTVSPropertyOp15
 70
     1
102
RTVSPropertyOp16
 70
     1
102
RTVSPropertyOp17
 70
     1
102
RTVSPropertyOp18
 70
     1
102
RTVSPropertyOp19
 70
     1
102
RTVSPropertyOp20
 70
     1
102
RTVSPropertyOp21
 70
     1
102
RTVSPropertyOp22
 70
     1
102
RTVSPropertyOp23
 70
     1
102
RTVSPropertyOp24
 70
     1
102
RTVSPropertyOp25
 70
     1
102
RTVSPropertyOp26
 70
     1
102
RTVSPropertyOp27
 70
     1
102
RTVSPropertyOp28
 70
     1
102
RTVSPropertyOp29
 70
     1
102
RTVSPropertyOp30
 70
     1
102
RTVSPropertyOp31
 70
     1
102
RTVSPropertyOp32
 70
     1
102
RTVSPropertyOp33
 70
     1
102
RTVSPropertyOp34
 70
     1
102
RTVSPropertyOp35
 70
     1
102
RTVSPropertyOp36
 70
     1
102
RTVSPropertyOp37
 70
     1
102
RTVSPropertyOp38
 70
     1
102
RTVSPropertyOp39
 70
     1
102
RTVSPropertyOp40
 70
     1
102
RTVSPropertyOp41
 70
     1
102
RTVSPropertyOp42
 70
     1
102
RTVSPropertyOp43
 70
     1
102
RTVSPropertyOp44
 70
     1
102
RTVSPropertyOp45
 70
     1
102
RTVSPropertyOp46
 70
     1
102
RTVSPropertyOp47
 70
     1
102
RTVSPropertyOp48
 70
     1
102
RTVSPropertyOp49
 70
     1
102
RTVSPropertyOp50
 70
     1
102
RTVSPropertyOp51
 70
     0
102
RTVSPropertyOp52
 70
     0
102
RTVSPropertyOp53
 70
     1
102
RTVSPropertyOp54
 70
     1
102
RTVSPropertyOp55
 70
     1
102
RTVSPropertyOp56
 70
     1
102
RTVSPropertyOp57
 70
     1
102
RTVSPost2010Prop28
280
     0
102
RTVSPost2010PropOp28
 70
     1
102
RTVSPost2010Prop29
280
     1
102
RTVSPost2010PropOp29
 70
     1
102
RTVSPost2010Prop30
280
     1
102
RTVSPost2010PropOp30
 70
     1
102
RTVSPost2010Prop31
280
     0
102
RTVSPost2010PropOp31
 70
     1
102
RTVSPost2010Prop32
280
     0
102
RTVSPost2010PropOp32
 70
     1
102
RTVSPost2010Prop33
280
     0
102
RTVSPost2010PropOp33
 70
     1
102
RTVSPost2010Prop34
280
     0
102
RTVSPost2010PropOp34
 70
     1
102
RTVSPost2010Prop35
280
     0
102
RTVSPost2010PropOp35
 70
     1
102
RTVSPost2010Prop36
280
     0
102
RTVSPost2010PropOp36
 70
     1
102
RTVSPost2010Prop37
 90
       50
102
RTVSPost2010PropOp37
 70
     1
102
RTVSPost2010Prop38
140
0.0
102
RTVSPost2010PropOp38
 70
     1
102
RTVSPost2010Prop39
140
1.0
102
RTVSPost2010PropOp39
 70
     1
102
RTVSPost2010Prop40
 90
        0
102
RTVSPost2010PropOp40
 70
     1
102
RTVSPost2010Prop41ColorIndex
 90
       18
102
RTVSPost2010Prop41ColorRGB
 90
        0
102
RTVSPost2010PropOp41
 70
     1
102
RTVSPost2010Prop42
 90
       50
102
RTVSPost2010PropOp42
 70
     1
102
RTVSPost2010Prop43
 90
        3
102
RTVSPost2010PropOp43
 70
     1
102
RTVSPost2010Prop44ColorIndex
 90
        5
102
RTVSPost2010Prop44ColorRGB
 90
      255
102
RTVSPost2010PropOp44
 70
     1
102
RTVSPost2010Prop45
280
     0
102
RTVSPost2010PropOp45
 70
     1
102
RTVSPost2010Prop46
 90
       50
102
RTVSPost2010PropOp46
 70
     1
102
RTVSPost2010Prop47
 90
       50
102
RTVSPost2010PropOp47
 70
     1
102
RTVSPost2010Prop48
 90
       50
102
RTVSPost2010PropOp48
 70
     1
102
RTVSPost2010Prop49
280
     0
102
RTVSPost2010PropOp49
 70
     1
102
RTVSPost2010Prop50
 90
       50
102
RTVSPost2010PropOp50
 70
     1
102
RTVSPost2010Prop51ColorIndex
 90
      256
102
RTVSPost2010Prop51ColorRGB
 90
-16777216
102
RTVSPost2010PropOp51
 70
     0
102
RTVSPost2010Prop52
140
1.0
102
RTVSPost2010PropOp52
 70
     0
102
RTVSPost2010Prop53
 90
        2
102
RTVSPost2010PropOp53
 70
     1
102
RTVSPost2010Prop54
  1
strokes_ogs.tif
102
RTVSPost2010PropOp54
 70
     1
102
RTVSPost2010Prop55
280
     0
102
RTVSPost2010PropOp55
 70
     1
102
RTVSPost2010Prop56
140
1.0
102
RTVSPost2010PropOp56
 70
     1
102
RTVSPost2010Prop57
140
1.0
102
RTVSPost2010PropOp57
 70
     1
  0
XRECORD
  5
3A4
102
{ACAD_REACTORS
330
3A3
102
}
330
3A3
100
AcDbXrecord
280
     1
102
RTVSPropertyOp0
 70
     1
102
RTVSPropertyOp1
 70
     1
102
RTVSPropertyOp2
 70
     1
102
RTVSPropertyOp3
 70
     1
102
RTVSPropertyOp4
 70
     1
102
RTVSPropertyOp5
 70
     1
102
RTVSPropertyOp6
 70
     1
102
RTVSPropertyOp7
 70
     1
102
RTVSPropertyOp8
 70
     1
102
RTVSPropertyOp9
 70
     1
102
RTVSPropertyOp10
 70
     1
102
RTVSPropertyOp11
 70
     1
102
RTVSPropertyOp12
 70
     1
102
RTVSPropertyOp13
 70
     1
102
RTVSPropertyOp14
 70
     1
102
RTVSPropertyOp15
 70
     1
102
RTVSPropertyOp16
 70
     1
102
RTVSPropertyOp17
 70
     1
102
RTVSPropertyOp18
 70
     1
102
RTVSPropertyOp19
 70
     1
102
RTVSPropertyOp20
 70
     1
102
RTVSPropertyOp21
 70
     1
102
RTVSPropertyOp22
 70
     1
102
RTVSPropertyOp23
 70
     1
102
RTVSPropertyOp24
 70
     1
102
RTVSPropertyOp25
 70
     1
102
RTVSPropertyOp26
 70
     1
102
RTVSPropertyOp27
 70
     1
102
RTVSPropertyOp28
 70
     1
102
RTVSPropertyOp29
 70
     1
102
RTVSPropertyOp30
 70
     1
102
RTVSPropertyOp31
 70
     1
102
RTVSPropertyOp32
 70
     1
102
RTVSPropertyOp33
 70
     1
102
RTVSPropertyOp34
 70
     1
102
RTVSPropertyOp35
 70
     1
102
RTVSPropertyOp36
 70
     1
102
RTVSPropertyOp37
 70
     1
102
RTVSPropertyOp38
 70
     1
102
RTVSPropertyOp39
 70
     1
102
RTVSPropertyOp40
 70
     1
102
RTVSPropertyOp41
 70
     1
102
RTVSPropertyOp42
 70
     1
102
RTVSPropertyOp43
 70
     1
102
RTVSPropertyOp44
 70
     1
102
RTVSPropertyOp45
 70
     1
102
RTVSPropertyOp46
 70
     1
102
RTVSPropertyOp47
 70
     1
102
RTVSPropertyOp48
 70
     1
102
RTVSPropertyOp49
 70
     1
102
RTVSPropertyOp50
 70
     1
102
RTVSPropertyOp51
 70
     0
102
RTVSPropertyOp52
 70
     0
102
RTVSPropertyOp53
 70
     1
102
RTVSPropertyOp54
 70
     1
102
RTVSPropertyOp55
 70
     1
102
RTVSPropertyOp56
 70
     1
102
RTVSPropertyOp57
 70
     1
102
RTVSPost2010Prop28
280
     0
102
RTVSPost2010PropOp28
 70
     1
102
RTVSPost2010Prop29
280
     1
102
RTVSPost2010PropOp29
 70
     1
102
RTVSPost2010Prop30
280
     1
102
RTVSPost2010PropOp30
 70
     1
102
RTVSPost2010Prop31
280
     0
102
RTVSPost2010PropOp31
 70
     1
102
RTVSPost2010Prop32
280
     0
102
RTVSPost2010PropOp32
 70
     1
102
RTVSPost2010Prop33
280
     0
102
RTVSPost2010PropOp33
 70
     1
102
RTVSPost2010Prop34
280
     0
102
RTVSPost2010PropOp34
 70
     1
102
RTVSPost2010Prop35
280
     0
102
RTVSPost2010PropOp35
 70
     1
102
RTVSPost2010Prop36
280
     0
102
RTVSPost2010PropOp36
 70
     1
102
RTVSPost2010Prop37
 90
       50
102
RTVSPost2010PropOp37
 70
     1
102
RTVSPost2010Prop38
140
0.0
102
RTVSPost2010PropOp38
 70
     1
102
RTVSPost2010Prop39
140
1.0
102
RTVSPost2010PropOp39
 70
     1
102
RTVSPost2010Prop40
 90
        0
102
RTVSPost2010PropOp40
 70
     1
102
RTVSPost2010Prop41ColorIndex
 90
       18
102
RTVSPost2010Prop41ColorRGB
 90
        0
102
RTVSPost2010PropOp41
 70
     1
102
RTVSPost2010Prop42
 90
       50
102
RTVSPost2010PropOp42
 70
     1
102
RTVSPost2010Prop43
 90
        3
102
RTVSPost2010PropOp43
 70
     1
102
RTVSPost2010Prop44ColorIndex
 90
        5
102
RTVSPost2010Prop44ColorRGB
 90
      255
102
RTVSPost2010PropOp44
 70
     1
102
RTVSPost2010Prop45
280
     0
102
RTVSPost2010PropOp45
 70
     1
102
RTVSPost2010Prop46
 90
       50
102
RTVSPost2010PropOp46
 70
     1
102
RTVSPost2010Prop47
 90
       50
102
RTVSPost2010PropOp47
 70
     1
102
RTVSPost2010Prop48
 90
       50
102
RTVSPost2010PropOp48
 70
     1
102
RTVSPost2010Prop49
280
     0
102
RTVSPost2010PropOp49
 70
     1
102
RTVSPost2010Prop50
 90
       50
102
RTVSPost2010PropOp50
 70
     1
102
RTVSPost2010Prop51ColorIndex
 90
      256
102
RTVSPost2010Prop51ColorRGB
 90
-16777216
102
RTVSPost2010PropOp51
 70
     0
102
RTVSPost2010Prop52
140
1.0
102
RTVSPost2010PropOp52
 70
     0
102
RTVSPost2010Prop53
 90
        2
102
RTVSPost2010PropOp53
 70
     1
102
RTVSPost2010Prop54
  1
strokes_ogs.tif
102
RTVSPost2010PropOp54
 70
     1
102
RTVSPost2010Prop55
280
     0
102
RTVSPost2010PropOp55
 70
     1
102
RTVSPost2010Prop56
140
1.0
102
RTVSPost2010PropOp56
 70
     1
102
RTVSPost2010Prop57
140
1.0
102
RTVSPost2010PropOp57
 70
     1
  0
XRECORD
  5
3B8
102
{ACAD_REACTORS
330
3B7
102
}
330
3B7
100
AcDbXrecord
280
     1
102
RTVSPropertyOp0
 70
     0
102
RTVSPropertyOp1
 70
     0
102
RTVSPropertyOp2
 70
     0
102
RTVSPropertyOp3
 70
     0
102
RTVSPropertyOp4
 70
     0
102
RTVSPropertyOp5
 70
     0
102
RTVSPropertyOp6
 70
     0
102
RTVSPropertyOp7
 70
     0
102
RTVSPropertyOp8
 70
     0
102
RTVSPropertyOp9
 70
     0
102
RTVSPropertyOp10
 70
     0
102
RTVSPropertyOp11
 70
     0
102
RTVSPropertyOp12
 70
     0
102
RTVSPropertyOp13
 70
     0
102
RTVSPropertyOp14
 70
     2
102
RTVSPropertyOp15
 70
     0
102
RTVSPropertyOp16
 70
     0
102
RTVSPropertyOp17
 70
     0
102
RTVSPropertyOp18
 70
     0
102
RTVSPropertyOp19
 70
     0
102
RTVSPropertyOp20
 70
     0
102
RTVSPropertyOp21
 70
     0
102
RTVSPropertyOp22
 70
     0
102
RTVSPropertyOp23
 70
     0
102
RTVSPropertyOp24
 70
     0
102
RTVSPropertyOp25
 70
     0
102
RTVSPropertyOp26
 70
     0
102
RTVSPropertyOp27
 70
     0
102
RTVSPropertyOp28
 70
     0
102
RTVSPropertyOp29
 70
     0
102
RTVSPropertyOp30
 70
     0
102
RTVSPropertyOp31
 70
     0
102
RTVSPropertyOp32
 70
     0
102
RTVSPropertyOp33
 70
     0
102
RTVSPropertyOp34
 70
     0
102
RTVSPropertyOp35
 70
     0
102
RTVSPropertyOp36
 70
     0
102
RTVSPropertyOp37
 70
     0
102
RTVSPropertyOp38
 70
     0
102
RTVSPropertyOp39
 70
     0
102
RTVSPropertyOp40
 70
     0
102
RTVSPropertyOp41
 70
     0
102
RTVSPropertyOp42
 70
     0
102
RTVSPropertyOp43
 70
     0
102
RTVSPropertyOp44
 70
     0
102
RTVSPropertyOp45
 70
     0
102
RTVSPropertyOp46
 70
     0
102
RTVSPropertyOp47
 70
     0
102
RTVSPropertyOp48
 70
     0
102
RTVSPropertyOp49
 70
     0
102
RTVSPropertyOp50
 70
     0
102
RTVSPropertyOp51
 70
     0
102
RTVSPropertyOp52
 70
     0
102
RTVSPropertyOp53
 70
     0
102
RTVSPropertyOp54
 70
     0
102
RTVSPropertyOp55
 70
     0
102
RTVSPropertyOp56
 70
     0
102
RTVSPropertyOp57
 70
     0
102
RTVSPost2010Prop28
280
     0
102
RTVSPost2010PropOp28
 70
     0
102
RTVSPost2010Prop29
280
     1
102
RTVSPost2010PropOp29
 70
     0
102
RTVSPost2010Prop30
280
     1
102
RTVSPost2010PropOp30
 70
     0
102
RTVSPost2010Prop31
280
     0
102
RTVSPost2010PropOp31
 70
     0
102
RTVSPost2010Prop32
280
     0
102
RTVSPost2010PropOp32
 70
     0
102
RTVSPost2010Prop33
280
     0
102
RTVSPost2010PropOp33
 70
     0
102
RTVSPost2010Prop34
280
     0
102
RTVSPost2010PropOp34
 70
     0
102
RTVSPost2010Prop35
280
     0
102
RTVSPost2010PropOp35
 70
     0
102
RTVSPost2010Prop36
280
     0
102
RTVSPost2010PropOp36
 70
     0
102
RTVSPost2010Prop37
 90
       50
102
RTVSPost2010PropOp37
 70
     0
102
RTVSPost2010Prop38
140
0.0
102
RTVSPost2010PropOp38
 70
     0
102
RTVSPost2010Prop39
140
1.0
102
RTVSPost2010PropOp39
 70
     0
102
RTVSPost2010Prop40
 90
        0
102
RTVSPost2010PropOp40
 70
     0
102
RTVSPost2010Prop41ColorIndex
 90
       18
102
RTVSPost2010Prop41ColorRGB
 90
        0
102
RTVSPost2010PropOp41
 70
     0
102
RTVSPost2010Prop42
 90
       50
102
RTVSPost2010PropOp42
 70
     0
102
RTVSPost2010Prop43
 90
        3
102
RTVSPost2010PropOp43
 70
     0
102
RTVSPost2010Prop44ColorIndex
 90
        5
102
RTVSPost2010Prop44ColorRGB
 90
      255
102
RTVSPost2010PropOp44
 70
     0
102
RTVSPost2010Prop45
280
     0
102
RTVSPost2010PropOp45
 70
     0
102
RTVSPost2010Prop46
 90
       50
102
RTVSPost2010PropOp46
 70
     0
102
RTVSPost2010Prop47
 90
       50
102
RTVSPost2010PropOp47
 70
     0
102
RTVSPost2010Prop48
 90
       50
102
RTVSPost2010PropOp48
 70
     0
102
RTVSPost2010Prop49
280
     0
102
RTVSPost2010PropOp49
 70
     0
102
RTVSPost2010Prop50
 90
       50
102
RTVSPost2010PropOp50
 70
     0
102
RTVSPost2010Prop51ColorIndex
 90
      256
102
RTVSPost2010Prop51ColorRGB
 90
-16777216
102
RTVSPost2010PropOp51
 70
     0
102
RTVSPost2010Prop52
140
1.0
102
RTVSPost2010PropOp52
 70
     0
102
RTVSPost2010Prop53
 90
        2
102
RTVSPost2010PropOp53
 70
     0
102
RTVSPost2010Prop54
  1
strokes_ogs.tif
102
RTVSPost2010PropOp54
 70
     0
102
RTVSPost2010Prop55
280
     0
102
RTVSPost2010PropOp55
 70
     0
102
RTVSPost2010Prop56
140
1.0
102
RTVSPost2010PropOp56
 70
     0
102
RTVSPost2010Prop57
140
1.0
102
RTVSPost2010PropOp57
 70
     0
  0
XRECORD
  5
3B2
102
{ACAD_REACTORS
330
3B1
102
}
330
3B1
100
AcDbXrecord
280
     1
102
RTVSPropertyOp0
 70
     1
102
RTVSPropertyOp1
 70
     1
102
RTVSPropertyOp2
 70
     1
102
RTVSPropertyOp3
 70
     1
102
RTVSPropertyOp4
 70
     1
102
RTVSPropertyOp5
 70
     1
102
RTVSPropertyOp6
 70
     1
102
RTVSPropertyOp7
 70
     1
102
RTVSPropertyOp8
 70
     1
102
RTVSPropertyOp9
 70
     1
102
RTVSPropertyOp10
 70
     1
102
RTVSPropertyOp11
 70
     1
102
RTVSPropertyOp12
 70
     1
102
RTVSPropertyOp13
 70
     1
102
RTVSPropertyOp14
 70
     1
102
RTVSPropertyOp15
 70
     1
102
RTVSPropertyOp16
 70
     1
102
RTVSPropertyOp17
 70
     1
102
RTVSPropertyOp18
 70
     1
102
RTVSPropertyOp19
 70
     1
102
RTVSPropertyOp20
 70
     1
102
RTVSPropertyOp21
 70
     1
102
RTVSPropertyOp22
 70
     1
102
RTVSPropertyOp23
 70
     1
102
RTVSPropertyOp24
 70
     1
102
RTVSPropertyOp25
 70
     1
102
RTVSPropertyOp26
 70
     1
102
RTVSPropertyOp27
 70
     1
102
RTVSPropertyOp28
 70
     1
102
RTVSPropertyOp29
 70
     1
102
RTVSPropertyOp30
 70
     1
102
RTVSPropertyOp31
 70
     1
102
RTVSPropertyOp32
 70
     1
102
RTVSPropertyOp33
 70
     1
102
RTVSPropertyOp34
 70
     1
102
RTVSPropertyOp35
 70
     1
102
RTVSPropertyOp36
 70
     1
102
RTVSPropertyOp37
 70
     1
102
RTVSPropertyOp38
 70
     1
102
RTVSPropertyOp39
 70
     1
102
RTVSPropertyOp40
 70
     1
102
RTVSPropertyOp41
 70
     1
102
RTVSPropertyOp42
 70
     1
102
RTVSPropertyOp43
 70
     1
102
RTVSPropertyOp44
 70
     1
102
RTVSPropertyOp45
 70
     1
102
RTVSPropertyOp46
 70
     1
102
RTVSPropertyOp47
 70
     1
102
RTVSPropertyOp48
 70
     1
102
RTVSPropertyOp49
 70
     1
102
RTVSPropertyOp50
 70
     1
102
RTVSPropertyOp51
 70
     0
102
RTVSPropertyOp52
 70
     0
102
RTVSPropertyOp53
 70
     1
102
RTVSPropertyOp54
 70
     1
102
RTVSPropertyOp55
 70
     1
102
RTVSPropertyOp56
 70
     1
102
RTVSPropertyOp57
 70
     1
102
RTVSPost2010Prop28
280
     0
102
RTVSPost2010PropOp28
 70
     1
102
RTVSPost2010Prop29
280
     1
102
RTVSPost2010PropOp29
 70
     1
102
RTVSPost2010Prop30
280
     1
102
RTVSPost2010PropOp30
 70
     1
102
RTVSPost2010Prop31
280
     0
102
RTVSPost2010PropOp31
 70
     1
102
RTVSPost2010Prop32
280
     0
102
RTVSPost2010PropOp32
 70
     1
102
RTVSPost2010Prop33
280
     0
102
RTVSPost2010PropOp33
 70
     1
102
RTVSPost2010Prop34
280
     0
102
RTVSPost2010PropOp34
 70
     1
102
RTVSPost2010Prop35
280
     0
102
RTVSPost2010PropOp35
 70
     1
102
RTVSPost2010Prop36
280
     0
102
RTVSPost2010PropOp36
 70
     1
102
RTVSPost2010Prop37
 90
       50
102
RTVSPost2010PropOp37
 70
     1
102
RTVSPost2010Prop38
140
0.0
102
RTVSPost2010PropOp38
 70
     1
102
RTVSPost2010Prop39
140
1.0
102
RTVSPost2010PropOp39
 70
     1
102
RTVSPost2010Prop40
 90
        0
102
RTVSPost2010PropOp40
 70
     1
102
RTVSPost2010Prop41ColorIndex
 90
       18
102
RTVSPost2010Prop41ColorRGB
 90
        0
102
RTVSPost2010PropOp41
 70
     1
102
RTVSPost2010Prop42
 90
       50
102
RTVSPost2010PropOp42
 70
     1
102
RTVSPost2010Prop43
 90
        3
102
RTVSPost2010PropOp43
 70
     1
102
RTVSPost2010Prop44ColorIndex
 90
        5
102
RTVSPost2010Prop44ColorRGB
 90
      255
102
RTVSPost2010PropOp44
 70
     1
102
RTVSPost2010Prop45
280
     0
102
RTVSPost2010PropOp45
 70
     1
102
RTVSPost2010Prop46
 90
       50
102
RTVSPost2010PropOp46
 70
     1
102
RTVSPost2010Prop47
 90
       50
102
RTVSPost2010PropOp47
 70
     1
102
RTVSPost2010Prop48
 90
       50
102
RTVSPost2010PropOp48
 70
     1
102
RTVSPost2010Prop49
280
     0
102
RTVSPost2010PropOp49
 70
     1
102
RTVSPost2010Prop50
 90
       50
102
RTVSPost2010PropOp50
 70
     1
102
RTVSPost2010Prop51ColorIndex
 90
      256
102
RTVSPost2010Prop51ColorRGB
 90
-16777216
102
RTVSPost2010PropOp51
 70
     0
102
RTVSPost2010Prop52
140
1.0
102
RTVSPost2010PropOp52
 70
     0
102
RTVSPost2010Prop53
 90
        2
102
RTVSPost2010PropOp53
 70
     1
102
RTVSPost2010Prop54
  1
strokes_ogs.tif
102
RTVSPost2010PropOp54
 70
     1
102
RTVSPost2010Prop55
280
     0
102
RTVSPost2010PropOp55
 70
     1
102
RTVSPost2010Prop56
140
1.0
102
RTVSPost2010PropOp56
 70
     1
102
RTVSPost2010Prop57
140
1.0
102
RTVSPost2010PropOp57
 70
     1
  0
XRECORD
  5
3BA
102
{ACAD_REACTORS
330
3B9
102
}
330
3B9
100
AcDbXrecord
280
     1
102
RTVSPropertyOp0
 70
     0
102
RTVSPropertyOp1
 70
     0
102
RTVSPropertyOp2
 70
     0
102
RTVSPropertyOp3
 70
     0
102
RTVSPropertyOp4
 70
     0
102
RTVSPropertyOp5
 70
     0
102
RTVSPropertyOp6
 70
     0
102
RTVSPropertyOp7
 70
     0
102
RTVSPropertyOp8
 70
     0
102
RTVSPropertyOp9
 70
     0
102
RTVSPropertyOp10
 70
     0
102
RTVSPropertyOp11
 70
     0
102
RTVSPropertyOp12
 70
     0
102
RTVSPropertyOp13
 70
     0
102
RTVSPropertyOp14
 70
     2
102
RTVSPropertyOp15
 70
     0
102
RTVSPropertyOp16
 70
     0
102
RTVSPropertyOp17
 70
     0
102
RTVSPropertyOp18
 70
     0
102
RTVSPropertyOp19
 70
     0
102
RTVSPropertyOp20
 70
     0
102
RTVSPropertyOp21
 70
     0
102
RTVSPropertyOp22
 70
     0
102
RTVSPropertyOp23
 70
     0
102
RTVSPropertyOp24
 70
     0
102
RTVSPropertyOp25
 70
     0
102
RTVSPropertyOp26
 70
     0
102
RTVSPropertyOp27
 70
     0
102
RTVSPropertyOp28
 70
     0
102
RTVSPropertyOp29
 70
     0
102
RTVSPropertyOp30
 70
     0
102
RTVSPropertyOp31
 70
     0
102
RTVSPropertyOp32
 70
     0
102
RTVSPropertyOp33
 70
     0
102
RTVSPropertyOp34
 70
     0
102
RTVSPropertyOp35
 70
     0
102
RTVSPropertyOp36
 70
     0
102
RTVSPropertyOp37
 70
     0
102
RTVSPropertyOp38
 70
     0
102
RTVSPropertyOp39
 70
     0
102
RTVSPropertyOp40
 70
     0
102
RTVSPropertyOp41
 70
     0
102
RTVSPropertyOp42
 70
     0
102
RTVSPropertyOp43
 70
     0
102
RTVSPropertyOp44
 70
     0
102
RTVSPropertyOp45
 70
     0
102
RTVSPropertyOp46
 70
     0
102
RTVSPropertyOp47
 70
     0
102
RTVSPropertyOp48
 70
     0
102
RTVSPropertyOp49
 70
     0
102
RTVSPropertyOp50
 70
     0
102
RTVSPropertyOp51
 70
     0
102
RTVSPropertyOp52
 70
     0
102
RTVSPropertyOp53
 70
     0
102
RTVSPropertyOp54
 70
     0
102
RTVSPropertyOp55
 70
     0
102
RTVSPropertyOp56
 70
     0
102
RTVSPropertyOp57
 70
     0
102
RTVSPost2010Prop28
280
     0
102
RTVSPost2010PropOp28
 70
     0
102
RTVSPost2010Prop29
280
     1
102
RTVSPost2010PropOp29
 70
     0
102
RTVSPost2010Prop30
280
     1
102
RTVSPost2010PropOp30
 70
     0
102
RTVSPost2010Prop31
280
     0
102
RTVSPost2010PropOp31
 70
     0
102
RTVSPost2010Prop32
280
     0
102
RTVSPost2010PropOp32
 70
     0
102
RTVSPost2010Prop33
280
     0
102
RTVSPost2010PropOp33
 70
     0
102
RTVSPost2010Prop34
280
     0
102
RTVSPost2010PropOp34
 70
     0
102
RTVSPost2010Prop35
280
     0
102
RTVSPost2010PropOp35
 70
     0
102
RTVSPost2010Prop36
280
     0
102
RTVSPost2010PropOp36
 70
     0
102
RTVSPost2010Prop37
 90
       50
102
RTVSPost2010PropOp37
 70
     0
102
RTVSPost2010Prop38
140
0.0
102
RTVSPost2010PropOp38
 70
     0
102
RTVSPost2010Prop39
140
1.0
102
RTVSPost2010PropOp39
 70
     0
102
RTVSPost2010Prop40
 90
        0
102
RTVSPost2010PropOp40
 70
     0
102
RTVSPost2010Prop41ColorIndex
 90
       18
102
RTVSPost2010Prop41ColorRGB
 90
        0
102
RTVSPost2010PropOp41
 70
     0
102
RTVSPost2010Prop42
 90
       50
102
RTVSPost2010PropOp42
 70
     0
102
RTVSPost2010Prop43
 90
        3
102
RTVSPost2010PropOp43
 70
     0
102
RTVSPost2010Prop44ColorIndex
 90
        5
102
RTVSPost2010Prop44ColorRGB
 90
      255
102
RTVSPost2010PropOp44
 70
     0
102
RTVSPost2010Prop45
280
     0
102
RTVSPost2010PropOp45
 70
     0
102
RTVSPost2010Prop46
 90
       50
102
RTVSPost2010PropOp46
 70
     0
102
RTVSPost2010Prop47
 90
       50
102
RTVSPost2010PropOp47
 70
     0
102
RTVSPost2010Prop48
 90
       50
102
RTVSPost2010PropOp48
 70
     0
102
RTVSPost2010Prop49
280
     0
102
RTVSPost2010PropOp49
 70
     0
102
RTVSPost2010Prop50
 90
       50
102
RTVSPost2010PropOp50
 70
     0
102
RTVSPost2010Prop51ColorIndex
 90
      256
102
RTVSPost2010Prop51ColorRGB
 90
-16777216
102
RTVSPost2010PropOp51
 70
     0
102
RTVSPost2010Prop52
140
1.0
102
RTVSPost2010PropOp52
 70
     0
102
RTVSPost2010Prop53
 90
        2
102
RTVSPost2010PropOp53
 70
     0
102
RTVSPost2010Prop54
  1
strokes_ogs.tif
102
RTVSPost2010PropOp54
 70
     0
102
RTVSPost2010Prop55
280
     0
102
RTVSPost2010PropOp55
 70
     0
102
RTVSPost2010Prop56
140
1.0
102
RTVSPost2010PropOp56
 70
     0
102
RTVSPost2010Prop57
140
1.0
102
RTVSPost2010PropOp57
 70
     0
  0
XRECORD
  5
3A8
102
{ACAD_REACTORS
330
3A7
102
}
330
3A7
100
AcDbXrecord
280
     1
102
RTVSPropertyOp0
 70
     1
102
RTVSPropertyOp1
 70
     1
102
RTVSPropertyOp2
 70
     1
102
RTVSPropertyOp3
 70
     1
102
RTVSPropertyOp4
 70
     1
102
RTVSPropertyOp5
 70
     1
102
RTVSPropertyOp6
 70
     1
102
RTVSPropertyOp7
 70
     1
102
RTVSPropertyOp8
 70
     1
102
RTVSPropertyOp9
 70
     1
102
RTVSPropertyOp10
 70
     1
102
RTVSPropertyOp11
 70
     1
102
RTVSPropertyOp12
 70
     1
102
RTVSPropertyOp13
 70
     1
102
RTVSPropertyOp14
 70
     1
102
RTVSPropertyOp15
 70
     1
102
RTVSPropertyOp16
 70
     1
102
RTVSPropertyOp17
 70
     1
102
RTVSPropertyOp18
 70
     1
102
RTVSPropertyOp19
 70
     1
102
RTVSPropertyOp20
 70
     1
102
RTVSPropertyOp21
 70
     1
102
RTVSPropertyOp22
 70
     1
102
RTVSPropertyOp23
 70
     1
102
RTVSPropertyOp24
 70
     1
102
RTVSPropertyOp25
 70
     1
102
RTVSPropertyOp26
 70
     1
102
RTVSPropertyOp27
 70
     1
102
RTVSPropertyOp28
 70
     1
102
RTVSPropertyOp29
 70
     1
102
RTVSPropertyOp30
 70
     1
102
RTVSPropertyOp31
 70
     1
102
RTVSPropertyOp32
 70
     1
102
RTVSPropertyOp33
 70
     1
102
RTVSPropertyOp34
 70
     1
102
RTVSPropertyOp35
 70
     1
102
RTVSPropertyOp36
 70
     1
102
RTVSPropertyOp37
 70
     1
102
RTVSPropertyOp38
 70
     1
102
RTVSPropertyOp39
 70
     1
102
RTVSPropertyOp40
 70
     1
102
RTVSPropertyOp41
 70
     1
102
RTVSPropertyOp42
 70
     1
102
RTVSPropertyOp43
 70
     1
102
RTVSPropertyOp44
 70
     1
102
RTVSPropertyOp45
 70
     1
102
RTVSPropertyOp46
 70
     1
102
RTVSPropertyOp47
 70
     1
102
RTVSPropertyOp48
 70
     1
102
RTVSPropertyOp49
 70
     1
102
RTVSPropertyOp50
 70
     1
102
RTVSPropertyOp51
 70
     0
102
RTVSPropertyOp52
 70
     0
102
RTVSPropertyOp53
 70
     1
102
RTVSPropertyOp54
 70
     1
102
RTVSPropertyOp55
 70
     1
102
RTVSPropertyOp56
 70
     1
102
RTVSPropertyOp57
 70
     1
102
RTVSPost2010Prop28
280
     0
102
RTVSPost2010PropOp28
 70
     1
102
RTVSPost2010Prop29
280
     1
102
RTVSPost2010PropOp29
 70
     1
102
RTVSPost2010Prop30
280
     1
102
RTVSPost2010PropOp30
 70
     1
102
RTVSPost2010Prop31
280
     0
102
RTVSPost2010PropOp31
 70
     1
102
RTVSPost2010Prop32
280
     0
102
RTVSPost2010PropOp32
 70
     1
102
RTVSPost2010Prop33
280
     0
102
RTVSPost2010PropOp33
 70
     1
102
RTVSPost2010Prop34
280
     0
102
RTVSPost2010PropOp34
 70
     1
102
RTVSPost2010Prop35
280
     0
102
RTVSPost2010PropOp35
 70
     1
102
RTVSPost2010Prop36
280
     0
102
RTVSPost2010PropOp36
 70
     1
102
RTVSPost2010Prop37
 90
       50
102
RTVSPost2010PropOp37
 70
     1
102
RTVSPost2010Prop38
140
0.0
102
RTVSPost2010PropOp38
 70
     1
102
RTVSPost2010Prop39
140
1.0
102
RTVSPost2010PropOp39
 70
     1
102
RTVSPost2010Prop40
 90
        0
102
RTVSPost2010PropOp40
 70
     1
102
RTVSPost2010Prop41ColorIndex
 90
       18
102
RTVSPost2010Prop41ColorRGB
 90
        0
102
RTVSPost2010PropOp41
 70
     1
102
RTVSPost2010Prop42
 90
       50
102
RTVSPost2010PropOp42
 70
     1
102
RTVSPost2010Prop43
 90
        3
102
RTVSPost2010PropOp43
 70
     1
102
RTVSPost2010Prop44ColorIndex
 90
        5
102
RTVSPost2010Prop44ColorRGB
 90
      255
102
RTVSPost2010PropOp44
 70
     1
102
RTVSPost2010Prop45
280
     0
102
RTVSPost2010PropOp45
 70
     1
102
RTVSPost2010Prop46
 90
       50
102
RTVSPost2010PropOp46
 70
     1
102
RTVSPost2010Prop47
 90
       50
102
RTVSPost2010PropOp47
 70
     1
102
RTVSPost2010Prop48
 90
       50
102
RTVSPost2010PropOp48
 70
     1
102
RTVSPost2010Prop49
280
     0
102
RTVSPost2010PropOp49
 70
     1
102
RTVSPost2010Prop50
 90
       50
102
RTVSPost2010PropOp50
 70
     1
102
RTVSPost2010Prop51ColorIndex
 90
      256
102
RTVSPost2010Prop51ColorRGB
 90
-16777216
102
RTVSPost2010PropOp51
 70
     0
102
RTVSPost2010Prop52
140
1.0
102
RTVSPost2010PropOp52
 70
     0
102
RTVSPost2010Prop53
 90
        2
102
RTVSPost2010PropOp53
 70
     1
102
RTVSPost2010Prop54
  1
strokes_ogs.tif
102
RTVSPost2010PropOp54
 70
     1
102
RTVSPost2010Prop55
280
     0
102
RTVSPost2010PropOp55
 70
     1
102
RTVSPost2010Prop56
140
1.0
102
RTVSPost2010PropOp56
 70
     1
102
RTVSPost2010Prop57
140
1.0
102
RTVSPost2010PropOp57
 70
     1
  0
XRECORD
  5
3C6
102
{ACAD_REACTORS
330
3C5
102
}
330
3C5
100
AcDbXrecord
280
     1
102
RTVSPropertyOp0
 70
     1
102
RTVSPropertyOp1
 70
     1
102
RTVSPropertyOp2
 70
     1
102
RTVSPropertyOp3
 70
     1
102
RTVSPropertyOp4
 70
     1
102
RTVSPropertyOp5
 70
     1
102
RTVSPropertyOp6
 70
     1
102
RTVSPropertyOp7
 70
     1
102
RTVSPropertyOp8
 70
     1
102
RTVSPropertyOp9
 70
     1
102
RTVSPropertyOp10
 70
     1
102
RTVSPropertyOp11
 70
     1
102
RTVSPropertyOp12
 70
     1
102
RTVSPropertyOp13
 70
     1
102
RTVSPropertyOp14
 70
     1
102
RTVSPropertyOp15
 70
     1
102
RTVSPropertyOp16
 70
     1
102
RTVSPropertyOp17
 70
     1
102
RTVSPropertyOp18
 70
     1
102
RTVSPropertyOp19
 70
     1
102
RTVSPropertyOp20
 70
     1
102
RTVSPropertyOp21
 70
     1
102
RTVSPropertyOp22
 70
     1
102
RTVSPropertyOp23
 70
     1
102
RTVSPropertyOp24
 70
     1
102
RTVSPropertyOp25
 70
     1
102
RTVSPropertyOp26
 70
     1
102
RTVSPropertyOp27
 70
     1
102
RTVSPropertyOp28
 70
     1
102
RTVSPropertyOp29
 70
     1
102
RTVSPropertyOp30
 70
     1
102
RTVSPropertyOp31
 70
     1
102
RTVSPropertyOp32
 70
     1
102
RTVSPropertyOp33
 70
     1
102
RTVSPropertyOp34
 70
     1
102
RTVSPropertyOp35
 70
     1
102
RTVSPropertyOp36
 70
     1
102
RTVSPropertyOp37
 70
     1
102
RTVSPropertyOp38
 70
     1
102
RTVSPropertyOp39
 70
     1
102
RTVSPropertyOp40
 70
     1
102
RTVSPropertyOp41
 70
     1
102
RTVSPropertyOp42
 70
     1
102
RTVSPropertyOp43
 70
     1
102
RTVSPropertyOp44
 70
     1
102
RTVSPropertyOp45
 70
     1
102
RTVSPropertyOp46
 70
     1
102
RTVSPropertyOp47
 70
     1
102
RTVSPropertyOp48
 70
     1
102
RTVSPropertyOp49
 70
     1
102
RTVSPropertyOp50
 70
     1
102
RTVSPropertyOp51
 70
     0
102
RTVSPropertyOp52
 70
     0
102
RTVSPropertyOp53
 70
     1
102
RTVSPropertyOp54
 70
     1
102
RTVSPropertyOp55
 70
     1
102
RTVSPropertyOp56
 70
     1
102
RTVSPropertyOp57
 70
     1
102
RTVSPost2010Prop28
280
     0
102
RTVSPost2010PropOp28
 70
     1
102
RTVSPost2010Prop29
280
     1
102
RTVSPost2010PropOp29
 70
     1
102
RTVSPost2010Prop30
280
     1
102
RTVSPost2010PropOp30
 70
     1
102
RTVSPost2010Prop31
280
     0
102
RTVSPost2010PropOp31
 70
     1
102
RTVSPost2010Prop32
280
     0
102
RTVSPost2010PropOp32
 70
     1
102
RTVSPost2010Prop33
280
     0
102
RTVSPost2010PropOp33
 70
     1
102
RTVSPost2010Prop34
280
     0
102
RTVSPost2010PropOp34
 70
     1
102
RTVSPost2010Prop35
280
     0
102
RTVSPost2010PropOp35
 70
     1
102
RTVSPost2010Prop36
280
     0
102
RTVSPost2010PropOp36
 70
     1
102
RTVSPost2010Prop37
 90
       50
102
RTVSPost2010PropOp37
 70
     1
102
RTVSPost2010Prop38
140
0.0
102
RTVSPost2010PropOp38
 70
     1
102
RTVSPost2010Prop39
140
1.0
102
RTVSPost2010PropOp39
 70
     1
102
RTVSPost2010Prop40
 90
        0
102
RTVSPost2010PropOp40
 70
     1
102
RTVSPost2010Prop41ColorIndex
 90
       18
102
RTVSPost2010Prop41ColorRGB
 90
        0
102
RTVSPost2010PropOp41
 70
     1
102
RTVSPost2010Prop42
 90
       50
102
RTVSPost2010PropOp42
 70
     1
102
RTVSPost2010Prop43
 90
        3
102
RTVSPost2010PropOp43
 70
     1
102
RTVSPost2010Prop44ColorIndex
 90
        5
102
RTVSPost2010Prop44ColorRGB
 90
      255
102
RTVSPost2010PropOp44
 70
     1
102
RTVSPost2010Prop45
280
     0
102
RTVSPost2010PropOp45
 70
     1
102
RTVSPost2010Prop46
 90
       50
102
RTVSPost2010PropOp46
 70
     1
102
RTVSPost2010Prop47
 90
       50
102
RTVSPost2010PropOp47
 70
     1
102
RTVSPost2010Prop48
 90
       50
102
RTVSPost2010PropOp48
 70
     1
102
RTVSPost2010Prop49
280
     0
102
RTVSPost2010PropOp49
 70
     1
102
RTVSPost2010Prop50
 90
       50
102
RTVSPost2010PropOp50
 70
     1
102
RTVSPost2010Prop51ColorIndex
 90
      256
102
RTVSPost2010Prop51ColorRGB
 90
-16777216
102
RTVSPost2010PropOp51
 70
     0
102
RTVSPost2010Prop52
140
1.0
102
RTVSPost2010PropOp52
 70
     0
102
RTVSPost2010Prop53
 90
        2
102
RTVSPost2010PropOp53
 70
     1
102
RTVSPost2010Prop54
  1
strokes_ogs.tif
102
RTVSPost2010PropOp54
 70
     1
102
RTVSPost2010Prop55
280
     0
102
RTVSPost2010PropOp55
 70
     1
102
RTVSPost2010Prop56
140
1.0
102
RTVSPost2010PropOp56
 70
     1
102
RTVSPost2010Prop57
140
1.0
102
RTVSPost2010PropOp57
 70
     1
  0
XRECORD
  5
3C4
102
{ACAD_REACTORS
330
3C3
102
}
330
3C3
100
AcDbXrecord
280
     1
102
RTVSPropertyOp0
 70
     1
102
RTVSPropertyOp1
 70
     1
102
RTVSPropertyOp2
 70
     1
102
RTVSPropertyOp3
 70
     1
102
RTVSPropertyOp4
 70
     1
102
RTVSPropertyOp5
 70
     1
102
RTVSPropertyOp6
 70
     1
102
RTVSPropertyOp7
 70
     1
102
RTVSPropertyOp8
 70
     1
102
RTVSPropertyOp9
 70
     1
102
RTVSPropertyOp10
 70
     1
102
RTVSPropertyOp11
 70
     1
102
RTVSPropertyOp12
 70
     1
102
RTVSPropertyOp13
 70
     1
102
RTVSPropertyOp14
 70
     1
102
RTVSPropertyOp15
 70
     1
102
RTVSPropertyOp16
 70
     1
102
RTVSPropertyOp17
 70
     1
102
RTVSPropertyOp18
 70
     1
102
RTVSPropertyOp19
 70
     1
102
RTVSPropertyOp20
 70
     1
102
RTVSPropertyOp21
 70
     1
102
RTVSPropertyOp22
 70
     1
102
RTVSPropertyOp23
 70
     1
102
RTVSPropertyOp24
 70
     1
102
RTVSPropertyOp25
 70
     1
102
RTVSPropertyOp26
 70
     1
102
RTVSPropertyOp27
 70
     1
102
RTVSPropertyOp28
 70
     1
102
RTVSPropertyOp29
 70
     1
102
RTVSPropertyOp30
 70
     1
102
RTVSPropertyOp31
 70
     1
102
RTVSPropertyOp32
 70
     1
102
RTVSPropertyOp33
 70
     1
102
RTVSPropertyOp34
 70
     1
102
RTVSPropertyOp35
 70
     1
102
RTVSPropertyOp36
 70
     1
102
RTVSPropertyOp37
 70
     1
102
RTVSPropertyOp38
 70
     1
102
RTVSPropertyOp39
 70
     1
102
RTVSPropertyOp40
 70
     1
102
RTVSPropertyOp41
 70
     1
102
RTVSPropertyOp42
 70
     1
102
RTVSPropertyOp43
 70
     1
102
RTVSPropertyOp44
 70
     1
102
RTVSPropertyOp45
 70
     1
102
RTVSPropertyOp46
 70
     1
102
RTVSPropertyOp47
 70
     1
102
RTVSPropertyOp48
 70
     1
102
RTVSPropertyOp49
 70
     1
102
RTVSPropertyOp50
 70
     1
102
RTVSPropertyOp51
 70
     0
102
RTVSPropertyOp52
 70
     0
102
RTVSPropertyOp53
 70
     1
102
RTVSPropertyOp54
 70
     1
102
RTVSPropertyOp55
 70
     1
102
RTVSPropertyOp56
 70
     1
102
RTVSPropertyOp57
 70
     1
102
RTVSPost2010Prop28
280
     0
102
RTVSPost2010PropOp28
 70
     1
102
RTVSPost2010Prop29
280
     1
102
RTVSPost2010PropOp29
 70
     1
102
RTVSPost2010Prop30
280
     1
102
RTVSPost2010PropOp30
 70
     1
102
RTVSPost2010Prop31
280
     0
102
RTVSPost2010PropOp31
 70
     1
102
RTVSPost2010Prop32
280
     0
102
RTVSPost2010PropOp32
 70
     1
102
RTVSPost2010Prop33
280
     0
102
RTVSPost2010PropOp33
 70
     1
102
RTVSPost2010Prop34
280
     0
102
RTVSPost2010PropOp34
 70
     1
102
RTVSPost2010Prop35
280
     0
102
RTVSPost2010PropOp35
 70
     1
102
RTVSPost2010Prop36
280
     0
102
RTVSPost2010PropOp36
 70
     1
102
RTVSPost2010Prop37
 90
       50
102
RTVSPost2010PropOp37
 70
     1
102
RTVSPost2010Prop38
140
0.0
102
RTVSPost2010PropOp38
 70
     1
102
RTVSPost2010Prop39
140
1.0
102
RTVSPost2010PropOp39
 70
     1
102
RTVSPost2010Prop40
 90
        0
102
RTVSPost2010PropOp40
 70
     1
102
RTVSPost2010Prop41ColorIndex
 90
       18
102
RTVSPost2010Prop41ColorRGB
 90
        0
102
RTVSPost2010PropOp41
 70
     1
102
RTVSPost2010Prop42
 90
       50
102
RTVSPost2010PropOp42
 70
     1
102
RTVSPost2010Prop43
 90
        3
102
RTVSPost2010PropOp43
 70
     1
102
RTVSPost2010Prop44ColorIndex
 90
        5
102
RTVSPost2010Prop44ColorRGB
 90
      255
102
RTVSPost2010PropOp44
 70
     1
102
RTVSPost2010Prop45
280
     0
102
RTVSPost2010PropOp45
 70
     1
102
RTVSPost2010Prop46
 90
       50
102
RTVSPost2010PropOp46
 70
     1
102
RTVSPost2010Prop47
 90
       50
102
RTVSPost2010PropOp47
 70
     1
102
RTVSPost2010Prop48
 90
       50
102
RTVSPost2010PropOp48
 70
     1
102
RTVSPost2010Prop49
280
     0
102
RTVSPost2010PropOp49
 70
     1
102
RTVSPost2010Prop50
 90
       50
102
RTVSPost2010PropOp50
 70
     1
102
RTVSPost2010Prop51ColorIndex
 90
      256
102
RTVSPost2010Prop51ColorRGB
 90
-16777216
102
RTVSPost2010PropOp51
 70
     0
102
RTVSPost2010Prop52
140
1.0
102
RTVSPost2010PropOp52
 70
     0
102
RTVSPost2010Prop53
 90
        2
102
RTVSPost2010PropOp53
 70
     1
102
RTVSPost2010Prop54
  1
strokes_ogs.tif
102
RTVSPost2010PropOp54
 70
     1
102
RTVSPost2010Prop55
280
     0
102
RTVSPost2010PropOp55
 70
     1
102
RTVSPost2010Prop56
140
1.0
102
RTVSPost2010PropOp56
 70
     1
102
RTVSPost2010Prop57
140
1.0
102
RTVSPost2010PropOp57
 70
     1
  0
XRECORD
  5
3BE
102
{ACAD_REACTORS
330
3BD
102
}
330
3BD
100
AcDbXrecord
280
     1
102
RTVSPropertyOp0
 70
     1
102
RTVSPropertyOp1
 70
     1
102
RTVSPropertyOp2
 70
     1
102
RTVSPropertyOp3
 70
     1
102
RTVSPropertyOp4
 70
     1
102
RTVSPropertyOp5
 70
     1
102
RTVSPropertyOp6
 70
     1
102
RTVSPropertyOp7
 70
     1
102
RTVSPropertyOp8
 70
     1
102
RTVSPropertyOp9
 70
     1
102
RTVSPropertyOp10
 70
     1
102
RTVSPropertyOp11
 70
     1
102
RTVSPropertyOp12
 70
     1
102
RTVSPropertyOp13
 70
     1
102
RTVSPropertyOp14
 70
     1
102
RTVSPropertyOp15
 70
     1
102
RTVSPropertyOp16
 70
     1
102
RTVSPropertyOp17
 70
     1
102
RTVSPropertyOp18
 70
     1
102
RTVSPropertyOp19
 70
     1
102
RTVSPropertyOp20
 70
     1
102
RTVSPropertyOp21
 70
     1
102
RTVSPropertyOp22
 70
     1
102
RTVSPropertyOp23
 70
     1
102
RTVSPropertyOp24
 70
     1
102
RTVSPropertyOp25
 70
     1
102
RTVSPropertyOp26
 70
     1
102
RTVSPropertyOp27
 70
     1
102
RTVSPropertyOp28
 70
     1
102
RTVSPropertyOp29
 70
     1
102
RTVSPropertyOp30
 70
     1
102
RTVSPropertyOp31
 70
     1
102
RTVSPropertyOp32
 70
     1
102
RTVSPropertyOp33
 70
     1
102
RTVSPropertyOp34
 70
     1
102
RTVSPropertyOp35
 70
     1
102
RTVSPropertyOp36
 70
     1
102
RTVSPropertyOp37
 70
     1
102
RTVSPropertyOp38
 70
     1
102
RTVSPropertyOp39
 70
     1
102
RTVSPropertyOp40
 70
     1
102
RTVSPropertyOp41
 70
     1
102
RTVSPropertyOp42
 70
     1
102
RTVSPropertyOp43
 70
     1
102
RTVSPropertyOp44
 70
     1
102
RTVSPropertyOp45
 70
     1
102
RTVSPropertyOp46
 70
     1
102
RTVSPropertyOp47
 70
     1
102
RTVSPropertyOp48
 70
     1
102
RTVSPropertyOp49
 70
     1
102
RTVSPropertyOp50
 70
     1
102
RTVSPropertyOp51
 70
     0
102
RTVSPropertyOp52
 70
     0
102
RTVSPropertyOp53
 70
     1
102
RTVSPropertyOp54
 70
     1
102
RTVSPropertyOp55
 70
     1
102
RTVSPropertyOp56
 70
     1
102
RTVSPropertyOp57
 70
     1
102
RTVSPost2010Prop28
280
     0
102
RTVSPost2010PropOp28
 70
     1
102
RTVSPost2010Prop29
280
     1
102
RTVSPost2010PropOp29
 70
     1
102
RTVSPost2010Prop30
280
     1
102
RTVSPost2010PropOp30
 70
     1
102
RTVSPost2010Prop31
280
     0
102
RTVSPost2010PropOp31
 70
     1
102
RTVSPost2010Prop32
280
     0
102
RTVSPost2010PropOp32
 70
     1
102
RTVSPost2010Prop33
280
     0
102
RTVSPost2010PropOp33
 70
     1
102
RTVSPost2010Prop34
280
     0
102
RTVSPost2010PropOp34
 70
     1
102
RTVSPost2010Prop35
280
     0
102
RTVSPost2010PropOp35
 70
     1
102
RTVSPost2010Prop36
280
     0
102
RTVSPost2010PropOp36
 70
     1
102
RTVSPost2010Prop37
 90
       50
102
RTVSPost2010PropOp37
 70
     1
102
RTVSPost2010Prop38
140
0.0
102
RTVSPost2010PropOp38
 70
     1
102
RTVSPost2010Prop39
140
1.0
102
RTVSPost2010PropOp39
 70
     1
102
RTVSPost2010Prop40
 90
        0
102
RTVSPost2010PropOp40
 70
     1
102
RTVSPost2010Prop41ColorIndex
 90
       18
102
RTVSPost2010Prop41ColorRGB
 90
        0
102
RTVSPost2010PropOp41
 70
     1
102
RTVSPost2010Prop42
 90
       50
102
RTVSPost2010PropOp42
 70
     1
102
RTVSPost2010Prop43
 90
        3
102
RTVSPost2010PropOp43
 70
     1
102
RTVSPost2010Prop44ColorIndex
 90
        5
102
RTVSPost2010Prop44ColorRGB
 90
      255
102
RTVSPost2010PropOp44
 70
     1
102
RTVSPost2010Prop45
280
     0
102
RTVSPost2010PropOp45
 70
     1
102
RTVSPost2010Prop46
 90
       50
102
RTVSPost2010PropOp46
 70
     1
102
RTVSPost2010Prop47
 90
       50
102
RTVSPost2010PropOp47
 70
     1
102
RTVSPost2010Prop48
 90
       50
102
RTVSPost2010PropOp48
 70
     1
102
RTVSPost2010Prop49
280
     0
102
RTVSPost2010PropOp49
 70
     1
102
RTVSPost2010Prop50
 90
       50
102
RTVSPost2010PropOp50
 70
     1
102
RTVSPost2010Prop51ColorIndex
 90
      256
102
RTVSPost2010Prop51ColorRGB
 90
-16777216
102
RTVSPost2010PropOp51
 70
     0
102
RTVSPost2010Prop52
140
1.0
102
RTVSPost2010PropOp52
 70
     0
102
RTVSPost2010Prop53
 90
        2
102
RTVSPost2010PropOp53
 70
     1
102
RTVSPost2010Prop54
  1
strokes_ogs.tif
102
RTVSPost2010PropOp54
 70
     1
102
RTVSPost2010Prop55
280
     0
102
RTVSPost2010PropOp55
 70
     1
102
RTVSPost2010Prop56
140
1.0
102
RTVSPost2010PropOp56
 70
     1
102
RTVSPost2010Prop57
140
1.0
102
RTVSPost2010PropOp57
 70
     1
  0
XRECORD
  5
3C0
102
{ACAD_REACTORS
330
3BF
102
}
330
3BF
100
AcDbXrecord
280
     1
102
RTVSPropertyOp0
 70
     1
102
RTVSPropertyOp1
 70
     1
102
RTVSPropertyOp2
 70
     1
102
RTVSPropertyOp3
 70
     1
102
RTVSPropertyOp4
 70
     1
102
RTVSPropertyOp5
 70
     1
102
RTVSPropertyOp6
 70
     1
102
RTVSPropertyOp7
 70
     1
102
RTVSPropertyOp8
 70
     1
102
RTVSPropertyOp9
 70
     1
102
RTVSPropertyOp10
 70
     1
102
RTVSPropertyOp11
 70
     1
102
RTVSPropertyOp12
 70
     1
102
RTVSPropertyOp13
 70
     1
102
RTVSPropertyOp14
 70
     1
102
RTVSPropertyOp15
 70
     1
102
RTVSPropertyOp16
 70
     1
102
RTVSPropertyOp17
 70
     1
102
RTVSPropertyOp18
 70
     1
102
RTVSPropertyOp19
 70
     1
102
RTVSPropertyOp20
 70
     1
102
RTVSPropertyOp21
 70
     1
102
RTVSPropertyOp22
 70
     1
102
RTVSPropertyOp23
 70
     1
102
RTVSPropertyOp24
 70
     1
102
RTVSPropertyOp25
 70
     1
102
RTVSPropertyOp26
 70
     1
102
RTVSPropertyOp27
 70
     1
102
RTVSPropertyOp28
 70
     1
102
RTVSPropertyOp29
 70
     1
102
RTVSPropertyOp30
 70
     1
102
RTVSPropertyOp31
 70
     1
102
RTVSPropertyOp32
 70
     1
102
RTVSPropertyOp33
 70
     1
102
RTVSPropertyOp34
 70
     1
102
RTVSPropertyOp35
 70
     1
102
RTVSPropertyOp36
 70
     1
102
RTVSPropertyOp37
 70
     1
102
RTVSPropertyOp38
 70
     1
102
RTVSPropertyOp39
 70
     1
102
RTVSPropertyOp40
 70
     1
102
RTVSPropertyOp41
 70
     1
102
RTVSPropertyOp42
 70
     1
102
RTVSPropertyOp43
 70
     1
102
RTVSPropertyOp44
 70
     1
102
RTVSPropertyOp45
 70
     1
102
RTVSPropertyOp46
 70
     1
102
RTVSPropertyOp47
 70
     1
102
RTVSPropertyOp48
 70
     1
102
RTVSPropertyOp49
 70
     1
102
RTVSPropertyOp50
 70
     1
102
RTVSPropertyOp51
 70
     0
102
RTVSPropertyOp52
 70
     0
102
RTVSPropertyOp53
 70
     1
102
RTVSPropertyOp54
 70
     1
102
RTVSPropertyOp55
 70
     1
102
RTVSPropertyOp56
 70
     1
102
RTVSPropertyOp57
 70
     1
102
RTVSPost2010Prop28
280
     0
102
RTVSPost2010PropOp28
 70
     1
102
RTVSPost2010Prop29
280
     1
102
RTVSPost2010PropOp29
 70
     1
102
RTVSPost2010Prop30
280
     1
102
RTVSPost2010PropOp30
 70
     1
102
RTVSPost2010Prop31
280
     0
102
RTVSPost2010PropOp31
 70
     1
102
RTVSPost2010Prop32
280
     0
102
RTVSPost2010PropOp32
 70
     1
102
RTVSPost2010Prop33
280
     0
102
RTVSPost2010PropOp33
 70
     1
102
RTVSPost2010Prop34
280
     0
102
RTVSPost2010PropOp34
 70
     1
102
RTVSPost2010Prop35
280
     0
102
RTVSPost2010PropOp35
 70
     1
102
RTVSPost2010Prop36
280
     0
102
RTVSPost2010PropOp36
 70
     1
102
RTVSPost2010Prop37
 90
       50
102
RTVSPost2010PropOp37
 70
     1
102
RTVSPost2010Prop38
140
0.0
102
RTVSPost2010PropOp38
 70
     1
102
RTVSPost2010Prop39
140
1.0
102
RTVSPost2010PropOp39
 70
     1
102
RTVSPost2010Prop40
 90
        0
102
RTVSPost2010PropOp40
 70
     1
102
RTVSPost2010Prop41ColorIndex
 90
       18
102
RTVSPost2010Prop41ColorRGB
 90
        0
102
RTVSPost2010PropOp41
 70
     1
102
RTVSPost2010Prop42
 90
       50
102
RTVSPost2010PropOp42
 70
     1
102
RTVSPost2010Prop43
 90
        3
102
RTVSPost2010PropOp43
 70
     1
102
RTVSPost2010Prop44ColorIndex
 90
        5
102
RTVSPost2010Prop44ColorRGB
 90
      255
102
RTVSPost2010PropOp44
 70
     1
102
RTVSPost2010Prop45
280
     0
102
RTVSPost2010PropOp45
 70
     1
102
RTVSPost2010Prop46
 90
       50
102
RTVSPost2010PropOp46
 70
     1
102
RTVSPost2010Prop47
 90
       50
102
RTVSPost2010PropOp47
 70
     1
102
RTVSPost2010Prop48
 90
       50
102
RTVSPost2010PropOp48
 70
     1
102
RTVSPost2010Prop49
280
     0
102
RTVSPost2010PropOp49
 70
     1
102
RTVSPost2010Prop50
 90
       50
102
RTVSPost2010PropOp50
 70
     1
102
RTVSPost2010Prop51ColorIndex
 90
      256
102
RTVSPost2010Prop51ColorRGB
 90
-16777216
102
RTVSPost2010PropOp51
 70
     0
102
RTVSPost2010Prop52
140
1.0
102
RTVSPost2010PropOp52
 70
     0
102
RTVSPost2010Prop53
 90
        2
102
RTVSPost2010PropOp53
 70
     1
102
RTVSPost2010Prop54
  1
strokes_ogs.tif
102
RTVSPost2010PropOp54
 70
     1
102
RTVSPost2010Prop55
280
     0
102
RTVSPost2010PropOp55
 70
     1
102
RTVSPost2010Prop56
140
1.0
102
RTVSPost2010PropOp56
 70
     1
102
RTVSPost2010Prop57
140
1.0
102
RTVSPost2010PropOp57
 70
     1
  0
XRECORD
  5
3B0
102
{ACAD_REACTORS
330
3AF
102
}
330
3AF
100
AcDbXrecord
280
     1
102
RTVSPropertyOp0
 70
     1
102
RTVSPropertyOp1
 70
     1
102
RTVSPropertyOp2
 70
     1
102
RTVSPropertyOp3
 70
     1
102
RTVSPropertyOp4
 70
     1
102
RTVSPropertyOp5
 70
     1
102
RTVSPropertyOp6
 70
     1
102
RTVSPropertyOp7
 70
     1
102
RTVSPropertyOp8
 70
     1
102
RTVSPropertyOp9
 70
     1
102
RTVSPropertyOp10
 70
     1
102
RTVSPropertyOp11
 70
     1
102
RTVSPropertyOp12
 70
     1
102
RTVSPropertyOp13
 70
     1
102
RTVSPropertyOp14
 70
     1
102
RTVSPropertyOp15
 70
     1
102
RTVSPropertyOp16
 70
     1
102
RTVSPropertyOp17
 70
     1
102
RTVSPropertyOp18
 70
     1
102
RTVSPropertyOp19
 70
     1
102
RTVSPropertyOp20
 70
     1
102
RTVSPropertyOp21
 70
     1
102
RTVSPropertyOp22
 70
     1
102
RTVSPropertyOp23
 70
     1
102
RTVSPropertyOp24
 70
     1
102
RTVSPropertyOp25
 70
     1
102
RTVSPropertyOp26
 70
     1
102
RTVSPropertyOp27
 70
     1
102
RTVSPropertyOp28
 70
     1
102
RTVSPropertyOp29
 70
     1
102
RTVSPropertyOp30
 70
     1
102
RTVSPropertyOp31
 70
     1
102
RTVSPropertyOp32
 70
     1
102
RTVSPropertyOp33
 70
     1
102
RTVSPropertyOp34
 70
     1
102
RTVSPropertyOp35
 70
     1
102
RTVSPropertyOp36
 70
     1
102
RTVSPropertyOp37
 70
     1
102
RTVSPropertyOp38
 70
     1
102
RTVSPropertyOp39
 70
     1
102
RTVSPropertyOp40
 70
     1
102
RTVSPropertyOp41
 70
     1
102
RTVSPropertyOp42
 70
     1
102
RTVSPropertyOp43
 70
     1
102
RTVSPropertyOp44
 70
     1
102
RTVSPropertyOp45
 70
     1
102
RTVSPropertyOp46
 70
     1
102
RTVSPropertyOp47
 70
     1
102
RTVSPropertyOp48
 70
     1
102
RTVSPropertyOp49
 70
     1
102
RTVSPropertyOp50
 70
     1
102
RTVSPropertyOp51
 70
     0
102
RTVSPropertyOp52
 70
     0
102
RTVSPropertyOp53
 70
     1
102
RTVSPropertyOp54
 70
     1
102
RTVSPropertyOp55
 70
     1
102
RTVSPropertyOp56
 70
     1
102
RTVSPropertyOp57
 70
     1
102
RTVSPost2010Prop28
280
     0
102
RTVSPost2010PropOp28
 70
     1
102
RTVSPost2010Prop29
280
     1
102
RTVSPost2010PropOp29
 70
     1
102
RTVSPost2010Prop30
280
     1
102
RTVSPost2010PropOp30
 70
     1
102
RTVSPost2010Prop31
280
     0
102
RTVSPost2010PropOp31
 70
     1
102
RTVSPost2010Prop32
280
     0
102
RTVSPost2010PropOp32
 70
     1
102
RTVSPost2010Prop33
280
     0
102
RTVSPost2010PropOp33
 70
     1
102
RTVSPost2010Prop34
280
     0
102
RTVSPost2010PropOp34
 70
     1
102
RTVSPost2010Prop35
280
     0
102
RTVSPost2010PropOp35
 70
     1
102
RTVSPost2010Prop36
280
     0
102
RTVSPost2010PropOp36
 70
     1
102
RTVSPost2010Prop37
 90
       50
102
RTVSPost2010PropOp37
 70
     1
102
RTVSPost2010Prop38
140
0.0
102
RTVSPost2010PropOp38
 70
     1
102
RTVSPost2010Prop39
140
1.0
102
RTVSPost2010PropOp39
 70
     1
102
RTVSPost2010Prop40
 90
        0
102
RTVSPost2010PropOp40
 70
     1
102
RTVSPost2010Prop41ColorIndex
 90
       18
102
RTVSPost2010Prop41ColorRGB
 90
        0
102
RTVSPost2010PropOp41
 70
     1
102
RTVSPost2010Prop42
 90
       50
102
RTVSPost2010PropOp42
 70
     1
102
RTVSPost2010Prop43
 90
        3
102
RTVSPost2010PropOp43
 70
     1
102
RTVSPost2010Prop44ColorIndex
 90
        5
102
RTVSPost2010Prop44ColorRGB
 90
      255
102
RTVSPost2010PropOp44
 70
     1
102
RTVSPost2010Prop45
280
     0
102
RTVSPost2010PropOp45
 70
     1
102
RTVSPost2010Prop46
 90
       50
102
RTVSPost2010PropOp46
 70
     1
102
RTVSPost2010Prop47
 90
       50
102
RTVSPost2010PropOp47
 70
     1
102
RTVSPost2010Prop48
 90
       50
102
RTVSPost2010PropOp48
 70
     1
102
RTVSPost2010Prop49
280
     0
102
RTVSPost2010PropOp49
 70
     1
102
RTVSPost2010Prop50
 90
       50
102
RTVSPost2010PropOp50
 70
     1
102
RTVSPost2010Prop51ColorIndex
 90
      256
102
RTVSPost2010Prop51ColorRGB
 90
-16777216
102
RTVSPost2010PropOp51
 70
     0
102
RTVSPost2010Prop52
140
1.0
102
RTVSPost2010PropOp52
 70
     0
102
RTVSPost2010Prop53
 90
        2
102
RTVSPost2010PropOp53
 70
     1
102
RTVSPost2010Prop54
  1
strokes_ogs.tif
102
RTVSPost2010PropOp54
 70
     1
102
RTVSPost2010Prop55
280
     0
102
RTVSPost2010PropOp55
 70
     1
102
RTVSPost2010Prop56
140
1.0
102
RTVSPost2010PropOp56
 70
     1
102
RTVSPost2010Prop57
140
1.0
102
RTVSPost2010PropOp57
 70
     1
  0
XRECORD
  5
3A2
102
{ACAD_REACTORS
330
3A1
102
}
330
3A1
100
AcDbXrecord
280
     1
102
RTVSPropertyOp0
 70
     1
102
RTVSPropertyOp1
 70
     1
102
RTVSPropertyOp2
 70
     1
102
RTVSPropertyOp3
 70
     1
102
RTVSPropertyOp4
 70
     1
102
RTVSPropertyOp5
 70
     1
102
RTVSPropertyOp6
 70
     1
102
RTVSPropertyOp7
 70
     1
102
RTVSPropertyOp8
 70
     1
102
RTVSPropertyOp9
 70
     1
102
RTVSPropertyOp10
 70
     1
102
RTVSPropertyOp11
 70
     1
102
RTVSPropertyOp12
 70
     1
102
RTVSPropertyOp13
 70
     1
102
RTVSPropertyOp14
 70
     1
102
RTVSPropertyOp15
 70
     1
102
RTVSPropertyOp16
 70
     1
102
RTVSPropertyOp17
 70
     1
102
RTVSPropertyOp18
 70
     1
102
RTVSPropertyOp19
 70
     1
102
RTVSPropertyOp20
 70
     1
102
RTVSPropertyOp21
 70
     1
102
RTVSPropertyOp22
 70
     1
102
RTVSPropertyOp23
 70
     1
102
RTVSPropertyOp24
 70
     1
102
RTVSPropertyOp25
 70
     1
102
RTVSPropertyOp26
 70
     1
102
RTVSPropertyOp27
 70
     1
102
RTVSPropertyOp28
 70
     1
102
RTVSPropertyOp29
 70
     1
102
RTVSPropertyOp30
 70
     1
102
RTVSPropertyOp31
 70
     1
102
RTVSPropertyOp32
 70
     1
102
RTVSPropertyOp33
 70
     1
102
RTVSPropertyOp34
 70
     1
102
RTVSPropertyOp35
 70
     1
102
RTVSPropertyOp36
 70
     1
102
RTVSPropertyOp37
 70
     1
102
RTVSPropertyOp38
 70
     1
102
RTVSPropertyOp39
 70
     1
102
RTVSPropertyOp40
 70
     1
102
RTVSPropertyOp41
 70
     1
102
RTVSPropertyOp42
 70
     1
102
RTVSPropertyOp43
 70
     1
102
RTVSPropertyOp44
 70
     1
102
RTVSPropertyOp45
 70
     1
102
RTVSPropertyOp46
 70
     1
102
RTVSPropertyOp47
 70
     1
102
RTVSPropertyOp48
 70
     1
102
RTVSPropertyOp49
 70
     1
102
RTVSPropertyOp50
 70
     1
102
RTVSPropertyOp51
 70
     0
102
RTVSPropertyOp52
 70
     0
102
RTVSPropertyOp53
 70
     1
102
RTVSPropertyOp54
 70
     1
102
RTVSPropertyOp55
 70
     1
102
RTVSPropertyOp56
 70
     1
102
RTVSPropertyOp57
 70
     1
102
RTVSPost2010Prop28
280
     0
102
RTVSPost2010PropOp28
 70
     1
102
RTVSPost2010Prop29
280
     1
102
RTVSPost2010PropOp29
 70
     1
102
RTVSPost2010Prop30
280
     1
102
RTVSPost2010PropOp30
 70
     1
102
RTVSPost2010Prop31
280
     0
102
RTVSPost2010PropOp31
 70
     1
102
RTVSPost2010Prop32
280
     0
102
RTVSPost2010PropOp32
 70
     1
102
RTVSPost2010Prop33
280
     0
102
RTVSPost2010PropOp33
 70
     1
102
RTVSPost2010Prop34
280
     0
102
RTVSPost2010PropOp34
 70
     1
102
RTVSPost2010Prop35
280
     0
102
RTVSPost2010PropOp35
 70
     1
102
RTVSPost2010Prop36
280
     0
102
RTVSPost2010PropOp36
 70
     1
102
RTVSPost2010Prop37
 90
       50
102
RTVSPost2010PropOp37
 70
     1
102
RTVSPost2010Prop38
140
0.0
102
RTVSPost2010PropOp38
 70
     1
102
RTVSPost2010Prop39
140
1.0
102
RTVSPost2010PropOp39
 70
     1
102
RTVSPost2010Prop40
 90
        0
102
RTVSPost2010PropOp40
 70
     1
102
RTVSPost2010Prop41ColorIndex
 90
       18
102
RTVSPost2010Prop41ColorRGB
 90
        0
102
RTVSPost2010PropOp41
 70
     1
102
RTVSPost2010Prop42
 90
       50
102
RTVSPost2010PropOp42
 70
     1
102
RTVSPost2010Prop43
 90
        3
102
RTVSPost2010PropOp43
 70
     1
102
RTVSPost2010Prop44ColorIndex
 90
        5
102
RTVSPost2010Prop44ColorRGB
 90
      255
102
RTVSPost2010PropOp44
 70
     1
102
RTVSPost2010Prop45
280
     0
102
RTVSPost2010PropOp45
 70
     1
102
RTVSPost2010Prop46
 90
       50
102
RTVSPost2010PropOp46
 70
     1
102
RTVSPost2010Prop47
 90
       50
102
RTVSPost2010PropOp47
 70
     1
102
RTVSPost2010Prop48
 90
       50
102
RTVSPost2010PropOp48
 70
     1
102
RTVSPost2010Prop49
280
     0
102
RTVSPost2010PropOp49
 70
     1
102
RTVSPost2010Prop50
 90
       50
102
RTVSPost2010PropOp50
 70
     1
102
RTVSPost2010Prop51ColorIndex
 90
      256
102
RTVSPost2010Prop51ColorRGB
 90
-16777216
102
RTVSPost2010PropOp51
 70
     0
102
RTVSPost2010Prop52
140
1.0
102
RTVSPost2010PropOp52
 70
     0
102
RTVSPost2010Prop53
 90
        2
102
RTVSPost2010PropOp53
 70
     1
102
RTVSPost2010Prop54
  1
strokes_ogs.tif
102
RTVSPost2010PropOp54
 70
     1
102
RTVSPost2010Prop55
280
     0
102
RTVSPost2010PropOp55
 70
     1
102
RTVSPost2010Prop56
140
1.0
102
RTVSPost2010PropOp56
 70
     1
102
RTVSPost2010Prop57
140
1.0
102
RTVSPost2010PropOp57
 70
     1
  0
XRECORD
  5
3C2
102
{ACAD_REACTORS
330
3C1
102
}
330
3C1
100
AcDbXrecord
280
     1
102
RTVSPropertyOp0
 70
     1
102
RTVSPropertyOp1
 70
     1
102
RTVSPropertyOp2
 70
     1
102
RTVSPropertyOp3
 70
     1
102
RTVSPropertyOp4
 70
     1
102
RTVSPropertyOp5
 70
     1
102
RTVSPropertyOp6
 70
     1
102
RTVSPropertyOp7
 70
     1
102
RTVSPropertyOp8
 70
     1
102
RTVSPropertyOp9
 70
     1
102
RTVSPropertyOp10
 70
     1
102
RTVSPropertyOp11
 70
     1
102
RTVSPropertyOp12
 70
     1
102
RTVSPropertyOp13
 70
     1
102
RTVSPropertyOp14
 70
     1
102
RTVSPropertyOp15
 70
     1
102
RTVSPropertyOp16
 70
     1
102
RTVSPropertyOp17
 70
     1
102
RTVSPropertyOp18
 70
     1
102
RTVSPropertyOp19
 70
     1
102
RTVSPropertyOp20
 70
     1
102
RTVSPropertyOp21
 70
     1
102
RTVSPropertyOp22
 70
     1
102
RTVSPropertyOp23
 70
     1
102
RTVSPropertyOp24
 70
     1
102
RTVSPropertyOp25
 70
     1
102
RTVSPropertyOp26
 70
     1
102
RTVSPropertyOp27
 70
     1
102
RTVSPropertyOp28
 70
     1
102
RTVSPropertyOp29
 70
     1
102
RTVSPropertyOp30
 70
     1
102
RTVSPropertyOp31
 70
     1
102
RTVSPropertyOp32
 70
     1
102
RTVSPropertyOp33
 70
     1
102
RTVSPropertyOp34
 70
     1
102
RTVSPropertyOp35
 70
     1
102
RTVSPropertyOp36
 70
     1
102
RTVSPropertyOp37
 70
     1
102
RTVSPropertyOp38
 70
     1
102
RTVSPropertyOp39
 70
     1
102
RTVSPropertyOp40
 70
     1
102
RTVSPropertyOp41
 70
     1
102
RTVSPropertyOp42
 70
     1
102
RTVSPropertyOp43
 70
     1
102
RTVSPropertyOp44
 70
     1
102
RTVSPropertyOp45
 70
     1
102
RTVSPropertyOp46
 70
     1
102
RTVSPropertyOp47
 70
     1
102
RTVSPropertyOp48
 70
     1
102
RTVSPropertyOp49
 70
     1
102
RTVSPropertyOp50
 70
     1
102
RTVSPropertyOp51
 70
     0
102
RTVSPropertyOp52
 70
     0
102
RTVSPropertyOp53
 70
     1
102
RTVSPropertyOp54
 70
     1
102
RTVSPropertyOp55
 70
     1
102
RTVSPropertyOp56
 70
     1
102
RTVSPropertyOp57
 70
     1
102
RTVSPost2010Prop28
280
     0
102
RTVSPost2010PropOp28
 70
     1
102
RTVSPost2010Prop29
280
     1
102
RTVSPost2010PropOp29
 70
     1
102
RTVSPost2010Prop30
280
     1
102
RTVSPost2010PropOp30
 70
     1
102
RTVSPost2010Prop31
280
     0
102
RTVSPost2010PropOp31
 70
     1
102
RTVSPost2010Prop32
280
     0
102
RTVSPost2010PropOp32
 70
     1
102
RTVSPost2010Prop33
280
     0
102
RTVSPost2010PropOp33
 70
     1
102
RTVSPost2010Prop34
280
     0
102
RTVSPost2010PropOp34
 70
     1
102
RTVSPost2010Prop35
280
     0
102
RTVSPost2010PropOp35
 70
     1
102
RTVSPost2010Prop36
280
     0
102
RTVSPost2010PropOp36
 70
     1
102
RTVSPost2010Prop37
 90
       50
102
RTVSPost2010PropOp37
 70
     1
102
RTVSPost2010Prop38
140
0.0
102
RTVSPost2010PropOp38
 70
     1
102
RTVSPost2010Prop39
140
1.0
102
RTVSPost2010PropOp39
 70
     1
102
RTVSPost2010Prop40
 90
        0
102
RTVSPost2010PropOp40
 70
     1
102
RTVSPost2010Prop41ColorIndex
 90
       18
102
RTVSPost2010Prop41ColorRGB
 90
        0
102
RTVSPost2010PropOp41
 70
     1
102
RTVSPost2010Prop42
 90
       50
102
RTVSPost2010PropOp42
 70
     1
102
RTVSPost2010Prop43
 90
        3
102
RTVSPost2010PropOp43
 70
     1
102
RTVSPost2010Prop44ColorIndex
 90
        5
102
RTVSPost2010Prop44ColorRGB
 90
      255
102
RTVSPost2010PropOp44
 70
     1
102
RTVSPost2010Prop45
280
     0
102
RTVSPost2010PropOp45
 70
     1
102
RTVSPost2010Prop46
 90
       50
102
RTVSPost2010PropOp46
 70
     1
102
RTVSPost2010Prop47
 90
       50
102
RTVSPost2010PropOp47
 70
     1
102
RTVSPost2010Prop48
 90
       50
102
RTVSPost2010PropOp48
 70
     1
102
RTVSPost2010Prop49
280
     0
102
RTVSPost2010PropOp49
 70
     1
102
RTVSPost2010Prop50
 90
       50
102
RTVSPost2010PropOp50
 70
     1
102
RTVSPost2010Prop51ColorIndex
 90
      256
102
RTVSPost2010Prop51ColorRGB
 90
-16777216
102
RTVSPost2010PropOp51
 70
     0
102
RTVSPost2010Prop52
140
1.0
102
RTVSPost2010PropOp52
 70
     0
102
RTVSPost2010Prop53
 90
        2
102
RTVSPost2010PropOp53
 70
     1
102
RTVSPost2010Prop54
  1
strokes_ogs.tif
102
RTVSPost2010PropOp54
 70
     1
102
RTVSPost2010Prop55
280
     0
102
RTVSPost2010PropOp55
 70
     1
102
RTVSPost2010Prop56
140
1.0
102
RTVSPost2010PropOp56
 70
     1
102
RTVSPost2010Prop57
140
1.0
102
RTVSPost2010PropOp57
 70
     1
  0
ENDSEC
  0
EOF
