999
DXF file: 68_gaikei_140619.dxf
999
Pro/ENGINEER 2011490 by Parametric Technology Corporation
  0
SECTION
  2
HEADER
  9
$ACADVER
  1
AC1014
  9
$DWGCODEPAGE
  3
ANSI_932
  9
$EXTMAX
 10
594.0
 20
420.0
 30
0.0
  9
$EXTMIN
 10
0.0
 20
0.0
 30
0.0
  9
$LIMMIN
 10
0.0
 20
0.0
  9
$LIMMAX
 10
594.0
 20
420.0
  9
$VIEWCTR
 10
297.0
 20
210.0
  9
$VIEWSIZE
 40
420.0
  9
$CLAYER
  8
0
  9
$LTSCALE
 40
32.67
  9
$CELTYPE
  6
BYLAYER
  9
$DIMSCALE
 40
1.0
  9
$DIMASZ
 40
1.9
  9
$DIMEXO
 40
3.7125
  9
$DIMDLI
 40
22.572
  9
$DIMEXE
 40
10.692
  9
$DIMCEN
 40
5.346
  9
$DIMLFAC
 40
1.0
  9
$DIMBLK
  1
_OPEN
  9
$DIMTXT
 40
3.2
  9
$DIMTOL
 70
1
  9
$DIMLIM
 70
0
  9
$DIMTFAC
 40
1.0
  9
$DIMTP
 40
0.001
  9
$DIMTM
 40
0.001
  9
$PDMODE
 70
3
  9
$PDSIZE
 40
0.3125
  9
$HANDSEED
  5
2FD
  9
$TILEMODE
 70
1
  9
$MEASUREMENT
 70
1
  0
ENDSEC
  0
SECTION
  2
CLASSES
  0
ENDSEC
  0
SECTION
  2
TABLES
  0
TABLE
  2
VPORT
  5
8
100
AcDbSymbolTable
 70
2
  0
VPORT
  5
1F4
100
AcDbSymbolTableRecord
100
AcDbViewportTableRecord
  2
*ACTIVE
 70
0
 10
0.0
 20
0.0
 11
1.0
 21
1.0
 12
297.0
 22
210.0
 13
0.0
 23
0.0
 14
1.0
 24
1.0
 15
0.0
 25
0.0
 16
0.0
 26
0.0
 36
1.0
 17
0.0
 27
0.0
 37
0.0
 40
420.0
 41
1.4142857143
 42
50.0
 43
0.0
 44
0.0
 50
0.0
 51
0.0
 71
0
 72
100
 73
1
 74
1
 75
0
 76
0
 77
0
 78
0
  0
ENDTAB
  0
TABLE
  2
LTYPE
  5
5
100
AcDbSymbolTable
 70
6
  0
LTYPE
  5
14
100
AcDbSymbolTableRecord
100
AcDbLinetypeTableRecord
  2
BYBLOCK
 70
0
  3

 72
65
 73
0
 40
0.0
  0
LTYPE
  5
15
100
AcDbSymbolTableRecord
100
AcDbLinetypeTableRecord
  2
BYLAYER
 70
0
  3

 72
65
 73
0
 40
0.0
  0
LTYPE
  5
16
100
AcDbSymbolTableRecord
100
AcDbLinetypeTableRecord
  2
CONTINUOUS
 70
64
  3
Solid line
 72
65
 73
0
 40
0.0
  0
LTYPE
  5
1F5
100
AcDbSymbolTableRecord
100
AcDbLinetypeTableRecord
  2
CENTER
 70
64
  3
____ _ ____ _ ____ _ ____ _ ____ _ ____ _ ____
 72
65
 73
4
 40
0.6
 49
0.375
 74
0
 49
-0.075
 74
0
 49
0.075
 74
0
 49
-0.075
 74
0
  0
LTYPE
  5
1F6
100
AcDbSymbolTableRecord
100
AcDbLinetypeTableRecord
  2
HIDDEN
 70
64
  3
- - - - - - - - - - - - - - - - - - - -
 72
65
 73
2
 40
0.2
 49
0.1
 74
0
 49
-0.1
 74
0
  0
LTYPE
  5
1F7
100
AcDbSymbolTableRecord
100
AcDbLinetypeTableRecord
  2
PHANTOM
 70
64
  3
_____ _ _ _____ _ _ _____ _ _ _____
 72
65
 73
6
 40
0.8
 49
0.45
 74
0
 49
-0.05
 74
0
 49
0.1
 74
0
 49
-0.05
 74
0
 49
0.1
 74
0
 49
-0.05
 74
0
  0
LTYPE
  5
1F8
100
AcDbSymbolTableRecord
100
AcDbLinetypeTableRecord
  2
DOT
 70
64
  3
. . . . . . . . . . . . . . . . . . . .
 72
65
 73
2
 40
0.2
 49
0.1
 74
0
 49
-0.1
 74
0
  0
LTYPE
  5
1F9
100
AcDbSymbolTableRecord
100
AcDbLinetypeTableRecord
  2
DASHED
 70
64
  3
- - - - - - - - - - - - - - - - - - - -
 72
65
 73
2
 40
0.2
 49
0.1
 74
0
 49
-0.1
 74
0
  0
ENDTAB
  0
TABLE
  2
LAYER
  5
2
100
AcDbSymbolTable
 70
36
  0
LAYER
  5
10
100
AcDbSymbolTableRecord
100
AcDbLayerTableRecord
  2
0
 70
0
 62
7
  6
CONTINUOUS
  0
LAYER
  5
1FA
100
AcDbSymbolTableRecord
100
AcDbLayerTableRecord
  2
DEFAULT_1
 70
0
 62
7
  6
CENTER
  0
LAYER
  5
1FB
100
AcDbSymbolTableRecord
100
AcDbLayerTableRecord
  2
DEFAULT_2
 70
0
 62
8
  6
HIDDEN
  0
LAYER
  5
1FC
100
AcDbSymbolTableRecord
100
AcDbLayerTableRecord
  2
DEFAULT_3
 70
0
 62
7
  6
PHANTOM
  0
LAYER
  5
1FD
100
AcDbSymbolTableRecord
100
AcDbLayerTableRecord
  2
AXIS
 70
0
 62
7
  6
CONTINUOUS
  0
LAYER
  5
1FE
100
AcDbSymbolTableRecord
100
AcDbLayerTableRecord
  2
COSM_SKETCH
 70
0
 62
7
  6
CONTINUOUS
  0
LAYER
  5
1FF
100
AcDbSymbolTableRecord
100
AcDbLayerTableRecord
  2
CSYS
 70
0
 62
7
  6
CONTINUOUS
  0
LAYER
  5
200
100
AcDbSymbolTableRecord
100
AcDbLayerTableRecord
  2
CURVE
 70
0
 62
7
  6
CONTINUOUS
  0
LAYER
  5
201
100
AcDbSymbolTableRecord
100
AcDbLayerTableRecord
  2
DIM
 70
0
 62
7
  6
CONTINUOUS
  0
LAYER
  5
202
100
AcDbSymbolTableRecord
100
AcDbLayerTableRecord
  2
DTM
 70
0
 62
7
  6
CONTINUOUS
  0
LAYER
  5
203
100
AcDbSymbolTableRecord
100
AcDbLayerTableRecord
  2
NOTES
 70
0
 62
7
  6
CONTINUOUS
  0
LAYER
  5
204
100
AcDbSymbolTableRecord
100
AcDbLayerTableRecord
  2
PNT
 70
0
 62
7
  6
CONTINUOUS
  0
LAYER
  5
205
100
AcDbSymbolTableRecord
100
AcDbLayerTableRecord
  2
QUILT
 70
0
 62
7
  6
CONTINUOUS
  0
LAYER
  5
206
100
AcDbSymbolTableRecord
100
AcDbLayerTableRecord
  2
SURF
 70
0
 62
7
  6
CONTINUOUS
  0
ENDTAB
  0
TABLE
  2
STYLE
  5
3
100
AcDbSymbolTable
 70
1
  0
STYLE
  5
11
100
AcDbSymbolTableRecord
100
AcDbTextStyleTableRecord
  2
STANDARD
 70
0
 40
0.0
 41
0.8
 50
0.0
 71
0
 42
0.2
  3
txt
  4

  0
STYLE
  5
207
100
AcDbSymbolTableRecord
100
AcDbTextStyleTableRecord
  2
TEXTSTYLE_1
 70
0
 40
0.0
 41
0.8
 50
0.0
 71
0
 42
0.2
  3
gdt
  4

  0
ENDTAB
  0
TABLE
  2
VIEW
  5
6
100
AcDbSymbolTable
 70
0
  0
ENDTAB
  0
TABLE
  2
UCS
  5
7
100
AcDbSymbolTable
 70
0
  0
ENDTAB
  0
TABLE
  2
APPID
  5
9
100
AcDbSymbolTable
 70
1
  0
APPID
  5
208
100
AcDbSymbolTableRecord
100
AcDbRegAppTableRecord
  2
ACAD
 70
0
  0
ENDTAB
  0
TABLE
  2
BLOCK_RECORD
  5
1
100
AcDbSymbolTable
 70
0
  0
BLOCK_RECORD
  5
1F
100
AcDbSymbolTableRecord
100
AcDbBlockTableRecord
  2
*MODEL_SPACE
  0
BLOCK_RECORD
  5
1B
100
AcDbSymbolTableRecord
100
AcDbBlockTableRecord
  2
*PAPER_SPACE
  0
BLOCK_RECORD
  5
209
100
AcDbSymbolTableRecord
100
AcDbBlockTableRecord
  2
_OPEN
  0
BLOCK_RECORD
  5
20A
100
AcDbSymbolTableRecord
100
AcDbBlockTableRecord
  2
*D0
  0
BLOCK_RECORD
  5
20B
100
AcDbSymbolTableRecord
100
AcDbBlockTableRecord
  2
*D1
  0
BLOCK_RECORD
  5
20C
100
AcDbSymbolTableRecord
100
AcDbBlockTableRecord
  2
*D2
  0
BLOCK_RECORD
  5
20D
100
AcDbSymbolTableRecord
100
AcDbBlockTableRecord
  2
*D3
  0
BLOCK_RECORD
  5
20E
100
AcDbSymbolTableRecord
100
AcDbBlockTableRecord
  2
*D4
  0
BLOCK_RECORD
  5
20F
100
AcDbSymbolTableRecord
100
AcDbBlockTableRecord
  2
*D5
  0
BLOCK_RECORD
  5
210
100
AcDbSymbolTableRecord
100
AcDbBlockTableRecord
  2
*D6
  0
BLOCK_RECORD
  5
211
100
AcDbSymbolTableRecord
100
AcDbBlockTableRecord
  2
*D7
  0
BLOCK_RECORD
  5
212
100
AcDbSymbolTableRecord
100
AcDbBlockTableRecord
  2
*D8
  0
BLOCK_RECORD
  5
213
100
AcDbSymbolTableRecord
100
AcDbBlockTableRecord
  2
*D9
  0
ENDTAB
  0
TABLE
  2
DIMSTYLE
  5
A
100
AcDbSymbolTable
 70
1
  0
DIMSTYLE
105
214
100
AcDbSymbolTableRecord
100
AcDbDimStyleTableRecord
  2
STANDARD
 70
0
  3

  4

  5
_OPEN
  6
_OPEN
  7
_OPEN
 40
1.0
 41
1.9
 42
0.0625
 43
0.38
 44
0.18
 45
0.0
 46
0.0
 47
0.001
 48
0.001
140
3.2
141
0.09
142
0.0
143
25.4
144
1.0
145
0.0
146
1.0
147
0.09
 71
1.0
 72
0.0
 73
0
 74
0
 75
0
 76
0
 77
1
 78
8
170
0
171
2
172
0
173
0
174
0
175
0
176
0
177
0
178
0
270
2
271
3
272
3
273
2
274
2
275
0
280
0
281
0
282
0
283
1
284
8
285
0
286
0
287
3
288
0
340
11
  0
DIMSTYLE
105
215
100
AcDbSymbolTableRecord
100
AcDbDimStyleTableRecord
  2
DIMSTYLE_1
 70
0
  3

  4

  5
_OPEN
  6
_OPEN
  7
_OPEN
 40
1.0
 41
1.9
 42
0.0625
 43
0.38
 44
0.18
 45
0.0
 46
0.0
 47
0.3
 48
0.3
140
3.2
141
0.09
142
0.0
143
25.4
144
1.0
145
0.0
146
1.0
147
0.09
 71
0.0
 72
0.0
 73
0
 74
0
 75
0
 76
0
 77
1
 78
8
170
0
171
2
172
0
173
0
174
0
175
0
176
0
177
0
178
0
270
2
271
3
272
3
273
2
274
2
275
0
280
0
281
0
282
0
283
1
284
8
285
0
286
0
287
3
288
0
340
11
  0
DIMSTYLE
105
216
100
AcDbSymbolTableRecord
100
AcDbDimStyleTableRecord
  2
DIMSTYLE_2
 70
0
  3

  4

  5
_OPEN
  6
_OPEN
  7
_OPEN
 40
1.0
 41
1.9
 42
0.0625
 43
0.38
 44
0.18
 45
0.0
 46
0.0
 47
0.2
 48
0.2
140
3.2
141
0.09
142
0.0
143
25.4
144
1.0
145
0.0
146
1.0
147
0.09
 71
0.0
 72
0.0
 73
0
 74
0
 75
0
 76
0
 77
1
 78
8
170
0
171
2
172
0
173
0
174
0
175
0
176
0
177
0
178
0
270
2
271
3
272
3
273
2
274
2
275
0
280
0
281
0
282
0
283
1
284
8
285
0
286
0
287
3
288
0
340
11
  0
DIMSTYLE
105
217
100
AcDbSymbolTableRecord
100
AcDbDimStyleTableRecord
  2
DIMSTYLE_3
 70
0
  3

  4

  5
_OPEN
  6
_OPEN
  7
_OPEN
 40
1.0
 41
1.9
 42
0.0625
 43
0.38
 44
0.18
 45
0.0
 46
0.0
 47
0.1
 48
0.1
140
3.2
141
0.09
142
0.0
143
25.4
144
1.0
145
0.0
146
1.0
147
0.09
 71
0.0
 72
0.0
 73
0
 74
0
 75
0
 76
0
 77
1
 78
8
170
0
171
2
172
0
173
0
174
0
175
0
176
0
177
0
178
0
270
2
271
3
272
3
273
2
274
2
275
0
280
0
281
0
282
0
283
1
284
8
285
0
286
0
287
3
288
0
340
11
  0
DIMSTYLE
105
218
100
AcDbSymbolTableRecord
100
AcDbDimStyleTableRecord
  2
DIMSTYLE_4
 70
0
  3

  4

  5
_OPEN
  6
_OPEN
  7
_OPEN
 40
1.0
 41
1.9
 42
0.0625
 43
0.38
 44
0.18
 45
0.0
 46
0.0
 47
0.05
 48
0.05
140
3.2
141
0.09
142
0.0
143
25.4
144
1.0
145
0.0
146
1.0
147
0.09
 71
0.0
 72
0.0
 73
0
 74
0
 75
0
 76
0
 77
1
 78
8
170
0
171
2
172
0
173
0
174
0
175
0
176
0
177
0
178
0
270
2
271
3
272
3
273
2
274
2
275
0
280
0
281
0
282
0
283
1
284
8
285
0
286
0
287
3
288
0
340
11
  0
DIMSTYLE
105
219
100
AcDbSymbolTableRecord
100
AcDbDimStyleTableRecord
  2
DIMSTYLE_5
 70
0
  3

  4

  5
_OPEN
  6
_OPEN
  7
_OPEN
 40
1.0
 41
1.9
 42
0.0625
 43
0.38
 44
0.18
 45
0.0
 46
0.0
 47
0.15
 48
0.15
140
3.2
141
0.09
142
0.0
143
25.4
144
1.0
145
0.0
146
1.0
147
0.09
 71
0.0
 72
0.0
 73
0
 74
0
 75
0
 76
0
 77
1
 78
8
170
0
171
2
172
0
173
0
174
0
175
0
176
0
177
0
178
0
270
2
271
3
272
3
273
2
274
2
275
0
280
0
281
0
282
0
283
1
284
8
285
0
286
0
287
3
288
0
340
11
  0
ENDTAB
  0
ENDSEC
  0
SECTION
  2
BLOCKS
  0
BLOCK
  5
20
100
AcDbEntity
  8
0
100
AcDbBlockBegin
  2
*MODEL_SPACE
 70
0
 10
0.0
 20
0.0
 30
0.0
  3
*MODEL_SPACE
  1

  0
ENDBLK
  5
21
100
AcDbEntity
  8
0
100
AcDbBlockEnd
  0
BLOCK
  5
1C
100
AcDbEntity
  8
0
100
AcDbBlockBegin
  2
*PAPER_SPACE
 70
0
 10
0.0
 20
0.0
 30
0.0
  3
*PAPER_SPACE
  1

  0
ENDBLK
  5
1D
100
AcDbEntity
  8
0
100
AcDbBlockEnd
  0
BLOCK
  5
21A
100
AcDbEntity
  8
0
100
AcDbBlockBegin
  2
_OPEN
 70
64
 10
0.0
 20
0.0
  3
_OPEN
  1

  0
LINE
  5
21B
100
AcDbEntity
  8
0
  6
BYBLOCK
 62
0
100
AcDbLine
 10
0.0
 20
0.0
 11
-1.0
 21
0.2631578947
  0
LINE
  5
21C
100
AcDbEntity
  8
0
  6
BYBLOCK
 62
0
100
AcDbLine
 10
-1.0
 20
-0.2631578947
 11
0.0
 21
0.0
  0
LINE
  5
21D
100
AcDbEntity
  8
0
  6
BYBLOCK
 62
0
100
AcDbLine
 10
-1.0
 20
0.0
 11
0.0
 21
0.0
  0
ENDBLK
  5
21E
100
AcDbEntity
  8
0
  6
BYBLOCK
 62
0
100
AcDbBlockEnd
  0
BLOCK
  5
21F
100
AcDbEntity
  8
DIM
100
AcDbBlockBegin
 62
2
  6
CONTINUOUS
  2
*D0
 70
65
 10
0.0
 20
0.0
  3
*D0
  1

  0
MTEXT
  5
220
100
AcDbEntity
  8
DIM
100
AcDbMText
 62
2
  6
CONTINUOUS
  7
STANDARD
 71
2
 72
1
 10
248.1459572919
 20
156.9943092174
 30
0.0
 11
1.0
 21
0.0
 31
0.0
  1
420
 40
3.2
 41
7.68
  0
LINE
  5
221
100
AcDbEntity
  8
DIM
100
AcDbLine
 62
2
  6
CONTINUOUS
 10
38.1459572919
 20
185.4943092174
 11
38.1459572919
 21
151.9943092174
  0
LINE
  5
222
100
AcDbEntity
  8
DIM
100
AcDbLine
 62
2
  6
CONTINUOUS
 10
458.1459572919
 20
185.4943092174
 11
458.1459572919
 21
151.9943092174
  0
LINE
  5
223
100
AcDbEntity
  8
DIM
100
AcDbLine
 62
2
  6
CONTINUOUS
 10
38.1459572919
 20
152.9943092174
 11
248.1459572919
 21
152.9943092174
  0
LINE
  5
224
100
AcDbEntity
  8
DIM
100
AcDbLine
 62
2
  6
CONTINUOUS
 10
458.1459572919
 20
152.9943092174
 11
248.1459572919
 21
152.9943092174
  0
INSERT
  5
225
100
AcDbEntity
  8
DIM
100
AcDbBlockReference
 62
2
  6
CONTINUOUS
  2
_OPEN
 10
38.1459572919
 20
152.9943092174
 41
1.9
 42
1.9
 43
1.9
 50
180.0
  0
INSERT
  5
226
100
AcDbEntity
  8
DIM
100
AcDbBlockReference
 62
2
  6
CONTINUOUS
  2
_OPEN
 10
458.1459572919
 20
152.9943092174
 41
1.9
 42
1.9
 43
1.9
  0
ENDBLK
  5
227
100
AcDbEntity
  8
0
  6
BYBLOCK
 62
0
100
AcDbBlockEnd
  0
BLOCK
  5
228
100
AcDbEntity
  8
DIM
100
AcDbBlockBegin
 62
2
  6
CONTINUOUS
  2
*D1
 70
65
 10
0.0
 20
0.0
  3
*D1
  1

  0
MTEXT
  5
229
100
AcDbEntity
  8
DIM
100
AcDbMText
 62
2
  6
CONTINUOUS
  7
STANDARD
 71
2
 72
1
 10
482.1459572919
 20
245.9943092174
 30
0.0
 11
0.0
 21
1.0
 31
0.0
  1
130
 40
3.2
 41
7.68
  0
LINE
  5
22A
100
AcDbEntity
  8
DIM
100
AcDbLine
 62
2
  6
CONTINUOUS
 10
453.6459572919
 20
310.9943092174
 11
487.1459572919
 21
310.9943092174
  0
LINE
  5
22B
100
AcDbEntity
  8
DIM
100
AcDbLine
 62
2
  6
CONTINUOUS
 10
453.6459572919
 20
180.9943092174
 11
487.1459572919
 21
180.9943092174
  0
LINE
  5
22C
100
AcDbEntity
  8
DIM
100
AcDbLine
 62
2
  6
CONTINUOUS
 10
486.1459572919
 20
310.9943092174
 11
486.1459572919
 21
245.9943092174
  0
LINE
  5
22D
100
AcDbEntity
  8
DIM
100
AcDbLine
 62
2
  6
CONTINUOUS
 10
486.1459572919
 20
180.9943092174
 11
486.1459572919
 21
245.9943092174
  0
INSERT
  5
22E
100
AcDbEntity
  8
DIM
100
AcDbBlockReference
 62
2
  6
CONTINUOUS
  2
_OPEN
 10
486.1459572919
 20
310.9943092174
 41
1.9
 42
1.9
 43
1.9
 50
90.0
  0
INSERT
  5
22F
100
AcDbEntity
  8
DIM
100
AcDbBlockReference
 62
2
  6
CONTINUOUS
  2
_OPEN
 10
486.1459572919
 20
180.9943092174
 41
1.9
 42
1.9
 43
1.9
 50
270.0
  0
ENDBLK
  5
230
100
AcDbEntity
  8
0
  6
BYBLOCK
 62
0
100
AcDbBlockEnd
  0
BLOCK
  5
231
100
AcDbEntity
  8
DIM
100
AcDbBlockBegin
 62
2
  6
CONTINUOUS
  2
*D2
 70
65
 10
0.0
 20
0.0
  3
*D2
  1

  0
MTEXT
  5
232
100
AcDbEntity
  8
DIM
100
AcDbMText
 62
2
  6
CONTINUOUS
  7
STANDARD
 71
2
 72
1
 10
522.0905656213
 20
156.9943092174
 30
0.0
 11
1.0
 21
0.0
 31
0.0
  1
16.8
 40
3.2
 41
10.24
  0
LINE
  5
233
100
AcDbEntity
  8
DIM
100
AcDbLine
 62
2
  6
CONTINUOUS
 10
513.6905656213
 20
233.3943092174
 11
513.6905656213
 21
151.9943092174
  0
LINE
  5
234
100
AcDbEntity
  8
DIM
100
AcDbLine
 62
2
  6
CONTINUOUS
 10
530.4905656213
 20
180.9943092174
 11
530.4905656213
 21
151.9943092174
  0
LINE
  5
235
100
AcDbEntity
  8
DIM
100
AcDbLine
 62
2
  6
CONTINUOUS
 10
513.6905656213
 20
152.9943092174
 11
522.0905656213
 21
152.9943092174
  0
LINE
  5
236
100
AcDbEntity
  8
DIM
100
AcDbLine
 62
2
  6
CONTINUOUS
 10
530.4905656213
 20
152.9943092174
 11
522.0905656213
 21
152.9943092174
  0
INSERT
  5
237
100
AcDbEntity
  8
DIM
100
AcDbBlockReference
 62
2
  6
CONTINUOUS
  2
_OPEN
 10
513.6905656213
 20
152.9943092174
 41
1.9
 42
1.9
 43
1.9
 50
180.0
  0
INSERT
  5
238
100
AcDbEntity
  8
DIM
100
AcDbBlockReference
 62
2
  6
CONTINUOUS
  2
_OPEN
 10
530.4905656213
 20
152.9943092174
 41
1.9
 42
1.9
 43
1.9
  0
ENDBLK
  5
239
100
AcDbEntity
  8
0
  6
BYBLOCK
 62
0
100
AcDbBlockEnd
  0
BLOCK
  5
23A
100
AcDbEntity
  8
DIM
100
AcDbBlockBegin
 62
2
  6
CONTINUOUS
  2
*D3
 70
65
 10
0.0
 20
0.0
  3
*D3
  1

  0
MTEXT
  5
23B
100
AcDbEntity
  8
DIM
100
AcDbMText
 62
2
  6
CONTINUOUS
  7
STANDARD
 71
3
 72
1
 10
523.902042819
 20
324.9943092174
 30
0.0
 11
1.0
 21
0.0
 31
0.0
  1
2.5
 40
3.2
 41
7.68
  0
LINE
  5
23C
100
AcDbEntity
  8
DIM
100
AcDbLine
 62
2
  6
CONTINUOUS
 10
527.9905656213
 20
310.9943092174
 11
527.9905656213
 21
321.9943092174
  0
LINE
  5
23D
100
AcDbEntity
  8
DIM
100
AcDbLine
 62
2
  6
CONTINUOUS
 10
530.4905656213
 20
310.9943092174
 11
530.4905656213
 21
321.9943092174
  0
LINE
  5
23E
100
AcDbEntity
  8
DIM
100
AcDbLine
 62
2
  6
CONTINUOUS
 10
527.9905656213
 20
320.9943092174
 11
516.222042819
 21
320.9943092174
  0
LINE
  5
23F
100
AcDbEntity
  8
DIM
100
AcDbLine
 62
2
  6
CONTINUOUS
 10
516.222042819
 20
320.9943092174
 11
529.2405656213
 21
320.9943092174
  0
LINE
  5
240
100
AcDbEntity
  8
DIM
100
AcDbLine
 62
2
  6
CONTINUOUS
 10
530.4905656213
 20
320.9943092174
 11
533.4905656213
 21
320.9943092174
  0
LINE
  5
241
100
AcDbEntity
  8
DIM
100
AcDbLine
 62
2
  6
CONTINUOUS
 10
533.4905656213
 20
320.9943092174
 11
529.2405656213
 21
320.9943092174
  0
INSERT
  5
242
100
AcDbEntity
  8
DIM
100
AcDbBlockReference
 62
2
  6
CONTINUOUS
  2
_OPEN
 10
527.9905656213
 20
320.9943092174
 41
1.9
 42
1.9
 43
1.9
  0
INSERT
  5
243
100
AcDbEntity
  8
DIM
100
AcDbBlockReference
 62
2
  6
CONTINUOUS
  2
_OPEN
 10
530.4905656213
 20
320.9943092174
 41
1.9
 42
1.9
 43
1.9
 50
180.0
  0
ENDBLK
  5
244
100
AcDbEntity
  8
0
  6
BYBLOCK
 62
0
100
AcDbBlockEnd
  0
BLOCK
  5
245
100
AcDbEntity
  8
DIM
100
AcDbBlockBegin
 62
2
  6
CONTINUOUS
  2
*D4
 70
65
 10
0.0
 20
0.0
  3
*D4
  1

  0
MTEXT
  5
246
100
AcDbEntity
  8
DIM
100
AcDbMText
 62
2
  6
CONTINUOUS
  7
STANDARD
 71
2
 72
1
 10
476.1459572919
 20
245.9943092174
 30
0.0
 11
0.0
 21
1.0
 31
0.0
  1
110
 40
3.2
 41
7.68
  0
LINE
  5
247
100
AcDbEntity
  8
DIM
100
AcDbLine
 62
2
  6
CONTINUOUS
 10
453.0893948564
 20
300.9943092174
 11
481.1459572919
 21
300.9943092174
  0
LINE
  5
248
100
AcDbEntity
  8
DIM
100
AcDbLine
 62
2
  6
CONTINUOUS
 10
452.6562968692
 20
190.9943092174
 11
481.1459572919
 21
190.9943092174
  0
LINE
  5
249
100
AcDbEntity
  8
DIM
100
AcDbLine
 62
2
  6
CONTINUOUS
 10
480.1459572919
 20
300.9943092174
 11
480.1459572919
 21
245.9943092174
  0
LINE
  5
24A
100
AcDbEntity
  8
DIM
100
AcDbLine
 62
2
  6
CONTINUOUS
 10
480.1459572919
 20
190.9943092174
 11
480.1459572919
 21
245.9943092174
  0
INSERT
  5
24B
100
AcDbEntity
  8
DIM
100
AcDbBlockReference
 62
2
  6
CONTINUOUS
  2
_OPEN
 10
480.1459572919
 20
300.9943092174
 41
1.9
 42
1.9
 43
1.9
 50
90.0
  0
INSERT
  5
24C
100
AcDbEntity
  8
DIM
100
AcDbBlockReference
 62
2
  6
CONTINUOUS
  2
_OPEN
 10
480.1459572919
 20
190.9943092174
 41
1.9
 42
1.9
 43
1.9
 50
270.0
  0
ENDBLK
  5
24D
100
AcDbEntity
  8
0
  6
BYBLOCK
 62
0
100
AcDbBlockEnd
  0
BLOCK
  5
24E
100
AcDbEntity
  8
DIM
100
AcDbBlockBegin
 62
2
  6
CONTINUOUS
  2
*D5
 70
65
 10
0.0
 20
0.0
  3
*D5
  1

  0
MTEXT
  5
24F
100
AcDbEntity
  8
DIM
100
AcDbMText
 62
2
  6
CONTINUOUS
  7
STANDARD
 71
2
 72
1
 10
476.1459572919
 20
185.9943092174
 30
0.0
 11
0.0
 21
1.0
 31
0.0
  1
10
 40
3.2
 41
5.12
  0
LINE
  5
250
100
AcDbEntity
  8
DIM
100
AcDbLine
 62
2
  6
CONTINUOUS
 10
452.6562968692
 20
190.9943092174
 11
481.1459572919
 21
190.9943092174
  0
LINE
  5
251
100
AcDbEntity
  8
DIM
100
AcDbLine
 62
2
  6
CONTINUOUS
 10
453.6459572919
 20
180.9943092174
 11
481.1459572919
 21
180.9943092174
  0
LINE
  5
252
100
AcDbEntity
  8
DIM
100
AcDbLine
 62
2
  6
CONTINUOUS
 10
480.1459572919
 20
190.9943092174
 11
480.1459572919
 21
185.9943092174
  0
LINE
  5
253
100
AcDbEntity
  8
DIM
100
AcDbLine
 62
2
  6
CONTINUOUS
 10
480.1459572919
 20
180.9943092174
 11
480.1459572919
 21
185.9943092174
  0
INSERT
  5
254
100
AcDbEntity
  8
DIM
100
AcDbBlockReference
 62
2
  6
CONTINUOUS
  2
_OPEN
 10
480.1459572919
 20
190.9943092174
 41
1.9
 42
1.9
 43
1.9
 50
90.0
  0
INSERT
  5
255
100
AcDbEntity
  8
DIM
100
AcDbBlockReference
 62
2
  6
CONTINUOUS
  2
_OPEN
 10
480.1459572919
 20
180.9943092174
 41
1.9
 42
1.9
 43
1.9
 50
270.0
  0
ENDBLK
  5
256
100
AcDbEntity
  8
0
  6
BYBLOCK
 62
0
100
AcDbBlockEnd
  0
BLOCK
  5
257
100
AcDbEntity
  8
DIM
100
AcDbBlockBegin
 62
2
  6
CONTINUOUS
  2
*D6
 70
65
 10
0.0
 20
0.0
  3
*D6
  1

  0
MTEXT
  5
258
100
AcDbEntity
  8
DIM
100
AcDbMText
 62
2
  6
CONTINUOUS
  7
STANDARD
 71
2
 72
1
 10
248.1459572919
 20
162.9943092174
 30
0.0
 11
1.0
 21
0.0
 31
0.0
  1
400
 40
3.2
 41
7.68
  0
LINE
  5
259
100
AcDbEntity
  8
DIM
100
AcDbLine
 62
2
  6
CONTINUOUS
 10
448.1459572919
 20
186.4839696401
 11
448.1459572919
 21
157.9943092174
  0
LINE
  5
25A
100
AcDbEntity
  8
DIM
100
AcDbLine
 62
2
  6
CONTINUOUS
 10
48.1459572919
 20
186.0084871265
 11
48.1459572919
 21
157.9943092174
  0
LINE
  5
25B
100
AcDbEntity
  8
DIM
100
AcDbLine
 62
2
  6
CONTINUOUS
 10
448.1459572919
 20
158.9943092174
 11
248.1459572919
 21
158.9943092174
  0
LINE
  5
25C
100
AcDbEntity
  8
DIM
100
AcDbLine
 62
2
  6
CONTINUOUS
 10
48.1459572919
 20
158.9943092174
 11
248.1459572919
 21
158.9943092174
  0
INSERT
  5
25D
100
AcDbEntity
  8
DIM
100
AcDbBlockReference
 62
2
  6
CONTINUOUS
  2
_OPEN
 10
448.1459572919
 20
158.9943092174
 41
1.9
 42
1.9
 43
1.9
  0
INSERT
  5
25E
100
AcDbEntity
  8
DIM
100
AcDbBlockReference
 62
2
  6
CONTINUOUS
  2
_OPEN
 10
48.1459572919
 20
158.9943092174
 41
1.9
 42
1.9
 43
1.9
 50
180.0
  0
ENDBLK
  5
25F
100
AcDbEntity
  8
0
  6
BYBLOCK
 62
0
100
AcDbBlockEnd
  0
BLOCK
  5
260
100
AcDbEntity
  8
DIM
100
AcDbBlockBegin
 62
2
  6
CONTINUOUS
  2
*D7
 70
65
 10
0.0
 20
0.0
  3
*D7
  1

  0
MTEXT
  5
261
100
AcDbEntity
  8
DIM
100
AcDbMText
 62
2
  6
CONTINUOUS
  7
STANDARD
 71
2
 72
1
 10
43.1459572919
 20
162.9943092174
 30
0.0
 11
1.0
 21
0.0
 31
0.0
  1
10
 40
3.2
 41
5.12
  0
LINE
  5
262
100
AcDbEntity
  8
DIM
100
AcDbLine
 62
2
  6
CONTINUOUS
 10
48.1459572919
 20
186.0084871265
 11
48.1459572919
 21
157.9943092174
  0
LINE
  5
263
100
AcDbEntity
  8
DIM
100
AcDbLine
 62
2
  6
CONTINUOUS
 10
38.1459572919
 20
185.4943092174
 11
38.1459572919
 21
157.9943092174
  0
LINE
  5
264
100
AcDbEntity
  8
DIM
100
AcDbLine
 62
2
  6
CONTINUOUS
 10
48.1459572919
 20
158.9943092174
 11
43.1459572919
 21
158.9943092174
  0
LINE
  5
265
100
AcDbEntity
  8
DIM
100
AcDbLine
 62
2
  6
CONTINUOUS
 10
38.1459572919
 20
158.9943092174
 11
43.1459572919
 21
158.9943092174
  0
INSERT
  5
266
100
AcDbEntity
  8
DIM
100
AcDbBlockReference
 62
2
  6
CONTINUOUS
  2
_OPEN
 10
48.1459572919
 20
158.9943092174
 41
1.9
 42
1.9
 43
1.9
  0
INSERT
  5
267
100
AcDbEntity
  8
DIM
100
AcDbBlockReference
 62
2
  6
CONTINUOUS
  2
_OPEN
 10
38.1459572919
 20
158.9943092174
 41
1.9
 42
1.9
 43
1.9
 50
180.0
  0
ENDBLK
  5
268
100
AcDbEntity
  8
0
  6
BYBLOCK
 62
0
100
AcDbBlockEnd
  0
BLOCK
  5
269
100
AcDbEntity
  8
DIM
100
AcDbBlockBegin
 62
2
  6
CONTINUOUS
  2
*D8
 70
65
 10
0.0
 20
0.0
  3
*D8
  1

  0
MTEXT
  5
26A
100
AcDbEntity
  8
DIM
100
AcDbMText
 62
2
  6
CONTINUOUS
  7
STANDARD
 71
2
 72
1
 10
453.1459572919
 20
162.9943092174
 30
0.0
 11
1.0
 21
0.0
 31
0.0
  1
(10)
 40
3.2
 41
10.24
  0
LINE
  5
26B
100
AcDbEntity
  8
DIM
100
AcDbLine
 62
2
  6
CONTINUOUS
 10
448.1459572919
 20
186.4839696401
 11
448.1459572919
 21
157.9943092174
  0
LINE
  5
26C
100
AcDbEntity
  8
DIM
100
AcDbLine
 62
2
  6
CONTINUOUS
 10
458.1459572919
 20
185.4943092174
 11
458.1459572919
 21
157.9943092174
  0
LINE
  5
26D
100
AcDbEntity
  8
DIM
100
AcDbLine
 62
2
  6
CONTINUOUS
 10
448.1459572919
 20
158.9943092174
 11
453.1459572919
 21
158.9943092174
  0
LINE
  5
26E
100
AcDbEntity
  8
DIM
100
AcDbLine
 62
2
  6
CONTINUOUS
 10
458.1459572919
 20
158.9943092174
 11
453.1459572919
 21
158.9943092174
  0
INSERT
  5
26F
100
AcDbEntity
  8
DIM
100
AcDbBlockReference
 62
2
  6
CONTINUOUS
  2
_OPEN
 10
448.1459572919
 20
158.9943092174
 41
1.9
 42
1.9
 43
1.9
 50
180.0
  0
INSERT
  5
270
100
AcDbEntity
  8
DIM
100
AcDbBlockReference
 62
2
  6
CONTINUOUS
  2
_OPEN
 10
458.1459572919
 20
158.9943092174
 41
1.9
 42
1.9
 43
1.9
  0
ENDBLK
  5
271
100
AcDbEntity
  8
0
  6
BYBLOCK
 62
0
100
AcDbBlockEnd
  0
BLOCK
  5
272
100
AcDbEntity
  8
DIM
100
AcDbBlockBegin
 62
2
  6
CONTINUOUS
  2
*D9
 70
65
 10
0.0
 20
0.0
  3
*D9
  1

  0
MTEXT
  5
273
100
AcDbEntity
  8
DIM
100
AcDbMText
 62
2
  6
CONTINUOUS
  7
STANDARD
 71
2
 72
1
 10
476.1459572919
 20
305.9943092174
 30
0.0
 11
0.0
 21
1.0
 31
0.0
  1
(10)
 40
3.2
 41
10.24
  0
LINE
  5
274
100
AcDbEntity
  8
DIM
100
AcDbLine
 62
2
  6
CONTINUOUS
 10
453.0893948564
 20
300.9943092174
 11
481.1459572919
 21
300.9943092174
  0
LINE
  5
275
100
AcDbEntity
  8
DIM
100
AcDbLine
 62
2
  6
CONTINUOUS
 10
453.6459572919
 20
310.9943092174
 11
481.1459572919
 21
310.9943092174
  0
LINE
  5
276
100
AcDbEntity
  8
DIM
100
AcDbLine
 62
2
  6
CONTINUOUS
 10
480.1459572919
 20
300.9943092174
 11
480.1459572919
 21
305.9943092174
  0
LINE
  5
277
100
AcDbEntity
  8
DIM
100
AcDbLine
 62
2
  6
CONTINUOUS
 10
480.1459572919
 20
310.9943092174
 11
480.1459572919
 21
305.9943092174
  0
INSERT
  5
278
100
AcDbEntity
  8
DIM
100
AcDbBlockReference
 62
2
  6
CONTINUOUS
  2
_OPEN
 10
480.1459572919
 20
300.9943092174
 41
1.9
 42
1.9
 43
1.9
 50
270.0
  0
INSERT
  5
279
100
AcDbEntity
  8
DIM
100
AcDbBlockReference
 62
2
  6
CONTINUOUS
  2
_OPEN
 10
480.1459572919
 20
310.9943092174
 41
1.9
 42
1.9
 43
1.9
 50
90.0
  0
ENDBLK
  5
27A
100
AcDbEntity
  8
0
  6
BYBLOCK
 62
0
100
AcDbBlockEnd
  0
ENDSEC
  0
SECTION
  2
ENTITIES
  0
DIMENSION
  5
27B
100
AcDbEntity
  8
DIM
100
AcDbDimension
 62
2
  6
CONTINUOUS
  2
*D0
 10
458.1459572919
 20
152.9943092174
 11
244.3059572919
 21
155.3943092174
 70
160
  3
DIMSTYLE_1
100
AcDbAlignedDimension
 13
38.1459572919
 23
185.4943092174
 14
458.1459572919
 24
185.4943092174
100
AcDbRotatedDimension
  0
DIMENSION
  5
27C
100
AcDbEntity
  8
DIM
100
AcDbDimension
 62
2
  6
CONTINUOUS
  2
*D1
 10
486.1459572919
 20
180.9943092174
 11
485.4665599779
 21
242.5613620292
 70
160
  3
DIMSTYLE_2
100
AcDbAlignedDimension
 13
453.6459572919
 23
310.9943092174
 14
453.6459572919
 24
180.9943092174
 50
270.0
100
AcDbRotatedDimension
  0
DIMENSION
  5
27D
100
AcDbEntity
  8
DIM
100
AcDbDimension
 62
2
  6
CONTINUOUS
  2
*D2
 10
530.4905656213
 20
152.9943092174
 11
516.9705656213
 21
155.3943092174
 70
160
  3
DIMSTYLE_3
100
AcDbAlignedDimension
 13
513.6905656213
 23
233.3943092174
 14
530.4905656213
 24
180.9943092174
100
AcDbRotatedDimension
  0
DIMENSION
  5
27E
100
AcDbEntity
  8
DIM
100
AcDbDimension
 62
2
  6
CONTINUOUS
  2
*D3
 10
530.4905656213
 20
320.9943092174
 11
512.382042819
 21
323.3943092174
 70
160
  3
DIMSTYLE_4
100
AcDbAlignedDimension
 13
527.9905656213
 23
310.9943092174
 14
530.4905656213
 24
310.9943092174
100
AcDbRotatedDimension
  0
DIMENSION
  5
27F
100
AcDbEntity
  8
DIM
100
AcDbDimension
 62
2
  6
CONTINUOUS
  2
*D4
 10
480.1459572919
 20
190.9943092174
 11
479.4665599779
 21
242.5613620292
 70
160
  3
DIMSTYLE_5
100
AcDbAlignedDimension
 13
453.0893948564
 23
300.9943092174
 14
452.6562968692
 24
190.9943092174
 50
270.0
100
AcDbRotatedDimension
  0
DIMENSION
  5
280
100
AcDbEntity
  8
DIM
100
AcDbDimension
 62
2
  6
CONTINUOUS
  2
*D5
 10
480.1459572919
 20
180.9943092174
 11
478.8930257492
 21
183.7056777586
 70
160
  3
DIMSTYLE_3
100
AcDbAlignedDimension
 13
452.6562968692
 23
190.9943092174
 14
453.6459572919
 24
180.9943092174
 50
270.0
100
AcDbRotatedDimension
  0
DIMENSION
  5
281
100
AcDbEntity
  8
DIM
100
AcDbDimension
 62
2
  6
CONTINUOUS
  2
*D6
 10
48.1459572919
 20
158.9943092174
 11
244.3059572919
 21
161.3943092174
 70
160
  3
DIMSTYLE_2
100
AcDbAlignedDimension
 13
448.1459572919
 23
186.4839696401
 14
48.1459572919
 24
186.0084871265
 50
180.0
100
AcDbRotatedDimension
  0
DIMENSION
  5
282
100
AcDbEntity
  8
DIM
100
AcDbDimension
 62
2
  6
CONTINUOUS
  2
*D7
 10
38.1459572919
 20
158.9943092174
 11
40.5859572919
 21
161.3943092174
 70
160
  3
DIMSTYLE_3
100
AcDbAlignedDimension
 13
48.1459572919
 23
186.0084871265
 14
38.1459572919
 24
185.4943092174
 50
180.0
100
AcDbRotatedDimension
  0
DIMENSION
  5
283
100
AcDbEntity
  8
DIM
100
AcDbDimension
 62
2
  6
CONTINUOUS
  2
*D8
 10
458.1459572919
 20
158.9943092174
 11
451.8659572919
 21
161.3943092174
 70
160
  1
(<>)
  3
DIMSTYLE_3
100
AcDbAlignedDimension
 13
448.1459572919
 23
186.4839696401
 14
458.1459572919
 24
185.4943092174
100
AcDbRotatedDimension
  0
DIMENSION
  5
284
100
AcDbEntity
  8
DIM
100
AcDbDimension
 62
2
  6
CONTINUOUS
  2
*D9
 10
480.1459572919
 20
310.9943092174
 11
478.6062586349
 21
304.849993488
 70
160
  1
(<>)
  3
DIMSTYLE_3
100
AcDbAlignedDimension
 13
453.0893948564
 23
300.9943092174
 14
453.6459572919
 24
310.9943092174
 50
90.0
100
AcDbRotatedDimension
  0
LINE
  5
285
100
AcDbEntity
  8
0
100
AcDbLine
 62
7
  6
CONTINUOUS
 10
0.0
 20
0.0
 11
0.0
 21
420.0
  0
LINE
  5
286
100
AcDbEntity
  8
0
100
AcDbLine
 62
7
  6
CONTINUOUS
 10
0.0
 20
0.0
 11
594.0
 21
0.0
  0
LINE
  5
287
100
AcDbEntity
  8
0
100
AcDbLine
 62
7
  6
CONTINUOUS
 10
0.0
 20
420.0
 11
594.0
 21
420.0
  0
LINE
  5
288
100
AcDbEntity
  8
0
100
AcDbLine
 62
7
  6
CONTINUOUS
 10
594.0
 20
0.0
 11
594.0
 21
420.0
  0
LINE
  5
289
100
AcDbEntity
  8
0
100
AcDbLine
 62
7
  6
CONTINUOUS
 10
38.1459572919
 20
185.9943092174
 11
38.1459572919
 21
305.9943092174
  0
LINE
  5
28A
100
AcDbEntity
  8
0
100
AcDbLine
 62
7
  6
CONTINUOUS
 10
45.2459572919
 20
300.9943092174
 11
45.2459572919
 21
297.6676377956
  0
LINE
  5
28B
100
AcDbEntity
  8
AXIS
100
AcDbLine
 62
2
  6
CENTER
 10
48.1459572919
 20
300.9943092174
 11
48.1459572919
 21
296.3555005462
  0
LINE
  5
28C
100
AcDbEntity
  8
AXIS
100
AcDbLine
 62
2
  6
CENTER
 10
48.1459572919
 20
190.9943092174
 11
48.1459572919
 21
186.5084871265
  0
LINE
  5
28D
100
AcDbEntity
  8
AXIS
100
AcDbLine
 62
2
  6
CENTER
 10
48.1459572919
 20
190.9943092174
 11
48.1459572919
 21
195.4801313083
  0
LINE
  5
28E
100
AcDbEntity
  8
AXIS
100
AcDbLine
 62
2
  6
CENTER
 10
48.1459572919
 20
300.9943092174
 11
48.1459572919
 21
305.1301993521
  0
LINE
  5
28F
100
AcDbEntity
  8
0
100
AcDbLine
 62
7
  6
CONTINUOUS
 10
51.0459572919
 20
297.6676377956
 11
51.0459572919
 21
300.9943092174
  0
LINE
  5
290
100
AcDbEntity
  8
0
100
AcDbLine
 62
7
  6
CONTINUOUS
 10
38.1459572919
 20
305.9943092174
 11
43.1459572919
 21
310.9943092174
  0
LINE
  5
291
100
AcDbEntity
  8
0
100
AcDbLine
 62
7
  6
CONTINUOUS
 10
43.1459572919
 20
180.9943092174
 11
38.1459572919
 21
185.9943092174
  0
LINE
  5
292
100
AcDbEntity
  8
0
100
AcDbLine
 62
7
  6
CONTINUOUS
 10
43.1459572919
 20
180.9943092174
 11
453.1459572919
 21
180.9943092174
  0
LINE
  5
293
100
AcDbEntity
  8
0
100
AcDbLine
 62
9
  6
CONTINUOUS
 10
42.6459572919
 20
181.4943092174
 11
453.6459572919
 21
181.4943092174
  0
LINE
  5
294
100
AcDbEntity
  8
AXIS
100
AcDbLine
 62
2
  6
CENTER
 10
448.1459572919
 20
190.9943092174
 11
444.1356177147
 21
190.9943092174
  0
LINE
  5
295
100
AcDbEntity
  8
AXIS
100
AcDbLine
 62
2
  6
CENTER
 10
48.1459572919
 20
190.9943092174
 11
43.660135201
 21
190.9943092174
  0
LINE
  5
296
100
AcDbEntity
  8
AXIS
100
AcDbLine
 62
2
  6
CENTER
 10
48.1459572919
 20
190.9943092174
 11
52.6317793829
 21
190.9943092174
  0
LINE
  5
297
100
AcDbEntity
  8
AXIS
100
AcDbLine
 62
2
  6
CENTER
 10
448.1459572919
 20
190.9943092174
 11
452.1562968692
 21
190.9943092174
  0
LINE
  5
298
100
AcDbEntity
  8
0
100
AcDbLine
 62
9
  6
CONTINUOUS
 10
38.1459572919
 20
197.4943092174
 11
458.1459572919
 21
197.4943092174
  0
LINE
  5
299
100
AcDbEntity
  8
0
100
AcDbLine
 62
7
  6
CONTINUOUS
 10
38.1459572919
 20
197.9943092174
 11
458.1459572919
 21
197.9943092174
  0
LINE
  5
29A
100
AcDbEntity
  8
0
100
AcDbLine
 62
9
  6
CONTINUOUS
 10
38.1459572919
 20
199.9943092174
 11
458.1459572919
 21
199.9943092174
  0
LINE
  5
29B
100
AcDbEntity
  8
0
100
AcDbLine
 62
7
  6
CONTINUOUS
 10
39.1459572919
 20
233.6943092174
 11
457.1459572919
 21
233.6943092174
  0
LINE
  5
29C
100
AcDbEntity
  8
0
100
AcDbLine
 62
9
  6
CONTINUOUS
 10
38.5459572919
 20
233.8943092174
 11
457.7459572919
 21
233.8943092174
  0
LINE
  5
29D
100
AcDbEntity
  8
0
100
AcDbLine
 62
9
  6
CONTINUOUS
 10
38.1459572919
 20
237.1943092174
 11
458.1459572919
 21
237.1943092174
  0
LINE
  5
29E
100
AcDbEntity
  8
0
100
AcDbLine
 62
7
  6
CONTINUOUS
 10
38.1459572919
 20
239.1943092174
 11
458.1459572919
 21
239.1943092174
  0
LINE
  5
29F
100
AcDbEntity
  8
0
100
AcDbLine
 62
9
  6
CONTINUOUS
 10
458.1459572919
 20
240.1943092174
 11
38.1459572919
 21
240.1943092174
  0
LINE
  5
2A0
100
AcDbEntity
  8
0
100
AcDbLine
 62
9
  6
CONTINUOUS
 10
38.1459572919
 20
262.1943092174
 11
458.1459572919
 21
262.1943092174
  0
LINE
  5
2A1
100
AcDbEntity
  8
0
100
AcDbLine
 62
7
  6
CONTINUOUS
 10
38.1459572919
 20
263.1943092174
 11
458.1459572919
 21
263.1943092174
  0
LINE
  5
2A2
100
AcDbEntity
  8
0
100
AcDbLine
 62
9
  6
CONTINUOUS
 10
38.1459572919
 20
265.1943092174
 11
458.1459572919
 21
265.1943092174
  0
LINE
  5
2A3
100
AcDbEntity
  8
0
100
AcDbLine
 62
9
  6
CONTINUOUS
 10
38.5459572919
 20
268.4943092174
 11
457.7459572919
 21
268.4943092174
  0
LINE
  5
2A4
100
AcDbEntity
  8
0
100
AcDbLine
 62
7
  6
CONTINUOUS
 10
39.1459572919
 20
268.6943092174
 11
457.1459572919
 21
268.6943092174
  0
LINE
  5
2A5
100
AcDbEntity
  8
0
100
AcDbLine
 62
9
  6
CONTINUOUS
 10
38.1459572919
 20
282.4943092174
 11
458.1459572919
 21
282.4943092174
  0
LINE
  5
2A6
100
AcDbEntity
  8
0
100
AcDbLine
 62
7
  6
CONTINUOUS
 10
38.1459572919
 20
284.4943092174
 11
458.1459572919
 21
284.4943092174
  0
LINE
  5
2A7
100
AcDbEntity
  8
0
100
AcDbLine
 62
9
  6
CONTINUOUS
 10
458.1459572919
 20
284.9943092174
 11
38.1459572919
 21
284.9943092174
  0
LINE
  5
2A8
100
AcDbEntity
  8
AXIS
100
AcDbLine
 62
2
  6
CENTER
 10
448.1459572919
 20
300.9943092174
 11
443.7025197275
 21
300.9943092174
  0
LINE
  5
2A9
100
AcDbEntity
  8
AXIS
100
AcDbLine
 62
2
  6
CENTER
 10
48.1459572919
 20
300.9943092174
 11
44.0100671572
 21
300.9943092174
  0
LINE
  5
2AA
100
AcDbEntity
  8
AXIS
100
AcDbLine
 62
2
  6
CENTER
 10
48.1459572919
 20
300.9943092174
 11
52.2818474267
 21
300.9943092174
  0
LINE
  5
2AB
100
AcDbEntity
  8
AXIS
100
AcDbLine
 62
2
  6
CENTER
 10
448.1459572919
 20
300.9943092174
 11
452.5893948564
 21
300.9943092174
  0
LINE
  5
2AC
100
AcDbEntity
  8
0
100
AcDbLine
 62
9
  6
CONTINUOUS
 10
453.6459572919
 20
310.4943092174
 11
42.6459572919
 21
310.4943092174
  0
LINE
  5
2AD
100
AcDbEntity
  8
0
100
AcDbLine
 62
7
  6
CONTINUOUS
 10
453.1459572919
 20
310.9943092174
 11
43.1459572919
 21
310.9943092174
  0
LINE
  5
2AE
100
AcDbEntity
  8
0
100
AcDbLine
 62
7
  6
CONTINUOUS
 10
453.1459572919
 20
180.9943092174
 11
458.1459572919
 21
185.9943092174
  0
LINE
  5
2AF
100
AcDbEntity
  8
0
100
AcDbLine
 62
7
  6
CONTINUOUS
 10
453.1459572919
 20
310.9943092174
 11
458.1459572919
 21
305.9943092174
  0
LINE
  5
2B0
100
AcDbEntity
  8
0
100
AcDbLine
 62
7
  6
CONTINUOUS
 10
445.2459572919
 20
300.9943092174
 11
445.2459572919
 21
297.6676377956
  0
LINE
  5
2B1
100
AcDbEntity
  8
AXIS
100
AcDbLine
 62
2
  6
CENTER
 10
448.1459572919
 20
300.9943092174
 11
448.1459572919
 21
296.3284961109
  0
LINE
  5
2B2
100
AcDbEntity
  8
AXIS
100
AcDbLine
 62
2
  6
CENTER
 10
448.1459572919
 20
190.9943092174
 11
448.1459572919
 21
186.9839696401
  0
LINE
  5
2B3
100
AcDbEntity
  8
AXIS
100
AcDbLine
 62
2
  6
CENTER
 10
448.1459572919
 20
190.9943092174
 11
448.1459572919
 21
195.0046487946
  0
LINE
  5
2B4
100
AcDbEntity
  8
AXIS
100
AcDbLine
 62
2
  6
CENTER
 10
448.1459572919
 20
300.9943092174
 11
448.1459572919
 21
305.4377467819
  0
LINE
  5
2B5
100
AcDbEntity
  8
0
100
AcDbLine
 62
7
  6
CONTINUOUS
 10
451.0459572919
 20
297.6676377956
 11
451.0459572919
 21
300.9943092174
  0
LINE
  5
2B6
100
AcDbEntity
  8
0
100
AcDbLine
 62
7
  6
CONTINUOUS
 10
458.1459572919
 20
185.9943092174
 11
458.1459572919
 21
305.9943092174
  0
LINE
  5
2B7
100
AcDbEntity
  8
0
100
AcDbLine
 62
7
  6
CONTINUOUS
 10
529.9905656213
 20
180.9943092174
 11
528.4905656213
 21
180.9943092174
  0
LINE
  5
2B8
100
AcDbEntity
  8
0
100
AcDbLine
 62
7
  6
CONTINUOUS
 10
530.4905656213
 20
185.9943092174
 11
527.9905656213
 21
185.9943092174
  0
LINE
  5
2B9
100
AcDbEntity
  8
0
100
AcDbLine
 62
7
  6
CONTINUOUS
 10
527.4905656213
 20
197.9943092174
 11
523.1905656213
 21
197.9943092174
  0
LINE
  5
2BA
100
AcDbEntity
  8
0
100
AcDbLine
 62
7
  6
CONTINUOUS
 10
528.4905656213
 20
200.4943092174
 11
524.1905656213
 21
200.4943092174
  0
LINE
  5
2BB
100
AcDbEntity
  8
0
100
AcDbLine
 62
7
  6
CONTINUOUS
 10
513.6905656213
 20
233.8943092174
 11
513.6905656213
 21
237.1943092174
  0
LINE
  5
2BC
100
AcDbEntity
  8
0
100
AcDbLine
 62
7
  6
CONTINUOUS
 10
513.6905656213
 20
265.1943092174
 11
513.6905656213
 21
268.4943092174
  0
LINE
  5
2BD
100
AcDbEntity
  8
0
100
AcDbLine
 62
7
  6
CONTINUOUS
 10
513.8905656213
 20
233.6943092174
 11
514.4905656213
 21
233.6943092174
  0
LINE
  5
2BE
100
AcDbEntity
  8
0
100
AcDbLine
 62
9
  6
CONTINUOUS
 10
513.6905656213
 20
234.6943092174
 11
514.6905656213
 21
234.6943092174
  0
LINE
  5
2BF
100
AcDbEntity
  8
0
100
AcDbLine
 62
7
  6
CONTINUOUS
 10
514.6905656213
 20
235.6943092174
 11
515.1156787447
 21
235.6943092174
  0
LINE
  5
2C0
100
AcDbEntity
  8
0
100
AcDbLine
 62
7
  6
CONTINUOUS
 10
519.1905656213
 20
237.6943092174
 11
516.3505759012
 21
237.6943092174
  0
LINE
  5
2C1
100
AcDbEntity
  8
0
100
AcDbLine
 62
7
  6
CONTINUOUS
 10
514.6905656213
 20
233.8943092174
 11
514.6905656213
 21
235.6943092174
  0
LINE
  5
2C2
100
AcDbEntity
  8
0
100
AcDbLine
 62
7
  6
CONTINUOUS
 10
514.6905656213
 20
266.6943092174
 11
514.6905656213
 21
268.4943092174
  0
LINE
  5
2C3
100
AcDbEntity
  8
0
100
AcDbLine
 62
7
  6
CONTINUOUS
 10
515.3724283005
 20
236.9022209082
 11
515.1156787447
 21
235.6943092174
  0
LINE
  5
2C4
100
AcDbEntity
  8
0
100
AcDbLine
 62
7
  6
CONTINUOUS
 10
515.6905656213
 20
239.1943092174
 11
520.1905656213
 21
239.1943092174
  0
LINE
  5
2C5
100
AcDbEntity
  8
0
100
AcDbLine
 62
7
  6
CONTINUOUS
 10
521.1905656213
 20
199.9943092174
 11
521.1905656213
 21
235.6943092174
  0
LINE
  5
2C6
100
AcDbEntity
  8
0
100
AcDbLine
 62
7
  6
CONTINUOUS
 10
521.1905656213
 20
240.1943092174
 11
521.1905656213
 21
262.1943092174
  0
LINE
  5
2C7
100
AcDbEntity
  8
0
100
AcDbLine
 62
7
  6
CONTINUOUS
 10
521.1905656213
 20
266.6943092174
 11
521.1905656213
 21
282.4943092174
  0
LINE
  5
2C8
100
AcDbEntity
  8
0
100
AcDbLine
 62
7
  6
CONTINUOUS
 10
515.1156787447
 20
266.6943092174
 11
515.3724283005
 21
265.4863975266
  0
LINE
  5
2C9
100
AcDbEntity
  8
0
100
AcDbLine
 62
7
  6
CONTINUOUS
 10
523.6905656213
 20
281.4943092174
 11
523.6905656213
 21
200.9943092174
  0
LINE
  5
2CA
100
AcDbEntity
  8
0
100
AcDbLine
 62
7
  6
CONTINUOUS
 10
527.9905656213
 20
181.4943092174
 11
527.9905656213
 21
197.4943092174
  0
LINE
  5
2CB
100
AcDbEntity
  8
0
100
AcDbLine
 62
7
  6
CONTINUOUS
 10
527.9905656213
 20
284.9943092174
 11
527.9905656213
 21
310.4943092174
  0
LINE
  5
2CC
100
AcDbEntity
  8
0
100
AcDbLine
 62
7
  6
CONTINUOUS
 10
530.4905656213
 20
181.4943092174
 11
530.4905656213
 21
198.4943092174
  0
LINE
  5
2CD
100
AcDbEntity
  8
0
100
AcDbLine
 62
7
  6
CONTINUOUS
 10
530.4905656213
 20
283.9943092174
 11
530.4905656213
 21
310.4943092174
  0
LINE
  5
2CE
100
AcDbEntity
  8
0
100
AcDbLine
 62
7
  6
CONTINUOUS
 10
520.1905656213
 20
263.1943092174
 11
515.6905656213
 21
263.1943092174
  0
LINE
  5
2CF
100
AcDbEntity
  8
0
100
AcDbLine
 62
7
  6
CONTINUOUS
 10
516.3505759012
 20
264.6943092174
 11
519.1905656213
 21
264.6943092174
  0
LINE
  5
2D0
100
AcDbEntity
  8
0
100
AcDbLine
 62
7
  6
CONTINUOUS
 10
515.1156787447
 20
266.6943092174
 11
514.6905656213
 21
266.6943092174
  0
LINE
  5
2D1
100
AcDbEntity
  8
0
100
AcDbLine
 62
9
  6
CONTINUOUS
 10
514.6905656213
 20
267.6943092174
 11
513.6905656213
 21
267.6943092174
  0
LINE
  5
2D2
100
AcDbEntity
  8
0
100
AcDbLine
 62
7
  6
CONTINUOUS
 10
514.4905656213
 20
268.6943092174
 11
513.8905656213
 21
268.6943092174
  0
LINE
  5
2D3
100
AcDbEntity
  8
0
100
AcDbLine
 62
7
  6
CONTINUOUS
 10
524.1905656213
 20
281.9943092174
 11
528.4905656213
 21
281.9943092174
  0
LINE
  5
2D4
100
AcDbEntity
  8
0
100
AcDbLine
 62
7
  6
CONTINUOUS
 10
523.1905656213
 20
284.4943092174
 11
527.4905656213
 21
284.4943092174
  0
LINE
  5
2D5
100
AcDbEntity
  8
0
100
AcDbLine
 62
7
  6
CONTINUOUS
 10
530.4905656213
 20
305.9943092174
 11
527.9905656213
 21
305.9943092174
  0
LINE
  5
2D6
100
AcDbEntity
  8
0
100
AcDbLine
 62
7
  6
CONTINUOUS
 10
529.9905656213
 20
310.9943092174
 11
528.4905656213
 21
310.9943092174
  0
ARC
  5
2D7
100
AcDbEntity
  8
0
100
AcDbCircle
 62
7
  6
CONTINUOUS
 10
48.1459572919
 20
292.9943092174
 40
5.5
100
AcDbArc
 50
121.8213685251
 51
58.1786314749
  0
ARC
  5
2D8
100
AcDbEntity
  8
0
100
AcDbCircle
 62
7
  6
CONTINUOUS
 10
448.1459572919
 20
292.9943092174
 40
5.5
100
AcDbArc
 50
121.8213685251
 51
58.1786314749
  0
CIRCLE
  5
2D9
100
AcDbEntity
  8
0
100
AcDbCircle
 62
7
  6
CONTINUOUS
 10
48.1459572919
 20
190.9943092174
 40
3.0
  0
CIRCLE
  5
2DA
100
AcDbEntity
  8
0
100
AcDbCircle
 62
7
  6
CONTINUOUS
 10
448.1459572919
 20
190.9943092174
 40
3.0
  0
ARC
  5
2DB
100
AcDbEntity
  8
0
100
AcDbCircle
 62
7
  6
CONTINUOUS
 10
48.1459572919
 20
300.9943092174
 40
2.9
100
AcDbArc
 50
0.0
 51
180.0
  0
ARC
  5
2DC
100
AcDbEntity
  8
0
100
AcDbCircle
 62
7
  6
CONTINUOUS
 10
448.1459572919
 20
300.9943092174
 40
2.9
100
AcDbArc
 50
0.0
 51
180.0
  0
ARC
  5
2DD
100
AcDbEntity
  8
0
100
AcDbCircle
 62
7
  6
CONTINUOUS
 10
39.1459572919
 20
267.6943092174
 40
1.0
100
AcDbArc
 50
90.0
 51
180.0
  0
ARC
  5
2DE
100
AcDbEntity
  8
0
100
AcDbCircle
 62
7
  6
CONTINUOUS
 10
457.1459572919
 20
267.6943092174
 40
1.0
100
AcDbArc
 50
0.0
 51
90.0
  0
ARC
  5
2DF
100
AcDbEntity
  8
0
100
AcDbCircle
 62
7
  6
CONTINUOUS
 10
39.1459572919
 20
234.6943092174
 40
1.0
100
AcDbArc
 50
180.0
 51
270.0
  0
ARC
  5
2E0
100
AcDbEntity
  8
0
100
AcDbCircle
 62
7
  6
CONTINUOUS
 10
457.1459572919
 20
234.6943092174
 40
1.0
100
AcDbArc
 50
270.0
 51
360.0
  0
ARC
  5
2E1
100
AcDbEntity
  8
0
100
AcDbCircle
 62
7
  6
CONTINUOUS
 10
523.1905656213
 20
282.4943092174
 40
2.0
100
AcDbArc
 50
90.0
 51
180.0
  0
ARC
  5
2E2
100
AcDbEntity
  8
0
100
AcDbCircle
 62
7
  6
CONTINUOUS
 10
528.4905656213
 20
283.9943092174
 40
2.0
100
AcDbArc
 50
270.0
 51
360.0
  0
ARC
  5
2E3
100
AcDbEntity
  8
0
100
AcDbCircle
 62
7
  6
CONTINUOUS
 10
528.4905656213
 20
198.4943092174
 40
2.0
100
AcDbArc
 50
0.0
 51
90.0
  0
ARC
  5
2E4
100
AcDbEntity
  8
0
100
AcDbCircle
 62
7
  6
CONTINUOUS
 10
523.1905656213
 20
199.9943092174
 40
2.0
100
AcDbArc
 50
180.0
 51
270.0
  0
ARC
  5
2E5
100
AcDbEntity
  8
0
100
AcDbCircle
 62
7
  6
CONTINUOUS
 10
515.6905656213
 20
237.1943092174
 40
2.0
100
AcDbArc
 50
90.0
 51
180.0
  0
ARC
  5
2E6
100
AcDbEntity
  8
0
100
AcDbCircle
 62
7
  6
CONTINUOUS
 10
515.6905656213
 20
265.1943092174
 40
2.0
100
AcDbArc
 50
180.0
 51
270.0
  0
ARC
  5
2E7
100
AcDbEntity
  8
0
100
AcDbCircle
 62
7
  6
CONTINUOUS
 10
519.1905656213
 20
235.6943092174
 40
2.0
100
AcDbArc
 50
0.0
 51
90.0
  0
ARC
  5
2E8
100
AcDbEntity
  8
0
100
AcDbCircle
 62
7
  6
CONTINUOUS
 10
519.1905656213
 20
266.6943092174
 40
2.0
100
AcDbArc
 50
270.0
 51
360.0
  0
ARC
  5
2E9
100
AcDbEntity
  8
0
100
AcDbCircle
 62
7
  6
CONTINUOUS
 10
520.1905656213
 20
262.1943092174
 40
1.0
100
AcDbArc
 50
0.0
 51
90.0
  0
ARC
  5
2EA
100
AcDbEntity
  8
0
100
AcDbCircle
 62
7
  6
CONTINUOUS
 10
520.1905656213
 20
240.1943092174
 40
1.0
100
AcDbArc
 50
270.0
 51
360.0
  0
ARC
  5
2EB
100
AcDbEntity
  8
0
100
AcDbCircle
 62
7
  6
CONTINUOUS
 10
516.3505759012
 20
236.6943092174
 40
1.0
100
AcDbArc
 50
90.0
 51
168.0
  0
ARC
  5
2EC
100
AcDbEntity
  8
0
100
AcDbCircle
 62
7
  6
CONTINUOUS
 10
516.3505759012
 20
265.6943092174
 40
1.0
100
AcDbArc
 50
192.0
 51
270.0
  0
ARC
  5
2ED
100
AcDbEntity
  8
0
100
AcDbCircle
 62
7
  6
CONTINUOUS
 10
529.9905656213
 20
181.4943092174
 40
0.5
100
AcDbArc
 50
270.0
 51
360.0
  0
ARC
  5
2EE
100
AcDbEntity
  8
0
100
AcDbCircle
 62
7
  6
CONTINUOUS
 10
528.4905656213
 20
181.4943092174
 40
0.5
100
AcDbArc
 50
180.0
 51
270.0
  0
ARC
  5
2EF
100
AcDbEntity
  8
0
100
AcDbCircle
 62
7
  6
CONTINUOUS
 10
529.9905656213
 20
310.4943092174
 40
0.5
100
AcDbArc
 50
0.0
 51
90.0
  0
ARC
  5
2F0
100
AcDbEntity
  8
0
100
AcDbCircle
 62
7
  6
CONTINUOUS
 10
528.4905656213
 20
310.4943092174
 40
0.5
100
AcDbArc
 50
90.0
 51
180.0
  0
ARC
  5
2F1
100
AcDbEntity
  8
0
100
AcDbCircle
 62
7
  6
CONTINUOUS
 10
527.4905656213
 20
197.4943092174
 40
0.5
100
AcDbArc
 50
0.0
 51
90.0
  0
ARC
  5
2F2
100
AcDbEntity
  8
0
100
AcDbCircle
 62
7
  6
CONTINUOUS
 10
527.4905656213
 20
284.9943092174
 40
0.5
100
AcDbArc
 50
270.0
 51
360.0
  0
ARC
  5
2F3
100
AcDbEntity
  8
0
100
AcDbCircle
 62
7
  6
CONTINUOUS
 10
524.1905656213
 20
200.9943092174
 40
0.5
100
AcDbArc
 50
180.0
 51
270.0
  0
ARC
  5
2F4
100
AcDbEntity
  8
0
100
AcDbCircle
 62
7
  6
CONTINUOUS
 10
524.1905656213
 20
281.4943092174
 40
0.5
100
AcDbArc
 50
90.0
 51
180.0
  0
ARC
  5
2F5
100
AcDbEntity
  8
0
100
AcDbCircle
 62
7
  6
CONTINUOUS
 10
514.4905656213
 20
233.8943092174
 40
0.2
100
AcDbArc
 50
270.0
 51
360.0
  0
ARC
  5
2F6
100
AcDbEntity
  8
0
100
AcDbCircle
 62
7
  6
CONTINUOUS
 10
514.4905656213
 20
268.4943092174
 40
0.2
100
AcDbArc
 50
0.0
 51
89.9999999999
  0
ARC
  5
2F7
100
AcDbEntity
  8
0
100
AcDbCircle
 62
7
  6
CONTINUOUS
 10
513.8905656213
 20
233.8943092174
 40
0.2
100
AcDbArc
 50
180.0
 51
270.0000000001
  0
ARC
  5
2F8
100
AcDbEntity
  8
0
100
AcDbCircle
 62
7
  6
CONTINUOUS
 10
513.8905656213
 20
268.4943092174
 40
0.2
100
AcDbArc
 50
89.9999999999
 51
180.0
  0
ENDSEC
  0
SECTION
  2
OBJECTS
  0
DICTIONARY
  5
2F9
100
AcDbDictionary
  3
ACAD_GROUP
350
2FA
  3
ACAD_MLINESTYLE
350
2FB
  0
DICTIONARY
  5
2FA
102
{ACAD_REACTORS
330
2F9
102
}
100
AcDbDictionary
  0
DICTIONARY
  5
2FB
102
{ACAD_REACTORS
330
2F9
102
}
100
AcDbDictionary
  3
STANDARD
350
2FC
  0
MLINESTYLE
  5
2FC
102
{ACAD_REACTORS
330
2FB
102
}
100
AcDbMlineStyle
  2
STANDARD
 70
0
  3

 62
256
 51
90.0
 52
90.0
 71
2
 49
0.5
 62
256
  6
BYLAYER
 49
-0.5
 62
256
  6
BYLAYER
  0
ENDSEC
  0
EOF
