999
DXF file: er-1v680d1_gaikei_200309.dxf
999
Pro/ENGINEER 2017480 by Parametric Technology Corporation
  0
SECTION
  2
HEADER
  9
$ACADVER
  1
AC1014
  9
$DWGCODEPAGE
  3
ANSI_932
  9
$EXTMAX
 10
210.0
 20
297.0
 30
0.0
  9
$EXTMIN
 10
0.0
 20
0.0
 30
0.0
  9
$LIMMIN
 10
0.0
 20
0.0
  9
$LIMMAX
 10
210.0
 20
297.0
  9
$VIEWCTR
 10
105.0
 20
148.5
  9
$VIEWSIZE
 40
297.0
  9
$CLAYER
  8
0
  9
$LTSCALE
 40
19.36
  9
$CELTYPE
  6
BYLAYER
  9
$DIMSCALE
 40
1.0
  9
$DIMASZ
 40
1.9
  9
$DIMEXO
 40
0.5
  9
$DIMDLI
 40
13.376
  9
$DIMEXE
 40
1.0
  9
$DIMCEN
 40
3.168
  9
$DIMLFAC
 40
1.0
  9
$DIMBLK
  1
_OPEN
  9
$DIMALT
 70
0
  9
$DIMALTF
 40
25.4
  9
$DIMTXT
 40
3.2
  9
$DIMTOL
 70
1
  9
$DIMLIM
 70
0
  9
$DIMTFAC
 40
1.0
  9
$DIMTP
 40
0.001
  9
$DIMTM
 40
0.001
  9
$DIMGAP
 40
0.625
  9
$AUNITS
 70
0
  9
$PDMODE
 70
3
  9
$PDSIZE
 40
0.3125
  9
$HANDSEED
  5
909
  9
$TILEMODE
 70
1
  9
$MEASUREMENT
 70
1
  0
ENDSEC
  0
SECTION
  2
CLASSES
  0
ENDSEC
  0
SECTION
  2
TABLES
  0
TABLE
  2
VPORT
  5
8
100
AcDbSymbolTable
 70
2
  0
VPORT
  5
1F4
100
AcDbSymbolTableRecord
100
AcDbViewportTableRecord
  2
*ACTIVE
 70
0
 10
0.0
 20
0.0
 11
1.0
 21
1.0
 12
105.0
 22
148.5
 13
0.0
 23
0.0
 14
1.0
 24
1.0
 15
0.0
 25
0.0
 16
0.0
 26
0.0
 36
1.0
 17
0.0
 27
0.0
 37
0.0
 40
297.0
 41
0.7070707071
 42
50.0
 43
0.0
 44
0.0
 50
0.0
 51
0.0
 71
0
 72
100
 73
1
 74
1
 75
0
 76
0
 77
0
 78
0
  0
ENDTAB
  0
TABLE
  2
LTYPE
  5
5
100
AcDbSymbolTable
 70
6
  0
LTYPE
  5
14
100
AcDbSymbolTableRecord
100
AcDbLinetypeTableRecord
  2
BYBLOCK
 70
0
  3

 72
65
 73
0
 40
0.0
  0
LTYPE
  5
15
100
AcDbSymbolTableRecord
100
AcDbLinetypeTableRecord
  2
BYLAYER
 70
0
  3

 72
65
 73
0
 40
0.0
  0
LTYPE
  5
16
100
AcDbSymbolTableRecord
100
AcDbLinetypeTableRecord
  2
CONTINUOUS
 70
64
  3
Solid line
 72
65
 73
0
 40
0.0
  0
LTYPE
  5
1F5
100
AcDbSymbolTableRecord
100
AcDbLinetypeTableRecord
  2
CENTER
 70
64
  3
____ _ ____ _ ____ _ ____ _ ____ _ ____ _ ____
 72
65
 73
4
 40
0.6
 49
0.375
 74
0
 49
-0.075
 74
0
 49
0.075
 74
0
 49
-0.075
 74
0
  0
LTYPE
  5
1F6
100
AcDbSymbolTableRecord
100
AcDbLinetypeTableRecord
  2
HIDDEN
 70
64
  3
- - - - - - - - - - - - - - - - - - - -
 72
65
 73
2
 40
0.2
 49
0.1
 74
0
 49
-0.1
 74
0
  0
LTYPE
  5
1F7
100
AcDbSymbolTableRecord
100
AcDbLinetypeTableRecord
  2
PHANTOM
 70
64
  3
_____ _ _ _____ _ _ _____ _ _ _____
 72
65
 73
6
 40
0.8
 49
0.45
 74
0
 49
-0.05
 74
0
 49
0.1
 74
0
 49
-0.05
 74
0
 49
0.1
 74
0
 49
-0.05
 74
0
  0
LTYPE
  5
1F8
100
AcDbSymbolTableRecord
100
AcDbLinetypeTableRecord
  2
DOT
 70
64
  3
. . . . . . . . . . . . . . . . . . . .
 72
65
 73
2
 40
0.2
 49
0.1
 74
0
 49
-0.1
 74
0
  0
LTYPE
  5
1F9
100
AcDbSymbolTableRecord
100
AcDbLinetypeTableRecord
  2
DASHED
 70
64
  3
- - - - - - - - - - - - - - - - - - - -
 72
65
 73
2
 40
0.2
 49
0.1
 74
0
 49
-0.1
 74
0
  0
ENDTAB
  0
TABLE
  2
LAYER
  5
2
100
AcDbSymbolTable
 70
36
  0
LAYER
  5
10
100
AcDbSymbolTableRecord
100
AcDbLayerTableRecord
  2
0
 70
0
 62
7
  6
CONTINUOUS
  0
LAYER
  5
1FA
100
AcDbSymbolTableRecord
100
AcDbLayerTableRecord
  2
DEFAULT_1
 70
0
 62
7
  6
CENTER
  0
LAYER
  5
1FB
100
AcDbSymbolTableRecord
100
AcDbLayerTableRecord
  2
DEFAULT_2
 70
0
 62
8
  6
HIDDEN
  0
LAYER
  5
1FC
100
AcDbSymbolTableRecord
100
AcDbLayerTableRecord
  2
DEFAULT_3
 70
0
 62
7
  6
PHANTOM
  0
LAYER
  5
1FD
100
AcDbSymbolTableRecord
100
AcDbLayerTableRecord
  2
00_BLANKED_OBJECT
 70
0
 62
7
  6
CONTINUOUS
  0
LAYER
  5
1FE
100
AcDbSymbolTableRecord
100
AcDbLayerTableRecord
  2
00_BLANKED_OBJECTS
 70
0
 62
7
  6
CONTINUOUS
  0
LAYER
  5
1FF
100
AcDbSymbolTableRecord
100
AcDbLayerTableRecord
  2
00_BLANK_OBJECTS
 70
0
 62
7
  6
CONTINUOUS
  0
LAYER
  5
200
100
AcDbSymbolTableRecord
100
AcDbLayerTableRecord
  2
00_COMPONENTS
 70
0
 62
7
  6
CONTINUOUS
  0
LAYER
  5
201
100
AcDbSymbolTableRecord
100
AcDbLayerTableRecord
  2
00_ROUTER
 70
0
 62
7
  6
CONTINUOUS
  0
LAYER
  5
202
100
AcDbSymbolTableRecord
100
AcDbLayerTableRecord
  2
01_ALL_PLANES
 70
0
 62
7
  6
CONTINUOUS
  0
LAYER
  5
203
100
AcDbSymbolTableRecord
100
AcDbLayerTableRecord
  2
01__DEF_ASM_PLN
 70
0
 62
7
  6
CONTINUOUS
  0
LAYER
  5
204
100
AcDbSymbolTableRecord
100
AcDbLayerTableRecord
  2
01__DEF_PLANES
 70
0
 62
7
  6
CONTINUOUS
  0
LAYER
  5
205
100
AcDbSymbolTableRecord
100
AcDbLayerTableRecord
  2
02_ALL_CSYS
 70
0
 62
7
  6
CONTINUOUS
  0
LAYER
  5
206
100
AcDbSymbolTableRecord
100
AcDbLayerTableRecord
  2
02__DEF_ASM_CSYS
 70
0
 62
7
  6
CONTINUOUS
  0
LAYER
  5
207
100
AcDbSymbolTableRecord
100
AcDbLayerTableRecord
  2
02__DEF_CSYS
 70
0
 62
7
  6
CONTINUOUS
  0
LAYER
  5
208
100
AcDbSymbolTableRecord
100
AcDbLayerTableRecord
  2
03_ALL_AXES
 70
0
 62
7
  6
CONTINUOUS
  0
LAYER
  5
209
100
AcDbSymbolTableRecord
100
AcDbLayerTableRecord
  2
04_ALL_POINTS
 70
0
 62
7
  6
CONTINUOUS
  0
LAYER
  5
20A
100
AcDbSymbolTableRecord
100
AcDbLayerTableRecord
  2
05_ALL_CURVES
 70
0
 62
7
  6
CONTINUOUS
  0
LAYER
  5
20B
100
AcDbSymbolTableRecord
100
AcDbLayerTableRecord
  2
06_ALL_SURFS
 70
0
 62
7
  6
CONTINUOUS
  0
LAYER
  5
20C
100
AcDbSymbolTableRecord
100
AcDbLayerTableRecord
  2
06_ALL_SURFS_RIBBON
 70
0
 62
7
  6
CONTINUOUS
  0
LAYER
  5
20D
100
AcDbSymbolTableRecord
100
AcDbLayerTableRecord
  2
07_ALL_HOLES
 70
0
 62
7
  6
CONTINUOUS
  0
LAYER
  5
20E
100
AcDbSymbolTableRecord
100
AcDbLayerTableRecord
  2
08_ALL_DRAFTS
 70
0
 62
7
  6
CONTINUOUS
  0
LAYER
  5
20F
100
AcDbSymbolTableRecord
100
AcDbLayerTableRecord
  2
09_ALL_ROUNDS
 70
0
 62
7
  6
CONTINUOUS
  0
LAYER
  5
210
100
AcDbSymbolTableRecord
100
AcDbLayerTableRecord
  2
10_ALL_CHAMFER
 70
0
 62
7
  6
CONTINUOUS
  0
LAYER
  5
211
100
AcDbSymbolTableRecord
100
AcDbLayerTableRecord
  2
10__CORN_CHAMFERS
 70
0
 62
7
  6
CONTINUOUS
  0
LAYER
  5
212
100
AcDbSymbolTableRecord
100
AcDbLayerTableRecord
  2
11_ALL_COSMETICS
 70
0
 62
7
  6
CONTINUOUS
  0
LAYER
  5
213
100
AcDbSymbolTableRecord
100
AcDbLayerTableRecord
  2
12_ALL_COPY_GEOM
 70
0
 62
7
  6
CONTINUOUS
  0
LAYER
  5
214
100
AcDbSymbolTableRecord
100
AcDbLayerTableRecord
  2
12__EXT_COPY_GEOM
 70
0
 62
7
  6
CONTINUOUS
  0
LAYER
  5
215
100
AcDbSymbolTableRecord
100
AcDbLayerTableRecord
  2
20_ALL_FEATURES
 70
0
 62
7
  6
CONTINUOUS
  0
LAYER
  5
216
100
AcDbSymbolTableRecord
100
AcDbLayerTableRecord
  2
52_ALL_NOTES
 70
0
 62
7
  6
CONTINUOUS
  0
LAYER
  5
217
100
AcDbSymbolTableRecord
100
AcDbLayerTableRecord
  2
ASM_LED
 70
0
 62
7
  6
CONTINUOUS
  0
LAYER
  5
218
100
AcDbSymbolTableRecord
100
AcDbLayerTableRecord
  2
AXIS
 70
0
 62
7
  6
CONTINUOUS
  0
LAYER
  5
219
100
AcDbSymbolTableRecord
100
AcDbLayerTableRecord
  2
CH1
 70
0
 62
7
  6
CONTINUOUS
  0
LAYER
  5
21A
100
AcDbSymbolTableRecord
100
AcDbLayerTableRecord
  2
CH2
 70
0
 62
7
  6
CONTINUOUS
  0
LAYER
  5
21B
100
AcDbSymbolTableRecord
100
AcDbLayerTableRecord
  2
COSM_SKETCH
 70
0
 62
7
  6
CONTINUOUS
  0
LAYER
  5
21C
100
AcDbSymbolTableRecord
100
AcDbLayerTableRecord
  2
CSYS
 70
0
 62
7
  6
CONTINUOUS
  0
LAYER
  5
21D
100
AcDbSymbolTableRecord
100
AcDbLayerTableRecord
  2
CURVE
 70
0
 62
7
  6
CONTINUOUS
  0
LAYER
  5
21E
100
AcDbSymbolTableRecord
100
AcDbLayerTableRecord
  2
CURVE_FG_KESU
 70
0
 62
7
  6
CONTINUOUS
  0
LAYER
  5
21F
100
AcDbSymbolTableRecord
100
AcDbLayerTableRecord
  2
DIM
 70
0
 62
7
  6
CONTINUOUS
  0
LAYER
  5
220
100
AcDbSymbolTableRecord
100
AcDbLayerTableRecord
  2
DTM
 70
0
 62
7
  6
CONTINUOUS
  0
LAYER
  5
221
100
AcDbSymbolTableRecord
100
AcDbLayerTableRecord
  2
INTFCLR_2
 70
0
 62
7
  6
CONTINUOUS
  0
LAYER
  5
222
100
AcDbSymbolTableRecord
100
AcDbLayerTableRecord
  2
KANAGATASIKIBETU
 70
0
 62
7
  6
CONTINUOUS
  0
LAYER
  5
223
100
AcDbSymbolTableRecord
100
AcDbLayerTableRecord
  2
MOJI
 70
0
 62
7
  6
CONTINUOUS
  0
LAYER
  5
224
100
AcDbSymbolTableRecord
100
AcDbLayerTableRecord
  2
NOTES
 70
0
 62
7
  6
CONTINUOUS
  0
LAYER
  5
225
100
AcDbSymbolTableRecord
100
AcDbLayerTableRecord
  2
PNT
 70
0
 62
7
  6
CONTINUOUS
  0
LAYER
  5
226
100
AcDbSymbolTableRecord
100
AcDbLayerTableRecord
  2
QUILT
 70
0
 62
7
  6
CONTINUOUS
  0
LAYER
  5
227
100
AcDbSymbolTableRecord
100
AcDbLayerTableRecord
  2
SHEET
 70
0
 62
7
  6
CONTINUOUS
  0
LAYER
  5
228
100
AcDbSymbolTableRecord
100
AcDbLayerTableRecord
  2
SHIKIBETU
 70
0
 62
7
  6
CONTINUOUS
  0
LAYER
  5
229
100
AcDbSymbolTableRecord
100
AcDbLayerTableRecord
  2
SURF
 70
0
 62
7
  6
CONTINUOUS
  0
LAYER
  5
22A
100
AcDbSymbolTableRecord
100
AcDbLayerTableRecord
  2
WHITE
 70
0
 62
7
  6
CONTINUOUS
  0
LAYER
  5
22B
100
AcDbSymbolTableRecord
100
AcDbLayerTableRecord
  2
XSEC_DATUMS
 70
0
 62
7
  6
CONTINUOUS
  0
LAYER
  5
22C
100
AcDbSymbolTableRecord
100
AcDbLayerTableRecord
  2
______
 70
0
 62
7
  6
CONTINUOUS
  0
LAYER
  5
22D
100
AcDbSymbolTableRecord
100
AcDbLayerTableRecord
  2
________
 70
0
 62
7
  6
CONTINUOUS
  0
ENDTAB
  0
TABLE
  2
STYLE
  5
3
100
AcDbSymbolTable
 70
1
  0
STYLE
  5
11
100
AcDbSymbolTableRecord
100
AcDbTextStyleTableRecord
  2
STANDARD
 70
0
 40
0.0
 41
0.8
 50
0.0
 71
0
 42
0.2
  3
txt
  4

  0
STYLE
  5
22E
100
AcDbSymbolTableRecord
100
AcDbTextStyleTableRecord
  2
TEXTSTYLE_1
 70
0
 40
0.0
 41
0.8
 50
0.0
 71
0
 42
0.2
  3
gdt
  4

  0
ENDTAB
  0
TABLE
  2
VIEW
  5
6
100
AcDbSymbolTable
 70
0
  0
ENDTAB
  0
TABLE
  2
UCS
  5
7
100
AcDbSymbolTable
 70
0
  0
ENDTAB
  0
TABLE
  2
APPID
  5
9
100
AcDbSymbolTable
 70
1
  0
APPID
  5
22F
100
AcDbSymbolTableRecord
100
AcDbRegAppTableRecord
  2
ACAD
 70
0
  0
ENDTAB
  0
TABLE
  2
BLOCK_RECORD
  5
1
100
AcDbSymbolTable
 70
0
  0
BLOCK_RECORD
  5
1F
100
AcDbSymbolTableRecord
100
AcDbBlockTableRecord
  2
*MODEL_SPACE
  0
BLOCK_RECORD
  5
1B
100
AcDbSymbolTableRecord
100
AcDbBlockTableRecord
  2
*PAPER_SPACE
  0
BLOCK_RECORD
  5
230
100
AcDbSymbolTableRecord
100
AcDbBlockTableRecord
  2
_OPEN
  0
BLOCK_RECORD
  5
231
100
AcDbSymbolTableRecord
100
AcDbBlockTableRecord
  2
*D0
  0
BLOCK_RECORD
  5
232
100
AcDbSymbolTableRecord
100
AcDbBlockTableRecord
  2
*D1
  0
BLOCK_RECORD
  5
233
100
AcDbSymbolTableRecord
100
AcDbBlockTableRecord
  2
*D2
  0
BLOCK_RECORD
  5
234
100
AcDbSymbolTableRecord
100
AcDbBlockTableRecord
  2
*D3
  0
BLOCK_RECORD
  5
235
100
AcDbSymbolTableRecord
100
AcDbBlockTableRecord
  2
*D4
  0
BLOCK_RECORD
  5
236
100
AcDbSymbolTableRecord
100
AcDbBlockTableRecord
  2
*D5
  0
BLOCK_RECORD
  5
237
100
AcDbSymbolTableRecord
100
AcDbBlockTableRecord
  2
*D6
  0
BLOCK_RECORD
  5
238
100
AcDbSymbolTableRecord
100
AcDbBlockTableRecord
  2
*D7
  0
BLOCK_RECORD
  5
239
100
AcDbSymbolTableRecord
100
AcDbBlockTableRecord
  2
*D8
  0
BLOCK_RECORD
  5
23A
100
AcDbSymbolTableRecord
100
AcDbBlockTableRecord
  2
*D9
  0
BLOCK_RECORD
  5
23B
100
AcDbSymbolTableRecord
100
AcDbBlockTableRecord
  2
*D10
  0
BLOCK_RECORD
  5
23C
100
AcDbSymbolTableRecord
100
AcDbBlockTableRecord
  2
*D11
  0
ENDTAB
  0
TABLE
  2
DIMSTYLE
  5
A
100
AcDbSymbolTable
 70
1
  0
DIMSTYLE
105
23D
100
AcDbSymbolTableRecord
100
AcDbDimStyleTableRecord
  2
STANDARD
 70
0
  3

  4

  5
_OPEN
  6
_OPEN
  7
_OPEN
 40
1.0
 41
1.9
 42
0.5
 43
0.38
 44
1.0
 45
0.0
 46
0.0
 47
0.001
 48
0.001
140
3.2
141
0.09
142
0.0
143
25.4
144
1.0
145
0.0
146
1.0
147
0.625
 71
1.0
 72
0.0
 73
0
 74
0
 75
0
 76
0
 77
1
 78
8
 79
2
170
0
171
2
172
0
173
0
174
0
175
0
176
0
177
0
178
0
270
2
179
3
271
3
272
3
273
2
274
2
275
0
280
0
281
0
282
0
283
1
284
8
285
0
286
0
287
3
288
0
340
11
  0
DIMSTYLE
105
23E
100
AcDbSymbolTableRecord
100
AcDbDimStyleTableRecord
  2
DIMSTYLE_1
 70
0
  3

  4

  5
_OPEN
  6
_OPEN
  7
_OPEN
 40
1.0
 41
1.9
 42
0.5
 43
0.38
 44
1.0
 45
0.0
 46
0.0
 47
0.1
 48
0.1
140
3.2
141
0.09
142
0.0
143
25.4
144
1.0
145
0.0
146
1.0
147
0.8
 71
0.0
 72
0.0
 73
0
 74
0
 75
0
 76
0
 77
1
 78
8
 79
2
170
0
171
2
172
0
173
0
174
0
175
0
176
0
177
0
178
0
270
2
179
3
271
3
272
3
273
2
274
2
275
0
280
0
281
0
282
0
283
1
284
8
285
0
286
0
287
3
288
0
340
11
  0
DIMSTYLE
105
23F
100
AcDbSymbolTableRecord
100
AcDbDimStyleTableRecord
  2
DIMSTYLE_2
 70
0
  3

  4

  5
_OPEN
  6
_OPEN
  7
_OPEN
 40
1.0
 41
1.9
 42
0.5
 43
0.38
 44
1.0
 45
0.0
 46
0.0
 47
0.15
 48
0.15
140
3.2
141
0.09
142
0.0
143
25.4
144
1.0
145
0.0
146
1.0
147
0.8
 71
0.0
 72
0.0
 73
0
 74
0
 75
0
 76
0
 77
1
 78
8
 79
2
170
0
171
2
172
0
173
0
174
0
175
0
176
0
177
0
178
0
270
2
179
3
271
3
272
3
273
2
274
2
275
0
280
0
281
0
282
0
283
1
284
8
285
0
286
0
287
3
288
0
340
11
  0
DIMSTYLE
105
240
100
AcDbSymbolTableRecord
100
AcDbDimStyleTableRecord
  2
DIMSTYLE_3
 70
0
  3

  4

  5
_OPEN
  6
_OPEN
  7
_OPEN
 40
1.0
 41
1.9
 42
0.5
 43
0.38
 44
1.0
 45
0.0
 46
0.0
 47
0.15
 48
0.15
140
3.2
141
0.09
142
0.0
143
25.4
144
1.0
145
0.0
146
1.0
147
0.8
 71
0.0
 72
0.0
 73
0
 74
0
 75
0
 76
0
 77
1
 78
8
 79
2
170
0
171
2
172
0
173
0
174
0
175
0
176
0
177
0
178
0
270
2
179
2
271
2
272
2
273
2
274
2
275
0
280
0
281
0
282
0
283
1
284
8
285
0
286
0
287
3
288
0
340
11
  0
DIMSTYLE
105
241
100
AcDbSymbolTableRecord
100
AcDbDimStyleTableRecord
  2
DIMSTYLE_4
 70
0
  3

  4

  5
_OPEN
  6
_OPEN
  7
_OPEN
 40
1.0
 41
1.9
 42
0.5
 43
0.38
 44
1.0
 45
0.0
 46
0.0
 47
0.1
 48
0.1
140
3.2
141
0.09
142
0.0
143
25.4
144
1.0
145
0.0
146
1.0
147
0.8
 71
0.0
 72
0.0
 73
0
 74
0
 75
0
 76
0
 77
1
 78
8
 79
2
170
0
171
2
172
0
173
0
174
0
175
0
176
0
177
0
178
0
270
2
179
2
271
2
272
2
273
2
274
2
275
0
280
0
281
0
282
0
283
1
284
8
285
0
286
0
287
3
288
0
340
11
  0
DIMSTYLE
105
242
100
AcDbSymbolTableRecord
100
AcDbDimStyleTableRecord
  2
DIMSTYLE_5
 70
0
  3

  4

  5
_OPEN
  6
_OPEN
  7
_OPEN
 40
1.0
 41
1.9
 42
0.5
 43
0.38
 44
1.0
 45
0.0
 46
0.0
 47
0.05
 48
0.05
140
3.2
141
0.09
142
0.0
143
25.4
144
1.0
145
0.0
146
1.0
147
0.8
 71
0.0
 72
0.0
 73
0
 74
0
 75
0
 76
0
 77
1
 78
8
 79
2
170
0
171
2
172
0
173
0
174
0
175
0
176
0
177
0
178
0
270
2
179
3
271
3
272
3
273
2
274
2
275
0
280
0
281
0
282
0
283
1
284
8
285
0
286
0
287
3
288
0
340
11
  0
DIMSTYLE
105
243
100
AcDbSymbolTableRecord
100
AcDbDimStyleTableRecord
  2
DIMSTYLE_6
 70
0
  3

  4

  5
_OPEN
  6
_OPEN
  7
_OPEN
 40
1.0
 41
1.9
 42
0.5
 43
0.38
 44
1.0
 45
0.0
 46
0.0
 47
0.05
 48
0.05
140
3.2
141
0.09
142
0.0
143
25.4
144
1.0
145
0.0
146
1.0
147
0.8
 71
0.0
 72
0.0
 73
0
 74
0
 75
0
 76
0
 77
1
 78
8
 79
2
170
0
171
2
172
0
173
0
174
0
175
0
176
0
177
0
178
0
270
2
179
2
271
2
272
2
273
2
274
2
275
0
280
0
281
0
282
0
283
1
284
8
285
0
286
0
287
3
288
0
340
11
  0
DIMSTYLE
105
244
100
AcDbSymbolTableRecord
100
AcDbDimStyleTableRecord
  2
DIMSTYLE_7
 70
0
  3

  4

  5
_OPEN
  6
_OPEN
  7
_OPEN
 40
1.0
 41
1.9
 42
0.5
 43
0.38
 44
1.0
 45
0.0
 46
0.0
 47
0.05
 48
0.05
140
3.2
141
0.09
142
0.0
143
25.4
144
1.0
145
0.0
146
1.0
147
0.8
 71
0.0
 72
0.0
 73
0
 74
0
 75
0
 76
0
 77
1
 78
8
 79
2
170
0
171
2
172
0
173
0
174
0
175
0
176
0
177
0
178
0
270
2
179
1
271
1
272
1
273
2
274
2
275
0
280
0
281
0
282
0
283
1
284
8
285
0
286
0
287
3
288
0
340
11
  0
ENDTAB
  0
ENDSEC
  0
SECTION
  2
BLOCKS
  0
BLOCK
  5
20
100
AcDbEntity
  8
0
100
AcDbBlockBegin
  2
*MODEL_SPACE
 70
0
 10
0.0
 20
0.0
 30
0.0
  3
*MODEL_SPACE
  1

  0
ENDBLK
  5
21
100
AcDbEntity
  8
0
100
AcDbBlockEnd
  0
BLOCK
  5
1C
100
AcDbEntity
  8
0
100
AcDbBlockBegin
  2
*PAPER_SPACE
 70
0
 10
0.0
 20
0.0
 30
0.0
  3
*PAPER_SPACE
  1

  0
ENDBLK
  5
1D
100
AcDbEntity
  8
0
100
AcDbBlockEnd
  0
BLOCK
  5
245
100
AcDbEntity
  8
0
100
AcDbBlockBegin
  2
_OPEN
 70
64
 10
0.0
 20
0.0
  3
_OPEN
  1

  0
LINE
  5
246
100
AcDbEntity
  8
0
  6
BYBLOCK
 62
0
100
AcDbLine
 10
0.0
 20
0.0
 11
-1.0
 21
0.2631578947
  0
LINE
  5
247
100
AcDbEntity
  8
0
  6
BYBLOCK
 62
0
100
AcDbLine
 10
-1.0
 20
-0.2631578947
 11
0.0
 21
0.0
  0
LINE
  5
248
100
AcDbEntity
  8
0
  6
BYBLOCK
 62
0
100
AcDbLine
 10
-1.0
 20
0.0
 11
0.0
 21
0.0
  0
ENDBLK
  5
249
100
AcDbEntity
  8
0
  6
BYBLOCK
 62
0
100
AcDbBlockEnd
  0
BLOCK
  5
24A
100
AcDbEntity
  8
DIM
100
AcDbBlockBegin
 62
2
  6
CONTINUOUS
  2
*D0
 70
65
 10
0.0
 20
0.0
  3
*D0
  1

  0
MTEXT
  5
24B
100
AcDbEntity
  8
DIM
100
AcDbMText
 62
2
  6
CONTINUOUS
  7
STANDARD
 71
2
 72
1
 10
43.262195122
 20
20.7006509526
 30
0.0
 11
1.0
 21
0.0
 31
0.0
  1
27.8
 40
3.2
 41
10.24
  0
LINE
  5
24C
100
AcDbEntity
  8
DIM
100
AcDbLine
 62
2
  6
CONTINUOUS
 10
29.362195122
 20
22.912433226
 11
29.362195122
 21
15.7006509526
  0
LINE
  5
24D
100
AcDbEntity
  8
DIM
100
AcDbLine
 62
2
  6
CONTINUOUS
 10
57.162195122
 20
22.912433226
 11
57.162195122
 21
15.7006509526
  0
LINE
  5
24E
100
AcDbEntity
  8
DIM
100
AcDbLine
 62
2
  6
CONTINUOUS
 10
29.362195122
 20
16.7006509526
 11
43.262195122
 21
16.7006509526
  0
LINE
  5
24F
100
AcDbEntity
  8
DIM
100
AcDbLine
 62
2
  6
CONTINUOUS
 10
57.162195122
 20
16.7006509526
 11
43.262195122
 21
16.7006509526
  0
INSERT
  5
250
100
AcDbEntity
  8
DIM
100
AcDbBlockReference
 62
2
  6
CONTINUOUS
  2
_OPEN
 10
29.362195122
 20
16.7006509526
 41
1.9
 42
1.9
 43
1.9
 50
180.0
  0
INSERT
  5
251
100
AcDbEntity
  8
DIM
100
AcDbBlockReference
 62
2
  6
CONTINUOUS
  2
_OPEN
 10
57.162195122
 20
16.7006509526
 41
1.9
 42
1.9
 43
1.9
  0
ENDBLK
  5
252
100
AcDbEntity
  8
0
  6
BYBLOCK
 62
0
100
AcDbBlockEnd
  0
BLOCK
  5
253
100
AcDbEntity
  8
DIM
100
AcDbBlockBegin
 62
2
  6
CONTINUOUS
  2
*D1
 70
65
 10
0.0
 20
0.0
  3
*D1
  1

  0
MTEXT
  5
254
100
AcDbEntity
  8
DIM
100
AcDbMText
 62
2
  6
CONTINUOUS
  7
STANDARD
 71
2
 72
1
 10
65.1570420027
 20
75.912433226
 30
0.0
 11
0.0
 21
1.0
 31
0.0
  1
106
 40
3.2
 41
7.68
  0
LINE
  5
255
100
AcDbEntity
  8
DIM
100
AcDbLine
 62
2
  6
CONTINUOUS
 10
97.4315422262
 20
128.912433226
 11
68.1570420027
 21
128.912433226
  0
LINE
  5
256
100
AcDbEntity
  8
DIM
100
AcDbLine
 62
2
  6
CONTINUOUS
 10
91.3772901951
 20
22.912433226
 11
68.1570420027
 21
22.912433226
  0
LINE
  5
257
100
AcDbEntity
  8
DIM
100
AcDbLine
 62
2
  6
CONTINUOUS
 10
69.1570420027
 20
128.912433226
 11
69.1570420027
 21
75.912433226
  0
LINE
  5
258
100
AcDbEntity
  8
DIM
100
AcDbLine
 62
2
  6
CONTINUOUS
 10
69.1570420027
 20
22.912433226
 11
69.1570420027
 21
75.912433226
  0
INSERT
  5
259
100
AcDbEntity
  8
DIM
100
AcDbBlockReference
 62
2
  6
CONTINUOUS
  2
_OPEN
 10
69.1570420027
 20
128.912433226
 41
1.9
 42
1.9
 43
1.9
 50
90.0
  0
INSERT
  5
25A
100
AcDbEntity
  8
DIM
100
AcDbBlockReference
 62
2
  6
CONTINUOUS
  2
_OPEN
 10
69.1570420027
 20
22.912433226
 41
1.9
 42
1.9
 43
1.9
 50
270.0
  0
ENDBLK
  5
25B
100
AcDbEntity
  8
0
  6
BYBLOCK
 62
0
100
AcDbBlockEnd
  0
BLOCK
  5
25C
100
AcDbEntity
  8
DIM
100
AcDbBlockBegin
 62
2
  6
CONTINUOUS
  2
*D2
 70
65
 10
0.0
 20
0.0
  3
*D2
  1

  0
MTEXT
  5
25D
100
AcDbEntity
  8
DIM
100
AcDbMText
 62
2
  6
CONTINUOUS
  7
STANDARD
 71
2
 72
1
 10
200.6156111455
 20
75.912433226
 30
0.0
 11
0.0
 21
1.0
 31
0.0
  1
98
 40
3.2
 41
5.12
  0
LINE
  5
25E
100
AcDbEntity
  8
DIM
100
AcDbLine
 62
2
  6
CONTINUOUS
 10
189.8772901951
 20
124.912433226
 11
205.6156111455
 21
124.912433226
  0
LINE
  5
25F
100
AcDbEntity
  8
DIM
100
AcDbLine
 62
2
  6
CONTINUOUS
 10
180.092204899
 20
26.912433226
 11
205.6156111455
 21
26.912433226
  0
LINE
  5
260
100
AcDbEntity
  8
DIM
100
AcDbLine
 62
2
  6
CONTINUOUS
 10
204.6156111455
 20
124.912433226
 11
204.6156111455
 21
75.912433226
  0
LINE
  5
261
100
AcDbEntity
  8
DIM
100
AcDbLine
 62
2
  6
CONTINUOUS
 10
204.6156111455
 20
26.912433226
 11
204.6156111455
 21
75.912433226
  0
INSERT
  5
262
100
AcDbEntity
  8
DIM
100
AcDbBlockReference
 62
2
  6
CONTINUOUS
  2
_OPEN
 10
204.6156111455
 20
124.912433226
 41
1.9
 42
1.9
 43
1.9
 50
90.0
  0
INSERT
  5
263
100
AcDbEntity
  8
DIM
100
AcDbBlockReference
 62
2
  6
CONTINUOUS
  2
_OPEN
 10
204.6156111455
 20
26.912433226
 41
1.9
 42
1.9
 43
1.9
 50
270.0
  0
ENDBLK
  5
264
100
AcDbEntity
  8
0
  6
BYBLOCK
 62
0
100
AcDbBlockEnd
  0
BLOCK
  5
265
100
AcDbEntity
  8
DIM
100
AcDbBlockBegin
 62
2
  6
CONTINUOUS
  2
*D3
 70
65
 10
0.0
 20
0.0
  3
*D3
  1

  0
MTEXT
  5
266
100
AcDbEntity
  8
DIM
100
AcDbMText
 62
2
  6
CONTINUOUS
  7
STANDARD
 71
2
 72
1
 10
143.577542119
 20
21.015412953
 30
0.0
 11
1.0
 21
0.0
 31
0.0
  1
110
 40
3.2
 41
7.68
  0
LINE
  5
267
100
AcDbEntity
  8
DIM
100
AcDbLine
 62
2
  6
CONTINUOUS
 10
198.5772901951
 20
57.3195400072
 11
198.5772901951
 21
16.015412953
  0
LINE
  5
268
100
AcDbEntity
  8
DIM
100
AcDbLine
 62
2
  6
CONTINUOUS
 10
88.5777940428
 20
75.4454528311
 11
88.5777940428
 21
16.015412953
  0
LINE
  5
269
100
AcDbEntity
  8
DIM
100
AcDbLine
 62
2
  6
CONTINUOUS
 10
198.5772901951
 20
17.015412953
 11
143.577542119
 21
17.015412953
  0
LINE
  5
26A
100
AcDbEntity
  8
DIM
100
AcDbLine
 62
2
  6
CONTINUOUS
 10
88.5777940428
 20
17.015412953
 11
143.577542119
 21
17.015412953
  0
INSERT
  5
26B
100
AcDbEntity
  8
DIM
100
AcDbBlockReference
 62
2
  6
CONTINUOUS
  2
_OPEN
 10
198.5772901951
 20
17.015412953
 41
1.9
 42
1.9
 43
1.9
  0
INSERT
  5
26C
100
AcDbEntity
  8
DIM
100
AcDbBlockReference
 62
2
  6
CONTINUOUS
  2
_OPEN
 10
88.5777940428
 20
17.015412953
 41
1.9
 42
1.9
 43
1.9
 50
180.0
  0
ENDBLK
  5
26D
100
AcDbEntity
  8
0
  6
BYBLOCK
 62
0
100
AcDbBlockEnd
  0
BLOCK
  5
26E
100
AcDbEntity
  8
DIM
100
AcDbBlockBegin
 62
2
  6
CONTINUOUS
  2
*D4
 70
65
 10
0.0
 20
0.0
  3
*D4
  1

  0
MTEXT
  5
26F
100
AcDbEntity
  8
DIM
100
AcDbMText
 62
2
  6
CONTINUOUS
  7
STANDARD
 71
2
 72
1
 10
81.127542119
 20
21.015412953
 30
0.0
 11
1.0
 21
0.0
 31
0.0
  1
(14.9)
 40
3.2
 41
15.36
  0
LINE
  5
270
100
AcDbEntity
  8
DIM
100
AcDbLine
 62
2
  6
CONTINUOUS
 10
73.6772901951
 20
36.922433226
 11
73.6772901951
 21
22.615412953
  0
LINE
  5
271
100
AcDbEntity
  8
DIM
100
AcDbLine
 62
2
  6
CONTINUOUS
 10
73.6772901951
 20
16.215412953
 11
73.6772901951
 21
16.015412953
  0
LINE
  5
272
100
AcDbEntity
  8
DIM
100
AcDbLine
 62
2
  6
CONTINUOUS
 10
88.5777940428
 20
75.4454528311
 11
88.5777940428
 21
22.615412953
  0
LINE
  5
273
100
AcDbEntity
  8
DIM
100
AcDbLine
 62
2
  6
CONTINUOUS
 10
88.5777940428
 20
16.215412953
 11
88.5777940428
 21
16.015412953
  0
LINE
  5
274
100
AcDbEntity
  8
DIM
100
AcDbLine
 62
2
  6
CONTINUOUS
 10
73.6772901951
 20
17.015412953
 11
81.127542119
 21
17.015412953
  0
LINE
  5
275
100
AcDbEntity
  8
DIM
100
AcDbLine
 62
2
  6
CONTINUOUS
 10
88.5777940428
 20
17.015412953
 11
81.127542119
 21
17.015412953
  0
INSERT
  5
276
100
AcDbEntity
  8
DIM
100
AcDbBlockReference
 62
2
  6
CONTINUOUS
  2
_OPEN
 10
73.6772901951
 20
17.015412953
 41
1.9
 42
1.9
 43
1.9
 50
180.0
  0
INSERT
  5
277
100
AcDbEntity
  8
DIM
100
AcDbBlockReference
 62
2
  6
CONTINUOUS
  2
_OPEN
 10
88.5777940428
 20
17.015412953
 41
1.9
 42
1.9
 43
1.9
  0
ENDBLK
  5
278
100
AcDbEntity
  8
0
  6
BYBLOCK
 62
0
100
AcDbBlockEnd
  0
BLOCK
  5
279
100
AcDbEntity
  8
DIM
100
AcDbBlockBegin
 62
2
  6
CONTINUOUS
  2
*D5
 70
65
 10
0.0
 20
0.0
  3
*D5
  1

  0
MTEXT
  5
27A
100
AcDbEntity
  8
DIM
100
AcDbMText
 62
2
  6
CONTINUOUS
  7
STANDARD
 71
2
 72
1
 10
23.0495311518
 20
32.412433226
 30
0.0
 11
0.0
 21
1.0
 31
0.0
  1
(19)
 40
3.2
 41
10.24
  0
LINE
  5
27B
100
AcDbEntity
  8
DIM
100
AcDbLine
 62
2
  6
CONTINUOUS
 10
29.362195122
 20
22.912433226
 11
26.0495311518
 21
22.912433226
  0
LINE
  5
27C
100
AcDbEntity
  8
DIM
100
AcDbLine
 62
2
  6
CONTINUOUS
 10
35.9517612695
 20
41.912433226
 11
26.0495311518
 21
41.912433226
  0
LINE
  5
27D
100
AcDbEntity
  8
DIM
100
AcDbLine
 62
2
  6
CONTINUOUS
 10
27.0495311518
 20
22.912433226
 11
27.0495311518
 21
32.412433226
  0
LINE
  5
27E
100
AcDbEntity
  8
DIM
100
AcDbLine
 62
2
  6
CONTINUOUS
 10
27.0495311518
 20
41.912433226
 11
27.0495311518
 21
32.412433226
  0
INSERT
  5
27F
100
AcDbEntity
  8
DIM
100
AcDbBlockReference
 62
2
  6
CONTINUOUS
  2
_OPEN
 10
27.0495311518
 20
22.912433226
 41
1.9
 42
1.9
 43
1.9
 50
270.0
  0
INSERT
  5
280
100
AcDbEntity
  8
DIM
100
AcDbBlockReference
 62
2
  6
CONTINUOUS
  2
_OPEN
 10
27.0495311518
 20
41.912433226
 41
1.9
 42
1.9
 43
1.9
 50
90.0
  0
ENDBLK
  5
281
100
AcDbEntity
  8
0
  6
BYBLOCK
 62
0
100
AcDbBlockEnd
  0
BLOCK
  5
282
100
AcDbEntity
  8
DIM
100
AcDbBlockBegin
 62
2
  6
CONTINUOUS
  2
*D6
 70
65
 10
0.0
 20
0.0
  3
*D6
  1

  0
MTEXT
  5
283
100
AcDbEntity
  8
DIM
100
AcDbMText
 62
2
  6
CONTINUOUS
  7
STANDARD
 71
2
 72
1
 10
17.9578452613
 20
55.912433226
 30
0.0
 11
0.0
 21
1.0
 31
0.0
  1
(66)
 40
3.2
 41
10.24
  0
LINE
  5
284
100
AcDbEntity
  8
DIM
100
AcDbLine
 62
2
  6
CONTINUOUS
 10
29.362195122
 20
22.912433226
 11
20.9578452613
 21
22.912433226
  0
LINE
  5
285
100
AcDbEntity
  8
DIM
100
AcDbLine
 62
2
  6
CONTINUOUS
 10
31.7726005726
 20
88.912433226
 11
20.9578452613
 21
88.912433226
  0
LINE
  5
286
100
AcDbEntity
  8
DIM
100
AcDbLine
 62
2
  6
CONTINUOUS
 10
21.9578452613
 20
22.912433226
 11
21.9578452613
 21
55.912433226
  0
LINE
  5
287
100
AcDbEntity
  8
DIM
100
AcDbLine
 62
2
  6
CONTINUOUS
 10
21.9578452613
 20
88.912433226
 11
21.9578452613
 21
55.912433226
  0
INSERT
  5
288
100
AcDbEntity
  8
DIM
100
AcDbBlockReference
 62
2
  6
CONTINUOUS
  2
_OPEN
 10
21.9578452613
 20
22.912433226
 41
1.9
 42
1.9
 43
1.9
 50
270.0
  0
INSERT
  5
289
100
AcDbEntity
  8
DIM
100
AcDbBlockReference
 62
2
  6
CONTINUOUS
  2
_OPEN
 10
21.9578452613
 20
88.912433226
 41
1.9
 42
1.9
 43
1.9
 50
90.0
  0
ENDBLK
  5
28A
100
AcDbEntity
  8
0
  6
BYBLOCK
 62
0
100
AcDbBlockEnd
  0
BLOCK
  5
28B
100
AcDbEntity
  8
DIM
100
AcDbBlockBegin
 62
2
  6
CONTINUOUS
  2
*D7
 70
65
 10
0.0
 20
0.0
  3
*D7
  1

  0
MTEXT
  5
28C
100
AcDbEntity
  8
DIM
100
AcDbMText
 62
2
  6
CONTINUOUS
  7
STANDARD
 71
2
 72
1
 10
11.3291874701
 20
73.012433226
 30
0.0
 11
0.0
 21
1.0
 31
0.0
  1
(100.2)
 40
3.2
 41
17.92
  0
LINE
  5
28D
100
AcDbEntity
  8
DIM
100
AcDbLine
 62
2
  6
CONTINUOUS
 10
29.362195122
 20
22.912433226
 11
14.3291874701
 21
22.912433226
  0
LINE
  5
28E
100
AcDbEntity
  8
DIM
100
AcDbLine
 62
2
  6
CONTINUOUS
 10
34.012095122
 20
123.112433226
 11
14.3291874701
 21
123.112433226
  0
LINE
  5
28F
100
AcDbEntity
  8
DIM
100
AcDbLine
 62
2
  6
CONTINUOUS
 10
15.3291874701
 20
22.912433226
 11
15.3291874701
 21
73.012433226
  0
LINE
  5
290
100
AcDbEntity
  8
DIM
100
AcDbLine
 62
2
  6
CONTINUOUS
 10
15.3291874701
 20
123.112433226
 11
15.3291874701
 21
73.012433226
  0
INSERT
  5
291
100
AcDbEntity
  8
DIM
100
AcDbBlockReference
 62
2
  6
CONTINUOUS
  2
_OPEN
 10
15.3291874701
 20
22.912433226
 41
1.9
 42
1.9
 43
1.9
 50
270.0
  0
INSERT
  5
292
100
AcDbEntity
  8
DIM
100
AcDbBlockReference
 62
2
  6
CONTINUOUS
  2
_OPEN
 10
15.3291874701
 20
123.112433226
 41
1.9
 42
1.9
 43
1.9
 50
90.0
  0
ENDBLK
  5
293
100
AcDbEntity
  8
0
  6
BYBLOCK
 62
0
100
AcDbBlockEnd
  0
BLOCK
  5
294
100
AcDbEntity
  8
DIM
100
AcDbBlockBegin
 62
2
  6
CONTINUOUS
  2
*D8
 70
65
 10
0.0
 20
0.0
  3
*D8
  1

  0
MTEXT
  5
295
100
AcDbEntity
  8
DIM
100
AcDbMText
 62
2
  6
CONTINUOUS
  7
STANDARD
 71
3
 72
1
 10
39.2531761151
 20
101.9437774604
 30
0.0
 11
1.0
 21
0.0
 31
0.0
  1
(2)
 40
3.2
 41
7.68
  0
LINE
  5
296
100
AcDbEntity
  8
DIM
100
AcDbLine
 62
2
  6
CONTINUOUS
 10
41.262195122
 20
98.4020277754
 11
41.262195122
 21
98.9437774604
  0
LINE
  5
297
100
AcDbEntity
  8
DIM
100
AcDbLine
 62
2
  6
CONTINUOUS
 10
41.262195122
 20
97.9437774604
 11
31.5731761151
 21
97.9437774604
  0
LINE
  5
298
100
AcDbEntity
  8
DIM
100
AcDbLine
 62
2
  6
CONTINUOUS
 10
31.5731761151
 20
97.9437774604
 11
42.262195122
 21
97.9437774604
  0
LINE
  5
299
100
AcDbEntity
  8
DIM
100
AcDbLine
 62
2
  6
CONTINUOUS
 10
43.262195122
 20
97.9437774604
 11
46.262195122
 21
97.9437774604
  0
LINE
  5
29A
100
AcDbEntity
  8
DIM
100
AcDbLine
 62
2
  6
CONTINUOUS
 10
46.262195122
 20
97.9437774604
 11
42.262195122
 21
97.9437774604
  0
INSERT
  5
29B
100
AcDbEntity
  8
DIM
100
AcDbBlockReference
 62
2
  6
CONTINUOUS
  2
_OPEN
 10
41.262195122
 20
97.9437774604
 41
1.9
 42
1.9
 43
1.9
  0
INSERT
  5
29C
100
AcDbEntity
  8
DIM
100
AcDbBlockReference
 62
2
  6
CONTINUOUS
  2
_OPEN
 10
43.262195122
 20
97.9437774604
 41
1.9
 42
1.9
 43
1.9
 50
180.0
  0
ENDBLK
  5
29D
100
AcDbEntity
  8
0
  6
BYBLOCK
 62
0
100
AcDbBlockEnd
  0
BLOCK
  5
29E
100
AcDbEntity
  8
DIM
100
AcDbBlockBegin
 62
2
  6
CONTINUOUS
  2
*D9
 70
65
 10
0.0
 20
0.0
  3
*D9
  1

  0
MTEXT
  5
29F
100
AcDbEntity
  8
DIM
100
AcDbMText
 62
2
  6
CONTINUOUS
  7
STANDARD
 71
1
 72
1
 10
45.7062682927
 20
135.8210039882
 30
0.0
 11
1.0
 21
0.0
 31
0.0
  1
(7.25)
 40
3.2
 41
15.36
  0
LINE
  5
2A0
100
AcDbEntity
  8
DIM
100
AcDbLine
 62
2
  6
CONTINUOUS
 10
36.012195122
 20
125.112533226
 11
36.012195122
 21
132.8210039882
  0
LINE
  5
2A1
100
AcDbEntity
  8
DIM
100
AcDbLine
 62
2
  6
CONTINUOUS
 10
43.262195122
 20
131.8210039882
 11
61.0662682927
 21
131.8210039882
  0
LINE
  5
2A2
100
AcDbEntity
  8
DIM
100
AcDbLine
 62
2
  6
CONTINUOUS
 10
61.0662682927
 20
131.8210039882
 11
39.637195122
 21
131.8210039882
  0
LINE
  5
2A3
100
AcDbEntity
  8
DIM
100
AcDbLine
 62
2
  6
CONTINUOUS
 10
36.012195122
 20
131.8210039882
 11
33.012195122
 21
131.8210039882
  0
LINE
  5
2A4
100
AcDbEntity
  8
DIM
100
AcDbLine
 62
2
  6
CONTINUOUS
 10
33.012195122
 20
131.8210039882
 11
39.637195122
 21
131.8210039882
  0
INSERT
  5
2A5
100
AcDbEntity
  8
DIM
100
AcDbBlockReference
 62
2
  6
CONTINUOUS
  2
_OPEN
 10
43.262195122
 20
131.8210039882
 41
1.9
 42
1.9
 43
1.9
 50
180.0
  0
INSERT
  5
2A6
100
AcDbEntity
  8
DIM
100
AcDbBlockReference
 62
2
  6
CONTINUOUS
  2
_OPEN
 10
36.012195122
 20
131.8210039882
 41
1.9
 42
1.9
 43
1.9
  0
ENDBLK
  5
2A7
100
AcDbEntity
  8
0
  6
BYBLOCK
 62
0
100
AcDbBlockEnd
  0
BLOCK
  5
2A8
100
AcDbEntity
  8
DIM
100
AcDbBlockBegin
 62
2
  6
CONTINUOUS
  2
*D10
 70
65
 10
0.0
 20
0.0
  3
*D10
  1

  0
MTEXT
  5
2A9
100
AcDbEntity
  8
DIM
100
AcDbMText
 62
2
  6
CONTINUOUS
  7
STANDARD
 71
3
 72
1
 10
85.4629564127
 20
78.4713700053
 30
0.0
 11
1.0
 21
0.0
 31
0.0
  1
(2.7)
 40
3.2
 41
12.8
  0
LINE
  5
2AA
100
AcDbEntity
  8
DIM
100
AcDbLine
 62
2
  6
CONTINUOUS
 10
85.8772901951
 20
80.9119630001
 11
85.8772901951
 21
73.4713700053
  0
LINE
  5
2AB
100
AcDbEntity
  8
DIM
100
AcDbLine
 62
2
  6
CONTINUOUS
 10
88.5777940428
 20
75.4454528311
 11
88.5777940428
 21
73.4713700053
  0
LINE
  5
2AC
100
AcDbEntity
  8
DIM
100
AcDbLine
 62
2
  6
CONTINUOUS
 10
85.8772901951
 20
74.4713700053
 11
72.6629564127
 21
74.4713700053
  0
LINE
  5
2AD
100
AcDbEntity
  8
DIM
100
AcDbLine
 62
2
  6
CONTINUOUS
 10
72.6629564127
 20
74.4713700053
 11
87.227542119
 21
74.4713700053
  0
LINE
  5
2AE
100
AcDbEntity
  8
DIM
100
AcDbLine
 62
2
  6
CONTINUOUS
 10
88.5777940428
 20
74.4713700053
 11
91.5777940428
 21
74.4713700053
  0
LINE
  5
2AF
100
AcDbEntity
  8
DIM
100
AcDbLine
 62
2
  6
CONTINUOUS
 10
91.5777940428
 20
74.4713700053
 11
87.227542119
 21
74.4713700053
  0
INSERT
  5
2B0
100
AcDbEntity
  8
DIM
100
AcDbBlockReference
 62
2
  6
CONTINUOUS
  2
_OPEN
 10
85.8772901951
 20
74.4713700053
 41
1.9
 42
1.9
 43
1.9
  0
INSERT
  5
2B1
100
AcDbEntity
  8
DIM
100
AcDbBlockReference
 62
2
  6
CONTINUOUS
  2
_OPEN
 10
88.5777940428
 20
74.4713700053
 41
1.9
 42
1.9
 43
1.9
 50
180.0
  0
ENDBLK
  5
2B2
100
AcDbEntity
  8
0
  6
BYBLOCK
 62
0
100
AcDbBlockEnd
  0
BLOCK
  5
2B3
100
AcDbEntity
  8
DIM
100
AcDbBlockBegin
 62
2
  6
CONTINUOUS
  2
*D11
 70
65
 10
0.0
 20
0.0
  3
*D11
  1

  0
MTEXT
  5
2B4
100
AcDbEntity
  8
DIM
100
AcDbMText
 62
2
  6
CONTINUOUS
  7
STANDARD
 71
3
 72
1
 10
40.1606482939
 20
60.2664815869
 30
0.0
 11
1.0
 21
0.0
 31
0.0
  1
(2.1)
 40
3.2
 41
12.8
  0
LINE
  5
2B5
100
AcDbEntity
  8
DIM
100
AcDbLine
 62
2
  6
CONTINUOUS
 10
41.142195122
 20
51.532533226
 11
41.142195122
 21
57.2664815869
  0
LINE
  5
2B6
100
AcDbEntity
  8
DIM
100
AcDbLine
 62
2
  6
CONTINUOUS
 10
41.142195122
 20
56.2664815869
 11
27.3606482939
 21
56.2664815869
  0
LINE
  5
2B7
100
AcDbEntity
  8
DIM
100
AcDbLine
 62
2
  6
CONTINUOUS
 10
27.3606482939
 20
56.2664815869
 11
42.202195122
 21
56.2664815869
  0
LINE
  5
2B8
100
AcDbEntity
  8
DIM
100
AcDbLine
 62
2
  6
CONTINUOUS
 10
43.262195122
 20
56.2664815869
 11
46.262195122
 21
56.2664815869
  0
LINE
  5
2B9
100
AcDbEntity
  8
DIM
100
AcDbLine
 62
2
  6
CONTINUOUS
 10
46.262195122
 20
56.2664815869
 11
42.202195122
 21
56.2664815869
  0
INSERT
  5
2BA
100
AcDbEntity
  8
DIM
100
AcDbBlockReference
 62
2
  6
CONTINUOUS
  2
_OPEN
 10
41.142195122
 20
56.2664815869
 41
1.9
 42
1.9
 43
1.9
  0
INSERT
  5
2BB
100
AcDbEntity
  8
DIM
100
AcDbBlockReference
 62
2
  6
CONTINUOUS
  2
_OPEN
 10
43.262195122
 20
56.2664815869
 41
1.9
 42
1.9
 43
1.9
 50
180.0
  0
ENDBLK
  5
2BC
100
AcDbEntity
  8
0
  6
BYBLOCK
 62
0
100
AcDbBlockEnd
  0
ENDSEC
  0
SECTION
  2
ENTITIES
  0
DIMENSION
  5
2BD
100
AcDbEntity
  8
DIM
100
AcDbDimension
 62
2
  6
CONTINUOUS
  2
*D0
 10
57.162195122
 20
16.7006509526
 11
43.342190918
 21
16.7006509526
 70
160
  3
DIMSTYLE_1
100
AcDbAlignedDimension
 13
29.362195122
 23
23.412433226
 14
57.162195122
 24
23.412433226
100
AcDbRotatedDimension
  0
DIMENSION
  5
2BE
100
AcDbEntity
  8
DIM
100
AcDbDimension
 62
2
  6
CONTINUOUS
  2
*D1
 10
69.1570420027
 20
22.912433226
 11
69.1570420027
 21
76.0724346803
 70
160
  3
DIMSTYLE_2
100
AcDbAlignedDimension
 13
97.9315422262
 23
128.912433226
 14
91.8772901951
 24
22.912433226
 50
270.0
100
AcDbRotatedDimension
  0
DIMENSION
  5
2BF
100
AcDbEntity
  8
DIM
100
AcDbDimension
 62
2
  6
CONTINUOUS
  2
*D2
 10
204.6156111455
 20
26.912433226
 11
204.6156111455
 21
75.992432432
 70
160
  3
DIMSTYLE_2
100
AcDbAlignedDimension
 13
189.3772901951
 23
124.912433226
 14
179.592204899
 24
26.912433226
 50
270.0
100
AcDbRotatedDimension
  0
DIMENSION
  5
2C0
100
AcDbEntity
  8
DIM
100
AcDbDimension
 62
2
  6
CONTINUOUS
  2
*D3
 10
88.5777940428
 20
17.015412953
 11
143.7375419922
 21
17.015412953
 70
160
  3
DIMSTYLE_3
100
AcDbAlignedDimension
 13
198.5772901951
 23
57.8195400072
 14
88.5777940428
 24
75.9454528311
 50
180.0
100
AcDbRotatedDimension
  0
DIMENSION
  5
2C1
100
AcDbEntity
  8
DIM
100
AcDbDimension
 62
2
  6
CONTINUOUS
  2
*D4
 10
88.5777940428
 20
17.015412953
 11
81.127542119
 21
17.015412953
 70
160
  1
(<>)
  3
DIMSTYLE_4
100
AcDbAlignedDimension
 13
73.6772901951
 23
37.422433226
 14
88.5777940428
 24
75.9454528311
100
AcDbRotatedDimension
  0
DIMENSION
  5
2C2
100
AcDbEntity
  8
DIM
100
AcDbDimension
 62
2
  6
CONTINUOUS
  2
*D5
 10
27.0495311518
 20
41.912433226
 11
27.0495311518
 21
32.412433226
 70
160
  1
(<>)
  3
DIMSTYLE_1
100
AcDbAlignedDimension
 13
29.862195122
 23
22.912433226
 14
36.4517612695
 24
41.912433226
 50
90.0
100
AcDbRotatedDimension
  0
DIMENSION
  5
2C3
100
AcDbEntity
  8
DIM
100
AcDbDimension
 62
2
  6
CONTINUOUS
  2
*D6
 10
21.9578452613
 20
88.912433226
 11
21.9578452613
 21
55.912433226
 70
160
  1
(<>)
  3
DIMSTYLE_2
100
AcDbAlignedDimension
 13
29.862195122
 23
22.912433226
 14
32.2726005726
 24
88.912433226
 50
90.0
100
AcDbRotatedDimension
  0
DIMENSION
  5
2C4
100
AcDbEntity
  8
DIM
100
AcDbDimension
 62
2
  6
CONTINUOUS
  2
*D7
 10
15.3291874701
 20
123.112433226
 11
15.3291874701
 21
73.012433226
 70
160
  1
(<>)
  3
DIMSTYLE_2
100
AcDbAlignedDimension
 13
29.862195122
 23
22.912433226
 14
34.512095122
 24
123.112433226
 50
90.0
100
AcDbRotatedDimension
  0
DIMENSION
  5
2C5
100
AcDbEntity
  8
DIM
100
AcDbDimension
 62
2
  6
CONTINUOUS
  2
*D8
 10
43.262195122
 20
97.9437774604
 11
35.4131761151
 21
97.9437774604
 70
160
  1
(<>)
  3
DIMSTYLE_5
100
AcDbAlignedDimension
 13
41.262195122
 23
99.4437774604
 14
43.262195122
 24
133.6729326276
100
AcDbRotatedDimension
  0
DIMENSION
  5
2C6
100
AcDbEntity
  8
DIM
100
AcDbDimension
 62
2
  6
CONTINUOUS
  2
*D9
 10
36.012195122
 20
131.8210039882
 11
53.3862682927
 21
131.8210039882
 70
160
  1
(<>)
  3
DIMSTYLE_1
100
AcDbAlignedDimension
 13
43.262195122
 23
133.6729326276
 14
36.012195122
 24
124.612533226
 50
180.0
100
AcDbRotatedDimension
  0
DIMENSION
  5
2C7
100
AcDbEntity
  8
DIM
100
AcDbDimension
 62
2
  6
CONTINUOUS
  2
*D10
 10
88.5777940428
 20
74.4713700053
 11
79.0629564127
 21
74.4713700053
 70
160
  1
(<>)
  3
DIMSTYLE_6
100
AcDbAlignedDimension
 13
85.8772901951
 23
81.4119630001
 14
88.5777940428
 24
72.9713700053
100
AcDbRotatedDimension
  0
DIMENSION
  5
2C8
100
AcDbEntity
  8
DIM
100
AcDbDimension
 62
2
  6
CONTINUOUS
  2
*D11
 10
43.262195122
 20
56.2664815869
 11
33.7606482939
 21
56.2664815869
 70
160
  1
(<>)
  3
DIMSTYLE_7
100
AcDbAlignedDimension
 13
41.142195122
 23
51.032533226
 14
43.262195122
 24
22.2699292728
100
AcDbRotatedDimension
  0
LEADER
  5
2C9
100
AcDbEntity
  8
NOTES
100
AcDbLeader
 62
2
  6
CONTINUOUS
  3
STANDARD
 71
1
 72
0
 73
0
 74
0
 40
3.2
 41
10.24
 76
4
 10
46.9445361083
 20
94.6848671869
 30
0.0
 10
64.992329914
 20
136.9791173549
 30
0.0
 10
66.992329914
 20
136.9791173549
 30
0.0
340
2CA
211
1.0
221
0.0
231
0.0
1001
ACAD
1000
DSTYLE
1002
{
1070
77
1070
1
1002
}
  0
MTEXT
  5
2CA
102
{ACAD_REACTORS
330
2C9
102
}
100
AcDbEntity
  8
NOTES
100
AcDbMText
 62
2
  6
CONTINUOUS
  7
STANDARD
 71
1
 72
1
 10
66.992329914
 20
145.7791173549
 30
0.0
 11
1.0
 21
0.0
 31
0.0
  1
コネクタ\PCONNECTOR
 40
3.2
 41
23.04
  0
LEADER
  5
2CB
100
AcDbEntity
  8
NOTES
100
AcDbLeader
 62
2
  6
CONTINUOUS
  3
STANDARD
 71
1
 72
0
 73
0
 74
1
 75
1
 40
3.2
 41
17.92
 76
4
 10
34.462195122
 20
123.3567859708
 30
0.0
 10
33.0239945079
 20
135.2665493889
 30
0.0
 10
31.0239945079
 20
135.2665493889
 30
0.0
340
2CC
211
1.0
221
0.0
231
0.0
1001
ACAD
1000
DSTYLE
1002
{
1070
77
1070
1
1002
}
  0
MTEXT
  5
2CC
102
{ACAD_REACTORS
330
2CB
102
}
100
AcDbEntity
  8
NOTES
100
AcDbMText
 62
2
  6
CONTINUOUS
  7
STANDARD
 71
3
 72
1
 10
31.0239945079
 20
144.0665493889
 30
0.0
 11
1.0
 21
0.0
 31
0.0
  1
6-動作表示灯\P6-INDICATOR
 40
3.2
 41
28.16
  0
LEADER
  5
2CD
100
AcDbEntity
  8
NOTES
100
AcDbLeader
 62
2
  6
CONTINUOUS
  3
STANDARD
 71
1
 72
0
 73
0
 74
0
 40
3.2
 41
5.12
 76
4
 10
48.3733748586
 20
36.6030321493
 30
0.0
 10
57.698785772
 20
5.2126318078
 30
0.0
 10
59.698785772
 20
5.2126318078
 30
0.0
340
2CE
211
1.0
221
0.0
231
0.0
1001
ACAD
1000
DSTYLE
1002
{
1070
77
1070
1
1002
}
  0
MTEXT
  5
2CE
102
{ACAD_REACTORS
330
2CD
102
}
100
AcDbEntity
  8
NOTES
100
AcDbMText
 62
2
  6
CONTINUOUS
  7
STANDARD
 71
1
 72
1
 10
59.698785772
 20
14.0126318078
 30
0.0
 11
1.0
 21
0.0
 31
0.0
  1
端子\PTERMINAL
 40
3.2
 41
20.48
  0
LINE
  5
2CF
100
AcDbEntity
  8
0
100
AcDbLine
 62
7
  6
CONTINUOUS
 10
0.0
 20
0.0
 11
210.0
 21
0.0
  0
LINE
  5
2D0
100
AcDbEntity
  8
0
100
AcDbLine
 62
7
  6
CONTINUOUS
 10
0.0
 20
0.0
 11
0.0
 21
297.0
  0
LINE
  5
2D1
100
AcDbEntity
  8
DEFAULT_1
100
AcDbLine
 62
2
  6
CENTER
 10
36.4517612695
 20
41.912433226
 11
46.4359889032
 21
41.912433226
  0
LINE
  5
2D2
100
AcDbEntity
  8
0
100
AcDbLine
 62
7
  6
CONTINUOUS
 10
210.0
 20
0.0
 11
210.0
 21
297.0
  0
LINE
  5
2D3
100
AcDbEntity
  8
0
100
AcDbLine
 62
7
  6
CONTINUOUS
 10
0.0
 20
297.0
 11
210.0
 21
297.0
  0
LINE
  5
2D4
100
AcDbEntity
  8
0
100
AcDbLine
 62
7
  6
CONTINUOUS
 10
56.662195122
 20
22.912433226
 11
29.862195122
 21
22.912433226
  0
LINE
  5
2D5
100
AcDbEntity
  8
0
100
AcDbLine
 62
7
  6
CONTINUOUS
 10
32.762195122
 20
23.012433226
 11
53.762195122
 21
23.012433226
  0
LINE
  5
2D6
100
AcDbEntity
  8
0
100
AcDbLine
 62
7
  6
CONTINUOUS
 10
53.062195122
 20
26.912433226
 11
33.462195122
 21
26.912433226
  0
LINE
  5
2D7
100
AcDbEntity
  8
0
100
AcDbLine
 62
7
  6
CONTINUOUS
 10
37.962195122
 20
31.212433226
 11
45.162195122
 21
31.212433226
  0
LINE
  5
2D8
100
AcDbEntity
  8
00_COMPONENTS
100
AcDbLine
 62
7
  6
CONTINUOUS
 10
37.762195122
 20
31.777433226
 11
42.782195122
 21
31.777433226
  0
LINE
  5
2D9
100
AcDbEntity
  8
00_COMPONENTS
100
AcDbLine
 62
7
  6
CONTINUOUS
 10
43.057195122
 20
31.782433226
 11
39.257195122
 21
31.782433226
  0
LINE
  5
2DA
100
AcDbEntity
  8
0
100
AcDbLine
 62
7
  6
CONTINUOUS
 10
46.1151934891
 20
31.912433226
 11
43.540509626
 21
31.912433226
  0
LINE
  5
2DB
100
AcDbEntity
  8
0
100
AcDbLine
 62
7
  6
CONTINUOUS
 10
37.4235554531
 20
31.912433226
 11
37.262195122
 21
31.912433226
  0
LINE
  5
2DC
100
AcDbEntity
  8
00_COMPONENTS
100
AcDbLine
 62
7
  6
CONTINUOUS
 10
46.162195122
 20
32.7030321493
 11
44.0482041302
 21
32.7030321493
  0
LINE
  5
2DD
100
AcDbEntity
  8
00_COMPONENTS
100
AcDbLine
 62
7
  6
CONTINUOUS
 10
46.162195122
 20
33.8577326876
 11
44.057195122
 21
33.8577326876
  0
LINE
  5
2DE
100
AcDbEntity
  8
00_COMPONENTS
100
AcDbLine
 62
7
  6
CONTINUOUS
 10
42.5427875701
 20
34.6677208414
 11
43.0257504832
 21
34.797130364
  0
LINE
  5
2DF
100
AcDbEntity
  8
AXIS
100
AcDbLine
 62
2
  6
CENTER
 10
41.142195122
 20
34.292433226
 11
39.642095122
 21
34.292433226
  0
LINE
  5
2E0
100
AcDbEntity
  8
AXIS
100
AcDbLine
 62
2
  6
CENTER
 10
41.142195122
 20
34.292433226
 11
42.642295122
 21
34.292433226
  0
LINE
  5
2E1
100
AcDbEntity
  8
00_COMPONENTS
100
AcDbLine
 62
7
  6
CONTINUOUS
 10
45.332195122
 20
35.432433226
 11
44.057195122
 21
35.432433226
  0
LINE
  5
2E2
100
AcDbEntity
  8
00_COMPONENTS
100
AcDbLine
 62
7
  6
CONTINUOUS
 10
46.162195122
 20
36.1671337644
 11
45.832195122
 21
36.1671337644
  0
LINE
  5
2E3
100
AcDbEntity
  8
00_COMPONENTS
100
AcDbLine
 62
7
  6
CONTINUOUS
 10
44.1358282268
 20
36.332433226
 11
44.057195122
 21
36.332433226
  0
LINE
  5
2E4
100
AcDbEntity
  8
00_COMPONENTS
100
AcDbLine
 62
7
  6
CONTINUOUS
 10
37.352195122
 20
36.522433226
 11
52.352195122
 21
36.522433226
  0
LINE
  5
2E5
100
AcDbEntity
  8
0
100
AcDbLine
 62
7
  6
CONTINUOUS
 10
57.362195122
 20
36.912433226
 11
57.162195122
 21
36.912433226
  0
LINE
  5
2E6
100
AcDbEntity
  8
0
100
AcDbLine
 62
7
  6
CONTINUOUS
 10
29.162195122
 20
36.912433226
 11
29.362195122
 21
36.912433226
  0
LINE
  5
2E7
100
AcDbEntity
  8
00_COMPONENTS
100
AcDbLine
 62
7
  6
CONTINUOUS
 10
41.9860740437
 20
37.322433226
 11
45.052195122
 21
37.322433226
  0
LINE
  5
2E8
100
AcDbEntity
  8
00_COMPONENTS
100
AcDbLine
 62
7
  6
CONTINUOUS
 10
42.777195122
 20
37.422433226
 11
44.777195122
 21
37.422433226
  0
LINE
  5
2E9
100
AcDbEntity
  8
00_COMPONENTS
100
AcDbLine
 62
7
  6
CONTINUOUS
 10
49.452195122
 20
37.997433226
 11
50.627195122
 21
37.997433226
  0
LINE
  5
2EA
100
AcDbEntity
  8
00_COMPONENTS
100
AcDbLine
 62
7
  6
CONTINUOUS
 10
43.0257504832
 20
33.7877360881
 11
42.5427875701
 21
33.9171456106
  0
LINE
  5
2EB
100
AcDbEntity
  8
00_COMPONENTS
100
AcDbLine
 62
7
  6
CONTINUOUS
 10
49.452195122
 20
38.197433226
 11
50.627195122
 21
38.197433226
  0
LINE
  5
2EC
100
AcDbEntity
  8
AXIS
100
AcDbLine
 62
2
  6
CENTER
 10
40.202195122
 20
39.572433226
 11
38.702095122
 21
39.572433226
  0
LINE
  5
2ED
100
AcDbEntity
  8
AXIS
100
AcDbLine
 62
2
  6
CENTER
 10
40.202195122
 20
39.572433226
 11
41.702295122
 21
39.572433226
  0
LINE
  5
2EE
100
AcDbEntity
  8
00_COMPONENTS
100
AcDbLine
 62
7
  6
CONTINUOUS
 10
49.452195122
 20
40.547433226
 11
50.627195122
 21
40.547433226
  0
LINE
  5
2EF
100
AcDbEntity
  8
00_COMPONENTS
100
AcDbLine
 62
7
  6
CONTINUOUS
 10
49.452195122
 20
40.747433226
 11
50.627195122
 21
40.747433226
  0
LINE
  5
2F0
100
AcDbEntity
  8
00_COMPONENTS
100
AcDbLine
 62
7
  6
CONTINUOUS
 10
42.777195122
 20
41.322433226
 11
44.777195122
 21
41.322433226
  0
LINE
  5
2F1
100
AcDbEntity
  8
00_COMPONENTS
100
AcDbLine
 62
7
  6
CONTINUOUS
 10
41.9860740437
 20
41.422433226
 11
45.052195122
 21
41.422433226
  0
LINE
  5
2F2
100
AcDbEntity
  8
00_COMPONENTS
100
AcDbLine
 62
7
  6
CONTINUOUS
 10
41.9860740437
 20
42.402433226
 11
45.052195122
 21
42.402433226
  0
LINE
  5
2F3
100
AcDbEntity
  8
00_COMPONENTS
100
AcDbLine
 62
7
  6
CONTINUOUS
 10
42.777195122
 20
42.502433226
 11
44.777195122
 21
42.502433226
  0
LINE
  5
2F4
100
AcDbEntity
  8
0
100
AcDbLine
 62
7
  6
CONTINUOUS
 10
57.362195122
 20
42.912433226
 11
57.162195122
 21
42.912433226
  0
LINE
  5
2F5
100
AcDbEntity
  8
0
100
AcDbLine
 62
7
  6
CONTINUOUS
 10
29.162195122
 20
42.912433226
 11
29.362195122
 21
42.912433226
  0
LINE
  5
2F6
100
AcDbEntity
  8
00_COMPONENTS
100
AcDbLine
 62
7
  6
CONTINUOUS
 10
49.452195122
 20
43.077433226
 11
50.627195122
 21
43.077433226
  0
LINE
  5
2F7
100
AcDbEntity
  8
00_COMPONENTS
100
AcDbLine
 62
7
  6
CONTINUOUS
 10
49.452195122
 20
43.277433226
 11
50.627195122
 21
43.277433226
  0
LINE
  5
2F8
100
AcDbEntity
  8
AXIS
100
AcDbLine
 62
2
  6
CENTER
 10
40.202195122
 20
44.652433226
 11
38.702095122
 21
44.652433226
  0
LINE
  5
2F9
100
AcDbEntity
  8
AXIS
100
AcDbLine
 62
2
  6
CENTER
 10
40.202195122
 20
44.652433226
 11
41.702295122
 21
44.652433226
  0
LINE
  5
2FA
100
AcDbEntity
  8
00_COMPONENTS
100
AcDbLine
 62
7
  6
CONTINUOUS
 10
50.627195122
 20
45.627433226
 11
49.452195122
 21
45.627433226
  0
LINE
  5
2FB
100
AcDbEntity
  8
00_COMPONENTS
100
AcDbLine
 62
7
  6
CONTINUOUS
 10
49.452195122
 20
45.827433226
 11
50.627195122
 21
45.827433226
  0
LINE
  5
2FC
100
AcDbEntity
  8
00_COMPONENTS
100
AcDbLine
 62
7
  6
CONTINUOUS
 10
39.5741964839
 20
35.3654571172
 11
42.2152190132
 21
32.724434588
  0
LINE
  5
2FD
100
AcDbEntity
  8
00_COMPONENTS
100
AcDbLine
 62
7
  6
CONTINUOUS
 10
40.1168902892
 20
35.3177380587
 11
39.7633368986
 21
35.6712914493
  0
LINE
  5
2FE
100
AcDbEntity
  8
00_COMPONENTS
100
AcDbLine
 62
7
  6
CONTINUOUS
 10
42.71019376
 20
33.2194093348
 11
40.398562094
 21
35.5310410008
  0
LINE
  5
2FF
100
AcDbEntity
  8
00_COMPONENTS
100
AcDbLine
 62
7
  6
CONTINUOUS
 10
42.777195122
 20
46.402433226
 11
44.777195122
 21
46.402433226
  0
LINE
  5
300
100
AcDbEntity
  8
00_COMPONENTS
100
AcDbLine
 62
7
  6
CONTINUOUS
 10
41.9860740437
 20
46.502433226
 11
45.052195122
 21
46.502433226
  0
LINE
  5
301
100
AcDbEntity
  8
00_COMPONENTS
100
AcDbLine
 62
7
  6
CONTINUOUS
 10
37.352195122
 20
47.302433226
 11
52.352195122
 21
47.302433226
  0
LINE
  5
302
100
AcDbEntity
  8
00_COMPONENTS
100
AcDbLine
 62
7
  6
CONTINUOUS
 10
44.1358282268
 20
47.492433226
 11
44.057195122
 21
47.492433226
  0
LINE
  5
303
100
AcDbEntity
  8
00_COMPONENTS
100
AcDbLine
 62
7
  6
CONTINUOUS
 10
44.057195122
 20
48.392433226
 11
45.332195122
 21
48.392433226
  0
LINE
  5
304
100
AcDbEntity
  8
AXIS
100
AcDbLine
 62
2
  6
CENTER
 10
41.142195122
 20
49.532433226
 11
39.642095122
 21
49.532433226
  0
LINE
  5
305
100
AcDbEntity
  8
AXIS
100
AcDbLine
 62
2
  6
CENTER
 10
41.142195122
 20
49.532433226
 11
42.642295122
 21
49.532433226
  0
LINE
  5
306
100
AcDbEntity
  8
0
100
AcDbLine
 62
7
  6
CONTINUOUS
 10
46.162195122
 20
49.712433226
 11
44.057195122
 21
49.712433226
  0
LINE
  5
307
100
AcDbEntity
  8
00_COMPONENTS
100
AcDbLine
 62
7
  6
CONTINUOUS
 10
43.0257504832
 20
49.0277360881
 11
42.5427875701
 21
49.1571456106
  0
LINE
  5
308
100
AcDbEntity
  8
00_COMPONENTS
100
AcDbLine
 62
7
  6
CONTINUOUS
 10
37.262195122
 20
39.072433226
 11
37.352195122
 21
38.982433226
  0
LINE
  5
309
100
AcDbEntity
  8
00_COMPONENTS
100
AcDbLine
 62
7
  6
CONTINUOUS
 10
37.262195122
 20
44.152433226
 11
37.352195122
 21
44.062433226
  0
LINE
  5
30A
100
AcDbEntity
  8
00_COMPONENTS
100
AcDbLine
 62
7
  6
CONTINUOUS
 10
42.5427875701
 20
49.9077208414
 11
43.0257504832
 21
50.037130364
  0
LINE
  5
30B
100
AcDbEntity
  8
0
100
AcDbLine
 62
7
  6
CONTINUOUS
 10
46.162195122
 20
51.2337535696
 11
44.0355309368
 21
51.2337535696
  0
LINE
  5
30C
100
AcDbEntity
  8
0
100
AcDbLine
 62
7
  6
CONTINUOUS
 10
46.1538767195
 20
51.7337535696
 11
43.7712620938
 21
51.7337535696
  0
LINE
  5
30D
100
AcDbEntity
  8
0
100
AcDbLine
 62
7
  6
CONTINUOUS
 10
37.3027997229
 20
51.7337535696
 11
37.262195122
 21
51.7337535696
  0
LINE
  5
30E
100
AcDbEntity
  8
00_COMPONENTS
100
AcDbLine
 62
7
  6
CONTINUOUS
 10
43.057195122
 20
52.042433226
 11
39.257195122
 21
52.042433226
  0
LINE
  5
30F
100
AcDbEntity
  8
00_COMPONENTS
100
AcDbLine
 62
7
  6
CONTINUOUS
 10
37.762195122
 20
52.047433226
 11
42.782195122
 21
52.047433226
  0
LINE
  5
310
100
AcDbEntity
  8
0
100
AcDbLine
 62
7
  6
CONTINUOUS
 10
37.262195122
 20
52.212433226
 11
45.9620171171
 21
52.212433226
  0
LINE
  5
311
100
AcDbEntity
  8
0
100
AcDbLine
 62
7
  6
CONTINUOUS
 10
45.162195122
 20
52.612433226
 11
37.962195122
 21
52.612433226
  0
LINE
  5
312
100
AcDbEntity
  8
00_COMPONENTS
100
AcDbLine
 62
7
  6
CONTINUOUS
 10
39.5741964839
 20
50.6054571172
 11
42.2152190132
 21
47.964434588
  0
LINE
  5
313
100
AcDbEntity
  8
00_COMPONENTS
100
AcDbLine
 62
7
  6
CONTINUOUS
 10
40.1168902892
 20
50.5577380587
 11
39.7633368986
 21
50.9112914493
  0
LINE
  5
314
100
AcDbEntity
  8
00_COMPONENTS
100
AcDbLine
 62
7
  6
CONTINUOUS
 10
42.71019376
 20
48.4594093348
 11
40.398562094
 21
50.7710410008
  0
LINE
  5
315
100
AcDbEntity
  8
00_BLANKED_OBJECTS
100
AcDbLine
 62
7
  6
CONTINUOUS
 10
29.162195122
 20
36.912433226
 11
29.162195122
 21
42.912433226
  0
LINE
  5
316
100
AcDbEntity
  8
00_BLANKED_OBJECTS
100
AcDbLine
 62
7
  6
CONTINUOUS
 10
29.162195122
 20
108.912433226
 11
29.162195122
 21
114.912433226
  0
LINE
  5
317
100
AcDbEntity
  8
0
100
AcDbLine
 62
7
  6
CONTINUOUS
 10
29.362195122
 20
23.412433226
 11
29.362195122
 21
128.412433226
  0
LINE
  5
318
100
AcDbEntity
  8
0
100
AcDbLine
 62
7
  6
CONTINUOUS
 10
29.3727763249
 20
103.6126292574
 11
29.3728200964
 21
128.3782298749
  0
LINE
  5
319
100
AcDbEntity
  8
0
100
AcDbLine
 62
7
  6
CONTINUOUS
 10
30.212195122
 20
103.412433226
 11
30.212195122
 21
103.212433226
  0
LINE
  5
31A
100
AcDbEntity
  8
00_COMPONENTS
100
AcDbLine
 62
7
  6
CONTINUOUS
 10
40.637497984
 20
36.1759885873
 11
40.7669075066
 21
35.6930256741
  0
LINE
  5
31B
100
AcDbEntity
  8
00_COMPONENTS
100
AcDbLine
 62
7
  6
CONTINUOUS
 10
35.4963827873
 20
90.5040921781
 11
35.5295477832
 21
87.2042588364
  0
LINE
  5
31C
100
AcDbEntity
  8
0
100
AcDbLine
 62
7
  6
CONTINUOUS
 10
32.762195122
 20
23.012433226
 11
32.762195122
 21
26.212433226
  0
LINE
  5
31D
100
AcDbEntity
  8
DEFAULT_2
100
AcDbLine
 62
8
  6
HIDDEN
 10
34.462195122
 20
123.512433226
 11
34.462195122
 21
122.712433226
  0
LINE
  5
31E
100
AcDbEntity
  8
00_COMPONENTS
100
AcDbLine
 62
7
  6
CONTINUOUS
 10
40.637497984
 20
51.4159885873
 11
40.7669075066
 21
50.9330256741
  0
LINE
  5
31F
100
AcDbEntity
  8
00_COMPONENTS
100
AcDbLine
 62
7
  6
CONTINUOUS
 10
36.9463095587
 20
90.5186646763
 11
36.9794745546
 21
87.2188313346
  0
LINE
  5
320
100
AcDbEntity
  8
00_COMPONENTS
100
AcDbLine
 62
7
  6
CONTINUOUS
 10
37.4819057963
 20
86.9794414872
 11
37.4438278144
 21
90.7681045225
  0
LINE
  5
321
100
AcDbEntity
  8
00_COMPONENTS
100
AcDbLine
 62
7
  6
CONTINUOUS
 10
38.8949560979
 20
85.6880046111
 11
38.8889260986
 21
86.2879743096
  0
LINE
  5
322
100
AcDbEntity
  8
00_COMPONENTS
100
AcDbLine
 62
7
  6
CONTINUOUS
 10
38.8366661051
 20
91.4877116966
 11
38.8306361058
 21
92.087681395
  0
LINE
  5
323
100
AcDbEntity
  8
00_COMPONENTS
100
AcDbLine
 62
7
  6
CONTINUOUS
 10
39.3080008953
 20
84.3920902639
 11
39.3039248891
 21
84.7976425905
  0
LINE
  5
324
100
AcDbEntity
  8
00_COMPONENTS
100
AcDbLine
 62
7
  6
CONTINUOUS
 10
39.2216269126
 20
92.9860834147
 11
39.2175509064
 21
93.3916357413
  0
LINE
  5
325
100
AcDbEntity
  8
DEFAULT_1
100
AcDbLine
 62
2
  6
CENTER
 10
36.012195122
 20
123.112433226
 11
36.012195122
 21
121.612333226
  0
LINE
  5
326
100
AcDbEntity
  8
DEFAULT_1
100
AcDbLine
 62
2
  6
CENTER
 10
36.012195122
 20
123.112433226
 11
36.012195122
 21
124.612533226
  0
LINE
  5
327
100
AcDbEntity
  8
0
100
AcDbLine
 62
7
  6
CONTINUOUS
 10
36.962195122
 20
51.612433226
 11
36.962195122
 21
32.212433226
  0
LINE
  5
328
100
AcDbEntity
  8
00_COMPONENTS
100
AcDbLine
 62
7
  6
CONTINUOUS
 10
37.262195122
 20
52.3251377869
 11
37.262195122
 21
31.4997286651
  0
LINE
  5
329
100
AcDbEntity
  8
00_COMPONENTS
100
AcDbLine
 62
7
  6
CONTINUOUS
 10
37.352195122
 20
47.302433226
 11
37.352195122
 21
36.522433226
  0
LINE
  5
32A
100
AcDbEntity
  8
0
100
AcDbLine
 62
7
  6
CONTINUOUS
 10
37.562195122
 20
52.527791977
 11
37.562195122
 21
52.212433226
  0
LINE
  5
32B
100
AcDbEntity
  8
DEFAULT_2
100
AcDbLine
 62
8
  6
HIDDEN
 10
37.562195122
 20
122.712433226
 11
37.562195122
 21
123.512433226
  0
LINE
  5
32C
100
AcDbEntity
  8
00_COMPONENTS
100
AcDbLine
 62
7
  6
CONTINUOUS
 10
37.732195122
 20
36.522433226
 11
37.732195122
 21
35.932433226
  0
LINE
  5
32D
100
AcDbEntity
  8
00_COMPONENTS
100
AcDbLine
 62
7
  6
CONTINUOUS
 10
37.732195122
 20
47.302433226
 11
37.732195122
 21
47.892433226
  0
LINE
  5
32E
100
AcDbEntity
  8
DEFAULT_2
100
AcDbLine
 62
8
  6
HIDDEN
 10
38.062195122
 20
115.712433226
 11
38.062195122
 21
114.912433226
  0
LINE
  5
32F
100
AcDbEntity
  8
00_COMPONENTS
100
AcDbLine
 62
7
  6
CONTINUOUS
 10
38.232195122
 20
35.432433226
 11
38.232195122
 21
32.777433226
  0
LINE
  5
330
100
AcDbEntity
  8
00_COMPONENTS
100
AcDbLine
 62
7
  6
CONTINUOUS
 10
38.232195122
 20
48.392433226
 11
38.232195122
 21
51.047433226
  0
LINE
  5
331
100
AcDbEntity
  8
00_COMPONENTS
100
AcDbLine
 62
7
  6
CONTINUOUS
 10
38.257195122
 20
32.782433226
 11
38.257195122
 21
36.522433226
  0
LINE
  5
332
100
AcDbEntity
  8
00_COMPONENTS
100
AcDbLine
 62
7
  6
CONTINUOUS
 10
38.257195122
 20
47.302433226
 11
38.257195122
 21
51.042433226
  0
LINE
  5
333
100
AcDbEntity
  8
0
100
AcDbLine
 62
7
  6
CONTINUOUS
 10
38.562195122
 20
52.612433226
 11
38.562195122
 21
52.212433226
  0
LINE
  5
334
100
AcDbEntity
  8
DEFAULT_1
100
AcDbLine
 62
2
  6
CENTER
 10
38.912195122
 20
115.312433226
 11
38.912195122
 21
113.812333226
  0
LINE
  5
335
100
AcDbEntity
  8
DEFAULT_1
100
AcDbLine
 62
2
  6
CENTER
 10
38.912195122
 20
115.312433226
 11
38.912195122
 21
116.812533226
  0
LINE
  5
336
100
AcDbEntity
  8
00_COMPONENTS
100
AcDbLine
 62
7
  6
CONTINUOUS
 10
39.052195122
 20
45.6155012402
 11
39.052195122
 21
43.6893652118
  0
LINE
  5
337
100
AcDbEntity
  8
00_COMPONENTS
100
AcDbLine
 62
7
  6
CONTINUOUS
 10
39.052195122
 20
40.5355012402
 11
39.052195122
 21
38.6093652118
  0
LINE
  5
338
100
AcDbEntity
  8
DEFAULT_2
100
AcDbLine
 62
8
  6
HIDDEN
 10
39.762195122
 20
114.912433226
 11
39.762195122
 21
115.712433226
  0
LINE
  5
339
100
AcDbEntity
  8
00_COMPONENTS
100
AcDbLine
 62
7
  6
CONTINUOUS
 10
39.8099856438
 20
84.1971253638
 11
39.806587689
 21
84.5352132848
  0
LINE
  5
33A
100
AcDbEntity
  8
00_COMPONENTS
100
AcDbLine
 62
7
  6
CONTINUOUS
 10
39.7189136102
 20
93.2585627192
 11
39.7155156554
 21
93.5966506402
  0
LINE
  5
33B
100
AcDbEntity
  8
00_COMPONENTS
100
AcDbLine
 62
7
  6
CONTINUOUS
 10
39.9358703143
 20
96.5475435021
 11
39.9384172808
 21
96.2941267594
  0
LINE
  5
33C
100
AcDbEntity
  8
00_COMPONENTS
100
AcDbLine
 62
7
  6
CONTINUOUS
 10
42.435744058
 20
96.572668499
 11
42.4382910246
 21
96.3192517563
  0
LINE
  5
33D
100
AcDbEntity
  8
00_COMPONENTS
100
AcDbLine
 62
7
  6
CONTINUOUS
 10
42.7153641479
 20
93.6268006365
 11
42.7202641698
 21
93.139260825
  0
LINE
  5
33E
100
AcDbEntity
  8
00_COMPONENTS
100
AcDbLine
 62
7
  6
CONTINUOUS
 10
42.8064361814
 20
84.5653632811
 11
42.8098341362
 21
84.2272753601
  0
LINE
  5
33F
100
AcDbEntity
  8
00_COMPONENTS
100
AcDbLine
 62
7
  6
CONTINUOUS
 10
43.0173589969
 20
93.4298257366
 11
43.0374589944
 21
91.4299267416
  0
LINE
  5
340
100
AcDbEntity
  8
00_COMPONENTS
100
AcDbLine
 62
7
  6
CONTINUOUS
 10
43.303722879
 20
84.8378425855
 11
43.3077988852
 21
84.432290259
  0
LINE
  5
341
100
AcDbEntity
  8
00_COMPONENTS
100
AcDbLine
 62
7
  6
CONTINUOUS
 10
43.6886836866
 20
86.3362143037
 11
43.6947136858
 21
85.7362446052
  0
LINE
  5
342
100
AcDbEntity
  8
AXIS
100
AcDbLine
 62
2
  6
CENTER
 10
40.202195122
 20
44.652433226
 11
40.202195122
 21
41.2030516556
  0
LINE
  5
343
100
AcDbEntity
  8
AXIS
100
AcDbLine
 62
2
  6
CENTER
 10
40.202195122
 20
39.572433226
 11
40.202195122
 21
38.072333226
  0
LINE
  5
344
100
AcDbEntity
  8
AXIS
100
AcDbLine
 62
2
  6
CENTER
 10
40.202195122
 20
39.572433226
 11
40.202195122
 21
41.072533226
  0
LINE
  5
345
100
AcDbEntity
  8
AXIS
100
AcDbLine
 62
2
  6
CENTER
 10
40.202195122
 20
44.652433226
 11
40.202195122
 21
46.152533226
  0
LINE
  5
346
100
AcDbEntity
  8
AXIS
100
AcDbLine
 62
2
  6
CENTER
 10
41.142195122
 20
49.532433226
 11
41.142195122
 21
48.032333226
  0
LINE
  5
347
100
AcDbEntity
  8
AXIS
100
AcDbLine
 62
2
  6
CENTER
 10
41.142195122
 20
34.292433226
 11
41.142195122
 21
32.792333226
  0
LINE
  5
348
100
AcDbEntity
  8
AXIS
100
AcDbLine
 62
2
  6
CENTER
 10
41.142195122
 20
34.292433226
 11
41.142195122
 21
35.792533226
  0
LINE
  5
349
100
AcDbEntity
  8
AXIS
100
AcDbLine
 62
2
  6
CENTER
 10
41.142195122
 20
49.532433226
 11
41.142195122
 21
51.032533226
  0
LINE
  5
34A
100
AcDbEntity
  8
03_ALL_AXES
100
AcDbLine
 62
2
  6
CENTER
 10
41.262195122
 20
88.912433226
 11
41.262195122
 21
79.9228386767
  0
LINE
  5
34B
100
AcDbEntity
  8
03_ALL_AXES
100
AcDbLine
 62
2
  6
CENTER
 10
41.262195122
 20
88.912433226
 11
41.262195122
 21
97.9020277754
  0
LINE
  5
34C
100
AcDbEntity
  8
00_COMPONENTS
100
AcDbLine
 62
7
  6
CONTINUOUS
 10
41.352195122
 20
45.6155012402
 11
41.352195122
 21
43.6893652118
  0
LINE
  5
34D
100
AcDbEntity
  8
00_COMPONENTS
100
AcDbLine
 62
7
  6
CONTINUOUS
 10
41.352195122
 20
40.5355012402
 11
41.352195122
 21
38.6093652118
  0
LINE
  5
34E
100
AcDbEntity
  8
00_COMPONENTS
100
AcDbLine
 62
7
  6
CONTINUOUS
 10
42.2579663798
 20
36.522433226
 11
42.2579663798
 21
37.322433226
  0
LINE
  5
34F
100
AcDbEntity
  8
00_COMPONENTS
100
AcDbLine
 62
7
  6
CONTINUOUS
 10
42.2579663798
 20
41.422433226
 11
42.2579663798
 21
42.402433226
  0
LINE
  5
350
100
AcDbEntity
  8
00_COMPONENTS
100
AcDbLine
 62
7
  6
CONTINUOUS
 10
42.2579663798
 20
46.502433226
 11
42.2579663798
 21
47.302433226
  0
LINE
  5
351
100
AcDbEntity
  8
00_COMPONENTS
100
AcDbLine
 62
7
  6
CONTINUOUS
 10
42.6708853513
 20
47.302433226
 11
42.6708853513
 21
46.502433226
  0
LINE
  5
352
100
AcDbEntity
  8
00_COMPONENTS
100
AcDbLine
 62
7
  6
CONTINUOUS
 10
42.6708853513
 20
42.402433226
 11
42.6708853513
 21
41.422433226
  0
LINE
  5
353
100
AcDbEntity
  8
00_COMPONENTS
100
AcDbLine
 62
7
  6
CONTINUOUS
 10
42.6708853513
 20
37.322433226
 11
42.6708853513
 21
36.522433226
  0
LINE
  5
354
100
AcDbEntity
  8
00_COMPONENTS
100
AcDbLine
 62
7
  6
CONTINUOUS
 10
42.702195122
 20
37.322433226
 11
42.702195122
 21
41.422433226
  0
LINE
  5
355
100
AcDbEntity
  8
00_COMPONENTS
100
AcDbLine
 62
7
  6
CONTINUOUS
 10
42.702195122
 20
42.402433226
 11
42.702195122
 21
46.502433226
  0
LINE
  5
356
100
AcDbEntity
  8
00_COMPONENTS
100
AcDbLine
 62
7
  6
CONTINUOUS
 10
42.777195122
 20
46.402433226
 11
42.777195122
 21
42.502433226
  0
LINE
  5
357
100
AcDbEntity
  8
00_COMPONENTS
100
AcDbLine
 62
7
  6
CONTINUOUS
 10
42.777195122
 20
41.322433226
 11
42.777195122
 21
37.422433226
  0
LINE
  5
358
100
AcDbEntity
  8
AXIS
100
AcDbLine
 62
2
  6
CENTER
 10
43.262195122
 20
22.2699292728
 11
43.262195122
 21
133.6729326276
  0
LINE
  5
359
100
AcDbEntity
  8
00_COMPONENTS
100
AcDbLine
 62
7
  6
CONTINUOUS
 10
45.0423829887
 20
90.9500519904
 11
45.0815219772
 21
87.0558214778
  0
LINE
  5
35A
100
AcDbEntity
  8
00_COMPONENTS
100
AcDbLine
 62
7
  6
CONTINUOUS
 10
45.579040233
 20
87.3052613239
 11
45.5458752371
 21
90.6050946657
  0
LINE
  5
35B
100
AcDbEntity
  8
00_COMPONENTS
100
AcDbLine
 62
7
  6
CONTINUOUS
 10
47.0289670043
 20
87.3198338222
 11
46.9958020084
 21
90.6196671639
  0
LINE
  5
35C
100
AcDbEntity
  8
DEFAULT_2
100
AcDbLine
 62
8
  6
HIDDEN
 10
43.862195122
 20
115.712433226
 11
43.862195122
 21
114.912433226
  0
LINE
  5
35D
100
AcDbEntity
  8
00_COMPONENTS
100
AcDbLine
 62
7
  6
CONTINUOUS
 10
44.057195122
 20
32.782433226
 11
44.057195122
 21
36.522433226
  0
LINE
  5
35E
100
AcDbEntity
  8
00_COMPONENTS
100
AcDbLine
 62
7
  6
CONTINUOUS
 10
44.057195122
 20
47.302433226
 11
44.057195122
 21
51.042433226
  0
LINE
  5
35F
100
AcDbEntity
  8
DEFAULT_1
100
AcDbLine
 62
2
  6
CENTER
 10
44.712195122
 20
115.312433226
 11
44.712195122
 21
113.812333226
  0
LINE
  5
360
100
AcDbEntity
  8
DEFAULT_1
100
AcDbLine
 62
2
  6
CENTER
 10
44.712195122
 20
115.312433226
 11
44.712195122
 21
116.812533226
  0
LINE
  5
361
100
AcDbEntity
  8
00_COMPONENTS
100
AcDbLine
 62
7
  6
CONTINUOUS
 10
44.777195122
 20
37.422433226
 11
44.777195122
 21
41.322433226
  0
LINE
  5
362
100
AcDbEntity
  8
00_COMPONENTS
100
AcDbLine
 62
7
  6
CONTINUOUS
 10
44.777195122
 20
42.502433226
 11
44.777195122
 21
46.402433226
  0
LINE
  5
363
100
AcDbEntity
  8
00_COMPONENTS
100
AcDbLine
 62
7
  6
CONTINUOUS
 10
44.852195122
 20
36.522433226
 11
44.852195122
 21
47.302433226
  0
LINE
  5
364
100
AcDbEntity
  8
00_COMPONENTS
100
AcDbLine
 62
7
  6
CONTINUOUS
 10
45.332195122
 20
48.392433226
 11
45.332195122
 21
47.302433226
  0
LINE
  5
365
100
AcDbEntity
  8
00_COMPONENTS
100
AcDbLine
 62
7
  6
CONTINUOUS
 10
45.332195122
 20
36.522433226
 11
45.332195122
 21
35.432433226
  0
LINE
  5
366
100
AcDbEntity
  8
DEFAULT_2
100
AcDbLine
 62
8
  6
HIDDEN
 10
45.562195122
 20
114.912433226
 11
45.562195122
 21
115.712433226
  0
LINE
  5
367
100
AcDbEntity
  8
00_COMPONENTS
100
AcDbLine
 62
7
  6
CONTINUOUS
 10
45.832195122
 20
35.932433226
 11
45.832195122
 21
36.522433226
  0
LINE
  5
368
100
AcDbEntity
  8
00_COMPONENTS
100
AcDbLine
 62
7
  6
CONTINUOUS
 10
45.832195122
 20
47.302433226
 11
45.832195122
 21
47.892433226
  0
LINE
  5
369
100
AcDbEntity
  8
0
100
AcDbLine
 62
7
  6
CONTINUOUS
 10
46.162195122
 20
32.212433226
 11
46.162195122
 21
36.522433226
  0
LINE
  5
36A
100
AcDbEntity
  8
0
100
AcDbLine
 62
7
  6
CONTINUOUS
 10
46.162195122
 20
47.302433226
 11
46.162195122
 21
51.612433226
  0
LINE
  5
36B
100
AcDbEntity
  8
00_COMPONENTS
100
AcDbLine
 62
7
  6
CONTINUOUS
 10
48.952195122
 20
47.302433226
 11
48.952195122
 21
36.522433226
  0
LINE
  5
36C
100
AcDbEntity
  8
DEFAULT_2
100
AcDbLine
 62
8
  6
HIDDEN
 10
48.962195122
 20
123.512433226
 11
48.962195122
 21
122.712433226
  0
LINE
  5
36D
100
AcDbEntity
  8
00_COMPONENTS
100
AcDbLine
 62
7
  6
CONTINUOUS
 10
49.352195122
 20
36.522433226
 11
49.352195122
 21
47.302433226
  0
LINE
  5
36E
100
AcDbEntity
  8
00_COMPONENTS
100
AcDbLine
 62
7
  6
CONTINUOUS
 10
49.452195122
 20
37.997433226
 11
49.452195122
 21
40.747433226
  0
LINE
  5
36F
100
AcDbEntity
  8
00_COMPONENTS
100
AcDbLine
 62
7
  6
CONTINUOUS
 10
49.452195122
 20
43.077433226
 11
49.452195122
 21
45.827433226
  0
LINE
  5
370
100
AcDbEntity
  8
DEFAULT_2
100
AcDbLine
 62
8
  6
HIDDEN
 10
49.662195122
 20
119.612433226
 11
49.662195122
 21
118.812433226
  0
LINE
  5
371
100
AcDbEntity
  8
DEFAULT_2
100
AcDbLine
 62
8
  6
HIDDEN
 10
49.662195122
 20
115.712433226
 11
49.662195122
 21
114.912433226
  0
LINE
  5
372
100
AcDbEntity
  8
DEFAULT_1
100
AcDbLine
 62
2
  6
CENTER
 10
50.512195122
 20
123.112433226
 11
50.512195122
 21
121.612333226
  0
LINE
  5
373
100
AcDbEntity
  8
DEFAULT_1
100
AcDbLine
 62
2
  6
CENTER
 10
50.512195122
 20
119.212433226
 11
50.512195122
 21
117.712333226
  0
LINE
  5
374
100
AcDbEntity
  8
DEFAULT_1
100
AcDbLine
 62
2
  6
CENTER
 10
50.512195122
 20
115.312433226
 11
50.512195122
 21
113.812333226
  0
LINE
  5
375
100
AcDbEntity
  8
DEFAULT_1
100
AcDbLine
 62
2
  6
CENTER
 10
50.512195122
 20
115.312433226
 11
50.512195122
 21
116.812533226
  0
LINE
  5
376
100
AcDbEntity
  8
DEFAULT_1
100
AcDbLine
 62
2
  6
CENTER
 10
50.512195122
 20
119.212433226
 11
50.512195122
 21
120.712533226
  0
LINE
  5
377
100
AcDbEntity
  8
DEFAULT_1
100
AcDbLine
 62
2
  6
CENTER
 10
50.512195122
 20
123.112433226
 11
50.512195122
 21
124.612533226
  0
LINE
  5
378
100
AcDbEntity
  8
DEFAULT_2
100
AcDbLine
 62
8
  6
HIDDEN
 10
51.362195122
 20
114.912433226
 11
51.362195122
 21
115.712433226
  0
LINE
  5
379
100
AcDbEntity
  8
DEFAULT_2
100
AcDbLine
 62
8
  6
HIDDEN
 10
51.362195122
 20
118.812433226
 11
51.362195122
 21
119.612433226
  0
LINE
  5
37A
100
AcDbEntity
  8
00_COMPONENTS
100
AcDbLine
 62
7
  6
CONTINUOUS
 10
40.7669075066
 20
48.1318407779
 11
40.637497984
 21
47.6488778648
  0
LINE
  5
37B
100
AcDbEntity
  8
00_COMPONENTS
100
AcDbLine
 62
7
  6
CONTINUOUS
 10
41.5119097893
 20
84.0142204622
 11
41.1119299903
 21
84.0102004627
  0
LINE
  5
37C
100
AcDbEntity
  8
00_COMPONENTS
100
AcDbLine
 62
7
  6
CONTINUOUS
 10
42.8098341362
 20
84.2272753601
 11
39.8099856438
 21
84.1971253638
  0
LINE
  5
37D
100
AcDbEntity
  8
00_COMPONENTS
100
AcDbLine
 62
7
  6
CONTINUOUS
 10
43.3699548088
 20
84.4329149575
 11
42.8078241365
 21
84.4272652596
  0
LINE
  5
37E
100
AcDbEntity
  8
00_COMPONENTS
100
AcDbLine
 62
7
  6
CONTINUOUS
 10
39.807975644
 20
84.3971152633
 11
39.2458449717
 21
84.3914655654
  0
LINE
  5
37F
100
AcDbEntity
  8
DEFAULT_2
100
AcDbLine
 62
8
  6
HIDDEN
 10
52.062195122
 20
122.712433226
 11
52.062195122
 21
123.512433226
  0
LINE
  5
380
100
AcDbEntity
  8
00_COMPONENTS
100
AcDbLine
 62
7
  6
CONTINUOUS
 10
52.352195122
 20
36.522433226
 11
52.352195122
 21
47.302433226
  0
LINE
  5
381
100
AcDbEntity
  8
0
100
AcDbLine
 62
7
  6
CONTINUOUS
 10
53.762195122
 20
23.012433226
 11
53.762195122
 21
26.212433226
  0
LINE
  5
382
100
AcDbEntity
  8
00_COMPONENTS
100
AcDbLine
 62
7
  6
CONTINUOUS
 10
40.7669075066
 20
32.8918407779
 11
40.637497984
 21
32.4088778648
  0
LINE
  5
383
100
AcDbEntity
  8
00_COMPONENTS
100
AcDbLine
 62
7
  6
CONTINUOUS
 10
48.623129797
 20
86.4858130361
 11
48.3585105979
 21
86.4831534792
  0
LINE
  5
384
100
AcDbEntity
  8
00_COMPONENTS
100
AcDbLine
 62
7
  6
CONTINUOUS
 10
34.2170891876
 20
86.3410250336
 11
33.9524699885
 21
86.3383654767
  0
LINE
  5
385
100
AcDbEntity
  8
00_COMPONENTS
100
AcDbLine
 62
7
  6
CONTINUOUS
 10
44.2846333856
 20
86.7422241019
 11
44.0846434861
 21
86.7402141022
  0
LINE
  5
386
100
AcDbEntity
  8
00_COMPONENTS
100
AcDbLine
 62
7
  6
CONTINUOUS
 10
38.4849263001
 20
86.6839341091
 11
38.2849364006
 21
86.6819241094
  0
LINE
  5
387
100
AcDbEntity
  8
00_COMPONENTS
100
AcDbLine
 62
7
  6
CONTINUOUS
 10
47.6177068667
 20
87.3257509559
 11
47.0289670043
 21
87.3198338222
  0
LINE
  5
388
100
AcDbEntity
  8
00_COMPONENTS
100
AcDbLine
 62
7
  6
CONTINUOUS
 10
45.9459264592
 20
87.3089487163
 11
45.3790503335
 21
87.3032513242
  0
LINE
  5
389
100
AcDbEntity
  8
00_COMPONENTS
100
AcDbLine
 62
7
  6
CONTINUOUS
 10
37.1794644541
 20
87.2208413343
 11
36.6125883284
 21
87.2151439422
  0
LINE
  5
38A
100
AcDbEntity
  8
00_COMPONENTS
100
AcDbLine
 62
7
  6
CONTINUOUS
 10
35.5295477832
 20
87.2042588364
 11
34.9408079209
 21
87.1983417027
  0
LINE
  5
38B
100
AcDbEntity
  8
03_ALL_AXES
100
AcDbLine
 62
2
  6
CENTER
 10
41.262195122
 20
88.912433226
 11
32.2726005726
 21
88.912433226
  0
LINE
  5
38C
100
AcDbEntity
  8
03_ALL_AXES
100
AcDbLine
 62
2
  6
CENTER
 10
41.262195122
 20
88.912433226
 11
50.2517896713
 21
88.912433226
  0
LINE
  5
38D
100
AcDbEntity
  8
0
100
AcDbLine
 62
7
  6
CONTINUOUS
 10
56.312195122
 20
103.412433226
 11
56.312195122
 21
103.212433226
  0
LINE
  5
38E
100
AcDbEntity
  8
0
100
AcDbLine
 62
7
  6
CONTINUOUS
 10
57.151570151
 20
128.3782298757
 11
57.1516139208
 21
103.6126292575
  0
LINE
  5
38F
100
AcDbEntity
  8
0
100
AcDbLine
 62
7
  6
CONTINUOUS
 10
57.162195122
 20
23.412433226
 11
57.162195122
 21
128.412433226
  0
LINE
  5
390
100
AcDbEntity
  8
00_BLANKED_OBJECTS
100
AcDbLine
 62
7
  6
CONTINUOUS
 10
57.362195122
 20
36.912433226
 11
57.362195122
 21
42.912433226
  0
LINE
  5
391
100
AcDbEntity
  8
00_BLANKED_OBJECTS
100
AcDbLine
 62
7
  6
CONTINUOUS
 10
57.362195122
 20
108.912433226
 11
57.362195122
 21
114.912433226
  0
LINE
  5
392
100
AcDbEntity
  8
00_COMPONENTS
100
AcDbLine
 62
7
  6
CONTINUOUS
 10
34.907642925
 20
90.4981750444
 11
35.4963827873
 21
90.5040921781
  0
LINE
  5
393
100
AcDbEntity
  8
00_COMPONENTS
100
AcDbLine
 62
7
  6
CONTINUOUS
 10
36.5794233324
 20
90.514977284
 11
37.1462994582
 21
90.520674676
  0
LINE
  5
394
100
AcDbEntity
  8
00_COMPONENTS
100
AcDbLine
 62
7
  6
CONTINUOUS
 10
45.3458853376
 20
90.6030846659
 11
45.9127614633
 21
90.608782058
  0
LINE
  5
395
100
AcDbEntity
  8
00_COMPONENTS
100
AcDbLine
 62
7
  6
CONTINUOUS
 10
46.9958020084
 20
90.6196671639
 11
47.5845418708
 21
90.6255842976
  0
LINE
  5
396
100
AcDbEntity
  8
00_COMPONENTS
100
AcDbLine
 62
7
  6
CONTINUOUS
 10
43.5424587425
 20
90.9349769923
 11
45.0423829887
 21
90.9500519904
  0
LINE
  5
397
100
AcDbEntity
  8
00_COMPONENTS
100
AcDbLine
 62
7
  6
CONTINUOUS
 10
38.2407164061
 20
91.0817018983
 11
38.4407063056
 21
91.0837118981
  0
LINE
  5
398
100
AcDbEntity
  8
00_COMPONENTS
100
AcDbLine
 62
7
  6
CONTINUOUS
 10
48.5728798032
 20
91.4855605235
 11
48.3082606041
 21
91.4829009666
  0
LINE
  5
399
100
AcDbEntity
  8
00_COMPONENTS
100
AcDbLine
 62
7
  6
CONTINUOUS
 10
34.1668391937
 20
91.3407725211
 11
33.9022199947
 21
91.3381129641
  0
LINE
  5
39A
100
AcDbEntity
  8
00_COMPONENTS
100
AcDbLine
 62
7
  6
CONTINUOUS
 10
39.1553949829
 20
93.3910110428
 11
39.7175256552
 21
93.3966607407
  0
LINE
  5
39B
100
AcDbEntity
  8
00_COMPONENTS
100
AcDbLine
 62
7
  6
CONTINUOUS
 10
42.7173741476
 20
93.426810737
 11
43.2795048199
 21
93.4324604348
  0
LINE
  5
39C
100
AcDbEntity
  8
00_COMPONENTS
100
AcDbLine
 62
7
  6
CONTINUOUS
 10
39.7155156554
 20
93.5966506402
 11
42.7153641479
 21
93.6268006365
  0
LINE
  5
39D
100
AcDbEntity
  8
00_COMPONENTS
100
AcDbLine
 62
7
  6
CONTINUOUS
 10
41.0134400024
 20
93.8097055381
 11
41.4134198014
 21
93.8137255376
  0
LINE
  5
39E
100
AcDbEntity
  8
00_COMPONENTS
100
AcDbLine
 62
7
  6
CONTINUOUS
 10
39.7633368986
 20
48.1535750027
 11
40.1168902892
 21
48.5071283933
  0
LINE
  5
39F
100
AcDbEntity
  8
00_COMPONENTS
100
AcDbLine
 62
7
  6
CONTINUOUS
 10
37.352195122
 20
44.842433226
 11
37.262195122
 21
44.752433226
  0
LINE
  5
3A0
100
AcDbEntity
  8
00_COMPONENTS
100
AcDbLine
 62
7
  6
CONTINUOUS
 10
37.352195122
 20
39.762433226
 11
37.262195122
 21
39.672433226
  0
LINE
  5
3A1
100
AcDbEntity
  8
0
100
AcDbLine
 62
7
  6
CONTINUOUS
 10
29.362195122
 20
103.212433226
 11
57.162195122
 21
103.212433226
  0
LINE
  5
3A2
100
AcDbEntity
  8
0
100
AcDbLine
 62
7
  6
CONTINUOUS
 10
56.9582106053
 20
103.412433226
 11
29.5661796392
 21
103.412433226
  0
LINE
  5
3A3
100
AcDbEntity
  8
00_COMPONENTS
100
AcDbLine
 62
7
  6
CONTINUOUS
 10
39.7633368986
 20
32.9135750027
 11
40.1168902892
 21
33.2671283933
  0
LINE
  5
3A4
100
AcDbEntity
  8
0
100
AcDbLine
 62
7
  6
CONTINUOUS
 10
57.1424688401
 20
106.212433226
 11
57.1250137752
 21
106.212433226
  0
LINE
  5
3A5
100
AcDbEntity
  8
0
100
AcDbLine
 62
7
  6
CONTINUOUS
 10
29.3819214038
 20
106.212433226
 11
29.3993764687
 21
106.212433226
  0
LINE
  5
3A6
100
AcDbEntity
  8
0
100
AcDbLine
 62
7
  6
CONTINUOUS
 10
57.362195122
 20
108.912433226
 11
57.162195122
 21
108.912433226
  0
LINE
  5
3A7
100
AcDbEntity
  8
0
100
AcDbLine
 62
7
  6
CONTINUOUS
 10
29.162195122
 20
108.912433226
 11
29.362195122
 21
108.912433226
  0
LINE
  5
3A8
100
AcDbEntity
  8
0
100
AcDbLine
 62
7
  6
CONTINUOUS
 10
57.1386163087
 20
109.612433226
 11
57.1211612438
 21
109.612433226
  0
LINE
  5
3A9
100
AcDbEntity
  8
0
100
AcDbLine
 62
7
  6
CONTINUOUS
 10
29.3857739352
 20
109.612433226
 11
29.4032290001
 21
109.612433226
  0
LINE
  5
3AA
100
AcDbEntity
  8
0
100
AcDbLine
 62
7
  6
CONTINUOUS
 10
57.362195122
 20
114.912433226
 11
57.162195122
 21
114.912433226
  0
LINE
  5
3AB
100
AcDbEntity
  8
0
100
AcDbLine
 62
7
  6
CONTINUOUS
 10
29.162195122
 20
114.912433226
 11
29.362195122
 21
114.912433226
  0
LINE
  5
3AC
100
AcDbEntity
  8
DEFAULT_2
100
AcDbLine
 62
8
  6
HIDDEN
 10
38.062195122
 20
114.912433226
 11
39.762195122
 21
114.912433226
  0
LINE
  5
3AD
100
AcDbEntity
  8
00_COMPONENTS
100
AcDbLine
 62
8
  6
HIDDEN
 10
38.312195122
 20
114.912433226
 11
39.512195122
 21
114.912433226
  0
LINE
  5
3AE
100
AcDbEntity
  8
DEFAULT_2
100
AcDbLine
 62
8
  6
HIDDEN
 10
43.862195122
 20
114.912433226
 11
45.562195122
 21
114.912433226
  0
LINE
  5
3AF
100
AcDbEntity
  8
DEFAULT_2
100
AcDbLine
 62
8
  6
HIDDEN
 10
49.662195122
 20
114.912433226
 11
51.362195122
 21
114.912433226
  0
LINE
  5
3B0
100
AcDbEntity
  8
00_COMPONENTS
100
AcDbLine
 62
8
  6
HIDDEN
 10
49.912195122
 20
114.912433226
 11
51.112195122
 21
114.912433226
  0
LINE
  5
3B1
100
AcDbEntity
  8
DEFAULT_1
100
AcDbLine
 62
2
  6
CENTER
 10
50.512195122
 20
115.312433226
 11
49.012095122
 21
115.312433226
  0
LINE
  5
3B2
100
AcDbEntity
  8
DEFAULT_1
100
AcDbLine
 62
2
  6
CENTER
 10
44.712195122
 20
115.312433226
 11
43.212095122
 21
115.312433226
  0
LINE
  5
3B3
100
AcDbEntity
  8
DEFAULT_1
100
AcDbLine
 62
2
  6
CENTER
 10
38.912195122
 20
115.312433226
 11
37.412095122
 21
115.312433226
  0
LINE
  5
3B4
100
AcDbEntity
  8
DEFAULT_1
100
AcDbLine
 62
2
  6
CENTER
 10
38.912195122
 20
115.312433226
 11
40.412295122
 21
115.312433226
  0
LINE
  5
3B5
100
AcDbEntity
  8
DEFAULT_1
100
AcDbLine
 62
2
  6
CENTER
 10
44.712195122
 20
115.312433226
 11
46.212295122
 21
115.312433226
  0
LINE
  5
3B6
100
AcDbEntity
  8
DEFAULT_1
100
AcDbLine
 62
2
  6
CENTER
 10
50.512195122
 20
115.312433226
 11
52.012295122
 21
115.312433226
  0
LINE
  5
3B7
100
AcDbEntity
  8
DEFAULT_2
100
AcDbLine
 62
8
  6
HIDDEN
 10
51.362195122
 20
115.712433226
 11
49.662195122
 21
115.712433226
  0
LINE
  5
3B8
100
AcDbEntity
  8
DEFAULT_2
100
AcDbLine
 62
8
  6
HIDDEN
 10
45.562195122
 20
115.712433226
 11
43.862195122
 21
115.712433226
  0
LINE
  5
3B9
100
AcDbEntity
  8
DEFAULT_2
100
AcDbLine
 62
8
  6
HIDDEN
 10
39.762195122
 20
115.712433226
 11
38.062195122
 21
115.712433226
  0
LINE
  5
3BA
100
AcDbEntity
  8
00_COMPONENTS
100
AcDbLine
 62
8
  6
HIDDEN
 10
38.312195122
 20
115.712433226
 11
39.512195122
 21
115.712433226
  0
LINE
  5
3BB
100
AcDbEntity
  8
00_COMPONENTS
100
AcDbLine
 62
8
  6
HIDDEN
 10
49.912195122
 20
115.712433226
 11
51.112195122
 21
115.712433226
  0
LINE
  5
3BC
100
AcDbEntity
  8
DEFAULT_2
100
AcDbLine
 62
8
  6
HIDDEN
 10
49.662195122
 20
118.812433226
 11
51.362195122
 21
118.812433226
  0
LINE
  5
3BD
100
AcDbEntity
  8
00_COMPONENTS
100
AcDbLine
 62
8
  6
HIDDEN
 10
49.912195122
 20
118.812433226
 11
51.112195122
 21
118.812433226
  0
LINE
  5
3BE
100
AcDbEntity
  8
DEFAULT_1
100
AcDbLine
 62
2
  6
CENTER
 10
50.512195122
 20
119.212433226
 11
49.012095122
 21
119.212433226
  0
LINE
  5
3BF
100
AcDbEntity
  8
DEFAULT_1
100
AcDbLine
 62
2
  6
CENTER
 10
50.512195122
 20
119.212433226
 11
52.012295122
 21
119.212433226
  0
LINE
  5
3C0
100
AcDbEntity
  8
DEFAULT_2
100
AcDbLine
 62
8
  6
HIDDEN
 10
51.362195122
 20
119.612433226
 11
49.662195122
 21
119.612433226
  0
LINE
  5
3C1
100
AcDbEntity
  8
00_COMPONENTS
100
AcDbLine
 62
8
  6
HIDDEN
 10
49.912195122
 20
119.612433226
 11
51.112195122
 21
119.612433226
  0
LINE
  5
3C2
100
AcDbEntity
  8
0
100
AcDbLine
 62
7
  6
CONTINUOUS
 10
57.1426132676
 20
122.712433226
 11
57.1251582027
 21
122.712433226
  0
LINE
  5
3C3
100
AcDbEntity
  8
0
100
AcDbLine
 62
7
  6
CONTINUOUS
 10
29.3817769763
 20
122.712433226
 11
29.3992320412
 21
122.712433226
  0
LINE
  5
3C4
100
AcDbEntity
  8
DEFAULT_2
100
AcDbLine
 62
8
  6
HIDDEN
 10
34.462195122
 20
122.712433226
 11
37.562195122
 21
122.712433226
  0
LINE
  5
3C5
100
AcDbEntity
  8
DEFAULT_2
100
AcDbLine
 62
8
  6
HIDDEN
 10
48.962195122
 20
122.712433226
 11
52.062195122
 21
122.712433226
  0
LINE
  5
3C6
100
AcDbEntity
  8
DEFAULT_1
100
AcDbLine
 62
2
  6
CENTER
 10
50.512195122
 20
123.112433226
 11
49.012095122
 21
123.112433226
  0
LINE
  5
3C7
100
AcDbEntity
  8
DEFAULT_1
100
AcDbLine
 62
2
  6
CENTER
 10
36.012195122
 20
123.112433226
 11
34.512095122
 21
123.112433226
  0
LINE
  5
3C8
100
AcDbEntity
  8
DEFAULT_1
100
AcDbLine
 62
2
  6
CENTER
 10
36.012195122
 20
123.112433226
 11
37.512295122
 21
123.112433226
  0
LINE
  5
3C9
100
AcDbEntity
  8
DEFAULT_1
100
AcDbLine
 62
2
  6
CENTER
 10
50.512195122
 20
123.112433226
 11
52.012295122
 21
123.112433226
  0
LINE
  5
3CA
100
AcDbEntity
  8
DEFAULT_2
100
AcDbLine
 62
8
  6
HIDDEN
 10
52.062195122
 20
123.512433226
 11
48.962195122
 21
123.512433226
  0
LINE
  5
3CB
100
AcDbEntity
  8
DEFAULT_2
100
AcDbLine
 62
8
  6
HIDDEN
 10
37.562195122
 20
123.512433226
 11
34.462195122
 21
123.512433226
  0
LINE
  5
3CC
100
AcDbEntity
  8
00_COMPONENTS
100
AcDbLine
 62
8
  6
HIDDEN
 10
49.912195122
 20
123.512433226
 11
51.112195122
 21
123.512433226
  0
LINE
  5
3CD
100
AcDbEntity
  8
0
100
AcDbLine
 62
7
  6
CONTINUOUS
 10
57.1367584101
 20
126.112433226
 11
57.1193033452
 21
126.112433226
  0
LINE
  5
3CE
100
AcDbEntity
  8
0
100
AcDbLine
 62
7
  6
CONTINUOUS
 10
29.3876318338
 20
126.112433226
 11
29.4050868987
 21
126.112433226
  0
LINE
  5
3CF
100
AcDbEntity
  8
0
100
AcDbLine
 62
7
  6
CONTINUOUS
 10
56.6635108693
 20
128.912433226
 11
29.8608793746
 21
128.912433226
  0
LINE
  5
3D0
100
AcDbEntity
  8
00_COMPONENTS
100
AcDbLine
 62
7
  6
CONTINUOUS
 10
73.6772901951
 20
46.402433226
 11
73.6772901951
 21
42.502433226
  0
LINE
  5
3D1
100
AcDbEntity
  8
00_COMPONENTS
100
AcDbLine
 62
7
  6
CONTINUOUS
 10
73.6772901951
 20
41.322433226
 11
73.6772901951
 21
37.422433226
  0
LINE
  5
3D2
100
AcDbEntity
  8
00_COMPONENTS
100
AcDbLine
 62
7
  6
CONTINUOUS
 10
74.2472901951
 20
47.302433226
 11
74.2472901951
 21
46.502433226
  0
LINE
  5
3D3
100
AcDbEntity
  8
00_COMPONENTS
100
AcDbLine
 62
7
  6
CONTINUOUS
 10
74.2472901951
 20
42.402433226
 11
74.2472901951
 21
41.422433226
  0
LINE
  5
3D4
100
AcDbEntity
  8
00_COMPONENTS
100
AcDbLine
 62
7
  6
CONTINUOUS
 10
74.2472901951
 20
37.322433226
 11
74.2472901951
 21
36.522433226
  0
LINE
  5
3D5
100
AcDbEntity
  8
00_COMPONENTS
100
AcDbLine
 62
7
  6
CONTINUOUS
 10
75.5472901951
 20
47.302433226
 11
75.5472901951
 21
36.522433226
  0
LINE
  5
3D6
100
AcDbEntity
  8
00_COMPONENTS
100
AcDbLine
 62
7
  6
CONTINUOUS
 10
75.7472901951
 20
47.302433226
 11
75.7472901951
 21
36.522433226
  0
LINE
  5
3D7
100
AcDbEntity
  8
00_COMPONENTS
100
AcDbLine
 62
7
  6
CONTINUOUS
 10
76.5472901951
 20
36.522433226
 11
76.5472901951
 21
47.302433226
  0
LINE
  5
3D8
100
AcDbEntity
  8
00_COMPONENTS
100
AcDbLine
 62
7
  6
CONTINUOUS
 10
83.1772901951
 20
31.782433226
 11
83.1772901951
 21
36.522433226
  0
LINE
  5
3D9
100
AcDbEntity
  8
00_COMPONENTS
100
AcDbLine
 62
7
  6
CONTINUOUS
 10
83.1772901951
 20
47.302433226
 11
83.1772901951
 21
52.042433226
  0
LINE
  5
3DA
100
AcDbEntity
  8
00_COMPONENTS
100
AcDbLine
 62
7
  6
CONTINUOUS
 10
83.8972901951
 20
45.627433226
 11
83.8972901951
 21
43.277433226
  0
LINE
  5
3DB
100
AcDbEntity
  8
00_COMPONENTS
100
AcDbLine
 62
7
  6
CONTINUOUS
 10
83.8972901951
 20
40.547433226
 11
83.8972901951
 21
38.197433226
  0
LINE
  5
3DC
100
AcDbEntity
  8
00_COMPONENTS
100
AcDbLine
 62
7
  6
CONTINUOUS
 10
85.8772901951
 20
81.4121917009
 11
85.8772901951
 21
86.4831534792
  0
LINE
  5
3DD
100
AcDbEntity
  8
00_COMPONENTS
100
AcDbLine
 62
7
  6
CONTINUOUS
 10
85.8772901951
 20
86.4858130361
 11
85.8772901951
 21
96.6619387048
  0
LINE
  5
3DE
100
AcDbEntity
  8
00_COMPONENTS
100
AcDbLine
 62
7
  6
CONTINUOUS
 10
86.2472901951
 20
46.7437210735
 11
86.2472901951
 21
42.1611453785
  0
LINE
  5
3DF
100
AcDbEntity
  8
00_COMPONENTS
100
AcDbLine
 62
7
  6
CONTINUOUS
 10
86.2472901951
 20
41.6637210735
 11
86.2472901951
 21
37.0811453785
  0
LINE
  5
3E0
100
AcDbEntity
  8
0
100
AcDbLine
 62
7
  6
CONTINUOUS
 10
91.8772901951
 20
22.912433226
 11
104.4411708213
 21
22.912433226
  0
LINE
  5
3E1
100
AcDbEntity
  8
0
100
AcDbLine
 62
7
  6
CONTINUOUS
 10
114.5772901951
 20
24.912433226
 11
114.4772901951
 21
24.912433226
  0
LINE
  5
3E2
100
AcDbEntity
  8
0
100
AcDbLine
 62
7
  6
CONTINUOUS
 10
180.5159653297
 20
25.812433226
 11
185.5828038223
 21
25.812433226
  0
LINE
  5
3E3
100
AcDbEntity
  8
0
100
AcDbLine
 62
7
  6
CONTINUOUS
 10
192.7343969763
 20
26.412433226
 11
198.0272901951
 21
26.412433226
  0
LINE
  5
3E4
100
AcDbEntity
  8
00_COMPONENTS
100
AcDbLine
 62
7
  6
CONTINUOUS
 10
90.4772901951
 20
47.302433226
 11
90.4772901951
 21
36.522433226
  0
LINE
  5
3E5
100
AcDbEntity
  8
00_COMPONENTS
100
AcDbLine
 62
7
  6
CONTINUOUS
 10
90.8772901951
 20
38.2935870722
 11
90.8772901951
 21
31.782433226
  0
LINE
  5
3E6
100
AcDbEntity
  8
00_COMPONENTS
100
AcDbLine
 62
7
  6
CONTINUOUS
 10
90.8772901951
 20
40.4512793799
 11
90.8772901951
 21
41.912433226
  0
LINE
  5
3E7
100
AcDbEntity
  8
00_COMPONENTS
100
AcDbLine
 62
7
  6
CONTINUOUS
 10
90.8772901951
 20
45.5312793799
 11
90.8772901951
 21
52.042433226
  0
LINE
  5
3E8
100
AcDbEntity
  8
00_COMPONENTS
100
AcDbLine
 62
7
  6
CONTINUOUS
 10
90.9772901951
 20
38.4646729601
 11
90.9772901951
 21
40.2801283218
  0
LINE
  5
3E9
100
AcDbEntity
  8
00_COMPONENTS
100
AcDbLine
 62
7
  6
CONTINUOUS
 10
90.9772901951
 20
43.5446729601
 11
90.9772901951
 21
45.3601283218
  0
LINE
  5
3EA
100
AcDbEntity
  8
0
100
AcDbLine
 62
7
  6
CONTINUOUS
 10
91.3772901951
 20
23.412433226
 11
91.3772901951
 21
103.212433226
  0
LINE
  5
3EB
100
AcDbEntity
  8
0
100
AcDbLine
 62
7
  6
CONTINUOUS
 10
91.8772901951
 20
103.412433226
 11
91.8772901951
 21
103.212433226
  0
LINE
  5
3EC
100
AcDbEntity
  8
0
100
AcDbLine
 62
7
  6
CONTINUOUS
 10
92.8772901951
 20
98.912433226
 11
92.8772901951
 21
96.912433226
  0
LINE
  5
3ED
100
AcDbEntity
  8
0
100
AcDbLine
 62
7
  6
CONTINUOUS
 10
92.8772901951
 20
76.912433226
 11
92.8772901951
 21
74.912433226
  0
LINE
  5
3EE
100
AcDbEntity
  8
0
100
AcDbLine
 62
7
  6
CONTINUOUS
 10
92.8772901951
 20
54.912433226
 11
92.8772901951
 21
52.912433226
  0
LINE
  5
3EF
100
AcDbEntity
  8
0
100
AcDbLine
 62
7
  6
CONTINUOUS
 10
93.3772901951
 20
106.212433226
 11
93.3772901951
 21
109.612433226
  0
LINE
  5
3F0
100
AcDbEntity
  8
0
100
AcDbLine
 62
7
  6
CONTINUOUS
 10
93.4772901951
 20
106.412433226
 11
93.4772901951
 21
109.412433226
  0
LINE
  5
3F1
100
AcDbEntity
  8
0
100
AcDbLine
 62
7
  6
CONTINUOUS
 10
94.0772901951
 20
106.412433226
 11
94.0772901951
 21
109.412433226
  0
LINE
  5
3F2
100
AcDbEntity
  8
0
100
AcDbLine
 62
7
  6
CONTINUOUS
 10
94.2772901951
 20
106.412433226
 11
94.2772901951
 21
109.412433226
  0
LINE
  5
3F3
100
AcDbEntity
  8
0
100
AcDbLine
 62
7
  6
CONTINUOUS
 10
94.3772901951
 20
109.612433226
 11
94.3772901951
 21
106.212433226
  0
LINE
  5
3F4
100
AcDbEntity
  8
0
100
AcDbLine
 62
7
  6
CONTINUOUS
 10
94.6772901951
 20
122.712433226
 11
94.6772901951
 21
126.112433226
  0
LINE
  5
3F5
100
AcDbEntity
  8
0
100
AcDbLine
 62
7
  6
CONTINUOUS
 10
94.7772901951
 20
122.912433226
 11
94.7772901951
 21
125.912433226
  0
LINE
  5
3F6
100
AcDbEntity
  8
0
100
AcDbLine
 62
7
  6
CONTINUOUS
 10
113.8272387237
 20
23.6511327903
 11
114.4772901951
 21
23.7540908288
  0
LINE
  5
3F7
100
AcDbEntity
  8
0
100
AcDbLine
 62
7
  6
CONTINUOUS
 10
114.5772901951
 20
23.7699292728
 11
129.7543137965
 21
26.1737336617
  0
LINE
  5
3F8
100
AcDbEntity
  8
0
100
AcDbLine
 62
7
  6
CONTINUOUS
 10
139.1403816989
 20
26.912433226
 11
179.592204899
 21
26.912433226
  0
LINE
  5
3F9
100
AcDbEntity
  8
0
100
AcDbLine
 62
7
  6
CONTINUOUS
 10
114.4772901951
 20
27.912433226
 11
114.5772901951
 21
27.912433226
  0
LINE
  5
3FA
100
AcDbEntity
  8
0
100
AcDbLine
 62
7
  6
CONTINUOUS
 10
188.5272901951
 20
29.912433226
 11
191.2272901951
 21
29.912433226
  0
LINE
  5
3FB
100
AcDbEntity
  8
00_COMPONENTS
100
AcDbLine
 62
7
  6
CONTINUOUS
 10
114.5772901951
 20
30.912433226
 11
114.4772901951
 21
30.912433226
  0
LINE
  5
3FC
100
AcDbEntity
  8
00_COMPONENTS
100
AcDbLine
 62
7
  6
CONTINUOUS
 10
90.8772901951
 20
31.777433226
 11
91.3772901951
 21
31.777433226
  0
LINE
  5
3FD
100
AcDbEntity
  8
00_COMPONENTS
100
AcDbLine
 62
7
  6
CONTINUOUS
 10
83.1772901951
 20
31.782433226
 11
90.8772901951
 21
31.782433226
  0
LINE
  5
3FE
100
AcDbEntity
  8
00_COMPONENTS
100
AcDbLine
 62
7
  6
CONTINUOUS
 10
91.0259890799
 20
40.2579708297
 11
91.3772901951
 21
40.1647409183
  0
LINE
  5
3FF
100
AcDbEntity
  8
0
100
AcDbLine
 62
7
  6
CONTINUOUS
 10
95.3772901951
 20
122.912433226
 11
95.3772901951
 21
125.912433226
  0
LINE
  5
400
100
AcDbEntity
  8
0
100
AcDbLine
 62
7
  6
CONTINUOUS
 10
95.5772901951
 20
122.912433226
 11
95.5772901951
 21
125.912433226
  0
LINE
  5
401
100
AcDbEntity
  8
0
100
AcDbLine
 62
7
  6
CONTINUOUS
 10
95.6772901951
 20
126.112433226
 11
95.6772901951
 21
122.712433226
  0
LINE
  5
402
100
AcDbEntity
  8
00_COMPONENTS
100
AcDbLine
 62
7
  6
CONTINUOUS
 10
90.8772901951
 20
35.432433226
 11
91.3772901951
 21
35.432433226
  0
LINE
  5
403
100
AcDbEntity
  8
0
100
AcDbLine
 62
7
  6
CONTINUOUS
 10
114.4772901951
 20
35.912433226
 11
116.5772901951
 21
35.912433226
  0
LINE
  5
404
100
AcDbEntity
  8
0
100
AcDbLine
 62
7
  6
CONTINUOUS
 10
132.2772901951
 20
35.912433226
 11
180.8772901951
 21
35.912433226
  0
LINE
  5
405
100
AcDbEntity
  8
00_COMPONENTS
100
AcDbLine
 62
7
  6
CONTINUOUS
 10
74.2472901951
 20
36.522433226
 11
90.8772901951
 21
36.522433226
  0
LINE
  5
406
100
AcDbEntity
  8
0
100
AcDbLine
 62
7
  6
CONTINUOUS
 10
108.5772901951
 20
36.662433226
 11
110.9772901951
 21
36.662433226
  0
LINE
  5
407
100
AcDbEntity
  8
00_BLANKED_OBJECTS
100
AcDbLine
 62
7
  6
CONTINUOUS
 10
110.9772901951
 20
36.912433226
 11
110.5272901951
 21
36.912433226
  0
LINE
  5
408
100
AcDbEntity
  8
0
100
AcDbLine
 62
7
  6
CONTINUOUS
 10
110.5272901951
 20
36.912433226
 11
108.7952393876
 21
36.912433226
  0
LINE
  5
409
100
AcDbEntity
  8
00_COMPONENTS
100
AcDbLine
 62
7
  6
CONTINUOUS
 10
76.5472901951
 20
37.0811453785
 11
86.2472901951
 21
37.0811453785
  0
LINE
  5
40A
100
AcDbEntity
  8
00_COMPONENTS
100
AcDbLine
 62
7
  6
CONTINUOUS
 10
74.2472901951
 20
37.322433226
 11
75.5472901951
 21
37.322433226
  0
LINE
  5
40B
100
AcDbEntity
  8
00_COMPONENTS
100
AcDbLine
 62
7
  6
CONTINUOUS
 10
75.5472901951
 20
37.422433226
 11
73.6772901951
 21
37.422433226
  0
LINE
  5
40C
100
AcDbEntity
  8
0
100
AcDbLine
 62
7
  6
CONTINUOUS
 10
108.7952393876
 20
37.912433226
 11
109.9772901951
 21
37.912433226
  0
LINE
  5
40D
100
AcDbEntity
  8
00_COMPONENTS
100
AcDbLine
 62
7
  6
CONTINUOUS
 10
91.0259890799
 20
45.3379708297
 11
91.3772901951
 21
45.2447409183
  0
LINE
  5
40E
100
AcDbEntity
  8
0
100
AcDbLine
 62
7
  6
CONTINUOUS
 10
102.8772901951
 20
52.912433226
 11
102.8772901951
 21
54.912433226
  0
LINE
  5
40F
100
AcDbEntity
  8
0
100
AcDbLine
 62
7
  6
CONTINUOUS
 10
102.8772901951
 20
74.912433226
 11
102.8772901951
 21
76.912433226
  0
LINE
  5
410
100
AcDbEntity
  8
0
100
AcDbLine
 62
7
  6
CONTINUOUS
 10
102.8772901951
 20
96.912433226
 11
102.8772901951
 21
98.912433226
  0
LINE
  5
411
100
AcDbEntity
  8
00_COMPONENTS
100
AcDbLine
 62
7
  6
CONTINUOUS
 10
83.8972901951
 20
38.197433226
 11
85.0722901951
 21
38.197433226
  0
LINE
  5
412
100
AcDbEntity
  8
00_COMPONENTS
100
AcDbLine
 62
7
  6
CONTINUOUS
 10
83.8972901951
 20
40.547433226
 11
85.0722901951
 21
40.547433226
  0
LINE
  5
413
100
AcDbEntity
  8
00_COMPONENTS
100
AcDbLine
 62
7
  6
CONTINUOUS
 10
73.6772901951
 20
41.322433226
 11
75.5472901951
 21
41.322433226
  0
LINE
  5
414
100
AcDbEntity
  8
00_COMPONENTS
100
AcDbLine
 62
7
  6
CONTINUOUS
 10
75.5472901951
 20
41.422433226
 11
74.2472901951
 21
41.422433226
  0
LINE
  5
415
100
AcDbEntity
  8
00_COMPONENTS
100
AcDbLine
 62
7
  6
CONTINUOUS
 10
86.2472901951
 20
41.6637210735
 11
76.5472901951
 21
41.6637210735
  0
LINE
  5
416
100
AcDbEntity
  8
00_COMPONENTS
100
AcDbLine
 62
7
  6
CONTINUOUS
 10
91.3772901951
 20
41.912433226
 11
90.4772901951
 21
41.912433226
  0
LINE
  5
417
100
AcDbEntity
  8
0
100
AcDbLine
 62
7
  6
CONTINUOUS
 10
108.7952393876
 20
41.912433226
 11
109.9772901951
 21
41.912433226
  0
LINE
  5
418
100
AcDbEntity
  8
00_COMPONENTS
100
AcDbLine
 62
7
  6
CONTINUOUS
 10
76.5472901951
 20
42.1611453785
 11
86.2472901951
 21
42.1611453785
  0
LINE
  5
419
100
AcDbEntity
  8
00_COMPONENTS
100
AcDbLine
 62
7
  6
CONTINUOUS
 10
74.2472901951
 20
42.402433226
 11
75.5472901951
 21
42.402433226
  0
LINE
  5
41A
100
AcDbEntity
  8
00_COMPONENTS
100
AcDbLine
 62
7
  6
CONTINUOUS
 10
75.5472901951
 20
42.502433226
 11
73.6772901951
 21
42.502433226
  0
LINE
  5
41B
100
AcDbEntity
  8
00_BLANKED_OBJECTS
100
AcDbLine
 62
7
  6
CONTINUOUS
 10
110.9772901951
 20
42.912433226
 11
110.5272901951
 21
42.912433226
  0
LINE
  5
41C
100
AcDbEntity
  8
0
100
AcDbLine
 62
7
  6
CONTINUOUS
 10
110.5272901951
 20
42.912433226
 11
108.7952393876
 21
42.912433226
  0
LINE
  5
41D
100
AcDbEntity
  8
0
100
AcDbLine
 62
7
  6
CONTINUOUS
 10
110.9772901951
 20
43.162433226
 11
108.5772901951
 21
43.162433226
  0
LINE
  5
41E
100
AcDbEntity
  8
00_COMPONENTS
100
AcDbLine
 62
7
  6
CONTINUOUS
 10
83.8972901951
 20
43.277433226
 11
85.0722901951
 21
43.277433226
  0
LINE
  5
41F
100
AcDbEntity
  8
00_COMPONENTS
100
AcDbLine
 62
7
  6
CONTINUOUS
 10
90.4772901951
 20
43.512433226
 11
91.3772901951
 21
43.512433226
  0
LINE
  5
420
100
AcDbEntity
  8
0
100
AcDbLine
 62
7
  6
CONTINUOUS
 10
108.5772901951
 20
115.162433226
 11
108.5772901951
 21
108.662433226
  0
LINE
  5
421
100
AcDbEntity
  8
0
100
AcDbLine
 62
7
  6
CONTINUOUS
 10
108.5772901951
 20
43.162433226
 11
108.5772901951
 21
36.662433226
  0
LINE
  5
422
100
AcDbEntity
  8
0
100
AcDbLine
 62
7
  6
CONTINUOUS
 10
108.7952393876
 20
36.912433226
 11
108.7952393876
 21
37.912433226
  0
LINE
  5
423
100
AcDbEntity
  8
0
100
AcDbLine
 62
7
  6
CONTINUOUS
 10
108.7952393876
 20
41.912433226
 11
108.7952393876
 21
42.912433226
  0
LINE
  5
424
100
AcDbEntity
  8
0
100
AcDbLine
 62
7
  6
CONTINUOUS
 10
108.7952393876
 20
108.912433226
 11
108.7952393876
 21
109.912433226
  0
LINE
  5
425
100
AcDbEntity
  8
0
100
AcDbLine
 62
7
  6
CONTINUOUS
 10
108.7952393876
 20
113.912433226
 11
108.7952393876
 21
114.912433226
  0
LINE
  5
426
100
AcDbEntity
  8
0
100
AcDbLine
 62
7
  6
CONTINUOUS
 10
109.9772901951
 20
37.912433226
 11
109.9772901951
 21
41.912433226
  0
LINE
  5
427
100
AcDbEntity
  8
0
100
AcDbLine
 62
7
  6
CONTINUOUS
 10
109.9772901951
 20
109.912433226
 11
109.9772901951
 21
113.912433226
  0
LINE
  5
428
100
AcDbEntity
  8
00_BLANKED_OBJECTS
100
AcDbLine
 62
7
  6
CONTINUOUS
 10
110.5272901951
 20
36.912433226
 11
110.5272901951
 21
42.912433226
  0
LINE
  5
429
100
AcDbEntity
  8
00_BLANKED_OBJECTS
100
AcDbLine
 62
7
  6
CONTINUOUS
 10
110.5272901951
 20
108.912433226
 11
110.5272901951
 21
114.912433226
  0
LINE
  5
42A
100
AcDbEntity
  8
0
100
AcDbLine
 62
7
  6
CONTINUOUS
 10
110.9772901951
 20
36.662433226
 11
110.9772901951
 21
36.912433226
  0
LINE
  5
42B
100
AcDbEntity
  8
00_BLANKED_OBJECTS
100
AcDbLine
 62
7
  6
CONTINUOUS
 10
110.9772901951
 20
36.912433226
 11
110.9772901951
 21
42.912433226
  0
LINE
  5
42C
100
AcDbEntity
  8
0
100
AcDbLine
 62
7
  6
CONTINUOUS
 10
110.9772901951
 20
42.912433226
 11
110.9772901951
 21
43.162433226
  0
LINE
  5
42D
100
AcDbEntity
  8
0
100
AcDbLine
 62
7
  6
CONTINUOUS
 10
110.9772901951
 20
108.662433226
 11
110.9772901951
 21
108.912433226
  0
LINE
  5
42E
100
AcDbEntity
  8
00_BLANKED_OBJECTS
100
AcDbLine
 62
7
  6
CONTINUOUS
 10
110.9772901951
 20
108.912433226
 11
110.9772901951
 21
114.912433226
  0
LINE
  5
42F
100
AcDbEntity
  8
0
100
AcDbLine
 62
7
  6
CONTINUOUS
 10
110.9772901951
 20
114.912433226
 11
110.9772901951
 21
115.162433226
  0
LINE
  5
430
100
AcDbEntity
  8
0
100
AcDbLine
 62
7
  6
CONTINUOUS
 10
114.4772901951
 20
43.912433226
 11
116.5772901951
 21
43.912433226
  0
LINE
  5
431
100
AcDbEntity
  8
00_COMPONENTS
100
AcDbLine
 62
7
  6
CONTINUOUS
 10
83.8972901951
 20
45.627433226
 11
85.0722901951
 21
45.627433226
  0
LINE
  5
432
100
AcDbEntity
  8
00_COMPONENTS
100
AcDbLine
 62
7
  6
CONTINUOUS
 10
73.6772901951
 20
46.402433226
 11
75.5472901951
 21
46.402433226
  0
LINE
  5
433
100
AcDbEntity
  8
00_COMPONENTS
100
AcDbLine
 62
7
  6
CONTINUOUS
 10
75.5472901951
 20
46.502433226
 11
74.2472901951
 21
46.502433226
  0
LINE
  5
434
100
AcDbEntity
  8
00_COMPONENTS
100
AcDbLine
 62
7
  6
CONTINUOUS
 10
86.2472901951
 20
46.7437210735
 11
76.5472901951
 21
46.7437210735
  0
LINE
  5
435
100
AcDbEntity
  8
00_COMPONENTS
100
AcDbLine
 62
7
  6
CONTINUOUS
 10
74.2472901951
 20
47.302433226
 11
90.8772901951
 21
47.302433226
  0
LINE
  5
436
100
AcDbEntity
  8
AXIS
100
AcDbLine
 62
7
  6
CONTINUOUS
 10
196.7772879717
 20
47.912433226
 11
196.6522901951
 21
47.912433226
  0
LINE
  5
437
100
AcDbEntity
  8
0
100
AcDbLine
 62
7
  6
CONTINUOUS
 10
194.1772901951
 20
47.912433226
 11
196.6522901951
 21
47.912433226
  0
LINE
  5
438
100
AcDbEntity
  8
00_COMPONENTS
100
AcDbLine
 62
7
  6
CONTINUOUS
 10
91.3772901951
 20
48.392433226
 11
90.8772901951
 21
48.392433226
  0
LINE
  5
439
100
AcDbEntity
  8
0
100
AcDbLine
 62
7
  6
CONTINUOUS
 10
114.4772901951
 20
128.0707756232
 11
114.4772901951
 21
23.7540908288
  0
LINE
  5
43A
100
AcDbEntity
  8
0
100
AcDbLine
 62
7
  6
CONTINUOUS
 10
114.5772901951
 20
23.7699292728
 11
114.5772901951
 21
128.0549371792
  0
LINE
  5
43B
100
AcDbEntity
  8
0
100
AcDbLine
 62
7
  6
CONTINUOUS
 10
116.5772901951
 20
43.912433226
 11
116.5772901951
 21
35.912433226
  0
LINE
  5
43C
100
AcDbEntity
  8
0
100
AcDbLine
 62
7
  6
CONTINUOUS
 10
116.5772901951
 20
107.912433226
 11
116.5772901951
 21
115.912433226
  0
LINE
  5
43D
100
AcDbEntity
  8
00_COMPONENTS
100
AcDbLine
 62
7
  6
CONTINUOUS
 10
91.0259890799
 20
38.4868956224
 11
91.3772901951
 21
38.5801255337
  0
LINE
  5
43E
100
AcDbEntity
  8
00_COMPONENTS
100
AcDbLine
 62
7
  6
CONTINUOUS
 10
90.8772901951
 20
52.042433226
 11
83.1772901951
 21
52.042433226
  0
LINE
  5
43F
100
AcDbEntity
  8
00_COMPONENTS
100
AcDbLine
 62
7
  6
CONTINUOUS
 10
91.3772901951
 20
52.047433226
 11
90.8772901951
 21
52.047433226
  0
LINE
  5
440
100
AcDbEntity
  8
0
100
AcDbLine
 62
7
  6
CONTINUOUS
 10
93.3772901951
 20
52.412433226
 11
102.3772901951
 21
52.412433226
  0
LINE
  5
441
100
AcDbEntity
  8
00_COMPONENTS
100
AcDbLine
 62
7
  6
CONTINUOUS
 10
91.0259890799
 20
43.5668956224
 11
91.3772901951
 21
43.6601255337
  0
LINE
  5
442
100
AcDbEntity
  8
0
100
AcDbLine
 62
7
  6
CONTINUOUS
 10
102.3772901951
 20
55.412433226
 11
93.3772901951
 21
55.412433226
  0
LINE
  5
443
100
AcDbEntity
  8
0
100
AcDbLine
 62
7
  6
CONTINUOUS
 10
131.5772901951
 20
115.212433226
 11
131.5772901951
 21
36.612433226
  0
LINE
  5
444
100
AcDbEntity
  8
0
100
AcDbLine
 62
7
  6
CONTINUOUS
 10
196.539338908
 20
37.0588647873
 11
194.1772901951
 21
38.512433226
  0
LINE
  5
445
100
AcDbEntity
  8
0
100
AcDbLine
 62
7
  6
CONTINUOUS
 10
93.3772901951
 20
74.412433226
 11
102.3772901951
 21
74.412433226
  0
LINE
  5
446
100
AcDbEntity
  8
0
100
AcDbLine
 62
7
  6
CONTINUOUS
 10
102.3772901951
 20
77.412433226
 11
93.3772901951
 21
77.412433226
  0
LINE
  5
447
100
AcDbEntity
  8
0
100
AcDbLine
 62
7
  6
CONTINUOUS
 10
196.1772901951
 20
50.612433226
 11
195.6772901951
 21
50.8195400072
  0
LINE
  5
448
100
AcDbEntity
  8
0
100
AcDbLine
 62
7
  6
CONTINUOUS
 10
191.6737368045
 20
27.2659866166
 11
192.3808435857
 21
26.5588798354
  0
LINE
  5
449
100
AcDbEntity
  8
0
100
AcDbLine
 62
7
  6
CONTINUOUS
 10
171.9180379239
 20
128.762433226
 11
171.467482574
 21
127.9820484683
  0
LINE
  5
44A
100
AcDbEntity
  8
00_COMPONENTS
100
AcDbLine
 62
7
  6
CONTINUOUS
 10
91.3772901951
 20
81.4119630001
 11
85.8772901951
 21
81.4119630001
  0
LINE
  5
44B
100
AcDbEntity
  8
0
100
AcDbLine
 62
7
  6
CONTINUOUS
 10
196.3772901951
 20
56.1195400072
 11
196.8772901951
 21
55.912433226
  0
LINE
  5
44C
100
AcDbEntity
  8
0
100
AcDbLine
 62
7
  6
CONTINUOUS
 10
198.7343969763
 20
28.1195400072
 11
196.7772901951
 21
30.0766467884
  0
LINE
  5
44D
100
AcDbEntity
  8
0
100
AcDbLine
 62
7
  6
CONTINUOUS
 10
190.5772901951
 20
117.212433226
 11
190.0772901951
 21
116.712433226
  0
LINE
  5
44E
100
AcDbEntity
  8
00_COMPONENTS
100
AcDbLine
 62
7
  6
CONTINUOUS
 10
85.8772901951
 20
86.4858130361
 11
91.3772901951
 21
86.4858130361
  0
LINE
  5
44F
100
AcDbEntity
  8
0
100
AcDbLine
 62
7
  6
CONTINUOUS
 10
197.8790565349
 20
41.8471361101
 11
197.1151952719
 21
42.4925165955
  0
LINE
  5
450
100
AcDbEntity
  8
0
100
AcDbLine
 62
7
  6
CONTINUOUS
 10
197.3088094175
 20
42.7216749744
 11
198.0726706805
 21
42.076294489
  0
LINE
  5
451
100
AcDbEntity
  8
0
100
AcDbLine
 62
7
  6
CONTINUOUS
 10
179.592204899
 20
26.912433226
 11
180.0829526278
 21
26.062433226
  0
LINE
  5
452
100
AcDbEntity
  8
00_COMPONENTS
100
AcDbLine
 62
7
  6
CONTINUOUS
 10
91.3772901951
 20
91.4855605235
 11
85.8772901951
 21
91.4855605235
  0
LINE
  5
453
100
AcDbEntity
  8
0
100
AcDbLine
 62
7
  6
CONTINUOUS
 10
193.6772901951
 20
48.412433226
 11
194.1772901951
 21
47.912433226
  0
LINE
  5
454
100
AcDbEntity
  8
0
100
AcDbLine
 62
7
  6
CONTINUOUS
 10
188.5272901951
 20
29.912433226
 11
188.2386150605
 21
30.412433226
  0
LINE
  5
455
100
AcDbEntity
  8
00_COMPONENTS
100
AcDbLine
 62
7
  6
CONTINUOUS
 10
91.3772901951
 20
96.3192517563
 11
85.8772901951
 21
96.3192517563
  0
LINE
  5
456
100
AcDbEntity
  8
0
100
AcDbLine
 62
7
  6
CONTINUOUS
 10
93.3772901951
 20
96.412433226
 11
102.3772901951
 21
96.412433226
  0
LINE
  5
457
100
AcDbEntity
  8
00_COMPONENTS
100
AcDbLine
 62
7
  6
CONTINUOUS
 10
85.8772901951
 20
96.572668499
 11
91.3772901951
 21
96.572668499
  0
LINE
  5
458
100
AcDbEntity
  8
00_COMPONENTS
100
AcDbLine
 62
7
  6
CONTINUOUS
 10
91.3772901951
 20
96.6619630001
 11
85.8772901951
 21
96.6619630001
  0
LINE
  5
459
100
AcDbEntity
  8
0
100
AcDbLine
 62
7
  6
CONTINUOUS
 10
102.3772901951
 20
99.412433226
 11
93.3772901951
 21
99.412433226
  0
LINE
  5
45A
100
AcDbEntity
  8
0
100
AcDbLine
 62
7
  6
CONTINUOUS
 10
91.3772901951
 20
103.212433226
 11
95.8329751594
 21
103.212433226
  0
LINE
  5
45B
100
AcDbEntity
  8
0
100
AcDbLine
 62
7
  6
CONTINUOUS
 10
95.3433193456
 20
103.412433226
 11
89.545477583
 21
103.412433226
  0
LINE
  5
45C
100
AcDbEntity
  8
0
100
AcDbLine
 62
7
  6
CONTINUOUS
 10
94.3772901951
 20
106.212433226
 11
93.3772901951
 21
106.212433226
  0
LINE
  5
45D
100
AcDbEntity
  8
0
100
AcDbLine
 62
7
  6
CONTINUOUS
 10
93.3772901951
 20
106.412433226
 11
94.2772901951
 21
106.412433226
  0
LINE
  5
45E
100
AcDbEntity
  8
0
100
AcDbLine
 62
7
  6
CONTINUOUS
 10
171.4272901951
 20
127.8320484683
 11
171.4272901951
 21
124.912433226
  0
LINE
  5
45F
100
AcDbEntity
  8
0
100
AcDbLine
 62
7
  6
CONTINUOUS
 10
114.4772901951
 20
107.912433226
 11
116.5772901951
 21
107.912433226
  0
LINE
  5
460
100
AcDbEntity
  8
0
100
AcDbLine
 62
7
  6
CONTINUOUS
 10
108.5772901951
 20
108.662433226
 11
110.9772901951
 21
108.662433226
  0
LINE
  5
461
100
AcDbEntity
  8
00_BLANKED_OBJECTS
100
AcDbLine
 62
7
  6
CONTINUOUS
 10
110.9772901951
 20
108.912433226
 11
110.5272901951
 21
108.912433226
  0
LINE
  5
462
100
AcDbEntity
  8
0
100
AcDbLine
 62
7
  6
CONTINUOUS
 10
110.5272901951
 20
108.912433226
 11
108.7952393876
 21
108.912433226
  0
LINE
  5
463
100
AcDbEntity
  8
0
100
AcDbLine
 62
7
  6
CONTINUOUS
 10
93.3772901951
 20
109.412433226
 11
94.2772901951
 21
109.412433226
  0
LINE
  5
464
100
AcDbEntity
  8
0
100
AcDbLine
 62
7
  6
CONTINUOUS
 10
94.3772901951
 20
109.612433226
 11
93.3772901951
 21
109.612433226
  0
LINE
  5
465
100
AcDbEntity
  8
0
100
AcDbLine
 62
7
  6
CONTINUOUS
 10
108.7952393876
 20
109.912433226
 11
109.9772901951
 21
109.912433226
  0
LINE
  5
466
100
AcDbEntity
  8
0
100
AcDbLine
 62
7
  6
CONTINUOUS
 10
177.4272901951
 20
124.912433226
 11
177.4272901951
 21
127.8320484683
  0
LINE
  5
467
100
AcDbEntity
  8
0
100
AcDbLine
 62
7
  6
CONTINUOUS
 10
181.5772901951
 20
36.612433226
 11
181.5772901951
 21
115.212433226
  0
LINE
  5
468
100
AcDbEntity
  8
0
100
AcDbLine
 62
7
  6
CONTINUOUS
 10
108.7952393876
 20
113.912433226
 11
109.9772901951
 21
113.912433226
  0
LINE
  5
469
100
AcDbEntity
  8
00_BLANKED_OBJECTS
100
AcDbLine
 62
7
  6
CONTINUOUS
 10
110.9772901951
 20
114.912433226
 11
110.5272901951
 21
114.912433226
  0
LINE
  5
46A
100
AcDbEntity
  8
0
100
AcDbLine
 62
7
  6
CONTINUOUS
 10
110.5272901951
 20
114.912433226
 11
108.7952393876
 21
114.912433226
  0
LINE
  5
46B
100
AcDbEntity
  8
0
100
AcDbLine
 62
7
  6
CONTINUOUS
 10
110.9772901951
 20
115.162433226
 11
108.5772901951
 21
115.162433226
  0
LINE
  5
46C
100
AcDbEntity
  8
0
100
AcDbLine
 62
7
  6
CONTINUOUS
 10
180.8772901951
 20
115.912433226
 11
132.2772901951
 21
115.912433226
  0
LINE
  5
46D
100
AcDbEntity
  8
0
100
AcDbLine
 62
7
  6
CONTINUOUS
 10
114.4772901951
 20
115.912433226
 11
116.5772901951
 21
115.912433226
  0
LINE
  5
46E
100
AcDbEntity
  8
0
100
AcDbLine
 62
7
  6
CONTINUOUS
 10
197.8701834139
 20
117.212433226
 11
190.5772901951
 21
117.212433226
  0
LINE
  5
46F
100
AcDbEntity
  8
AXIS
100
AcDbLine
 62
7
  6
CONTINUOUS
 10
190.5772901951
 20
117.412433226
 11
194.7272901951
 21
117.412433226
  0
LINE
  5
470
100
AcDbEntity
  8
0
100
AcDbLine
 62
7
  6
CONTINUOUS
 10
190.2772901951
 20
122.312433226
 11
189.8355477646
 21
122.312433226
  0
LINE
  5
471
100
AcDbEntity
  8
0
100
AcDbLine
 62
7
  6
CONTINUOUS
 10
190.2821851747
 20
122.312433226
 11
190.5772874367
 21
122.312433226
  0
LINE
  5
472
100
AcDbEntity
  8
0
100
AcDbLine
 62
7
  6
CONTINUOUS
 10
95.6772901951
 20
122.712433226
 11
94.6772901951
 21
122.712433226
  0
LINE
  5
473
100
AcDbEntity
  8
0
100
AcDbLine
 62
7
  6
CONTINUOUS
 10
94.6772901951
 20
122.912433226
 11
95.5772901951
 21
122.912433226
  0
LINE
  5
474
100
AcDbEntity
  8
00_COMPONENTS
100
AcDbLine
 62
7
  6
CONTINUOUS
 10
114.4772901951
 20
122.912433226
 11
114.5772901951
 21
122.912433226
  0
LINE
  5
475
100
AcDbEntity
  8
0
100
AcDbLine
 62
7
  6
CONTINUOUS
 10
114.5772901951
 20
123.912433226
 11
114.4772901951
 21
123.912433226
  0
LINE
  5
476
100
AcDbEntity
  8
0
100
AcDbLine
 62
7
  6
CONTINUOUS
 10
129.7543137965
 20
125.6511327903
 11
114.5772901951
 21
128.0549371792
  0
LINE
  5
477
100
AcDbEntity
  8
0
100
AcDbLine
 62
7
  6
CONTINUOUS
 10
114.4772901951
 20
128.0707756232
 11
113.8272387237
 21
128.1737336617
  0
LINE
  5
478
100
AcDbEntity
  8
0
100
AcDbLine
 62
7
  6
CONTINUOUS
 10
189.8772901951
 20
122.312433226
 11
189.8772901951
 21
124.412433226
  0
LINE
  5
479
100
AcDbEntity
  8
0
100
AcDbLine
 62
7
  6
CONTINUOUS
 10
190.5772901951
 20
122.312433226
 11
190.5772901951
 21
122.0178305849
  0
LINE
  5
47A
100
AcDbEntity
  8
0
100
AcDbLine
 62
7
  6
CONTINUOUS
 10
190.5772901951
 20
117.212433226
 11
190.5772901951
 21
122.012433226
  0
LINE
  5
47B
100
AcDbEntity
  8
0
100
AcDbLine
 62
7
  6
CONTINUOUS
 10
191.5272901951
 20
29.612433226
 11
191.5272901951
 21
27.6195400072
  0
LINE
  5
47C
100
AcDbEntity
  8
0
100
AcDbLine
 62
7
  6
CONTINUOUS
 10
189.3772901951
 20
124.912433226
 11
139.1403816989
 21
124.912433226
  0
LINE
  5
47D
100
AcDbEntity
  8
0
100
AcDbLine
 62
7
  6
CONTINUOUS
 10
94.6772901951
 20
125.912433226
 11
95.5772901951
 21
125.912433226
  0
LINE
  5
47E
100
AcDbEntity
  8
0
100
AcDbLine
 62
7
  6
CONTINUOUS
 10
95.6772901951
 20
126.112433226
 11
94.6772901951
 21
126.112433226
  0
LINE
  5
47F
100
AcDbEntity
  8
0
100
AcDbLine
 62
7
  6
CONTINUOUS
 10
114.5772901951
 20
126.912433226
 11
114.4772901951
 21
126.912433226
  0
LINE
  5
480
100
AcDbEntity
  8
0
100
AcDbLine
 62
7
  6
CONTINUOUS
 10
97.3566181319
 20
128.212433226
 11
97.8564326804
 21
128.212433226
  0
LINE
  5
481
100
AcDbEntity
  8
0
100
AcDbLine
 62
7
  6
CONTINUOUS
 10
104.4411708213
 20
128.912433226
 11
97.9315422262
 21
128.912433226
  0
LINE
  5
482
100
AcDbEntity
  8
0
100
AcDbLine
 62
7
  6
CONTINUOUS
 10
172.1778455451
 20
128.912433226
 11
176.6767348452
 21
128.912433226
  0
LINE
  5
483
100
AcDbEntity
  8
0
100
AcDbLine
 62
7
  6
CONTINUOUS
 10
194.1772901951
 20
38.512433226
 11
194.1772901951
 21
47.912433226
  0
LINE
  5
484
100
AcDbEntity
  8
0
100
AcDbLine
 62
7
  6
CONTINUOUS
 10
194.8772901951
 20
117.262433226
 11
194.8772901951
 21
117.212433226
  0
LINE
  5
485
100
AcDbEntity
  8
0
100
AcDbLine
 62
7
  6
CONTINUOUS
 10
196.1772901951
 20
48.412433226
 11
196.1772901951
 21
50.612433226
  0
LINE
  5
486
100
AcDbEntity
  8
AXIS
100
AcDbLine
 62
7
  6
CONTINUOUS
 10
196.7772901951
 20
51.2195400072
 11
196.7772901951
 21
47.912433226
  0
LINE
  5
487
100
AcDbEntity
  8
0
100
AcDbLine
 62
7
  6
CONTINUOUS
 10
196.7772901951
 20
30.0766467884
 11
196.7772901951
 21
36.633035629
  0
LINE
  5
488
100
AcDbEntity
  8
0
100
AcDbLine
 62
7
  6
CONTINUOUS
 10
196.8772901951
 20
51.5195400072
 11
196.8772901951
 21
55.912433226
  0
LINE
  5
489
100
AcDbEntity
  8
0
100
AcDbLine
 62
7
  6
CONTINUOUS
 10
198.5772901951
 20
57.8195400072
 11
198.5772901951
 21
116.5053264448
  0
LINE
  5
48A
100
AcDbEntity
  8
0
100
AcDbLine
 62
7
  6
CONTINUOUS
 10
196.8772901951
 20
55.912433226
 11
198.4308435857
 21
57.4659866166
  0
LINE
  5
48B
100
AcDbEntity
  8
0
100
AcDbLine
 62
7
  6
CONTINUOUS
 10
97.428636527
 20
128.912433226
 11
91.7867036531
 21
128.6167520532
  0
LINE
  5
48C
100
AcDbEntity
  8
0
100
AcDbLine
 62
7
  6
CONTINUOUS
 10
177.3870978163
 20
127.9820484683
 11
176.9365424663
 21
128.762433226
  0
LINE
  5
48D
100
AcDbEntity
  8
0
100
AcDbLine
 62
7
  6
CONTINUOUS
 10
179.8808800336
 20
27.412433226
 11
179.592204899
 21
26.912433226
  0
LINE
  5
48E
100
AcDbEntity
  8
0
100
AcDbLine
 62
7
  6
CONTINUOUS
 10
196.1772901951
 20
50.612433226
 11
196.7308435857
 21
51.1659866166
  0
LINE
  5
48F
100
AcDbEntity
  8
0
100
AcDbLine
 62
7
  6
CONTINUOUS
 10
193.6772901951
 20
38.233035629
 11
194.1772901951
 21
38.512433226
  0
LINE
  5
490
100
AcDbEntity
  8
0
100
AcDbLine
 62
7
  6
CONTINUOUS
 10
186.448829226
 20
26.312433226
 11
188.5272901951
 21
29.912433226
  0
LINE
  5
491
100
AcDbEntity
  8
0
100
AcDbLine
 62
7
  6
CONTINUOUS
 10
197.1151952719
 20
42.4925165955
 11
197.3088094175
 21
42.7216749744
  0
LINE
  5
492
100
AcDbEntity
  8
0
100
AcDbLine
 62
7
  6
CONTINUOUS
 10
197.7262842823
 20
41.9762122072
 11
197.9198984279
 21
42.2053705861
  0
LINE
  5
493
100
AcDbEntity
  8
0
100
AcDbLine
 62
7
  6
CONTINUOUS
 10
195.3620118543
 20
37.7833737435
 11
197.9619930792
 21
40.8606668862
  0
LINE
  5
494
100
AcDbEntity
  8
0
100
AcDbLine
 62
7
  6
CONTINUOUS
 10
198.1911514581
 20
40.6670527406
 11
195.6204056731
 21
37.6243621627
  0
LINE
  5
495
100
AcDbEntity
  8
0
100
AcDbLine
 62
7
  6
CONTINUOUS
 10
196.7772901951
 20
30.0766467884
 11
196.2772901951
 21
29.8695400072
  0
LINE
  5
496
100
AcDbEntity
  8
0
100
AcDbLine
 62
7
  6
CONTINUOUS
 10
198.4308435857
 20
116.8588798354
 11
198.2237368045
 21
117.0659866166
  0
LINE
  5
497
100
AcDbEntity
  8
00_COMPONENTS
100
AcDbLine
 62
7
  6
CONTINUOUS
 10
42.977195122
 20
151.2123537256
 11
43.0919093246
 21
151.2123537256
  0
LINE
  5
498
100
AcDbEntity
  8
00_COMPONENTS
100
AcDbLine
 62
7
  6
CONTINUOUS
 10
44.4624809193
 20
151.2123537256
 11
44.577195122
 21
151.2123537256
  0
LINE
  5
499
100
AcDbEntity
  8
00_COMPONENTS
100
AcDbLine
 62
7
  6
CONTINUOUS
 10
42.9427776874
 20
151.7823537256
 11
44.552195122
 21
151.7823537256
  0
LINE
  5
49A
100
AcDbEntity
  8
00_COMPONENTS
100
AcDbLine
 62
7
  6
CONTINUOUS
 10
37.652195122
 20
153.2823537256
 11
41.9860740437
 21
153.2823537256
  0
LINE
  5
49B
100
AcDbEntity
  8
00_COMPONENTS
100
AcDbLine
 62
7
  6
CONTINUOUS
 10
45.052195122
 20
153.2823537256
 11
48.952195122
 21
153.2823537256
  0
LINE
  5
49C
100
AcDbEntity
  8
00_COMPONENTS
100
AcDbLine
 62
7
  6
CONTINUOUS
 10
49.352195122
 20
153.2823537256
 11
52.052195122
 21
153.2823537256
  0
LINE
  5
49D
100
AcDbEntity
  8
00_COMPONENTS
100
AcDbLine
 62
7
  6
CONTINUOUS
 10
50.1413993094
 20
153.7823537256
 11
47.5629909345
 21
153.7823537256
  0
LINE
  5
49E
100
AcDbEntity
  8
00_COMPONENTS
100
AcDbLine
 62
7
  6
CONTINUOUS
 10
38.602195122
 20
154.0823537256
 11
37.352195122
 21
154.0823537256
  0
LINE
  5
49F
100
AcDbEntity
  8
00_COMPONENTS
100
AcDbLine
 62
7
  6
CONTINUOUS
 10
50.8521951219
 20
154.0823537256
 11
52.352195122
 21
154.0823537256
  0
LINE
  5
4A0
100
AcDbEntity
  8
00_COMPONENTS
100
AcDbLine
 62
7
  6
CONTINUOUS
 10
49.8690897363
 20
155.2271974385
 11
49.6291407854
 21
155.2271974385
  0
LINE
  5
4A1
100
AcDbEntity
  8
00_COMPONENTS
100
AcDbLine
 62
7
  6
CONTINUOUS
 10
48.5228652581
 20
155.2271974385
 11
48.2829163071
 21
155.2271974385
  0
LINE
  5
4A2
100
AcDbEntity
  8
00_COMPONENTS
100
AcDbLine
 62
7
  6
CONTINUOUS
 10
47.8353005076
 20
155.4478225869
 11
48.5228652581
 21
155.4478225869
  0
LINE
  5
4A3
100
AcDbEntity
  8
00_COMPONENTS
100
AcDbLine
 62
7
  6
CONTINUOUS
 10
49.6291407854
 20
155.4478225869
 11
49.8690897363
 21
155.4478225869
  0
LINE
  5
4A4
100
AcDbEntity
  8
00_COMPONENTS
100
AcDbLine
 62
7
  6
CONTINUOUS
 10
37.352195122
 20
156.4323537256
 11
38.602195122
 21
156.4323537256
  0
LINE
  5
4A5
100
AcDbEntity
  8
00_COMPONENTS
100
AcDbLine
 62
7
  6
CONTINUOUS
 10
49.8690897363
 20
156.4406357546
 11
47.8353005076
 21
156.4406357546
  0
LINE
  5
4A6
100
AcDbEntity
  8
00_COMPONENTS
100
AcDbLine
 62
7
  6
CONTINUOUS
 10
47.5629909345
 20
156.7823537256
 11
50.1413993094
 21
156.7823537256
  0
LINE
  5
4A7
100
AcDbEntity
  8
00_COMPONENTS
100
AcDbLine
 62
7
  6
CONTINUOUS
 10
44.057195122
 20
160.7123537256
 11
38.257195122
 21
160.7123537256
  0
LINE
  5
4A8
100
AcDbEntity
  8
00_COMPONENTS
100
AcDbLine
 62
7
  6
CONTINUOUS
 10
52.0588611592
 20
161.4323537256
 11
52.352195122
 21
161.4323537256
  0
LWPOLYLINE
  5
4A9
100
AcDbEntity
  8
0
100
AcDbPolyline
 62
7
  6
CONTINUOUS
 90
15
 70
0
 10
56.565966429
 20
166.8805414201
 10
56.6072124654
 20
166.8822468508
 10
56.664511343
 20
166.8903574414
 10
56.7204998861
 20
166.9050435781
 10
56.7744349518
 20
166.9261154763
 10
56.8255853172
 20
166.9532933339
 10
56.8732600549
 20
166.9862142083
 10
56.9168167414
 20
167.0244379735
 10
56.955668429
 20
167.0674528364
 10
56.989290937
 20
167.1146814717
 10
57.0172308531
 20
167.1654896411
 10
57.0391112294
 20
167.2191939307
 10
57.0546365887
 20
167.2750691145
 10
57.0636000066
 20
167.3323712664
 10
57.0658895263
 20
167.3722606747
  0
LINE
  5
4AA
100
AcDbEntity
  8
00_COMPONENTS
100
AcDbLine
 62
7
  6
CONTINUOUS
 10
49.01265504
 20
163.4123537256
 11
42.4382910246
 21
163.4123537256
  0
LINE
  5
4AB
100
AcDbEntity
  8
00_COMPONENTS
100
AcDbLine
 62
7
  6
CONTINUOUS
 10
42.435744058
 20
163.4123537256
 11
33.5126947516
 21
163.4123537256
  0
LINE
  5
4AC
100
AcDbEntity
  8
0
100
AcDbLine
 62
7
  6
CONTINUOUS
 10
56.565966429
 20
166.8805411124
 11
29.9584238149
 21
166.8805411124
  0
LINE
  5
4AD
100
AcDbEntity
  8
0
100
AcDbLine
 62
7
  6
CONTINUOUS
 10
57.1250137752
 20
170.9123537256
 11
57.1211612438
 21
170.9123537256
  0
LINE
  5
4AE
100
AcDbEntity
  8
0
100
AcDbLine
 62
7
  6
CONTINUOUS
 10
29.4032290001
 20
170.9123537256
 11
29.3993764687
 21
170.9123537256
  0
LINE
  5
4AF
100
AcDbEntity
  8
0
100
AcDbLine
 62
7
  6
CONTINUOUS
 10
29.3819214038
 20
171.9123537256
 11
29.3857739352
 21
171.9123537256
  0
LINE
  5
4B0
100
AcDbEntity
  8
0
100
AcDbLine
 62
7
  6
CONTINUOUS
 10
57.1386163087
 20
171.9123537256
 11
57.1424688401
 21
171.9123537256
  0
LINE
  5
4B1
100
AcDbEntity
  8
0
100
AcDbLine
 62
7
  6
CONTINUOUS
 10
57.1251582027
 20
172.2123537256
 11
57.1193033452
 21
172.2123537256
  0
LINE
  5
4B2
100
AcDbEntity
  8
0
100
AcDbLine
 62
7
  6
CONTINUOUS
 10
29.4050868987
 20
172.2123537256
 11
29.3992320412
 21
172.2123537256
  0
LINE
  5
4B3
100
AcDbEntity
  8
0
100
AcDbLine
 62
7
  6
CONTINUOUS
 10
29.3817769763
 20
173.2123537256
 11
29.3876318338
 21
173.2123537256
  0
LINE
  5
4B4
100
AcDbEntity
  8
0
100
AcDbLine
 62
7
  6
CONTINUOUS
 10
57.1367584101
 20
173.2123537256
 11
57.1426132676
 21
173.2123537256
  0
LINE
  5
4B5
100
AcDbEntity
  8
0
100
AcDbLine
 62
7
  6
CONTINUOUS
 10
29.362195122
 20
173.3680386899
 11
29.3727999937
 21
173.3680386899
  0
LINE
  5
4B6
100
AcDbEntity
  8
0
100
AcDbLine
 62
7
  6
CONTINUOUS
 10
57.1515902502
 20
173.3680386899
 11
57.162195122
 21
173.3680386899
  0
LINE
  5
4B7
100
AcDbEntity
  8
0
100
AcDbLine
 62
7
  6
CONTINUOUS
 10
56.6635108693
 20
174.9637000575
 11
29.8608793746
 21
174.9637000575
  0
LINE
  5
4B8
100
AcDbEntity
  8
0
100
AcDbLine
 62
7
  6
CONTINUOUS
 10
31.212195122
 20
175.3279203946
 11
38.762195122
 21
175.3279203946
  0
LINE
  5
4B9
100
AcDbEntity
  8
0
100
AcDbLine
 62
7
  6
CONTINUOUS
 10
39.762195122
 20
175.3279203946
 11
46.762195122
 21
175.3279203946
  0
LINE
  5
4BA
100
AcDbEntity
  8
0
100
AcDbLine
 62
7
  6
CONTINUOUS
 10
47.762195122
 20
175.3279203946
 11
55.312195122
 21
175.3279203946
  0
LINE
  5
4BB
100
AcDbEntity
  8
0
100
AcDbLine
 62
7
  6
CONTINUOUS
 10
30.212195122
 20
175.3914962109
 11
31.212195122
 21
175.3914962109
  0
LINE
  5
4BC
100
AcDbEntity
  8
0
100
AcDbLine
 62
7
  6
CONTINUOUS
 10
38.762195122
 20
175.3914962109
 11
39.762195122
 21
175.3914962109
  0
LINE
  5
4BD
100
AcDbEntity
  8
0
100
AcDbLine
 62
7
  6
CONTINUOUS
 10
46.762195122
 20
175.3914962109
 11
47.762195122
 21
175.3914962109
  0
LINE
  5
4BE
100
AcDbEntity
  8
0
100
AcDbLine
 62
7
  6
CONTINUOUS
 10
55.312195122
 20
175.3914962109
 11
56.312195122
 21
175.3914962109
  0
LINE
  5
4BF
100
AcDbEntity
  8
0
100
AcDbLine
 62
7
  6
CONTINUOUS
 10
29.862195122
 20
175.4666057567
 11
56.662195122
 21
175.4666057567
  0
LINE
  5
4C0
100
AcDbEntity
  8
0
100
AcDbLine
 62
7
  6
CONTINUOUS
 10
48.412195122
 20
176.8123537256
 11
31.362195122
 21
176.8123537256
  0
LINE
  5
4C1
100
AcDbEntity
  8
0
100
AcDbLine
 62
7
  6
CONTINUOUS
 10
50.862195122
 20
176.8123537256
 11
53.862195122
 21
176.8123537256
  0
LINE
  5
4C2
100
AcDbEntity
  8
0
100
AcDbLine
 62
7
  6
CONTINUOUS
 10
30.962195122
 20
177.5123537256
 11
30.862195122
 21
177.5123537256
  0
LINE
  5
4C3
100
AcDbEntity
  8
0
100
AcDbLine
 62
7
  6
CONTINUOUS
 10
31.362195122
 20
180.0123537256
 11
48.412195122
 21
180.0123537256
  0
LINE
  5
4C4
100
AcDbEntity
  8
0
100
AcDbLine
 62
7
  6
CONTINUOUS
 10
53.862195122
 20
180.4123537256
 11
50.862195122
 21
180.4123537256
  0
LINE
  5
4C5
100
AcDbEntity
  8
0
100
AcDbLine
 62
7
  6
CONTINUOUS
 10
55.162195122
 20
181.3123537256
 11
31.362195122
 21
181.3123537256
  0
LINE
  5
4C6
100
AcDbEntity
  8
00_COMPONENTS
100
AcDbLine
 62
7
  6
CONTINUOUS
 10
35.362195122
 20
181.7123537256
 11
36.312195122
 21
181.7123537256
  0
LINE
  5
4C7
100
AcDbEntity
  8
00_COMPONENTS
100
AcDbLine
 62
7
  6
CONTINUOUS
 10
37.512195122
 20
181.7123537256
 11
38.762195122
 21
181.7123537256
  0
LINE
  5
4C8
100
AcDbEntity
  8
00_COMPONENTS
100
AcDbLine
 62
7
  6
CONTINUOUS
 10
36.312195122
 20
183.1123537256
 11
35.662195122
 21
183.1123537256
  0
LINE
  5
4C9
100
AcDbEntity
  8
00_COMPONENTS
100
AcDbLine
 62
7
  6
CONTINUOUS
 10
38.762195122
 20
184.1123537256
 11
37.512195122
 21
184.1123537256
  0
LINE
  5
4CA
100
AcDbEntity
  8
00_COMPONENTS
100
AcDbLine
 62
7
  6
CONTINUOUS
 10
36.312195122
 20
184.1123537256
 11
35.662195122
 21
184.1123537256
  0
LINE
  5
4CB
100
AcDbEntity
  8
0
100
AcDbLine
 62
7
  6
CONTINUOUS
 10
31.362195122
 20
184.5123537256
 11
55.162195122
 21
184.5123537256
  0
LINE
  5
4CC
100
AcDbEntity
  8
00_COMPONENTS
100
AcDbLine
 62
7
  6
CONTINUOUS
 10
50.8521951219
 20
163.7823537256
 11
52.0588611592
 21
162.5756876883
  0
LINE
  5
4CD
100
AcDbEntity
  8
0
100
AcDbLine
 62
7
  6
CONTINUOUS
 10
55.162195122
 20
185.8123537256
 11
31.362195122
 21
185.8123537256
  0
LINE
  5
4CE
100
AcDbEntity
  8
0
100
AcDbLine
 62
7
  6
CONTINUOUS
 10
29.362195122
 20
188.5123537256
 11
29.162195122
 21
188.5123537256
  0
LINE
  5
4CF
100
AcDbEntity
  8
0
100
AcDbLine
 62
7
  6
CONTINUOUS
 10
57.162195122
 20
188.5123537256
 11
57.362195122
 21
188.5123537256
  0
LINE
  5
4D0
100
AcDbEntity
  8
00_COMPONENTS
100
AcDbLine
 62
7
  6
CONTINUOUS
 10
35.662195122
 20
188.8623537256
 11
35.362195122
 21
188.8623537256
  0
LINE
  5
4D1
100
AcDbEntity
  8
0
100
AcDbLine
 62
7
  6
CONTINUOUS
 10
31.362195122
 20
189.0123537256
 11
55.162195122
 21
189.0123537256
  0
LINE
  5
4D2
100
AcDbEntity
  8
0
100
AcDbLine
 62
7
  6
CONTINUOUS
 10
29.362195122
 20
192.0123537256
 11
57.162195122
 21
192.0123537256
  0
LINE
  5
4D3
100
AcDbEntity
  8
0
100
AcDbLine
 62
7
  6
CONTINUOUS
 10
57.162195122
 20
192.1123537256
 11
29.362195122
 21
192.1123537256
  0
LINE
  5
4D4
100
AcDbEntity
  8
0
100
AcDbLine
 62
7
  6
CONTINUOUS
 10
55.162195122
 20
194.8123537256
 11
31.362195122
 21
194.8123537256
  0
LINE
  5
4D5
100
AcDbEntity
  8
0
100
AcDbLine
 62
7
  6
CONTINUOUS
 10
29.162195122
 20
188.0623537256
 11
29.362195122
 21
187.7159435641
  0
LINE
  5
4D6
100
AcDbEntity
  8
0
100
AcDbLine
 62
7
  6
CONTINUOUS
 10
35.062195122
 20
195.3123537256
 11
36.315195122
 21
195.3123537256
  0
LINE
  5
4D7
100
AcDbEntity
  8
0
100
AcDbLine
 62
7
  6
CONTINUOUS
 10
37.812195122
 20
195.3123537256
 11
49.312195122
 21
195.3123537256
  0
LINE
  5
4D8
100
AcDbEntity
  8
0
100
AcDbLine
 62
7
  6
CONTINUOUS
 10
50.812195122
 20
195.3123537256
 11
53.012195122
 21
195.3123537256
  0
LINE
  5
4D9
100
AcDbEntity
  8
0
100
AcDbLine
 62
7
  6
CONTINUOUS
 10
54.512195122
 20
195.3123537256
 11
55.362195122
 21
195.3123537256
  0
LINE
  5
4DA
100
AcDbEntity
  8
0
100
AcDbLine
 62
7
  6
CONTINUOUS
 10
37.562195122
 20
196.3277337635
 11
37.512195122
 21
196.3277337635
  0
LINE
  5
4DB
100
AcDbEntity
  8
0
100
AcDbLine
 62
7
  6
CONTINUOUS
 10
53.012195122
 20
197.2277337635
 11
50.812195122
 21
197.2277337635
  0
LINE
  5
4DC
100
AcDbEntity
  8
0
100
AcDbLine
 62
7
  6
CONTINUOUS
 10
36.315195122
 20
197.8277337635
 11
35.062195122
 21
197.8277337635
  0
LINE
  5
4DD
100
AcDbEntity
  8
0
100
AcDbLine
 62
7
  6
CONTINUOUS
 10
31.362195122
 20
198.0123537256
 11
55.162195122
 21
198.0123537256
  0
LINE
  5
4DE
100
AcDbEntity
  8
0
100
AcDbLine
 62
7
  6
CONTINUOUS
 10
55.162195122
 20
199.3123537256
 11
31.362195122
 21
199.3123537256
  0
LINE
  5
4DF
100
AcDbEntity
  8
00_COMPONENTS
100
AcDbLine
 62
7
  6
CONTINUOUS
 10
42.2579663798
 20
153.1091392041
 11
42.6708853513
 21
151.9555682471
  0
LINE
  5
4E0
100
AcDbEntity
  8
0
100
AcDbLine
 62
7
  6
CONTINUOUS
 10
30.8979599507
 20
177.5123537256
 11
31.0229722683
 21
176.9459937842
  0
LWPOLYLINE
  5
4E1
100
AcDbEntity
  8
0
100
AcDbPolyline
 62
7
  6
CONTINUOUS
 90
15
 70
0
 10
29.4585007175
 20
167.3722606747
 10
29.4609381591
 20
167.3308779128
 10
29.4700741067
 20
167.2735989269
 10
29.4857683819
 20
167.2177673806
 10
29.5078114154
 20
167.1641271609
 10
29.5359055034
 20
167.1134019478
 10
29.5696717798
 20
167.0662736459
 10
29.6086551751
 20
167.0233749114
 10
29.6523299404
 20
166.9852815656
 10
29.7001069273
 20
166.952504286
 10
29.7513412665
 20
166.9254816945
 10
29.8053395892
 20
166.9045746304
 10
29.8613681941
 20
166.8900601181
 10
29.9186833303
 20
166.8821244357
 10
29.9584238149
 20
166.8805414201
  0
LINE
  5
4E2
100
AcDbEntity
  8
0
100
AcDbLine
 62
7
  6
CONTINUOUS
 10
29.4585003845
 20
167.3722606689
 11
29.3727763249
 21
172.2833887539
  0
LINE
  5
4E3
100
AcDbEntity
  8
0
100
AcDbLine
 62
7
  6
CONTINUOUS
 10
29.3819214038
 20
171.9123537256
 11
29.3993764687
 21
170.9123537256
  0
LINE
  5
4E4
100
AcDbEntity
  8
0
100
AcDbLine
 62
7
  6
CONTINUOUS
 10
29.3857739352
 20
171.9123537256
 11
29.4032290001
 21
170.9123537256
  0
LINE
  5
4E5
100
AcDbEntity
  8
0
100
AcDbLine
 62
7
  6
CONTINUOUS
 10
29.3817769763
 20
173.2123537256
 11
29.3992320412
 21
172.2123537256
  0
LINE
  5
4E6
100
AcDbEntity
  8
0
100
AcDbLine
 62
7
  6
CONTINUOUS
 10
29.3876318338
 20
173.2123537256
 11
29.4050868987
 21
172.2123537256
  0
LINE
  5
4E7
100
AcDbEntity
  8
00_BLANKED_OBJECTS
100
AcDbLine
 62
7
  6
CONTINUOUS
 10
29.162195122
 20
188.5123537256
 11
29.162195122
 21
188.0623537256
  0
LINE
  5
4E8
100
AcDbEntity
  8
0
100
AcDbLine
 62
7
  6
CONTINUOUS
 10
29.362195122
 20
169.4123537256
 11
29.362195122
 21
192.0123537256
  0
LINE
  5
4E9
100
AcDbEntity
  8
0
100
AcDbLine
 62
7
  6
CONTINUOUS
 10
29.362195122
 20
192.1123537256
 11
29.362195122
 21
276.0623531005
  0
LINE
  5
4EA
100
AcDbEntity
  8
0
100
AcDbLine
 62
7
  6
CONTINUOUS
 10
29.3727763249
 20
172.2833887539
 11
29.3728200929
 21
174.2976435535
  0
LINE
  5
4EB
100
AcDbEntity
  8
0
100
AcDbLine
 62
7
  6
CONTINUOUS
 10
29.4588866217
 20
169.3392089735
 11
29.4585003845
 21
167.3722606689
  0
LINE
  5
4EC
100
AcDbEntity
  8
0
100
AcDbLine
 62
7
  6
CONTINUOUS
 10
54.862195122
 20
199.8123537256
 11
54.512195122
 21
199.8123537256
  0
LINE
  5
4ED
100
AcDbEntity
  8
0
100
AcDbLine
 62
7
  6
CONTINUOUS
 10
49.612195122
 20
199.8123537256
 11
39.062195122
 21
199.8123537256
  0
LINE
  5
4EE
100
AcDbEntity
  8
0
100
AcDbLine
 62
7
  6
CONTINUOUS
 10
31.362195122
 20
202.5123537256
 11
55.162195122
 21
202.5123537256
  0
LINE
  5
4EF
100
AcDbEntity
  8
0
100
AcDbLine
 62
7
  6
CONTINUOUS
 10
55.162195122
 20
203.8123537256
 11
31.362195122
 21
203.8123537256
  0
LINE
  5
4F0
100
AcDbEntity
  8
0
100
AcDbLine
 62
7
  6
CONTINUOUS
 10
54.862195122
 20
204.3123537256
 11
54.512195122
 21
204.3123537256
  0
LINE
  5
4F1
100
AcDbEntity
  8
0
100
AcDbLine
 62
7
  6
CONTINUOUS
 10
49.612195122
 20
204.3123537256
 11
39.062195122
 21
204.3123537256
  0
LINE
  5
4F2
100
AcDbEntity
  8
0
100
AcDbLine
 62
7
  6
CONTINUOUS
 10
30.062195122
 20
192.0123537256
 11
30.062195122
 21
192.1123537256
  0
LINE
  5
4F3
100
AcDbEntity
  8
0
100
AcDbLine
 62
7
  6
CONTINUOUS
 10
30.212195122
 20
174.9637000575
 11
30.212195122
 21
175.3914962109
  0
LINE
  5
4F4
100
AcDbEntity
  8
0
100
AcDbLine
 62
7
  6
CONTINUOUS
 10
30.862195122
 20
260.5123537256
 11
30.862195122
 21
258.3123537256
  0
LINE
  5
4F5
100
AcDbEntity
  8
0
100
AcDbLine
 62
7
  6
CONTINUOUS
 10
30.862195122
 20
256.0123537256
 11
30.862195122
 21
253.8123537256
  0
LINE
  5
4F6
100
AcDbEntity
  8
0
100
AcDbLine
 62
7
  6
CONTINUOUS
 10
30.862195122
 20
251.5123537256
 11
30.862195122
 21
249.3123537256
  0
LINE
  5
4F7
100
AcDbEntity
  8
0
100
AcDbLine
 62
7
  6
CONTINUOUS
 10
30.862195122
 20
247.0123537256
 11
30.862195122
 21
244.8123537256
  0
LINE
  5
4F8
100
AcDbEntity
  8
0
100
AcDbLine
 62
7
  6
CONTINUOUS
 10
30.862195122
 20
242.5123537256
 11
30.862195122
 21
240.3123537256
  0
LINE
  5
4F9
100
AcDbEntity
  8
0
100
AcDbLine
 62
7
  6
CONTINUOUS
 10
30.862195122
 20
238.0123537256
 11
30.862195122
 21
235.8123537256
  0
LINE
  5
4FA
100
AcDbEntity
  8
0
100
AcDbLine
 62
7
  6
CONTINUOUS
 10
30.862195122
 20
233.5123537256
 11
30.862195122
 21
231.3123537256
  0
LINE
  5
4FB
100
AcDbEntity
  8
0
100
AcDbLine
 62
7
  6
CONTINUOUS
 10
30.862195122
 20
229.0123537256
 11
30.862195122
 21
226.8123537256
  0
LINE
  5
4FC
100
AcDbEntity
  8
0
100
AcDbLine
 62
7
  6
CONTINUOUS
 10
30.862195122
 20
224.5123537256
 11
30.862195122
 21
222.3123537256
  0
LINE
  5
4FD
100
AcDbEntity
  8
0
100
AcDbLine
 62
7
  6
CONTINUOUS
 10
30.862195122
 20
220.0123537256
 11
30.862195122
 21
217.8123537256
  0
LINE
  5
4FE
100
AcDbEntity
  8
0
100
AcDbLine
 62
7
  6
CONTINUOUS
 10
30.862195122
 20
215.5123537256
 11
30.862195122
 21
213.3123537256
  0
LINE
  5
4FF
100
AcDbEntity
  8
0
100
AcDbLine
 62
7
  6
CONTINUOUS
 10
30.862195122
 20
211.0123537256
 11
30.862195122
 21
208.8123537256
  0
LINE
  5
500
100
AcDbEntity
  8
0
100
AcDbLine
 62
7
  6
CONTINUOUS
 10
30.862195122
 20
206.5123537256
 11
30.862195122
 21
204.3123537256
  0
LINE
  5
501
100
AcDbEntity
  8
0
100
AcDbLine
 62
7
  6
CONTINUOUS
 10
30.862195122
 20
202.0123537256
 11
30.862195122
 21
199.8123537256
  0
LINE
  5
502
100
AcDbEntity
  8
0
100
AcDbLine
 62
7
  6
CONTINUOUS
 10
30.862195122
 20
197.5123537256
 11
30.862195122
 21
195.3123537256
  0
LINE
  5
503
100
AcDbEntity
  8
0
100
AcDbLine
 62
7
  6
CONTINUOUS
 10
30.862195122
 20
188.5123537256
 11
30.862195122
 21
186.3123537256
  0
LINE
  5
504
100
AcDbEntity
  8
0
100
AcDbLine
 62
7
  6
CONTINUOUS
 10
30.862195122
 20
184.0123537256
 11
30.862195122
 21
181.8123537256
  0
LINE
  5
505
100
AcDbEntity
  8
0
100
AcDbLine
 62
7
  6
CONTINUOUS
 10
30.862195122
 20
179.5123537256
 11
30.862195122
 21
177.3123537256
  0
LINE
  5
506
100
AcDbEntity
  8
0
100
AcDbLine
 62
7
  6
CONTINUOUS
 10
30.862195122
 20
268.1123537256
 11
30.862195122
 21
272.2623537256
  0
LINE
  5
507
100
AcDbEntity
  8
0
100
AcDbLine
 62
7
  6
CONTINUOUS
 10
31.212195122
 20
174.9637000575
 11
31.212195122
 21
175.3914962109
  0
LINE
  5
508
100
AcDbEntity
  8
0
100
AcDbLine
 62
7
  6
CONTINUOUS
 10
31.31136202
 20
267.8123537256
 11
31.31136202
 21
267.4123537256
  0
LINE
  5
509
100
AcDbEntity
  8
0
100
AcDbLine
 62
7
  6
CONTINUOUS
 10
31.562195122
 20
177.1712696338
 11
31.562195122
 21
176.8123537256
  0
LINE
  5
50A
100
AcDbEntity
  8
0
100
AcDbLine
 62
7
  6
CONTINUOUS
 10
31.662195122
 20
176.887658649
 11
31.662195122
 21
176.8123537256
  0
LINE
  5
50B
100
AcDbEntity
  8
0
100
AcDbLine
 62
7
  6
CONTINUOUS
 10
31.662195122
 20
226.3123537256
 11
31.662195122
 21
229.5123537256
  0
LINE
  5
50C
100
AcDbEntity
  8
0
100
AcDbLine
 62
7
  6
CONTINUOUS
 10
31.662195122
 20
230.8123537256
 11
31.662195122
 21
234.0123537256
  0
LINE
  5
50D
100
AcDbEntity
  8
0
100
AcDbLine
 62
7
  6
CONTINUOUS
 10
31.662195122
 20
235.3123537256
 11
31.662195122
 21
238.5123537256
  0
LINE
  5
50E
100
AcDbEntity
  8
0
100
AcDbLine
 62
7
  6
CONTINUOUS
 10
31.662195122
 20
239.8123537256
 11
31.662195122
 21
243.0123537256
  0
LINE
  5
50F
100
AcDbEntity
  8
0
100
AcDbLine
 62
7
  6
CONTINUOUS
 10
31.662195122
 20
244.3123537256
 11
31.662195122
 21
247.5123537256
  0
LINE
  5
510
100
AcDbEntity
  8
0
100
AcDbLine
 62
7
  6
CONTINUOUS
 10
31.662195122
 20
248.8123537256
 11
31.662195122
 21
252.0123537256
  0
LINE
  5
511
100
AcDbEntity
  8
0
100
AcDbLine
 62
7
  6
CONTINUOUS
 10
31.662195122
 20
253.3123537256
 11
31.662195122
 21
256.5123537256
  0
LINE
  5
512
100
AcDbEntity
  8
0
100
AcDbLine
 62
7
  6
CONTINUOUS
 10
31.662195122
 20
257.8123537256
 11
31.662195122
 21
261.0123537256
  0
LINE
  5
513
100
AcDbEntity
  8
0
100
AcDbLine
 62
7
  6
CONTINUOUS
 10
31.862195122
 20
268.1123537256
 11
31.862195122
 21
272.2623537256
  0
LINE
  5
514
100
AcDbEntity
  8
0
100
AcDbLine
 62
7
  6
CONTINUOUS
 10
33.062195122
 20
192.1123537256
 11
33.062195122
 21
192.0123537256
  0
LINE
  5
515
100
AcDbEntity
  8
00_COMPONENTS
100
AcDbLine
 62
7
  6
CONTINUOUS
 10
33.462195122
 20
253.3123537256
 11
33.462195122
 21
255.3623537257
  0
LINE
  5
516
100
AcDbEntity
  8
00_COMPONENTS
100
AcDbLine
 62
7
  6
CONTINUOUS
 10
33.5126748958
 20
166.8805411124
 11
33.5126748958
 21
163.4123537256
  0
LINE
  5
517
100
AcDbEntity
  8
0
100
AcDbLine
 62
7
  6
CONTINUOUS
 10
33.862195122
 20
199.6123537256
 11
33.862195122
 21
202.2123537256
  0
LINE
  5
518
100
AcDbEntity
  8
0
100
AcDbLine
 62
7
  6
CONTINUOUS
 10
33.862195122
 20
204.1123537256
 11
33.862195122
 21
206.7123537256
  0
LINE
  5
519
100
AcDbEntity
  8
0
100
AcDbLine
 62
7
  6
CONTINUOUS
 10
33.862195122
 20
208.6123537256
 11
33.862195122
 21
211.2123537256
  0
LINE
  5
51A
100
AcDbEntity
  8
0
100
AcDbLine
 62
7
  6
CONTINUOUS
 10
33.862195122
 20
213.1123537256
 11
33.862195122
 21
215.7123537256
  0
LINE
  5
51B
100
AcDbEntity
  8
0
100
AcDbLine
 62
7
  6
CONTINUOUS
 10
33.862195122
 20
217.6123537256
 11
33.862195122
 21
220.2123537256
  0
LINE
  5
51C
100
AcDbEntity
  8
0
100
AcDbLine
 62
7
  6
CONTINUOUS
 10
33.862195122
 20
222.1123537256
 11
33.862195122
 21
224.7123537256
  0
LINE
  5
51D
100
AcDbEntity
  8
0
100
AcDbLine
 62
7
  6
CONTINUOUS
 10
33.862195122
 20
226.6123537256
 11
33.862195122
 21
229.2123537256
  0
LINE
  5
51E
100
AcDbEntity
  8
0
100
AcDbLine
 62
7
  6
CONTINUOUS
 10
33.862195122
 20
231.1123537256
 11
33.862195122
 21
233.7123537256
  0
LINE
  5
51F
100
AcDbEntity
  8
0
100
AcDbLine
 62
7
  6
CONTINUOUS
 10
33.862195122
 20
235.6123537256
 11
33.862195122
 21
238.2123537256
  0
LINE
  5
520
100
AcDbEntity
  8
0
100
AcDbLine
 62
7
  6
CONTINUOUS
 10
33.862195122
 20
240.1123537256
 11
33.862195122
 21
242.7123537256
  0
LINE
  5
521
100
AcDbEntity
  8
0
100
AcDbLine
 62
7
  6
CONTINUOUS
 10
33.862195122
 20
244.6123537256
 11
33.862195122
 21
247.2123537256
  0
LINE
  5
522
100
AcDbEntity
  8
00_COMPONENTS
100
AcDbLine
 62
7
  6
CONTINUOUS
 10
33.9022199947
 20
163.4123537256
 11
33.9022199947
 21
166.8805411124
  0
LINE
  5
523
100
AcDbEntity
  8
0
100
AcDbLine
 62
7
  6
CONTINUOUS
 10
34.162195122
 20
248.8123537256
 11
34.162195122
 21
252.0123537256
  0
LINE
  5
524
100
AcDbEntity
  8
0
100
AcDbLine
 62
7
  6
CONTINUOUS
 10
34.162195122
 20
255.8623537256
 11
34.162195122
 21
256.5123537256
  0
LINE
  5
525
100
AcDbEntity
  8
0
100
AcDbLine
 62
7
  6
CONTINUOUS
 10
34.162195122
 20
257.8123537256
 11
34.162195122
 21
258.2768198197
  0
LINE
  5
526
100
AcDbEntity
  8
00_COMPONENTS
100
AcDbLine
 62
7
  6
CONTINUOUS
 10
34.1668391937
 20
166.8805411124
 11
34.1668391937
 21
163.4123537256
  0
LINE
  5
527
100
AcDbEntity
  8
0
100
AcDbLine
 62
7
  6
CONTINUOUS
 10
34.3130282239
 20
267.8123537256
 11
34.3130282239
 21
267.4123537256
  0
LINE
  5
528
100
AcDbEntity
  8
0
100
AcDbLine
 62
7
  6
CONTINUOUS
 10
31.1262767927
 20
260.9531967157
 11
31.1128628029
 21
257.8789562237
  0
LINE
  5
529
100
AcDbEntity
  8
0
100
AcDbLine
 62
7
  6
CONTINUOUS
 10
31.1065932231
 20
256.4420834887
 11
31.0932795226
 21
253.3908274507
  0
LINE
  5
52A
100
AcDbEntity
  8
0
100
AcDbLine
 62
7
  6
CONTINUOUS
 10
31.0869043046
 20
251.929744389
 11
31.0737018196
 21
248.903976921
  0
LINE
  5
52B
100
AcDbEntity
  8
0
100
AcDbLine
 62
7
  6
CONTINUOUS
 10
31.0672095418
 20
247.4160658848
 11
31.0541302472
 21
244.4185313889
  0
LINE
  5
52C
100
AcDbEntity
  8
0
100
AcDbLine
 62
7
  6
CONTINUOUS
 10
31.0475083115
 20
242.9009051525
 11
31.034565507
 21
239.9346516798
  0
LINE
  5
52D
100
AcDbEntity
  8
0
100
AcDbLine
 62
7
  6
CONTINUOUS
 10
31.027799815
 20
238.3840791332
 11
31.0150085083
 21
235.4525462002
  0
LINE
  5
52E
100
AcDbEntity
  8
0
100
AcDbLine
 62
7
  6
CONTINUOUS
 10
31.0080830036
 20
233.8653475041
 11
30.9954604621
 21
230.9724924462
  0
LINE
  5
52F
100
AcDbEntity
  8
0
100
AcDbLine
 62
7
  6
CONTINUOUS
 10
30.9883564574
 20
229.3443848279
 11
30.975927736
 21
226.4959497708
  0
LINE
  5
530
100
AcDbEntity
  8
00_COMPONENTS
100
AcDbLine
 62
7
  6
CONTINUOUS
 10
49.612195122
 20
204.6123537256
 11
37.512195122
 21
204.6123537256
  0
LINE
  5
531
100
AcDbEntity
  8
00_COMPONENTS
100
AcDbLine
 62
7
  6
CONTINUOUS
 10
54.212195122
 20
204.8623537256
 11
54.562195122
 21
204.8623537256
  0
LINE
  5
532
100
AcDbEntity
  8
00_COMPONENTS
100
AcDbLine
 62
7
  6
CONTINUOUS
 10
49.612195122
 20
206.6123537256
 11
37.512195122
 21
206.6123537256
  0
LINE
  5
533
100
AcDbEntity
  8
0
100
AcDbLine
 62
7
  6
CONTINUOUS
 10
31.362195122
 20
207.0123537256
 11
55.162195122
 21
207.0123537256
  0
LINE
  5
534
100
AcDbEntity
  8
0
100
AcDbLine
 62
7
  6
CONTINUOUS
 10
55.162195122
 20
208.3123537256
 11
38.012195122
 21
208.3123537256
  0
LINE
  5
535
100
AcDbEntity
  8
0
100
AcDbLine
 62
7
  6
CONTINUOUS
 10
35.812195122
 20
208.3123537256
 11
31.362195122
 21
208.3123537256
  0
LINE
  5
536
100
AcDbEntity
  8
00_COMPONENTS
100
AcDbLine
 62
7
  6
CONTINUOUS
 10
54.3469691468
 20
208.3623537256
 11
54.562195122
 21
208.3623537256
  0
LINE
  5
537
100
AcDbEntity
  8
00_COMPONENTS
100
AcDbLine
 62
7
  6
CONTINUOUS
 10
49.612195122
 20
208.6123537256
 11
37.5541664067
 21
208.6123537256
  0
LINE
  5
538
100
AcDbEntity
  8
0
100
AcDbLine
 62
7
  6
CONTINUOUS
 10
54.862195122
 20
208.8123537256
 11
54.512195122
 21
208.8123537256
  0
LINE
  5
539
100
AcDbEntity
  8
0
100
AcDbLine
 62
7
  6
CONTINUOUS
 10
49.612195122
 20
208.8123537256
 11
39.062195122
 21
208.8123537256
  0
LINE
  5
53A
100
AcDbEntity
  8
00_COMPONENTS
100
AcDbLine
 62
7
  6
CONTINUOUS
 10
44.1354687487
 20
151.7823537256
 11
44.2184069175
 21
151.4082438221
  0
LINE
  5
53B
100
AcDbEntity
  8
00_COMPONENTS
100
AcDbLine
 62
7
  6
CONTINUOUS
 10
34.762195122
 20
253.3123537256
 11
34.762195122
 21
255.8623537256
  0
LINE
  5
53C
100
AcDbEntity
  8
00_COMPONENTS
100
AcDbLine
 62
7
  6
CONTINUOUS
 10
34.862195122
 20
253.3123537256
 11
34.862195122
 21
255.8623537256
  0
LINE
  5
53D
100
AcDbEntity
  8
0
100
AcDbLine
 62
7
  6
CONTINUOUS
 10
35.062195122
 20
211.5123537256
 11
35.062195122
 21
208.3123537256
  0
LINE
  5
53E
100
AcDbEntity
  8
0
100
AcDbLine
 62
7
  6
CONTINUOUS
 10
35.062195122
 20
207.0123537256
 11
35.062195122
 21
203.8123537256
  0
LINE
  5
53F
100
AcDbEntity
  8
0
100
AcDbLine
 62
7
  6
CONTINUOUS
 10
35.062195122
 20
202.5123537256
 11
35.062195122
 21
199.3123537256
  0
LINE
  5
540
100
AcDbEntity
  8
0
100
AcDbLine
 62
7
  6
CONTINUOUS
 10
35.062195122
 20
195.3123537256
 11
35.062195122
 21
198.0123537256
  0
LINE
  5
541
100
AcDbEntity
  8
0
100
AcDbLine
 62
7
  6
CONTINUOUS
 10
35.362195122
 20
192.1123537256
 11
35.362195122
 21
192.0123537256
  0
LINE
  5
542
100
AcDbEntity
  8
0
100
AcDbLine
 62
7
  6
CONTINUOUS
 10
35.362195122
 20
189.0123537256
 11
35.362195122
 21
185.8123537256
  0
LINE
  5
543
100
AcDbEntity
  8
0
100
AcDbLine
 62
7
  6
CONTINUOUS
 10
35.362195122
 20
184.5123537256
 11
35.362195122
 21
181.3123537256
  0
LINE
  5
544
100
AcDbEntity
  8
0
100
AcDbLine
 62
7
  6
CONTINUOUS
 10
35.362195122
 20
180.0123537256
 11
35.362195122
 21
176.8123537256
  0
LINE
  5
545
100
AcDbEntity
  8
0
100
AcDbLine
 62
7
  6
CONTINUOUS
 10
35.362195122
 20
248.8123537256
 11
35.362195122
 21
252.0123537256
  0
LINE
  5
546
100
AcDbEntity
  8
0
100
AcDbLine
 62
7
  6
CONTINUOUS
 10
35.362195122
 20
255.8623537256
 11
35.362195122
 21
256.5123537256
  0
LINE
  5
547
100
AcDbEntity
  8
0
100
AcDbLine
 62
7
  6
CONTINUOUS
 10
35.362195122
 20
257.8123537256
 11
35.362195122
 21
258.9839266009
  0
LINE
  5
548
100
AcDbEntity
  8
00_COMPONENTS
100
AcDbLine
 62
7
  6
CONTINUOUS
 10
35.662195122
 20
256.5123537256
 11
35.662195122
 21
253.3123537256
  0
LINE
  5
549
100
AcDbEntity
  8
00_COMPONENTS
100
AcDbLine
 62
7
  6
CONTINUOUS
 10
35.662195122
 20
252.0123537256
 11
35.662195122
 21
248.8123537256
  0
LINE
  5
54A
100
AcDbEntity
  8
00_COMPONENTS
100
AcDbLine
 62
7
  6
CONTINUOUS
 10
35.662195122
 20
192.1123537256
 11
35.662195122
 21
192.0123537256
  0
LINE
  5
54B
100
AcDbEntity
  8
00_COMPONENTS
100
AcDbLine
 62
7
  6
CONTINUOUS
 10
35.662195122
 20
189.0123537256
 11
35.662195122
 21
185.8123537256
  0
LINE
  5
54C
100
AcDbEntity
  8
00_COMPONENTS
100
AcDbLine
 62
7
  6
CONTINUOUS
 10
35.662195122
 20
181.7123537256
 11
35.662195122
 21
184.5123537256
  0
LINE
  5
54D
100
AcDbEntity
  8
00_COMPONENTS
100
AcDbLine
 62
7
  6
CONTINUOUS
 10
35.662195122
 20
257.8123537256
 11
35.662195122
 21
261.0123537256
  0
LINE
  5
54E
100
AcDbEntity
  8
0
100
AcDbLine
 62
7
  6
CONTINUOUS
 10
35.6740127262
 20
267.6123537256
 11
35.6740127262
 21
267.4123537256
  0
LINE
  5
54F
100
AcDbEntity
  8
0
100
AcDbLine
 62
7
  6
CONTINUOUS
 10
35.7098994605
 20
267.4123537256
 11
35.7098994605
 21
267.6123537256
  0
LINE
  5
550
100
AcDbEntity
  8
0
100
AcDbLine
 62
7
  6
CONTINUOUS
 10
36.312195122
 20
211.0123537256
 11
36.312195122
 21
208.8123537256
  0
LINE
  5
551
100
AcDbEntity
  8
0
100
AcDbLine
 62
7
  6
CONTINUOUS
 10
36.312195122
 20
177.1123537256
 11
36.312195122
 21
179.7123537256
  0
LINE
  5
552
100
AcDbEntity
  8
0
100
AcDbLine
 62
7
  6
CONTINUOUS
 10
36.312195122
 20
181.6123537256
 11
36.312195122
 21
184.2123537256
  0
LINE
  5
553
100
AcDbEntity
  8
0
100
AcDbLine
 62
7
  6
CONTINUOUS
 10
36.312195122
 20
186.1123537256
 11
36.312195122
 21
188.7123537256
  0
LINE
  5
554
100
AcDbEntity
  8
0
100
AcDbLine
 62
7
  6
CONTINUOUS
 10
36.312195122
 20
213.3123537256
 11
36.312195122
 21
261.5123537256
  0
LINE
  5
555
100
AcDbEntity
  8
0
100
AcDbLine
 62
7
  6
CONTINUOUS
 10
36.315195122
 20
195.3123537256
 11
36.315195122
 21
198.0123537256
  0
LINE
  5
556
100
AcDbEntity
  8
0
100
AcDbLine
 62
7
  6
CONTINUOUS
 10
36.315195122
 20
199.3123537256
 11
36.315195122
 21
202.5123537256
  0
LINE
  5
557
100
AcDbEntity
  8
0
100
AcDbLine
 62
7
  6
CONTINUOUS
 10
36.315195122
 20
203.8123537256
 11
36.315195122
 21
207.0123537256
  0
LINE
  5
558
100
AcDbEntity
  8
0
100
AcDbLine
 62
7
  6
CONTINUOUS
 10
37.012195122
 20
248.9425791643
 11
37.012195122
 21
257.6123537256
  0
LINE
  5
559
100
AcDbEntity
  8
0
100
AcDbLine
 62
7
  6
CONTINUOUS
 10
37.012195122
 20
260.5877326005
 11
37.012195122
 21
266.9123537256
  0
LINE
  5
55A
100
AcDbEntity
  8
00_COMPONENTS
100
AcDbLine
 62
7
  6
CONTINUOUS
 10
37.262195122
 20
192.1123537256
 11
37.262195122
 21
192.0123537256
  0
LINE
  5
55B
100
AcDbEntity
  8
00_COMPONENTS
100
AcDbLine
 62
7
  6
CONTINUOUS
 10
37.352195122
 20
153.5823537256
 11
37.352195122
 21
163.4123537256
  0
LINE
  5
55C
100
AcDbEntity
  8
0
100
AcDbLine
 62
7
  6
CONTINUOUS
 10
37.512195122
 20
257.4123537256
 11
37.512195122
 21
248.9425791643
  0
LINE
  5
55D
100
AcDbEntity
  8
0
100
AcDbLine
 62
7
  6
CONTINUOUS
 10
37.512195122
 20
247.0123537256
 11
37.512195122
 21
244.8123537256
  0
LINE
  5
55E
100
AcDbEntity
  8
0
100
AcDbLine
 62
7
  6
CONTINUOUS
 10
37.512195122
 20
242.5123537256
 11
37.512195122
 21
240.3123537256
  0
LINE
  5
55F
100
AcDbEntity
  8
0
100
AcDbLine
 62
7
  6
CONTINUOUS
 10
37.512195122
 20
238.0123537256
 11
37.512195122
 21
235.8123537256
  0
LINE
  5
560
100
AcDbEntity
  8
0
100
AcDbLine
 62
7
  6
CONTINUOUS
 10
37.512195122
 20
233.5123537256
 11
37.512195122
 21
231.3123537256
  0
LINE
  5
561
100
AcDbEntity
  8
0
100
AcDbLine
 62
7
  6
CONTINUOUS
 10
37.512195122
 20
229.0123537256
 11
37.512195122
 21
226.8123537256
  0
LINE
  5
562
100
AcDbEntity
  8
0
100
AcDbLine
 62
7
  6
CONTINUOUS
 10
37.512195122
 20
224.5123537256
 11
37.512195122
 21
222.3123537256
  0
LINE
  5
563
100
AcDbEntity
  8
0
100
AcDbLine
 62
7
  6
CONTINUOUS
 10
37.512195122
 20
220.0123537256
 11
37.512195122
 21
217.8123537256
  0
LINE
  5
564
100
AcDbEntity
  8
0
100
AcDbLine
 62
7
  6
CONTINUOUS
 10
37.512195122
 20
215.5123537256
 11
37.512195122
 21
213.3123537256
  0
LINE
  5
565
100
AcDbEntity
  8
0
100
AcDbLine
 62
7
  6
CONTINUOUS
 10
37.512195122
 20
211.0123537256
 11
37.512195122
 21
208.8123537256
  0
LINE
  5
566
100
AcDbEntity
  8
0
100
AcDbLine
 62
7
  6
CONTINUOUS
 10
37.512195122
 20
206.7123537256
 11
37.512195122
 21
204.1123537256
  0
LINE
  5
567
100
AcDbEntity
  8
0
100
AcDbLine
 62
7
  6
CONTINUOUS
 10
37.512195122
 20
202.2123537256
 11
37.512195122
 21
199.6123537256
  0
LINE
  5
568
100
AcDbEntity
  8
0
100
AcDbLine
 62
7
  6
CONTINUOUS
 10
37.512195122
 20
197.7123537256
 11
37.512195122
 21
195.6123537256
  0
LINE
  5
569
100
AcDbEntity
  8
0
100
AcDbLine
 62
7
  6
CONTINUOUS
 10
37.512195122
 20
188.7123537256
 11
37.512195122
 21
186.1123537256
  0
LINE
  5
56A
100
AcDbEntity
  8
0
100
AcDbLine
 62
7
  6
CONTINUOUS
 10
37.512195122
 20
184.2123537256
 11
37.512195122
 21
181.6123537256
  0
LINE
  5
56B
100
AcDbEntity
  8
0
100
AcDbLine
 62
7
  6
CONTINUOUS
 10
37.512195122
 20
179.7123537256
 11
37.512195122
 21
177.1123537256
  0
LINE
  5
56C
100
AcDbEntity
  8
0
100
AcDbLine
 62
7
  6
CONTINUOUS
 10
37.512195122
 20
259.4739065384
 11
37.512195122
 21
268.1123537256
  0
LINE
  5
56D
100
AcDbEntity
  8
0
100
AcDbLine
 62
7
  6
CONTINUOUS
 10
37.562195122
 20
183.5123537256
 11
37.562195122
 21
181.7123537256
  0
LINE
  5
56E
100
AcDbEntity
  8
0
100
AcDbLine
 62
7
  6
CONTINUOUS
 10
37.562195122
 20
195.4471530764
 11
37.562195122
 21
197.8775543749
  0
LINE
  5
56F
100
AcDbEntity
  8
0
100
AcDbLine
 62
7
  6
CONTINUOUS
 10
37.562195122
 20
199.447153083
 11
37.562195122
 21
202.3775543749
  0
LINE
  5
570
100
AcDbEntity
  8
0
100
AcDbLine
 62
7
  6
CONTINUOUS
 10
37.562195122
 20
203.947153083
 11
37.562195122
 21
204.6123537256
  0
LINE
  5
571
100
AcDbEntity
  8
0
100
AcDbLine
 62
7
  6
CONTINUOUS
 10
37.562195122
 20
208.6123537256
 11
37.562195122
 21
211.2290239392
  0
LINE
  5
572
100
AcDbEntity
  8
0
100
AcDbLine
 62
7
  6
CONTINUOUS
 10
37.562195122
 20
213.0956944002
 11
37.562195122
 21
215.7290055913
  0
LINE
  5
573
100
AcDbEntity
  8
0
100
AcDbLine
 62
7
  6
CONTINUOUS
 10
37.562195122
 20
217.5956931753
 11
37.562195122
 21
220.2290142759
  0
LINE
  5
574
100
AcDbEntity
  8
0
100
AcDbLine
 62
7
  6
CONTINUOUS
 10
37.562195122
 20
222.0956931753
 11
37.562195122
 21
224.7290142759
  0
LINE
  5
575
100
AcDbEntity
  8
0
100
AcDbLine
 62
7
  6
CONTINUOUS
 10
37.562195122
 20
226.5956931753
 11
37.562195122
 21
229.2290142759
  0
LINE
  5
576
100
AcDbEntity
  8
0
100
AcDbLine
 62
7
  6
CONTINUOUS
 10
37.562195122
 20
231.0956931753
 11
37.562195122
 21
233.7290142759
  0
LINE
  5
577
100
AcDbEntity
  8
0
100
AcDbLine
 62
7
  6
CONTINUOUS
 10
37.562195122
 20
235.9623537256
 11
37.562195122
 21
236.4073537256
  0
LINE
  5
578
100
AcDbEntity
  8
0
100
AcDbLine
 62
7
  6
CONTINUOUS
 10
37.562195122
 20
236.6573537256
 11
37.562195122
 21
238.2290142759
  0
LINE
  5
579
100
AcDbEntity
  8
0
100
AcDbLine
 62
7
  6
CONTINUOUS
 10
37.562195122
 20
240.0956931753
 11
37.562195122
 21
241.4873537256
  0
LINE
  5
57A
100
AcDbEntity
  8
0
100
AcDbLine
 62
7
  6
CONTINUOUS
 10
37.562195122
 20
241.7373537256
 11
37.562195122
 21
242.7290142759
  0
LINE
  5
57B
100
AcDbEntity
  8
0
100
AcDbLine
 62
7
  6
CONTINUOUS
 10
37.562195122
 20
244.5956931753
 11
37.562195122
 21
246.5673537256
  0
LINE
  5
57C
100
AcDbEntity
  8
0
100
AcDbLine
 62
7
  6
CONTINUOUS
 10
37.562195122
 20
246.8173537256
 11
37.562195122
 21
247.2290142759
  0
LINE
  5
57D
100
AcDbEntity
  8
0
100
AcDbLine
 62
7
  6
CONTINUOUS
 10
37.662195122
 20
265.9623537256
 11
37.662195122
 21
260.9354631682
  0
LINE
  5
57E
100
AcDbEntity
  8
0
100
AcDbLine
 62
7
  6
CONTINUOUS
 10
37.662195122
 20
249.2623537256
 11
37.662195122
 21
256.6623537256
  0
LINE
  5
57F
100
AcDbEntity
  8
0
100
AcDbLine
 62
7
  6
CONTINUOUS
 10
37.712195122
 20
258.5508009128
 11
37.712195122
 21
257.6123537256
  0
LINE
  5
580
100
AcDbEntity
  8
00_COMPONENTS
100
AcDbLine
 62
7
  6
CONTINUOUS
 10
37.762195122
 20
235.9623537256
 11
37.762195122
 21
238.4453664275
  0
LINE
  5
581
100
AcDbEntity
  8
00_COMPONENTS
100
AcDbLine
 62
7
  6
CONTINUOUS
 10
37.762195122
 20
239.8793410237
 11
37.762195122
 21
242.9453664275
  0
LINE
  5
582
100
AcDbEntity
  8
00_COMPONENTS
100
AcDbLine
 62
7
  6
CONTINUOUS
 10
37.762195122
 20
244.3793410237
 11
37.762195122
 21
247.2623537256
  0
LINE
  5
583
100
AcDbEntity
  8
0
100
AcDbLine
 62
7
  6
CONTINUOUS
 10
38.212195122
 20
258.4892499436
 11
38.212195122
 21
257.1623537256
  0
LINE
  5
584
100
AcDbEntity
  8
00_COMPONENTS
100
AcDbLine
 62
7
  6
CONTINUOUS
 10
38.257195122
 20
163.4123537256
 11
38.257195122
 21
160.7123537256
  0
LINE
  5
585
100
AcDbEntity
  8
00_COMPONENTS
100
AcDbLine
 62
7
  6
CONTINUOUS
 10
38.602195122
 20
154.0823537256
 11
38.602195122
 21
156.4323537256
  0
LINE
  5
586
100
AcDbEntity
  8
0
100
AcDbLine
 62
7
  6
CONTINUOUS
 10
38.762195122
 20
184.1123537256
 11
38.762195122
 21
181.7123537256
  0
LINE
  5
587
100
AcDbEntity
  8
0
100
AcDbLine
 62
7
  6
CONTINUOUS
 10
38.762195122
 20
174.9637000575
 11
38.762195122
 21
175.3914962109
  0
LINE
  5
588
100
AcDbEntity
  8
0
100
AcDbLine
 62
7
  6
CONTINUOUS
 10
38.762195122
 20
195.3123537256
 11
38.762195122
 21
198.0123537256
  0
LINE
  5
589
100
AcDbEntity
  8
0
100
AcDbLine
 62
7
  6
CONTINUOUS
 10
38.762195122
 20
199.3123537256
 11
38.762195122
 21
202.5123537256
  0
LINE
  5
58A
100
AcDbEntity
  8
0
100
AcDbLine
 62
7
  6
CONTINUOUS
 10
38.762195122
 20
203.8123537256
 11
38.762195122
 21
204.6123537256
  0
LINE
  5
58B
100
AcDbEntity
  8
0
100
AcDbLine
 62
7
  6
CONTINUOUS
 10
38.762195122
 20
208.6123537256
 11
38.762195122
 21
211.5123537256
  0
LINE
  5
58C
100
AcDbEntity
  8
0
100
AcDbLine
 62
7
  6
CONTINUOUS
 10
38.762195122
 20
212.8123537256
 11
38.762195122
 21
216.0123537256
  0
LINE
  5
58D
100
AcDbEntity
  8
0
100
AcDbLine
 62
7
  6
CONTINUOUS
 10
38.762195122
 20
217.3123537256
 11
38.762195122
 21
220.5123537256
  0
LINE
  5
58E
100
AcDbEntity
  8
0
100
AcDbLine
 62
7
  6
CONTINUOUS
 10
38.762195122
 20
221.8123537256
 11
38.762195122
 21
225.0123537256
  0
LINE
  5
58F
100
AcDbEntity
  8
0
100
AcDbLine
 62
7
  6
CONTINUOUS
 10
38.762195122
 20
226.3123537256
 11
38.762195122
 21
229.5123537256
  0
LINE
  5
590
100
AcDbEntity
  8
0
100
AcDbLine
 62
7
  6
CONTINUOUS
 10
38.762195122
 20
230.8123537256
 11
38.762195122
 21
234.0123537256
  0
LINE
  5
591
100
AcDbEntity
  8
0
100
AcDbLine
 62
7
  6
CONTINUOUS
 10
55.162195122
 20
211.5123537256
 11
38.012195122
 21
211.5123537256
  0
LINE
  5
592
100
AcDbEntity
  8
0
100
AcDbLine
 62
7
  6
CONTINUOUS
 10
31.362195122
 20
211.5123537256
 11
35.812195122
 21
211.5123537256
  0
LINE
  5
593
100
AcDbEntity
  8
0
100
AcDbLine
 62
7
  6
CONTINUOUS
 10
55.162195122
 20
212.8123537256
 11
38.012195122
 21
212.8123537256
  0
LINE
  5
594
100
AcDbEntity
  8
0
100
AcDbLine
 62
7
  6
CONTINUOUS
 10
35.812195122
 20
212.8123537256
 11
31.362195122
 21
212.8123537256
  0
LINE
  5
595
100
AcDbEntity
  8
0
100
AcDbLine
 62
7
  6
CONTINUOUS
 10
54.862195122
 20
213.3123537256
 11
54.512195122
 21
213.3123537256
  0
LINE
  5
596
100
AcDbEntity
  8
0
100
AcDbLine
 62
7
  6
CONTINUOUS
 10
49.612195122
 20
213.3123537256
 11
39.062195122
 21
213.3123537256
  0
LINE
  5
597
100
AcDbEntity
  8
0
100
AcDbLine
 62
7
  6
CONTINUOUS
 10
39.2670106805
 20
252.8582233997
 11
39.2670106805
 21
251.0664840516
  0
LINE
  5
598
100
AcDbEntity
  8
0
100
AcDbLine
 62
7
  6
CONTINUOUS
 10
39.762195122
 20
174.9637000575
 11
39.762195122
 21
175.3914962109
  0
LINE
  5
599
100
AcDbEntity
  8
00_COMPONENTS
100
AcDbLine
 62
7
  6
CONTINUOUS
 10
39.762195122
 20
182.7123537256
 11
39.762195122
 21
183.1123537256
  0
LINE
  5
59A
100
AcDbEntity
  8
00_COMPONENTS
100
AcDbLine
 62
7
  6
CONTINUOUS
 10
39.9358703143
 20
166.8805411124
 11
39.9358703143
 21
163.4123537256
  0
LINE
  5
59B
100
AcDbEntity
  8
0
100
AcDbLine
 62
7
  6
CONTINUOUS
 10
40.062195122
 20
266.2623537256
 11
40.062195122
 21
266.6260507297
  0
LINE
  5
59C
100
AcDbEntity
  8
0
100
AcDbLine
 62
7
  6
CONTINUOUS
 10
41.212195122
 20
266.5174988552
 11
41.212195122
 21
266.2623537256
  0
LINE
  5
59D
100
AcDbEntity
  8
0
100
AcDbLine
 62
7
  6
CONTINUOUS
 10
41.712195122
 20
248.7123537256
 11
41.712195122
 21
248.9623537256
  0
LINE
  5
59E
100
AcDbEntity
  8
0
100
AcDbLine
 62
7
  6
CONTINUOUS
 10
42.212195122
 20
266.2623537256
 11
42.212195122
 21
266.5123537256
  0
LINE
  5
59F
100
AcDbEntity
  8
00_COMPONENTS
100
AcDbLine
 62
7
  6
CONTINUOUS
 10
42.435744058
 20
163.4123537256
 11
42.435744058
 21
166.8805411124
  0
LINE
  5
5A0
100
AcDbEntity
  8
00_COMPONENTS
100
AcDbLine
 62
7
  6
CONTINUOUS
 10
42.777195122
 20
151.8331021938
 11
42.777195122
 21
151.4123537256
  0
LINE
  5
5A1
100
AcDbEntity
  8
0
100
AcDbLine
 62
7
  6
CONTINUOUS
 10
43.1073795634
 20
252.8582233997
 11
43.1073795634
 21
251.0664840516
  0
LINE
  5
5A2
100
AcDbEntity
  8
0
100
AcDbLine
 62
7
  6
CONTINUOUS
 10
43.412195122
 20
177.1123537256
 11
43.412195122
 21
179.7123537256
  0
LINE
  5
5A3
100
AcDbEntity
  8
0
100
AcDbLine
 62
7
  6
CONTINUOUS
 10
43.412195122
 20
181.6123537256
 11
43.412195122
 21
184.2123537256
  0
LINE
  5
5A4
100
AcDbEntity
  8
0
100
AcDbLine
 62
7
  6
CONTINUOUS
 10
43.412195122
 20
186.1123537256
 11
43.412195122
 21
188.7123537256
  0
LINE
  5
5A5
100
AcDbEntity
  8
0
100
AcDbLine
 62
7
  6
CONTINUOUS
 10
37.599695122
 20
184.1123537256
 11
37.562195122
 21
183.5123537256
  0
LINE
  5
5A6
100
AcDbEntity
  8
0
100
AcDbLine
 62
7
  6
CONTINUOUS
 10
49.2420520366
 20
258.7317813842
 11
49.7323370184
 21
260.6929213113
  0
LINE
  5
5A7
100
AcDbEntity
  8
0
100
AcDbLine
 62
7
  6
CONTINUOUS
 10
49.7271238719
 20
258.6720687253
 11
50.212195122
 21
260.6123537256
  0
LINE
  5
5A8
100
AcDbEntity
  8
0
100
AcDbLine
 62
7
  6
CONTINUOUS
 10
55.162195122
 20
216.0123537256
 11
38.012195122
 21
216.0123537256
  0
LINE
  5
5A9
100
AcDbEntity
  8
0
100
AcDbLine
 62
7
  6
CONTINUOUS
 10
35.812195122
 20
216.0123537256
 11
31.362195122
 21
216.0123537256
  0
LINE
  5
5AA
100
AcDbEntity
  8
0
100
AcDbLine
 62
7
  6
CONTINUOUS
 10
31.362195122
 20
217.3123537256
 11
35.812195122
 21
217.3123537256
  0
LINE
  5
5AB
100
AcDbEntity
  8
0
100
AcDbLine
 62
7
  6
CONTINUOUS
 10
38.012195122
 20
217.3123537256
 11
55.162195122
 21
217.3123537256
  0
LINE
  5
5AC
100
AcDbEntity
  8
0
100
AcDbLine
 62
7
  6
CONTINUOUS
 10
54.862195122
 20
217.8123537256
 11
54.512195122
 21
217.8123537256
  0
LINE
  5
5AD
100
AcDbEntity
  8
0
100
AcDbLine
 62
7
  6
CONTINUOUS
 10
49.612195122
 20
217.8123537256
 11
39.062195122
 21
217.8123537256
  0
LINE
  5
5AE
100
AcDbEntity
  8
00_COMPONENTS
100
AcDbLine
 62
7
  6
CONTINUOUS
 10
44.057195122
 20
160.7123537256
 11
44.057195122
 21
163.4123537256
  0
LINE
  5
5AF
100
AcDbEntity
  8
0
100
AcDbLine
 62
7
  6
CONTINUOUS
 10
44.3170106805
 20
252.8582233997
 11
44.3170106805
 21
251.0664840516
  0
LINE
  5
5B0
100
AcDbEntity
  8
00_COMPONENTS
100
AcDbLine
 62
7
  6
CONTINUOUS
 10
44.777195122
 20
151.8882846521
 11
44.777195122
 21
151.4123537256
  0
LINE
  5
5B1
100
AcDbEntity
  8
00_COMPONENTS
100
AcDbLine
 62
7
  6
CONTINUOUS
 10
44.852195122
 20
153.0823537256
 11
44.852195122
 21
152.0823537256
  0
LINE
  5
5B2
100
AcDbEntity
  8
0
100
AcDbLine
 62
7
  6
CONTINUOUS
 10
45.212195122
 20
266.2623537256
 11
45.212195122
 21
266.5123537256
  0
LINE
  5
5B3
100
AcDbEntity
  8
0
100
AcDbLine
 62
7
  6
CONTINUOUS
 10
45.712195122
 20
248.7123537256
 11
45.712195122
 21
248.9623537256
  0
LINE
  5
5B4
100
AcDbEntity
  8
0
100
AcDbLine
 62
7
  6
CONTINUOUS
 10
45.822195122
 20
266.2623537256
 11
45.822195122
 21
266.5123537256
  0
LINE
  5
5B5
100
AcDbEntity
  8
0
100
AcDbLine
 62
7
  6
CONTINUOUS
 10
46.212195122
 20
266.2623537256
 11
46.212195122
 21
266.5174988552
  0
LINE
  5
5B6
100
AcDbEntity
  8
00_COMPONENTS
100
AcDbLine
 62
7
  6
CONTINUOUS
 10
46.762195122
 20
247.5123537256
 11
46.762195122
 21
244.3123537256
  0
LINE
  5
5B7
100
AcDbEntity
  8
00_COMPONENTS
100
AcDbLine
 62
7
  6
CONTINUOUS
 10
46.762195122
 20
243.0123537256
 11
46.762195122
 21
239.8123537256
  0
LINE
  5
5B8
100
AcDbEntity
  8
00_COMPONENTS
100
AcDbLine
 62
7
  6
CONTINUOUS
 10
46.762195122
 20
238.5123537256
 11
46.762195122
 21
235.3123537256
  0
LINE
  5
5B9
100
AcDbEntity
  8
0
100
AcDbLine
 62
7
  6
CONTINUOUS
 10
46.762195122
 20
174.9637000575
 11
46.762195122
 21
175.3914962109
  0
LINE
  5
5BA
100
AcDbEntity
  8
00_COMPONENTS
100
AcDbLine
 62
7
  6
CONTINUOUS
 10
47.3521951219
 20
153.9931495382
 11
47.3521951219
 21
156.571557913
  0
LINE
  5
5BB
100
AcDbEntity
  8
0
100
AcDbLine
 62
7
  6
CONTINUOUS
 10
47.362195122
 20
266.2623537256
 11
47.362195122
 21
266.6260507297
  0
LINE
  5
5BC
100
AcDbEntity
  8
00_COMPONENTS
100
AcDbLine
 62
7
  6
CONTINUOUS
 10
47.6772036481
 20
156.2825388952
 11
47.6772036481
 21
155.6059194463
  0
LINE
  5
5BD
100
AcDbEntity
  8
0
100
AcDbLine
 62
7
  6
CONTINUOUS
 10
47.762195122
 20
174.9637000575
 11
47.762195122
 21
175.3914962109
  0
LINE
  5
5BE
100
AcDbEntity
  8
00_COMPONENTS
100
AcDbLine
 62
7
  6
CONTINUOUS
 10
48.1248194477
 20
155.0691005791
 11
48.1248194477
 21
155.0564489293
  0
LINE
  5
5BF
100
AcDbEntity
  8
0
100
AcDbLine
 62
7
  6
CONTINUOUS
 10
48.1573795634
 20
252.8582233997
 11
48.1573795634
 21
251.0664840516
  0
LINE
  5
5C0
100
AcDbEntity
  8
00_COMPONENTS
100
AcDbLine
 62
7
  6
CONTINUOUS
 10
48.3082606041
 20
163.4123537256
 11
48.3082606041
 21
166.8805411124
  0
LINE
  5
5C1
100
AcDbEntity
  8
00_COMPONENTS
100
AcDbLine
 62
7
  6
CONTINUOUS
 10
48.5728798032
 20
166.8805411124
 11
48.5728798032
 21
163.4123537256
  0
LINE
  5
5C2
100
AcDbEntity
  8
0
100
AcDbLine
 62
7
  6
CONTINUOUS
 10
55.162195122
 20
220.5123537256
 11
38.012195122
 21
220.5123537256
  0
LINE
  5
5C3
100
AcDbEntity
  8
0
100
AcDbLine
 62
7
  6
CONTINUOUS
 10
35.812195122
 20
220.5123537256
 11
31.362195122
 21
220.5123537256
  0
LINE
  5
5C4
100
AcDbEntity
  8
0
100
AcDbLine
 62
7
  6
CONTINUOUS
 10
31.362195122
 20
221.8123537256
 11
35.812195122
 21
221.8123537256
  0
LINE
  5
5C5
100
AcDbEntity
  8
0
100
AcDbLine
 62
7
  6
CONTINUOUS
 10
38.012195122
 20
221.8123537256
 11
55.162195122
 21
221.8123537256
  0
LINE
  5
5C6
100
AcDbEntity
  8
0
100
AcDbLine
 62
7
  6
CONTINUOUS
 10
54.862195122
 20
222.3123537256
 11
54.512195122
 21
222.3123537256
  0
LINE
  5
5C7
100
AcDbEntity
  8
0
100
AcDbLine
 62
7
  6
CONTINUOUS
 10
49.612195122
 20
222.3123537256
 11
39.062195122
 21
222.3123537256
  0
LINE
  5
5C8
100
AcDbEntity
  8
0
100
AcDbLine
 62
7
  6
CONTINUOUS
 10
37.212195122
 20
260.6123537256
 11
37.697266372
 21
258.6720687253
  0
LINE
  5
5C9
100
AcDbEntity
  8
0
100
AcDbLine
 62
7
  6
CONTINUOUS
 10
37.6920532576
 20
260.692921183
 11
38.1823381734
 21
258.7317815196
  0
LINE
  5
5CA
100
AcDbEntity
  8
0
100
AcDbLine
 62
7
  6
CONTINUOUS
 10
48.912195122
 20
177.3123537256
 11
48.912195122
 21
179.5123537256
  0
LINE
  5
5CB
100
AcDbEntity
  8
00_COMPONENTS
100
AcDbLine
 62
7
  6
CONTINUOUS
 10
49.0126748958
 20
166.8805411124
 11
49.0126748958
 21
163.4123537256
  0
LINE
  5
5CC
100
AcDbEntity
  8
0
100
AcDbLine
 62
7
  6
CONTINUOUS
 10
49.212195122
 20
257.1623537256
 11
49.212195122
 21
258.4892499898
  0
LINE
  5
5CD
100
AcDbEntity
  8
0
100
AcDbLine
 62
7
  6
CONTINUOUS
 10
49.612195122
 20
195.6123537256
 11
49.612195122
 21
197.7123537256
  0
LINE
  5
5CE
100
AcDbEntity
  8
0
100
AcDbLine
 62
7
  6
CONTINUOUS
 10
49.612195122
 20
199.6123537256
 11
49.612195122
 21
202.2123537256
  0
LINE
  5
5CF
100
AcDbEntity
  8
0
100
AcDbLine
 62
7
  6
CONTINUOUS
 10
49.612195122
 20
204.1123537256
 11
49.612195122
 21
206.7123537256
  0
LINE
  5
5D0
100
AcDbEntity
  8
0
100
AcDbLine
 62
7
  6
CONTINUOUS
 10
49.612195122
 20
208.6123537256
 11
49.612195122
 21
211.2123537256
  0
LINE
  5
5D1
100
AcDbEntity
  8
0
100
AcDbLine
 62
7
  6
CONTINUOUS
 10
49.612195122
 20
213.1123537256
 11
49.612195122
 21
215.7123537256
  0
LINE
  5
5D2
100
AcDbEntity
  8
0
100
AcDbLine
 62
7
  6
CONTINUOUS
 10
49.612195122
 20
217.6123537256
 11
49.612195122
 21
220.2123537256
  0
LINE
  5
5D3
100
AcDbEntity
  8
0
100
AcDbLine
 62
7
  6
CONTINUOUS
 10
49.612195122
 20
222.1123537256
 11
49.612195122
 21
224.7123537256
  0
LINE
  5
5D4
100
AcDbEntity
  8
0
100
AcDbLine
 62
7
  6
CONTINUOUS
 10
49.612195122
 20
226.6123537256
 11
49.612195122
 21
229.2123537256
  0
LINE
  5
5D5
100
AcDbEntity
  8
0
100
AcDbLine
 62
7
  6
CONTINUOUS
 10
49.612195122
 20
231.1123537256
 11
49.612195122
 21
233.7123537256
  0
LINE
  5
5D6
100
AcDbEntity
  8
0
100
AcDbLine
 62
7
  6
CONTINUOUS
 10
49.612195122
 20
235.6123537256
 11
49.612195122
 21
238.2123537256
  0
LINE
  5
5D7
100
AcDbEntity
  8
0
100
AcDbLine
 62
7
  6
CONTINUOUS
 10
49.612195122
 20
240.1123537256
 11
49.612195122
 21
242.7123537256
  0
LINE
  5
5D8
100
AcDbEntity
  8
0
100
AcDbLine
 62
7
  6
CONTINUOUS
 10
49.612195122
 20
244.6123537256
 11
49.612195122
 21
247.2123537256
  0
LINE
  5
5D9
100
AcDbEntity
  8
0
100
AcDbLine
 62
7
  6
CONTINUOUS
 10
49.712195122
 20
257.6123537256
 11
49.712195122
 21
258.5508009128
  0
LINE
  5
5DA
100
AcDbEntity
  8
0
100
AcDbLine
 62
7
  6
CONTINUOUS
 10
49.762195122
 20
249.2623537256
 11
49.762195122
 21
256.6623536126
  0
LINE
  5
5DB
100
AcDbEntity
  8
0
100
AcDbLine
 62
7
  6
CONTINUOUS
 10
49.762195122
 20
260.9354631637
 11
49.762195122
 21
265.9623537256
  0
LINE
  5
5DC
100
AcDbEntity
  8
0
100
AcDbLine
 62
7
  6
CONTINUOUS
 10
49.912195122
 20
248.9425791643
 11
49.912195122
 21
257.4123537256
  0
LINE
  5
5DD
100
AcDbEntity
  8
0
100
AcDbLine
 62
7
  6
CONTINUOUS
 10
49.912195122
 20
259.4739065384
 11
49.912195122
 21
268.1123537256
  0
LINE
  5
5DE
100
AcDbEntity
  8
00_COMPONENTS
100
AcDbLine
 62
7
  6
CONTINUOUS
 10
50.0271865958
 20
155.0564489293
 11
50.0271865958
 21
155.0691005791
  0
LINE
  5
5DF
100
AcDbEntity
  8
00_COMPONENTS
100
AcDbLine
 62
7
  6
CONTINUOUS
 10
50.0271865958
 20
155.6059194463
 11
50.0271865958
 21
156.2825388952
  0
LINE
  5
5E0
100
AcDbEntity
  8
00_COMPONENTS
100
AcDbLine
 62
7
  6
CONTINUOUS
 10
50.3521951219
 20
156.571557913
 11
50.3521951219
 21
153.9931495382
  0
LINE
  5
5E1
100
AcDbEntity
  8
0
100
AcDbLine
 62
7
  6
CONTINUOUS
 10
50.362195122
 20
179.9123537256
 11
50.362195122
 21
177.3123537256
  0
LINE
  5
5E2
100
AcDbEntity
  8
0
100
AcDbLine
 62
7
  6
CONTINUOUS
 10
50.412195122
 20
266.9123537256
 11
50.412195122
 21
260.5877326005
  0
LINE
  5
5E3
100
AcDbEntity
  8
0
100
AcDbLine
 62
7
  6
CONTINUOUS
 10
50.412195122
 20
257.6123537256
 11
50.412195122
 21
248.9425791643
  0
LINE
  5
5E4
100
AcDbEntity
  8
0
100
AcDbLine
 62
7
  6
CONTINUOUS
 10
50.812195122
 20
211.5123537256
 11
50.812195122
 21
208.3123537256
  0
LINE
  5
5E5
100
AcDbEntity
  8
0
100
AcDbLine
 62
7
  6
CONTINUOUS
 10
50.812195122
 20
207.0123537256
 11
50.812195122
 21
203.8123537256
  0
LINE
  5
5E6
100
AcDbEntity
  8
0
100
AcDbLine
 62
7
  6
CONTINUOUS
 10
50.812195122
 20
202.5123537256
 11
50.812195122
 21
199.3123537256
  0
LINE
  5
5E7
100
AcDbEntity
  8
0
100
AcDbLine
 62
7
  6
CONTINUOUS
 10
50.812195122
 20
195.3123537256
 11
50.812195122
 21
198.0123537256
  0
LINE
  5
5E8
100
AcDbEntity
  8
00_COMPONENTS
100
AcDbLine
 62
7
  6
CONTINUOUS
 10
50.8521951219
 20
166.8805411124
 11
50.8521951219
 21
154.0823537256
  0
LINE
  5
5E9
100
AcDbEntity
  8
0
100
AcDbLine
 62
7
  6
CONTINUOUS
 10
51.112195122
 20
265.0123537256
 11
51.112195122
 21
262.8123537256
  0
LINE
  5
5EA
100
AcDbEntity
  8
0
100
AcDbLine
 62
7
  6
CONTINUOUS
 10
51.112195122
 20
260.5123537256
 11
51.112195122
 21
258.3123537256
  0
LINE
  5
5EB
100
AcDbEntity
  8
0
100
AcDbLine
 62
7
  6
CONTINUOUS
 10
51.112195122
 20
256.0123537256
 11
51.112195122
 21
253.8123537256
  0
LINE
  5
5EC
100
AcDbEntity
  8
0
100
AcDbLine
 62
7
  6
CONTINUOUS
 10
51.112195122
 20
251.5123537256
 11
51.112195122
 21
249.3123537256
  0
LINE
  5
5ED
100
AcDbEntity
  8
00_COMPONENTS
100
AcDbLine
 62
7
  6
CONTINUOUS
 10
51.262195122
 20
192.0123537256
 11
51.262195122
 21
192.1123537256
  0
LINE
  5
5EE
100
AcDbEntity
  8
00_COMPONENTS
100
AcDbLine
 62
7
  6
CONTINUOUS
 10
52.0588611592
 20
161.4323537256
 11
52.0588611592
 21
162.5756876883
  0
LINE
  5
5EF
100
AcDbEntity
  8
00_COMPONENTS
100
AcDbLine
 62
7
  6
CONTINUOUS
 10
52.352195122
 20
153.5823537256
 11
52.352195122
 21
161.4323537256
  0
LINE
  5
5F0
100
AcDbEntity
  8
00_COMPONENTS
100
AcDbLine
 62
7
  6
CONTINUOUS
 10
52.862195122
 20
192.0123537256
 11
52.862195122
 21
192.1123537256
  0
LINE
  5
5F1
100
AcDbEntity
  8
0
100
AcDbLine
 62
7
  6
CONTINUOUS
 10
53.012195122
 20
211.5123537256
 11
53.012195122
 21
208.3123537256
  0
LINE
  5
5F2
100
AcDbEntity
  8
0
100
AcDbLine
 62
7
  6
CONTINUOUS
 10
53.012195122
 20
207.0123537256
 11
53.012195122
 21
203.8123537256
  0
LINE
  5
5F3
100
AcDbEntity
  8
0
100
AcDbLine
 62
7
  6
CONTINUOUS
 10
53.012195122
 20
195.3123537256
 11
53.012195122
 21
198.0123537256
  0
LINE
  5
5F4
100
AcDbEntity
  8
0
100
AcDbLine
 62
7
  6
CONTINUOUS
 10
53.012195122
 20
199.3123537256
 11
53.012195122
 21
202.5123537256
  0
LINE
  5
5F5
100
AcDbEntity
  8
0
100
AcDbLine
 62
7
  6
CONTINUOUS
 10
55.162195122
 20
225.0123537256
 11
38.012195122
 21
225.0123537256
  0
LINE
  5
5F6
100
AcDbEntity
  8
0
100
AcDbLine
 62
7
  6
CONTINUOUS
 10
35.812195122
 20
225.0123537256
 11
31.362195122
 21
225.0123537256
  0
LINE
  5
5F7
100
AcDbEntity
  8
0
100
AcDbLine
 62
7
  6
CONTINUOUS
 10
31.362195122
 20
226.3123537256
 11
35.812195122
 21
226.3123537256
  0
LINE
  5
5F8
100
AcDbEntity
  8
0
100
AcDbLine
 62
7
  6
CONTINUOUS
 10
38.012195122
 20
226.3123537256
 11
55.162195122
 21
226.3123537256
  0
LINE
  5
5F9
100
AcDbEntity
  8
0
100
AcDbLine
 62
7
  6
CONTINUOUS
 10
54.862195122
 20
226.8123537256
 11
54.512195122
 21
226.8123537256
  0
LINE
  5
5FA
100
AcDbEntity
  8
0
100
AcDbLine
 62
7
  6
CONTINUOUS
 10
49.612195122
 20
226.8123537256
 11
39.062195122
 21
226.8123537256
  0
LINE
  5
5FB
100
AcDbEntity
  8
0
100
AcDbLine
 62
7
  6
CONTINUOUS
 10
33.862195122
 20
226.8123537256
 11
31.662195122
 21
226.8123537256
  0
LINE
  5
5FC
100
AcDbEntity
  8
0
100
AcDbLine
 62
7
  6
CONTINUOUS
 10
55.6457999967
 20
204.1879821337
 11
55.6349477154
 21
206.6750940999
  0
LINE
  5
5FD
100
AcDbEntity
  8
0
100
AcDbLine
 62
7
  6
CONTINUOUS
 10
55.662195122
 20
200.4305200866
 11
55.6549409492
 21
202.0930434561
  0
LINE
  5
5FE
100
AcDbEntity
  8
0
100
AcDbLine
 62
7
  6
CONTINUOUS
 10
55.6264247519
 20
208.6284330103
 11
55.6150985132
 21
211.2241992311
  0
LINE
  5
5FF
100
AcDbEntity
  8
0
100
AcDbLine
 62
7
  6
CONTINUOUS
 10
55.6069771975
 20
213.0854558673
 11
55.5952976321
 21
215.7621981086
  0
LINE
  5
600
100
AcDbEntity
  8
0
100
AcDbLine
 62
7
  6
CONTINUOUS
 10
55.5874947455
 20
217.5504766266
 11
55.5755296573
 21
220.2926554448
  0
LINE
  5
601
100
AcDbEntity
  8
0
100
AcDbLine
 62
7
  6
CONTINUOUS
 10
55.5679915909
 20
222.0202420589
 11
55.5557720706
 21
224.8207320411
  0
LINE
  5
602
100
AcDbEntity
  8
0
100
AcDbLine
 62
7
  6
CONTINUOUS
 10
55.5484625712
 20
226.4959352812
 11
55.5360337865
 21
229.3443848279
  0
LINE
  5
603
100
AcDbEntity
  8
0
100
AcDbLine
 62
7
  6
CONTINUOUS
 10
55.5289297818
 20
230.9724924462
 11
55.5163072403
 21
233.8653475041
  0
LINE
  5
604
100
AcDbEntity
  8
0
100
AcDbLine
 62
7
  6
CONTINUOUS
 10
55.5093817356
 20
235.4525462002
 11
55.4965904289
 21
238.3840791332
  0
LINE
  5
605
100
AcDbEntity
  8
0
100
AcDbLine
 62
7
  6
CONTINUOUS
 10
55.4898247369
 20
239.9346516798
 11
55.4768819324
 21
242.9009051525
  0
LINE
  5
606
100
AcDbEntity
  8
0
100
AcDbLine
 62
7
  6
CONTINUOUS
 10
55.4702599967
 20
244.4185313889
 11
55.4571807021
 21
247.4160658848
  0
LINE
  5
607
100
AcDbEntity
  8
0
100
AcDbLine
 62
7
  6
CONTINUOUS
 10
55.4506884243
 20
248.903976921
 11
55.4374859393
 21
251.929744389
  0
LINE
  5
608
100
AcDbEntity
  8
0
100
AcDbLine
 62
7
  6
CONTINUOUS
 10
55.4311107213
 20
253.3908274507
 11
55.4177970208
 21
256.4420834887
  0
LINE
  5
609
100
AcDbEntity
  8
0
100
AcDbLine
 62
7
  6
CONTINUOUS
 10
55.411527441
 20
257.8789562237
 11
55.3981134512
 21
260.9531967157
  0
LINE
  5
60A
100
AcDbEntity
  8
0
100
AcDbLine
 62
7
  6
CONTINUOUS
 10
55.3919390263
 20
262.3682616874
 11
55.378434831
 21
265.4631756286
  0
LINE
  5
60B
100
AcDbEntity
  8
0
100
AcDbLine
 62
7
  6
CONTINUOUS
 10
53.462195122
 20
192.1123537256
 11
53.462195122
 21
192.0123537256
  0
LINE
  5
60C
100
AcDbEntity
  8
0
100
AcDbLine
 62
7
  6
CONTINUOUS
 10
54.212195122
 20
195.6123537256
 11
54.212195122
 21
197.7123537256
  0
LINE
  5
60D
100
AcDbEntity
  8
0
100
AcDbLine
 62
7
  6
CONTINUOUS
 10
54.212195122
 20
199.6123537256
 11
54.212195122
 21
202.2123537256
  0
LINE
  5
60E
100
AcDbEntity
  8
0
100
AcDbLine
 62
7
  6
CONTINUOUS
 10
54.212195122
 20
204.1123537256
 11
54.212195122
 21
206.7123537256
  0
LINE
  5
60F
100
AcDbEntity
  8
0
100
AcDbLine
 62
7
  6
CONTINUOUS
 10
54.212195122
 20
208.6123537256
 11
54.212195122
 21
211.2123537256
  0
LINE
  5
610
100
AcDbEntity
  8
0
100
AcDbLine
 62
7
  6
CONTINUOUS
 10
54.212195122
 20
213.1123537256
 11
54.212195122
 21
215.7123537256
  0
LINE
  5
611
100
AcDbEntity
  8
0
100
AcDbLine
 62
7
  6
CONTINUOUS
 10
54.212195122
 20
217.6123537256
 11
54.212195122
 21
220.2123537256
  0
LINE
  5
612
100
AcDbEntity
  8
0
100
AcDbLine
 62
7
  6
CONTINUOUS
 10
54.212195122
 20
222.1123537256
 11
54.212195122
 21
224.7123537256
  0
LINE
  5
613
100
AcDbEntity
  8
0
100
AcDbLine
 62
7
  6
CONTINUOUS
 10
54.212195122
 20
226.6123537256
 11
54.212195122
 21
229.2123537256
  0
LINE
  5
614
100
AcDbEntity
  8
0
100
AcDbLine
 62
7
  6
CONTINUOUS
 10
54.212195122
 20
231.1123537256
 11
54.212195122
 21
233.7123537256
  0
LINE
  5
615
100
AcDbEntity
  8
0
100
AcDbLine
 62
7
  6
CONTINUOUS
 10
54.212195122
 20
235.6123537256
 11
54.212195122
 21
238.2123537256
  0
LINE
  5
616
100
AcDbEntity
  8
0
100
AcDbLine
 62
7
  6
CONTINUOUS
 10
54.212195122
 20
240.1123537256
 11
54.212195122
 21
242.7123537256
  0
LINE
  5
617
100
AcDbEntity
  8
0
100
AcDbLine
 62
7
  6
CONTINUOUS
 10
54.212195122
 20
244.6123537256
 11
54.212195122
 21
247.2123537256
  0
LINE
  5
618
100
AcDbEntity
  8
0
100
AcDbLine
 62
7
  6
CONTINUOUS
 10
54.212195122
 20
249.1123537256
 11
54.212195122
 21
251.7123537256
  0
LINE
  5
619
100
AcDbEntity
  8
0
100
AcDbLine
 62
7
  6
CONTINUOUS
 10
54.212195122
 20
253.6123537256
 11
54.212195122
 21
256.2123537256
  0
LINE
  5
61A
100
AcDbEntity
  8
0
100
AcDbLine
 62
7
  6
CONTINUOUS
 10
54.212195122
 20
258.1123537256
 11
54.212195122
 21
260.7123537256
  0
LINE
  5
61B
100
AcDbEntity
  8
0
100
AcDbLine
 62
7
  6
CONTINUOUS
 10
54.212195122
 20
262.6123537256
 11
54.212195122
 21
265.2123537256
  0
LINE
  5
61C
100
AcDbEntity
  8
00_COMPONENTS
100
AcDbLine
 62
7
  6
CONTINUOUS
 10
54.262195122
 20
241.8623537256
 11
54.262195122
 21
241.3623537256
  0
LINE
  5
61D
100
AcDbEntity
  8
00_COMPONENTS
100
AcDbLine
 62
7
  6
CONTINUOUS
 10
54.262195122
 20
236.2823537256
 11
54.262195122
 21
236.7823537256
  0
LINE
  5
61E
100
AcDbEntity
  8
00_COMPONENTS
100
AcDbLine
 62
7
  6
CONTINUOUS
 10
54.262195122
 20
246.4423537256
 11
54.262195122
 21
246.9423537256
  0
LINE
  5
61F
100
AcDbEntity
  8
0
100
AcDbLine
 62
7
  6
CONTINUOUS
 10
54.362195122
 20
177.3123537256
 11
54.362195122
 21
179.9123537256
  0
LINE
  5
620
100
AcDbEntity
  8
0
100
AcDbLine
 62
7
  6
CONTINUOUS
 10
54.462195122
 20
259.5123537256
 11
54.462195122
 21
259.8123537256
  0
LINE
  5
621
100
AcDbEntity
  8
0
100
AcDbLine
 62
7
  6
CONTINUOUS
 10
54.662195122
 20
268.1123537256
 11
54.662195122
 21
272.2623537256
  0
LINE
  5
622
100
AcDbEntity
  8
00_COMPONENTS
100
AcDbLine
 62
7
  6
CONTINUOUS
 10
54.762195122
 20
246.8673537256
 11
54.762195122
 21
246.5173537256
  0
LINE
  5
623
100
AcDbEntity
  8
00_COMPONENTS
100
AcDbLine
 62
7
  6
CONTINUOUS
 10
54.762195122
 20
244.3273537256
 11
54.762195122
 21
244.3123537256
  0
LINE
  5
624
100
AcDbEntity
  8
00_COMPONENTS
100
AcDbLine
 62
7
  6
CONTINUOUS
 10
54.762195122
 20
241.7873537256
 11
54.762195122
 21
241.4373537256
  0
LINE
  5
625
100
AcDbEntity
  8
00_COMPONENTS
100
AcDbLine
 62
7
  6
CONTINUOUS
 10
54.762195122
 20
236.3573537256
 11
54.762195122
 21
236.7073537256
  0
LINE
  5
626
100
AcDbEntity
  8
0
100
AcDbLine
 62
7
  6
CONTINUOUS
 10
54.862195122
 20
195.3123537256
 11
54.862195122
 21
198.0123537256
  0
LINE
  5
627
100
AcDbEntity
  8
0
100
AcDbLine
 62
7
  6
CONTINUOUS
 10
54.862195122
 20
199.3123537256
 11
54.862195122
 21
202.5123537256
  0
LINE
  5
628
100
AcDbEntity
  8
0
100
AcDbLine
 62
7
  6
CONTINUOUS
 10
54.862195122
 20
203.8123537256
 11
54.862195122
 21
207.0123537256
  0
LINE
  5
629
100
AcDbEntity
  8
0
100
AcDbLine
 62
7
  6
CONTINUOUS
 10
54.862195122
 20
208.3123537256
 11
54.862195122
 21
211.5123537256
  0
LINE
  5
62A
100
AcDbEntity
  8
0
100
AcDbLine
 62
7
  6
CONTINUOUS
 10
54.862195122
 20
212.8123537256
 11
54.862195122
 21
216.0123537256
  0
LINE
  5
62B
100
AcDbEntity
  8
0
100
AcDbLine
 62
7
  6
CONTINUOUS
 10
54.862195122
 20
217.3123537256
 11
54.862195122
 21
220.5123537256
  0
LINE
  5
62C
100
AcDbEntity
  8
0
100
AcDbLine
 62
7
  6
CONTINUOUS
 10
54.862195122
 20
221.8123537256
 11
54.862195122
 21
225.0123537256
  0
LINE
  5
62D
100
AcDbEntity
  8
0
100
AcDbLine
 62
7
  6
CONTINUOUS
 10
54.862195122
 20
226.3123537256
 11
54.862195122
 21
229.5123537256
  0
LINE
  5
62E
100
AcDbEntity
  8
0
100
AcDbLine
 62
7
  6
CONTINUOUS
 10
54.862195122
 20
230.8123537256
 11
54.862195122
 21
234.0123537256
  0
LINE
  5
62F
100
AcDbEntity
  8
0
100
AcDbLine
 62
7
  6
CONTINUOUS
 10
54.862195122
 20
235.3123537256
 11
54.862195122
 21
238.5123537256
  0
LINE
  5
630
100
AcDbEntity
  8
0
100
AcDbLine
 62
7
  6
CONTINUOUS
 10
54.862195122
 20
239.8123537256
 11
54.862195122
 21
243.0123537256
  0
LINE
  5
631
100
AcDbEntity
  8
0
100
AcDbLine
 62
7
  6
CONTINUOUS
 10
54.862195122
 20
244.3123537256
 11
54.862195122
 21
247.5123537256
  0
LINE
  5
632
100
AcDbEntity
  8
0
100
AcDbLine
 62
7
  6
CONTINUOUS
 10
54.862195122
 20
248.8123537256
 11
54.862195122
 21
252.0123537256
  0
LINE
  5
633
100
AcDbEntity
  8
0
100
AcDbLine
 62
7
  6
CONTINUOUS
 10
54.862195122
 20
253.3123537256
 11
54.862195122
 21
256.5123537256
  0
LINE
  5
634
100
AcDbEntity
  8
0
100
AcDbLine
 62
7
  6
CONTINUOUS
 10
54.862195122
 20
257.8123537256
 11
54.862195122
 21
261.0123537256
  0
LINE
  5
635
100
AcDbEntity
  8
0
100
AcDbLine
 62
7
  6
CONTINUOUS
 10
54.862195122
 20
262.3123537256
 11
54.862195122
 21
265.5123537256
  0
LINE
  5
636
100
AcDbEntity
  8
0
100
AcDbLine
 62
7
  6
CONTINUOUS
 10
55.312195122
 20
174.9637000575
 11
55.312195122
 21
175.3914962109
  0
LINE
  5
637
100
AcDbEntity
  8
0
100
AcDbLine
 62
7
  6
CONTINUOUS
 10
55.662195122
 20
215.5123537256
 11
55.662195122
 21
213.3123537256
  0
LINE
  5
638
100
AcDbEntity
  8
0
100
AcDbLine
 62
7
  6
CONTINUOUS
 10
55.662195122
 20
211.0123537256
 11
55.662195122
 21
208.8123537256
  0
LINE
  5
639
100
AcDbEntity
  8
0
100
AcDbLine
 62
7
  6
CONTINUOUS
 10
55.662195122
 20
188.5123537256
 11
55.662195122
 21
186.3123537256
  0
LINE
  5
63A
100
AcDbEntity
  8
0
100
AcDbLine
 62
7
  6
CONTINUOUS
 10
55.662195122
 20
181.8123537256
 11
55.662195122
 21
184.0123537256
  0
LINE
  5
63B
100
AcDbEntity
  8
0
100
AcDbLine
 62
7
  6
CONTINUOUS
 10
55.662195122
 20
195.3123537256
 11
55.662195122
 21
197.5123537256
  0
LINE
  5
63C
100
AcDbEntity
  8
0
100
AcDbLine
 62
7
  6
CONTINUOUS
 10
55.662195122
 20
199.8123537256
 11
55.662195122
 21
202.0123537256
  0
LINE
  5
63D
100
AcDbEntity
  8
0
100
AcDbLine
 62
7
  6
CONTINUOUS
 10
55.662195122
 20
204.3123537256
 11
55.662195122
 21
206.5123537256
  0
LINE
  5
63E
100
AcDbEntity
  8
0
100
AcDbLine
 62
7
  6
CONTINUOUS
 10
55.662195122
 20
217.8123537256
 11
55.662195122
 21
220.0123537256
  0
LINE
  5
63F
100
AcDbEntity
  8
0
100
AcDbLine
 62
7
  6
CONTINUOUS
 10
55.662195122
 20
222.3123537256
 11
55.662195122
 21
224.5123537256
  0
LINE
  5
640
100
AcDbEntity
  8
0
100
AcDbLine
 62
7
  6
CONTINUOUS
 10
55.662195122
 20
226.8123537256
 11
55.662195122
 21
229.0123537256
  0
LINE
  5
641
100
AcDbEntity
  8
0
100
AcDbLine
 62
7
  6
CONTINUOUS
 10
55.662195122
 20
231.3123537256
 11
55.662195122
 21
233.5123537256
  0
LINE
  5
642
100
AcDbEntity
  8
0
100
AcDbLine
 62
7
  6
CONTINUOUS
 10
55.662195122
 20
235.8123537256
 11
55.662195122
 21
238.0123537256
  0
LINE
  5
643
100
AcDbEntity
  8
0
100
AcDbLine
 62
7
  6
CONTINUOUS
 10
55.662195122
 20
240.3123537256
 11
55.662195122
 21
242.5123537256
  0
LINE
  5
644
100
AcDbEntity
  8
0
100
AcDbLine
 62
7
  6
CONTINUOUS
 10
55.662195122
 20
244.8123537256
 11
55.662195122
 21
247.0123537256
  0
LINE
  5
645
100
AcDbEntity
  8
0
100
AcDbLine
 62
7
  6
CONTINUOUS
 10
55.662195122
 20
249.3123537256
 11
55.662195122
 21
251.5123537256
  0
LINE
  5
646
100
AcDbEntity
  8
0
100
AcDbLine
 62
7
  6
CONTINUOUS
 10
55.662195122
 20
253.8123537256
 11
55.662195122
 21
256.0123537256
  0
LINE
  5
647
100
AcDbEntity
  8
0
100
AcDbLine
 62
7
  6
CONTINUOUS
 10
55.662195122
 20
258.3123537256
 11
55.662195122
 21
260.5123537256
  0
LINE
  5
648
100
AcDbEntity
  8
0
100
AcDbLine
 62
7
  6
CONTINUOUS
 10
55.662195122
 20
262.8123537256
 11
55.662195122
 21
265.0123537256
  0
LINE
  5
649
100
AcDbEntity
  8
0
100
AcDbLine
 62
7
  6
CONTINUOUS
 10
55.662195122
 20
268.1123537256
 11
55.662195122
 21
272.2623537256
  0
LINE
  5
64A
100
AcDbEntity
  8
0
100
AcDbLine
 62
7
  6
CONTINUOUS
 10
56.312195122
 20
174.9637000575
 11
56.312195122
 21
175.3914962109
  0
LINE
  5
64B
100
AcDbEntity
  8
0
100
AcDbLine
 62
7
  6
CONTINUOUS
 10
56.462195122
 20
192.1123537256
 11
56.462195122
 21
192.0123537256
  0
LINE
  5
64C
100
AcDbEntity
  8
0
100
AcDbLine
 62
7
  6
CONTINUOUS
 10
57.1515701475
 20
174.2976435625
 11
57.1516139195
 21
172.283388782
  0
LINE
  5
64D
100
AcDbEntity
  8
0
100
AcDbLine
 62
7
  6
CONTINUOUS
 10
57.162195122
 20
276.0623531005
 11
57.162195122
 21
192.1123537256
  0
LINE
  5
64E
100
AcDbEntity
  8
0
100
AcDbLine
 62
7
  6
CONTINUOUS
 10
57.162195122
 20
169.4123537256
 11
57.162195122
 21
192.0123537256
  0
LINE
  5
64F
100
AcDbEntity
  8
00_BLANKED_OBJECTS
100
AcDbLine
 62
7
  6
CONTINUOUS
 10
57.362195122
 20
188.5123537256
 11
57.362195122
 21
188.0623537256
  0
LINE
  5
650
100
AcDbEntity
  8
0
100
AcDbLine
 62
7
  6
CONTINUOUS
 10
57.1367584101
 20
173.2123537256
 11
57.1193033452
 21
172.2123537256
  0
LINE
  5
651
100
AcDbEntity
  8
0
100
AcDbLine
 62
7
  6
CONTINUOUS
 10
57.1426132676
 20
173.2123537256
 11
57.1251582027
 21
172.2123537256
  0
LINE
  5
652
100
AcDbEntity
  8
0
100
AcDbLine
 62
7
  6
CONTINUOUS
 10
57.1386163087
 20
171.9123537256
 11
57.1211612438
 21
170.9123537256
  0
LINE
  5
653
100
AcDbEntity
  8
0
100
AcDbLine
 62
7
  6
CONTINUOUS
 10
57.1424688401
 20
171.9123537256
 11
57.1250137752
 21
170.9123537256
  0
LINE
  5
654
100
AcDbEntity
  8
0
100
AcDbLine
 62
7
  6
CONTINUOUS
 10
57.1516139195
 20
172.283388782
 11
57.0658898594
 21
167.3722606689
  0
LINE
  5
655
100
AcDbEntity
  8
00_COMPONENTS
100
AcDbLine
 62
7
  6
CONTINUOUS
 10
43.3359833264
 20
151.4082438221
 11
43.4189214952
 21
151.7823537256
  0
LINE
  5
656
100
AcDbEntity
  8
0
100
AcDbLine
 62
7
  6
CONTINUOUS
 10
55.162195122
 20
229.5123537256
 11
38.012195122
 21
229.5123537256
  0
LINE
  5
657
100
AcDbEntity
  8
0
100
AcDbLine
 62
7
  6
CONTINUOUS
 10
35.812195122
 20
229.5123537256
 11
31.362195122
 21
229.5123537256
  0
LINE
  5
658
100
AcDbEntity
  8
0
100
AcDbLine
 62
7
  6
CONTINUOUS
 10
31.362195122
 20
230.8123537256
 11
35.812195122
 21
230.8123537256
  0
LINE
  5
659
100
AcDbEntity
  8
0
100
AcDbLine
 62
7
  6
CONTINUOUS
 10
38.012195122
 20
230.8123537256
 11
55.162195122
 21
230.8123537256
  0
LINE
  5
65A
100
AcDbEntity
  8
0
100
AcDbLine
 62
7
  6
CONTINUOUS
 10
54.862195122
 20
231.3123537256
 11
54.512195122
 21
231.3123537256
  0
LINE
  5
65B
100
AcDbEntity
  8
0
100
AcDbLine
 62
7
  6
CONTINUOUS
 10
49.612195122
 20
231.3123537256
 11
39.062195122
 21
231.3123537256
  0
LINE
  5
65C
100
AcDbEntity
  8
0
100
AcDbLine
 62
7
  6
CONTINUOUS
 10
33.862195122
 20
231.3123537256
 11
31.662195122
 21
231.3123537256
  0
LINE
  5
65D
100
AcDbEntity
  8
00_COMPONENTS
100
AcDbLine
 62
7
  6
CONTINUOUS
 10
54.262195122
 20
236.2823537256
 11
54.762195122
 21
236.3573537256
  0
LINE
  5
65E
100
AcDbEntity
  8
0
100
AcDbLine
 62
7
  6
CONTINUOUS
 10
31.0052817158
 20
233.2233437028
 11
30.862195122
 21
233.2233437028
  0
LINE
  5
65F
100
AcDbEntity
  8
0
100
AcDbLine
 62
7
  6
CONTINUOUS
 10
55.162195122
 20
234.0123537256
 11
38.012195122
 21
234.0123537256
  0
LINE
  5
660
100
AcDbEntity
  8
0
100
AcDbLine
 62
7
  6
CONTINUOUS
 10
35.812195122
 20
234.0123537256
 11
31.362195122
 21
234.0123537256
  0
LINE
  5
661
100
AcDbEntity
  8
0
100
AcDbLine
 62
7
  6
CONTINUOUS
 10
31.362195122
 20
235.3123537256
 11
35.812195122
 21
235.3123537256
  0
LINE
  5
662
100
AcDbEntity
  8
0
100
AcDbLine
 62
7
  6
CONTINUOUS
 10
38.012195122
 20
235.3123537256
 11
55.162195122
 21
235.3123537256
  0
LINE
  5
663
100
AcDbEntity
  8
0
100
AcDbLine
 62
7
  6
CONTINUOUS
 10
54.862195122
 20
235.8123537256
 11
54.512195122
 21
235.8123537256
  0
LINE
  5
664
100
AcDbEntity
  8
0
100
AcDbLine
 62
7
  6
CONTINUOUS
 10
33.862195122
 20
235.8123537256
 11
31.662195122
 21
235.8123537256
  0
LINE
  5
665
100
AcDbEntity
  8
00_COMPONENTS
100
AcDbLine
 62
7
  6
CONTINUOUS
 10
37.512195122
 20
235.9623537256
 11
37.762195122
 21
235.9623537256
  0
LINE
  5
666
100
AcDbEntity
  8
00_COMPONENTS
100
AcDbLine
 62
7
  6
CONTINUOUS
 10
54.212195122
 20
236.2823537256
 11
54.262195122
 21
236.2823537256
  0
LINE
  5
667
100
AcDbEntity
  8
00_COMPONENTS
100
AcDbLine
 62
7
  6
CONTINUOUS
 10
37.512195122
 20
236.4073537256
 11
37.762195122
 21
236.4073537256
  0
LINE
  5
668
100
AcDbEntity
  8
00_COMPONENTS
100
AcDbLine
 62
7
  6
CONTINUOUS
 10
37.512195122
 20
236.6573537256
 11
37.762195122
 21
236.6573537256
  0
LINE
  5
669
100
AcDbEntity
  8
00_COMPONENTS
100
AcDbLine
 62
7
  6
CONTINUOUS
 10
54.262195122
 20
236.7823537256
 11
54.212195122
 21
236.7823537256
  0
LINE
  5
66A
100
AcDbEntity
  8
00_COMPONENTS
100
AcDbLine
 62
7
  6
CONTINUOUS
 10
54.262195122
 20
241.3623537256
 11
54.762195122
 21
241.4373537256
  0
LINE
  5
66B
100
AcDbEntity
  8
0
100
AcDbLine
 62
7
  6
CONTINUOUS
 10
55.162195122
 20
238.5123537256
 11
38.012195122
 21
238.5123537256
  0
LINE
  5
66C
100
AcDbEntity
  8
0
100
AcDbLine
 62
7
  6
CONTINUOUS
 10
35.812195122
 20
238.5123537256
 11
31.362195122
 21
238.5123537256
  0
LINE
  5
66D
100
AcDbEntity
  8
0
100
AcDbLine
 62
7
  6
CONTINUOUS
 10
31.362195122
 20
239.8123537256
 11
35.812195122
 21
239.8123537256
  0
LINE
  5
66E
100
AcDbEntity
  8
0
100
AcDbLine
 62
7
  6
CONTINUOUS
 10
38.012195122
 20
239.8123537256
 11
55.162195122
 21
239.8123537256
  0
LINE
  5
66F
100
AcDbEntity
  8
0
100
AcDbLine
 62
7
  6
CONTINUOUS
 10
54.862195122
 20
240.3123537256
 11
54.512195122
 21
240.3123537256
  0
LINE
  5
670
100
AcDbEntity
  8
0
100
AcDbLine
 62
7
  6
CONTINUOUS
 10
33.862195122
 20
240.3123537256
 11
31.662195122
 21
240.3123537256
  0
LINE
  5
671
100
AcDbEntity
  8
00_COMPONENTS
100
AcDbLine
 62
7
  6
CONTINUOUS
 10
54.262195122
 20
241.3623537256
 11
54.212195122
 21
241.3623537256
  0
LINE
  5
672
100
AcDbEntity
  8
00_COMPONENTS
100
AcDbLine
 62
7
  6
CONTINUOUS
 10
37.512195122
 20
241.4873537256
 11
37.762195122
 21
241.4873537256
  0
LINE
  5
673
100
AcDbEntity
  8
00_COMPONENTS
100
AcDbLine
 62
7
  6
CONTINUOUS
 10
37.512195122
 20
241.7373537256
 11
37.762195122
 21
241.7373537256
  0
LINE
  5
674
100
AcDbEntity
  8
00_COMPONENTS
100
AcDbLine
 62
7
  6
CONTINUOUS
 10
54.262195122
 20
241.8623537256
 11
54.212195122
 21
241.8623537256
  0
LINE
  5
675
100
AcDbEntity
  8
00_COMPONENTS
100
AcDbLine
 62
7
  6
CONTINUOUS
 10
54.262195122
 20
236.7823537256
 11
54.762195122
 21
236.7073537256
  0
LINE
  5
676
100
AcDbEntity
  8
0
100
AcDbLine
 62
7
  6
CONTINUOUS
 10
57.362195122
 20
188.0623537256
 11
57.162195122
 21
187.7159435641
  0
LINE
  5
677
100
AcDbEntity
  8
00_COMPONENTS
100
AcDbLine
 62
7
  6
CONTINUOUS
 10
54.262195122
 20
246.4423537256
 11
54.762195122
 21
246.5173537256
  0
LINE
  5
678
100
AcDbEntity
  8
0
100
AcDbLine
 62
7
  6
CONTINUOUS
 10
55.162195122
 20
243.0123537256
 11
38.012195122
 21
243.0123537256
  0
LINE
  5
679
100
AcDbEntity
  8
0
100
AcDbLine
 62
7
  6
CONTINUOUS
 10
35.812195122
 20
243.0123537256
 11
31.362195122
 21
243.0123537256
  0
LINE
  5
67A
100
AcDbEntity
  8
0
100
AcDbLine
 62
7
  6
CONTINUOUS
 10
31.362195122
 20
244.3123537256
 11
35.812195122
 21
244.3123537256
  0
LINE
  5
67B
100
AcDbEntity
  8
0
100
AcDbLine
 62
7
  6
CONTINUOUS
 10
38.012195122
 20
244.3123537256
 11
55.162195122
 21
244.3123537256
  0
LINE
  5
67C
100
AcDbEntity
  8
0
100
AcDbLine
 62
7
  6
CONTINUOUS
 10
54.862195122
 20
244.8123537256
 11
54.512195122
 21
244.8123537256
  0
LINE
  5
67D
100
AcDbEntity
  8
0
100
AcDbLine
 62
7
  6
CONTINUOUS
 10
33.862195122
 20
244.8123537256
 11
31.662195122
 21
244.8123537256
  0
LINE
  5
67E
100
AcDbEntity
  8
00_COMPONENTS
100
AcDbLine
 62
7
  6
CONTINUOUS
 10
54.212195122
 20
246.4423537256
 11
54.262195122
 21
246.4423537256
  0
LINE
  5
67F
100
AcDbEntity
  8
00_COMPONENTS
100
AcDbLine
 62
7
  6
CONTINUOUS
 10
37.512195122
 20
246.5673537256
 11
37.762195122
 21
246.5673537256
  0
LINE
  5
680
100
AcDbEntity
  8
00_COMPONENTS
100
AcDbLine
 62
7
  6
CONTINUOUS
 10
37.512195122
 20
246.8173537256
 11
37.762195122
 21
246.8173537256
  0
LINE
  5
681
100
AcDbEntity
  8
00_COMPONENTS
100
AcDbLine
 62
7
  6
CONTINUOUS
 10
54.212195122
 20
246.9423537256
 11
54.262195122
 21
246.9423537256
  0
LINE
  5
682
100
AcDbEntity
  8
00_COMPONENTS
100
AcDbLine
 62
7
  6
CONTINUOUS
 10
37.5791824201
 20
247.2623537256
 11
37.762195122
 21
247.2623537256
  0
LINE
  5
683
100
AcDbEntity
  8
00_COMPONENTS
100
AcDbLine
 62
7
  6
CONTINUOUS
 10
54.762195122
 20
241.7873537256
 11
54.262195122
 21
241.8623537256
  0
LINE
  5
684
100
AcDbEntity
  8
00_COMPONENTS
100
AcDbLine
 62
7
  6
CONTINUOUS
 10
54.762195122
 20
244.3273537256
 11
54.3051480373
 21
244.3959107883
  0
LINE
  5
685
100
AcDbEntity
  8
0
100
AcDbLine
 62
7
  6
CONTINUOUS
 10
45.412195122
 20
247.4623537256
 11
42.012195122
 21
247.4623537256
  0
LINE
  5
686
100
AcDbEntity
  8
0
100
AcDbLine
 62
7
  6
CONTINUOUS
 10
55.162195122
 20
247.5123537256
 11
38.012195122
 21
247.5123537256
  0
LINE
  5
687
100
AcDbEntity
  8
0
100
AcDbLine
 62
7
  6
CONTINUOUS
 10
35.812195122
 20
247.5123537256
 11
31.362195122
 21
247.5123537256
  0
LINE
  5
688
100
AcDbEntity
  8
0
100
AcDbLine
 62
7
  6
CONTINUOUS
 10
37.812195122
 20
248.1424573019
 11
49.612195122
 21
248.1424573019
  0
LINE
  5
689
100
AcDbEntity
  8
0
100
AcDbLine
 62
7
  6
CONTINUOUS
 10
37.812195122
 20
248.6423811495
 11
49.612195122
 21
248.6423811495
  0
LINE
  5
68A
100
AcDbEntity
  8
0
100
AcDbLine
 62
7
  6
CONTINUOUS
 10
49.612195122
 20
248.7123537256
 11
37.812195122
 21
248.7123537256
  0
LINE
  5
68B
100
AcDbEntity
  8
0
100
AcDbLine
 62
7
  6
CONTINUOUS
 10
55.162195122
 20
248.8123537256
 11
51.612195122
 21
248.8123537256
  0
LINE
  5
68C
100
AcDbEntity
  8
0
100
AcDbLine
 62
7
  6
CONTINUOUS
 10
31.362195122
 20
248.8123537256
 11
35.812195122
 21
248.8123537256
  0
LINE
  5
68D
100
AcDbEntity
  8
0
100
AcDbLine
 62
7
  6
CONTINUOUS
 10
49.462195122
 20
248.9623537256
 11
37.962195122
 21
248.9623537256
  0
LINE
  5
68E
100
AcDbEntity
  8
0
100
AcDbLine
 62
7
  6
CONTINUOUS
 10
54.862195122
 20
249.3123537256
 11
54.512195122
 21
249.3123537256
  0
LINE
  5
68F
100
AcDbEntity
  8
0
100
AcDbLine
 62
7
  6
CONTINUOUS
 10
33.862195122
 20
249.3123537256
 11
31.662195122
 21
249.3123537256
  0
LINE
  5
690
100
AcDbEntity
  8
0
100
AcDbLine
 62
7
  6
CONTINUOUS
 10
47.658064796
 20
250.5671692842
 11
44.8163254479
 21
250.5671692842
  0
LINE
  5
691
100
AcDbEntity
  8
0
100
AcDbLine
 62
7
  6
CONTINUOUS
 10
42.608064796
 20
250.5671692842
 11
39.7663254479
 21
250.5671692842
  0
LINE
  5
692
100
AcDbEntity
  8
0
100
AcDbLine
 62
7
  6
CONTINUOUS
 10
49.912195122
 20
250.6123537256
 11
49.762195122
 21
250.6123537256
  0
LINE
  5
693
100
AcDbEntity
  8
0
100
AcDbLine
 62
7
  6
CONTINUOUS
 10
37.662195122
 20
250.6123537256
 11
37.512195122
 21
250.6123537256
  0
LINE
  5
694
100
AcDbEntity
  8
0
100
AcDbLine
 62
7
  6
CONTINUOUS
 10
49.912195122
 20
251.1123537256
 11
49.762195122
 21
251.1123537256
  0
LINE
  5
695
100
AcDbEntity
  8
0
100
AcDbLine
 62
7
  6
CONTINUOUS
 10
37.662195122
 20
251.1123537256
 11
37.512195122
 21
251.1123537256
  0
LINE
  5
696
100
AcDbEntity
  8
0
100
AcDbLine
 62
7
  6
CONTINUOUS
 10
35.812195122
 20
252.0123537256
 11
31.362195122
 21
252.0123537256
  0
LINE
  5
697
100
AcDbEntity
  8
0
100
AcDbLine
 62
7
  6
CONTINUOUS
 10
51.612195122
 20
252.0123537256
 11
55.162195122
 21
252.0123537256
  0
LINE
  5
698
100
AcDbEntity
  8
00_COMPONENTS
100
AcDbLine
 62
7
  6
CONTINUOUS
 10
54.262195122
 20
246.9423537256
 11
54.762195122
 21
246.8673537256
  0
LINE
  5
699
100
AcDbEntity
  8
0
100
AcDbLine
 62
7
  6
CONTINUOUS
 10
37.512195122
 20
252.7123537256
 11
37.662195122
 21
252.7123537256
  0
LINE
  5
69A
100
AcDbEntity
  8
0
100
AcDbLine
 62
7
  6
CONTINUOUS
 10
49.762195122
 20
252.7123537256
 11
49.912195122
 21
252.7123537256
  0
LINE
  5
69B
100
AcDbEntity
  8
0
100
AcDbLine
 62
7
  6
CONTINUOUS
 10
37.512195122
 20
253.2123537256
 11
37.662195122
 21
253.2123537256
  0
LINE
  5
69C
100
AcDbEntity
  8
0
100
AcDbLine
 62
7
  6
CONTINUOUS
 10
49.762195122
 20
253.2123537256
 11
49.912195122
 21
253.2123537256
  0
LINE
  5
69D
100
AcDbEntity
  8
0
100
AcDbLine
 62
7
  6
CONTINUOUS
 10
55.162195122
 20
253.3123537256
 11
51.612195122
 21
253.3123537256
  0
LINE
  5
69E
100
AcDbEntity
  8
0
100
AcDbLine
 62
7
  6
CONTINUOUS
 10
31.362195122
 20
253.3123537256
 11
35.812195122
 21
253.3123537256
  0
LINE
  5
69F
100
AcDbEntity
  8
0
100
AcDbLine
 62
7
  6
CONTINUOUS
 10
47.658064796
 20
253.357538167
 11
44.8163254479
 21
253.357538167
  0
LINE
  5
6A0
100
AcDbEntity
  8
0
100
AcDbLine
 62
7
  6
CONTINUOUS
 10
42.608064796
 20
253.357538167
 11
39.7663254479
 21
253.357538167
  0
LINE
  5
6A1
100
AcDbEntity
  8
0
100
AcDbLine
 62
7
  6
CONTINUOUS
 10
37.962195122
 20
254.9623537256
 11
49.462195122
 21
254.9623537256
  0
LINE
  5
6A2
100
AcDbEntity
  8
00_COMPONENTS
100
AcDbLine
 62
7
  6
CONTINUOUS
 10
34.862195122
 20
255.1123537256
 11
34.762195122
 21
255.1123537256
  0
LINE
  5
6A3
100
AcDbEntity
  8
00_COMPONENTS
100
AcDbLine
 62
7
  6
CONTINUOUS
 10
35.662195122
 20
255.8623537256
 11
34.862195122
 21
255.8623537256
  0
LINE
  5
6A4
100
AcDbEntity
  8
00_COMPONENTS
100
AcDbLine
 62
7
  6
CONTINUOUS
 10
34.762195122
 20
255.8623537256
 11
33.962195122
 21
255.8623537256
  0
LINE
  5
6A5
100
AcDbEntity
  8
00_COMPONENTS
100
AcDbLine
 62
7
  6
CONTINUOUS
 10
54.212195122
 20
255.8623537256
 11
54.562195122
 21
255.8623537256
  0
LINE
  5
6A6
100
AcDbEntity
  8
0
100
AcDbLine
 62
7
  6
CONTINUOUS
 10
35.812195122
 20
256.5123537256
 11
31.362195122
 21
256.5123537256
  0
LINE
  5
6A7
100
AcDbEntity
  8
0
100
AcDbLine
 62
7
  6
CONTINUOUS
 10
51.612195122
 20
256.5123537256
 11
55.162195122
 21
256.5123537256
  0
LINE
  5
6A8
100
AcDbEntity
  8
0
100
AcDbLine
 62
7
  6
CONTINUOUS
 10
49.512195122
 20
256.9123537256
 11
49.462195122
 21
256.9123537256
  0
LINE
  5
6A9
100
AcDbEntity
  8
0
100
AcDbLine
 62
7
  6
CONTINUOUS
 10
37.962195122
 20
256.9123537256
 11
37.9121952349
 21
256.9123537256
  0
LINE
  5
6AA
100
AcDbEntity
  8
0
100
AcDbLine
 62
7
  6
CONTINUOUS
 10
50.212195122
 20
257.4123537256
 11
49.912195122
 21
257.4123537256
  0
LINE
  5
6AB
100
AcDbEntity
  8
0
100
AcDbLine
 62
7
  6
CONTINUOUS
 10
37.512195122
 20
257.4123537256
 11
37.212195122
 21
257.4123537256
  0
LINE
  5
6AC
100
AcDbEntity
  8
0
100
AcDbLine
 62
7
  6
CONTINUOUS
 10
36.312195122
 20
257.4123537256
 11
29.862195122
 21
257.4123537256
  0
LINE
  5
6AD
100
AcDbEntity
  8
0
100
AcDbLine
 62
7
  6
CONTINUOUS
 10
55.162195122
 20
257.8123537256
 11
51.612195122
 21
257.8123537256
  0
LINE
  5
6AE
100
AcDbEntity
  8
0
100
AcDbLine
 62
7
  6
CONTINUOUS
 10
35.812195122
 20
257.8123537256
 11
31.362195122
 21
257.8123537256
  0
LINE
  5
6AF
100
AcDbEntity
  8
0
100
AcDbLine
 62
7
  6
CONTINUOUS
 10
38.512195122
 20
257.9623537256
 11
48.912195122
 21
257.9623537256
  0
LINE
  5
6B0
100
AcDbEntity
  8
0
100
AcDbLine
 62
7
  6
CONTINUOUS
 10
54.862195122
 20
257.9839266009
 11
54.712195122
 21
257.9839266009
  0
LINE
  5
6B1
100
AcDbEntity
  8
0
100
AcDbLine
 62
7
  6
CONTINUOUS
 10
33.662195122
 20
257.9839266009
 11
31.662195122
 21
257.9839266009
  0
LINE
  5
6B2
100
AcDbEntity
  8
0
100
AcDbLine
 62
7
  6
CONTINUOUS
 10
33.662195122
 20
258.9839266009
 11
35.362195122
 21
258.9839266009
  0
LINE
  5
6B3
100
AcDbEntity
  8
0
100
AcDbLine
 62
7
  6
CONTINUOUS
 10
54.212195122
 20
258.9839266009
 11
54.712195122
 21
258.9839266009
  0
LINE
  5
6B4
100
AcDbEntity
  8
0
100
AcDbLine
 62
7
  6
CONTINUOUS
 10
54.462195122
 20
259.5123537256
 11
54.212195122
 21
259.5123537256
  0
LINE
  5
6B5
100
AcDbEntity
  8
0
100
AcDbLine
 62
7
  6
CONTINUOUS
 10
54.212195122
 20
259.8123537256
 11
54.462195122
 21
259.8123537256
  0
LINE
  5
6B6
100
AcDbEntity
  8
0
100
AcDbLine
 62
7
  6
CONTINUOUS
 10
54.862195122
 20
260.4839266009
 11
54.212195122
 21
260.4839266009
  0
LINE
  5
6B7
100
AcDbEntity
  8
0
100
AcDbLine
 62
7
  6
CONTINUOUS
 10
35.662195122
 20
260.4839266009
 11
31.662195122
 21
260.4839266009
  0
LINE
  5
6B8
100
AcDbEntity
  8
00_COMPONENTS
100
AcDbLine
 62
7
  6
CONTINUOUS
 10
36.2702608283
 20
260.7123537256
 11
35.662195122
 21
260.7123537256
  0
LINE
  5
6B9
100
AcDbEntity
  8
0
100
AcDbLine
 62
7
  6
CONTINUOUS
 10
35.812195122
 20
261.0123537256
 11
31.362195122
 21
261.0123537256
  0
LINE
  5
6BA
100
AcDbEntity
  8
0
100
AcDbLine
 62
7
  6
CONTINUOUS
 10
51.612195122
 20
261.0123537256
 11
55.162195122
 21
261.0123537256
  0
LINE
  5
6BB
100
AcDbEntity
  8
0
100
AcDbLine
 62
7
  6
CONTINUOUS
 10
29.862195122
 20
261.5123537256
 11
36.812195122
 21
261.5123537256
  0
LINE
  5
6BC
100
AcDbEntity
  8
0
100
AcDbLine
 62
7
  6
CONTINUOUS
 10
55.162195122
 20
262.3123537256
 11
51.612195122
 21
262.3123537256
  0
LINE
  5
6BD
100
AcDbEntity
  8
0
100
AcDbLine
 62
7
  6
CONTINUOUS
 10
37.512195122
 20
263.5123537256
 11
37.662195122
 21
263.5123537256
  0
LINE
  5
6BE
100
AcDbEntity
  8
0
100
AcDbLine
 62
7
  6
CONTINUOUS
 10
49.762195122
 20
263.5123537256
 11
49.912195122
 21
263.5123537256
  0
LINE
  5
6BF
100
AcDbEntity
  8
0
100
AcDbLine
 62
7
  6
CONTINUOUS
 10
51.612195122
 20
265.5123537256
 11
55.162195122
 21
265.5123537256
  0
LINE
  5
6C0
100
AcDbEntity
  8
0
100
AcDbLine
 62
7
  6
CONTINUOUS
 10
49.462195122
 20
266.2623537256
 11
37.962195122
 21
266.2623537256
  0
LINE
  5
6C1
100
AcDbEntity
  8
0
100
AcDbLine
 62
7
  6
CONTINUOUS
 10
46.212195122
 20
266.5123537256
 11
41.212195122
 21
266.5123537256
  0
LINE
  5
6C2
100
AcDbEntity
  8
0
100
AcDbLine
 62
7
  6
CONTINUOUS
 10
37.812195122
 20
266.5123537256
 11
40.062195122
 21
266.5123537256
  0
LINE
  5
6C3
100
AcDbEntity
  8
0
100
AcDbLine
 62
7
  6
CONTINUOUS
 10
47.362195122
 20
266.5123537256
 11
49.612195122
 21
266.5123537256
  0
LINE
  5
6C4
100
AcDbEntity
  8
0
100
AcDbLine
 62
7
  6
CONTINUOUS
 10
47.362195122
 20
266.6260507297
 11
40.062195122
 21
266.6260507297
  0
LINE
  5
6C5
100
AcDbEntity
  8
0
100
AcDbLine
 62
7
  6
CONTINUOUS
 10
29.862195122
 20
267.4123537256
 11
56.662195122
 21
267.4123537256
  0
LINE
  5
6C6
100
AcDbEntity
  8
0
100
AcDbLine
 62
7
  6
CONTINUOUS
 10
29.862195122
 20
268.1123537256
 11
31.1682668997
 21
268.1123537256
  0
LINE
  5
6C7
100
AcDbEntity
  8
0
100
AcDbLine
 62
7
  6
CONTINUOUS
 10
31.1834072432
 20
268.1123537256
 11
56.662195122
 21
268.1123537256
  0
LINE
  5
6C8
100
AcDbEntity
  8
0
100
AcDbLine
 62
7
  6
CONTINUOUS
 10
31.127674334
 20
272.4123537256
 11
31.5967159099
 21
272.4123537256
  0
LINE
  5
6C9
100
AcDbEntity
  8
0
100
AcDbLine
 62
7
  6
CONTINUOUS
 10
54.927674334
 20
272.4123537256
 11
55.3967159099
 21
272.4123537256
  0
LINE
  5
6CA
100
AcDbEntity
  8
0
100
AcDbLine
 62
7
  6
CONTINUOUS
 10
29.862195122
 20
276.1123537256
 11
56.662195122
 21
276.1123537256
  0
LINE
  5
6CB
100
AcDbEntity
  8
0
100
AcDbLine
 62
7
  6
CONTINUOUS
 10
56.662195122
 20
276.5623537256
 11
29.862195122
 21
276.5623537256
  0
ARC
  5
6CC
100
AcDbEntity
  8
DEFAULT_3
100
AcDbCircle
 62
2
  6
PHANTOM
 10
585.1569471626
 20
75.9893817968
 40
496.5805118746
100
AcDbArc
 50
176.8878744221
 51
185.72810973
  0
ARC
  5
6CD
100
AcDbEntity
  8
0
100
AcDbCircle
 62
7
  6
CONTINUOUS
 10
33.462195122
 20
26.212433226
 40
0.7
100
AcDbArc
 50
90.0
 51
180.0
  0
ARC
  5
6CE
100
AcDbEntity
  8
0
100
AcDbCircle
 62
7
  6
CONTINUOUS
 10
29.862195122
 20
23.412433226
 40
0.5
100
AcDbArc
 50
180.0
 51
270.0
  0
CIRCLE
  5
6CF
100
AcDbEntity
  8
00_COMPONENTS
100
AcDbCircle
 62
7
  6
CONTINUOUS
 10
41.142195122
 20
34.292433226
 40
1.95
  0
ARC
  5
6D0
100
AcDbEntity
  8
00_COMPONENTS
100
AcDbCircle
 62
7
  6
CONTINUOUS
 10
41.142195122
 20
34.292433226
 40
1.9
100
AcDbArc
 50
135.0
 51
225.0
  0
ARC
  5
6D1
100
AcDbEntity
  8
00_COMPONENTS
100
AcDbCircle
 62
7
  6
CONTINUOUS
 10
41.142195122
 20
34.292433226
 40
1.9
100
AcDbArc
 50
255.0516259546
 51
345.0740750939
  0
ARC
  5
6D2
100
AcDbEntity
  8
00_COMPONENTS
100
AcDbCircle
 62
7
  6
CONTINUOUS
 10
41.142195122
 20
34.292433226
 40
1.9
100
AcDbArc
 50
14.9483740454
 51
104.9259249061
  0
ARC
  5
6D3
100
AcDbEntity
  8
00_COMPONENTS
100
AcDbCircle
 62
7
  6
CONTINUOUS
 10
41.142195122
 20
34.292433226
 40
1.45
100
AcDbArc
 50
225.0
 51
255.0
  0
ARC
  5
6D4
100
AcDbEntity
  8
00_COMPONENTS
100
AcDbCircle
 62
7
  6
CONTINUOUS
 10
41.142195122
 20
34.292433226
 40
1.45
100
AcDbArc
 50
105.0
 51
135.0
  0
ARC
  5
6D5
100
AcDbEntity
  8
00_COMPONENTS
100
AcDbCircle
 62
7
  6
CONTINUOUS
 10
41.142195122
 20
34.292433226
 40
1.45
100
AcDbArc
 50
345.0
 51
15.0
  0
ARC
  5
6D6
100
AcDbEntity
  8
00_COMPONENTS
100
AcDbCircle
 62
7
  6
CONTINUOUS
 10
42.782195122
 20
32.777433226
 40
1.0
100
AcDbArc
 50
270.0
 51
272.5870185755
  0
ARC
  5
6D7
100
AcDbEntity
  8
00_COMPONENTS
100
AcDbCircle
 62
7
  6
CONTINUOUS
 10
39.232195122
 20
32.777433226
 40
1.0
100
AcDbArc
 50
179.9999999999
 51
270.0
  0
ARC
  5
6D8
100
AcDbEntity
  8
00_COMPONENTS
100
AcDbCircle
 62
7
  6
CONTINUOUS
 10
39.257195122
 20
32.782433226
 40
1.0
100
AcDbArc
 50
180.0
 51
270.0
  0
ARC
  5
6D9
100
AcDbEntity
  8
00_COMPONENTS
100
AcDbCircle
 62
7
  6
CONTINUOUS
 10
43.057195122
 20
32.782433226
 40
1.0
100
AcDbArc
 50
270.0
 51
360.0
  0
ARC
  5
6DA
100
AcDbEntity
  8
0
100
AcDbCircle
 62
7
  6
CONTINUOUS
 10
37.962195122
 20
32.212433226
 40
1.0
100
AcDbArc
 50
180.0
 51
270.0
  0
ARC
  5
6DB
100
AcDbEntity
  8
00_COMPONENTS
100
AcDbCircle
 62
7
  6
CONTINUOUS
 10
38.232195122
 20
35.932433226
 40
0.5
100
AcDbArc
 50
180.0
 51
270.0
  0
ARC
  5
6DC
100
AcDbEntity
  8
00_COMPONENTS
100
AcDbCircle
 62
7
  6
CONTINUOUS
 10
37.762195122
 20
32.277433226
 40
0.5
100
AcDbArc
 50
180.0
 51
270.0
  0
CIRCLE
  5
6DD
100
AcDbEntity
  8
00_COMPONENTS
100
AcDbCircle
 62
7
  6
CONTINUOUS
 10
40.202195122
 20
39.572433226
 40
2.0
  0
CIRCLE
  5
6DE
100
AcDbEntity
  8
00_COMPONENTS
100
AcDbCircle
 62
7
  6
CONTINUOUS
 10
40.202195122
 20
44.652433226
 40
2.0
  0
CIRCLE
  5
6DF
100
AcDbEntity
  8
00_COMPONENTS
100
AcDbCircle
 62
7
  6
CONTINUOUS
 10
41.142195122
 20
49.532433226
 40
1.95
  0
ARC
  5
6E0
100
AcDbEntity
  8
00_COMPONENTS
100
AcDbCircle
 62
7
  6
CONTINUOUS
 10
41.142195122
 20
49.532433226
 40
1.9
100
AcDbArc
 50
135.0
 51
225.0
  0
ARC
  5
6E1
100
AcDbEntity
  8
00_COMPONENTS
100
AcDbCircle
 62
7
  6
CONTINUOUS
 10
41.142195122
 20
49.532433226
 40
1.9
100
AcDbArc
 50
255.0516259546
 51
345.0740750939
  0
ARC
  5
6E2
100
AcDbEntity
  8
00_COMPONENTS
100
AcDbCircle
 62
7
  6
CONTINUOUS
 10
41.142195122
 20
49.532433226
 40
1.9
100
AcDbArc
 50
14.9483740454
 51
104.9259249061
  0
ARC
  5
6E3
100
AcDbEntity
  8
00_COMPONENTS
100
AcDbCircle
 62
7
  6
CONTINUOUS
 10
40.202195122
 20
44.652433226
 40
1.5
100
AcDbArc
 50
219.9445051898
 51
320.0554948102
  0
ARC
  5
6E4
100
AcDbEntity
  8
00_COMPONENTS
100
AcDbCircle
 62
7
  6
CONTINUOUS
 10
40.202195122
 20
44.652433226
 40
1.5
100
AcDbArc
 50
39.9445051898
 51
140.0554948102
  0
ARC
  5
6E5
100
AcDbEntity
  8
00_COMPONENTS
100
AcDbCircle
 62
7
  6
CONTINUOUS
 10
40.202195122
 20
39.572433226
 40
1.5
100
AcDbArc
 50
39.9445051898
 51
140.0554948102
  0
ARC
  5
6E6
100
AcDbEntity
  8
00_COMPONENTS
100
AcDbCircle
 62
7
  6
CONTINUOUS
 10
40.202195122
 20
39.572433226
 40
1.5
100
AcDbArc
 50
219.9445051898
 51
320.0554948102
  0
ARC
  5
6E7
100
AcDbEntity
  8
00_COMPONENTS
100
AcDbCircle
 62
7
  6
CONTINUOUS
 10
41.142195122
 20
49.532433226
 40
1.45
100
AcDbArc
 50
225.0
 51
255.0
  0
ARC
  5
6E8
100
AcDbEntity
  8
00_COMPONENTS
100
AcDbCircle
 62
7
  6
CONTINUOUS
 10
41.142195122
 20
49.532433226
 40
1.45
100
AcDbArc
 50
105.0
 51
135.0
  0
ARC
  5
6E9
100
AcDbEntity
  8
00_COMPONENTS
100
AcDbCircle
 62
7
  6
CONTINUOUS
 10
41.142195122
 20
49.532433226
 40
1.45
100
AcDbArc
 50
345.0
 51
15.0
  0
ARC
  5
6EA
100
AcDbEntity
  8
00_COMPONENTS
100
AcDbCircle
 62
7
  6
CONTINUOUS
 10
39.232195122
 20
51.047433226
 40
1.0
100
AcDbArc
 50
90.0
 51
180.0
  0
ARC
  5
6EB
100
AcDbEntity
  8
00_COMPONENTS
100
AcDbCircle
 62
7
  6
CONTINUOUS
 10
42.782195122
 20
51.047433226
 40
1.0
100
AcDbArc
 50
87.4129814246
 51
90.0
  0
ARC
  5
6EC
100
AcDbEntity
  8
00_COMPONENTS
100
AcDbCircle
 62
7
  6
CONTINUOUS
 10
43.057195122
 20
51.042433226
 40
1.0
100
AcDbArc
 50
0.0
 51
90.0
  0
ARC
  5
6ED
100
AcDbEntity
  8
00_COMPONENTS
100
AcDbCircle
 62
7
  6
CONTINUOUS
 10
39.257195122
 20
51.042433226
 40
1.0
100
AcDbArc
 50
90.0
 51
180.0
  0
ARC
  5
6EE
100
AcDbEntity
  8
0
100
AcDbCircle
 62
7
  6
CONTINUOUS
 10
37.962195122
 20
51.612433226
 40
1.0
100
AcDbArc
 50
90.0
 51
180.0
  0
ARC
  5
6EF
100
AcDbEntity
  8
00_COMPONENTS
100
AcDbCircle
 62
7
  6
CONTINUOUS
 10
38.232195122
 20
47.892433226
 40
0.5
100
AcDbArc
 50
90.0
 51
180.0
  0
ARC
  5
6F0
100
AcDbEntity
  8
00_COMPONENTS
100
AcDbCircle
 62
7
  6
CONTINUOUS
 10
37.762195122
 20
51.547433226
 40
0.5
100
AcDbArc
 50
90.0
 51
180.0
  0
ARC
  5
6F1
100
AcDbEntity
  8
0
100
AcDbCircle
 62
7
  6
CONTINUOUS
 10
29.862195122
 20
128.412433226
 40
0.5
100
AcDbArc
 50
112.7385063263
 51
180.0
  0
ARC
  5
6F2
100
AcDbEntity
  8
0
100
AcDbCircle
 62
7
  6
CONTINUOUS
 10
29.8608666644
 20
128.4161253255
 40
0.4963079006
100
AcDbArc
 50
89.9985326858
 51
112.2706020323
  0
ARC
  5
6F3
100
AcDbEntity
  8
00_COMPONENTS
100
AcDbCircle
 62
7
  6
CONTINUOUS
 10
38.2728764021
 20
87.8818635063
 40
1.2
100
AcDbArc
 50
228.7655173111
 51
270.5758322069
  0
ARC
  5
6F4
100
AcDbEntity
  8
00_COMPONENTS
100
AcDbCircle
 62
7
  6
CONTINUOUS
 10
40.0948954949
 20
85.7000646096
 40
1.2
100
AcDbArc
 50
180.5758322069
 51
256.098320021
  0
ARC
  5
6F5
100
AcDbEntity
  8
00_COMPONENTS
100
AcDbCircle
 62
7
  6
CONTINUOUS
 10
37.797849887
 20
85.3767844108
 40
0.7
100
AcDbArc
 50
319.6304322268
 51
131.521232187
  0
ARC
  5
6F6
100
AcDbEntity
  8
00_COMPONENTS
100
AcDbCircle
 62
7
  6
CONTINUOUS
 10
38.4889462996
 20
86.2839543101
 40
0.4
100
AcDbArc
 50
0.5758322069
 51
90.5758322069
  0
ARC
  5
6F7
100
AcDbEntity
  8
00_COMPONENTS
100
AcDbCircle
 62
7
  6
CONTINUOUS
 10
38.2527764046
 20
89.8817625013
 40
1.2
100
AcDbArc
 50
90.5758322069
 51
132.3861471027
  0
ARC
  5
6F8
100
AcDbEntity
  8
00_COMPONENTS
100
AcDbCircle
 62
7
  6
CONTINUOUS
 10
40.0305755028
 20
92.0997413936
 40
1.2
100
AcDbArc
 50
105.0533443929
 51
180.5758322069
  0
ARC
  5
6F9
100
AcDbEntity
  8
00_COMPONENTS
100
AcDbCircle
 62
7
  6
CONTINUOUS
 10
37.7274963065
 20
92.3767880089
 40
0.7
100
AcDbArc
 50
229.6304322268
 51
41.521232187
  0
ARC
  5
6FA
100
AcDbEntity
  8
00_COMPONENTS
100
AcDbCircle
 62
7
  6
CONTINUOUS
 10
38.4366863061
 20
91.4836916971
 40
0.4
100
AcDbArc
 50
270.5758322069
 51
0.5758322069
  0
ARC
  5
6FB
100
AcDbEntity
  8
00_COMPONENTS
100
AcDbCircle
 62
7
  6
CONTINUOUS
 10
42.4947742888
 20
85.7241846067
 40
1.2
100
AcDbArc
 50
285.0533443929
 51
0.5758322069
  0
ARC
  5
6FC
100
AcDbEntity
  8
00_COMPONENTS
100
AcDbCircle
 62
7
  6
CONTINUOUS
 10
41.5098997895
 20
84.2142103617
 40
0.2
100
AcDbArc
 50
270.5758322069
 51
0.5758322069
  0
ARC
  5
6FD
100
AcDbEntity
  8
00_COMPONENTS
100
AcDbCircle
 62
7
  6
CONTINUOUS
 10
41.1099199905
 20
84.2101903622
 40
0.2
100
AcDbArc
 50
180.5758322069
 51
270.5758322069
  0
CIRCLE
  5
6FE
100
AcDbEntity
  8
0
100
AcDbCircle
 62
7
  6
CONTINUOUS
 10
41.262195122
 20
88.912433226
 40
8.1
  0
ARC
  5
6FF
100
AcDbEntity
  8
00_COMPONENTS
100
AcDbCircle
 62
7
  6
CONTINUOUS
 10
41.2626748958
 20
88.9119630001
 40
7.75
100
AcDbArc
 50
81.2940331202
 51
99.8576312936
  0
ARC
  5
700
100
AcDbEntity
  8
00_COMPONENTS
100
AcDbCircle
 62
7
  6
CONTINUOUS
 10
41.2626748958
 20
88.9119630001
 40
7.75
100
AcDbArc
 50
161.7567688379
 51
199.3948955759
  0
ARC
  5
701
100
AcDbEntity
  8
00_COMPONENTS
100
AcDbCircle
 62
7
  6
CONTINUOUS
 10
41.2626748958
 20
88.9119630001
 40
7.75
100
AcDbArc
 50
341.7567688379
 51
19.3948955759
  0
ARC
  5
702
100
AcDbEntity
  8
00_COMPONENTS
100
AcDbCircle
 62
7
  6
CONTINUOUS
 10
41.2626748958
 20
88.9119630001
 40
7.5
100
AcDbArc
 50
100.1699004338
 51
161.1046115724
  0
ARC
  5
703
100
AcDbEntity
  8
00_COMPONENTS
100
AcDbCircle
 62
7
  6
CONTINUOUS
 10
41.2626748958
 20
88.9119630001
 40
7.5
100
AcDbArc
 50
200.0470528414
 51
341.1046115724
  0
ARC
  5
704
100
AcDbEntity
  8
00_COMPONENTS
100
AcDbCircle
 62
7
  6
CONTINUOUS
 10
41.2626748958
 20
88.9119630001
 40
7.5
100
AcDbArc
 50
20.0470528414
 51
80.9817639801
  0
CIRCLE
  5
705
100
AcDbEntity
  8
00_COMPONENTS
100
AcDbCircle
 62
7
  6
CONTINUOUS
 10
41.2626748958
 20
88.9119630001
 40
6.55
  0
ARC
  5
706
100
AcDbEntity
  8
00_COMPONENTS
100
AcDbCircle
 62
7
  6
CONTINUOUS
 10
41.2626748958
 20
88.9119630001
 40
4.95
100
AcDbArc
 50
295.1958095356
 51
307.4666321671
  0
ARC
  5
707
100
AcDbEntity
  8
00_COMPONENTS
100
AcDbCircle
 62
7
  6
CONTINUOUS
 10
41.2626748958
 20
88.9119630001
 40
4.95
100
AcDbArc
 50
323.6850322467
 51
341.1046115724
  0
ARC
  5
708
100
AcDbEntity
  8
00_COMPONENTS
100
AcDbCircle
 62
7
  6
CONTINUOUS
 10
41.2626748958
 20
88.9119630001
 40
4.95
100
AcDbArc
 50
20.0470528414
 51
31.6517068248
  0
ARC
  5
709
100
AcDbEntity
  8
00_COMPONENTS
100
AcDbCircle
 62
7
  6
CONTINUOUS
 10
41.2626748958
 20
88.9119630001
 40
4.95
100
AcDbArc
 50
59.4999575891
 51
65.9558548783
  0
ARC
  5
70A
100
AcDbEntity
  8
00_COMPONENTS
100
AcDbCircle
 62
7
  6
CONTINUOUS
 10
41.2626748958
 20
88.9119630001
 40
4.95
100
AcDbArc
 50
200.0470528414
 51
217.4666321671
  0
ARC
  5
70B
100
AcDbEntity
  8
00_COMPONENTS
100
AcDbCircle
 62
7
  6
CONTINUOUS
 10
41.2626748958
 20
88.9119630001
 40
4.95
100
AcDbArc
 50
233.6850322467
 51
245.9558548783
  0
ARC
  5
70C
100
AcDbEntity
  8
00_COMPONENTS
100
AcDbCircle
 62
7
  6
CONTINUOUS
 10
41.2626748958
 20
88.9119630001
 40
4.95
100
AcDbArc
 50
115.1958095356
 51
127.4666321671
  0
ARC
  5
70D
100
AcDbEntity
  8
00_COMPONENTS
100
AcDbCircle
 62
7
  6
CONTINUOUS
 10
41.2626748958
 20
88.9119630001
 40
4.95
100
AcDbArc
 50
143.6850322467
 51
161.1046115724
  0
ARC
  5
70E
100
AcDbEntity
  8
00_COMPONENTS
100
AcDbCircle
 62
7
  6
CONTINUOUS
 10
42.232474397
 20
91.9218614913
 40
1.2
100
AcDbArc
 50
48.7655173111
 51
60.5758322069
  0
ARC
  5
70F
100
AcDbEntity
  8
00_COMPONENTS
100
AcDbCircle
 62
7
  6
CONTINUOUS
 10
41.0154500021
 20
93.6097156386
 40
0.2
100
AcDbArc
 50
90.5758322069
 51
180.5758322069
  0
ARC
  5
710
100
AcDbEntity
  8
00_COMPONENTS
100
AcDbCircle
 62
7
  6
CONTINUOUS
 10
41.4154298011
 20
93.6137356381
 40
0.2
100
AcDbArc
 50
0.5758322069
 51
90.5758322069
  0
ARC
  5
711
100
AcDbEntity
  8
00_COMPONENTS
100
AcDbCircle
 62
7
  6
CONTINUOUS
 10
42.9202540693
 20
93.1412708247
 40
0.2
100
AcDbArc
 50
180.5758322069
 51
240.5758322069
  0
ARC
  5
712
100
AcDbEntity
  8
00_COMPONENTS
100
AcDbCircle
 62
7
  6
CONTINUOUS
 10
50.627195122
 20
44.452433226
 40
1.375
100
AcDbArc
 50
270.0
 51
90.0
  0
ARC
  5
713
100
AcDbEntity
  8
00_COMPONENTS
100
AcDbCircle
 62
7
  6
CONTINUOUS
 10
50.627195122
 20
39.372433226
 40
1.375
100
AcDbArc
 50
270.0
 51
90.0
  0
ARC
  5
714
100
AcDbEntity
  8
00_COMPONENTS
100
AcDbCircle
 62
7
  6
CONTINUOUS
 10
50.627195122
 20
39.372433226
 40
1.175
100
AcDbArc
 50
270.0
 51
90.0
  0
ARC
  5
715
100
AcDbEntity
  8
00_COMPONENTS
100
AcDbCircle
 62
7
  6
CONTINUOUS
 10
50.627195122
 20
44.452433226
 40
1.175
100
AcDbArc
 50
270.0
 51
90.0
  0
ARC
  5
716
100
AcDbEntity
  8
0
100
AcDbCircle
 62
7
  6
CONTINUOUS
 10
45.162195122
 20
32.212433226
 40
1.0
100
AcDbArc
 50
270.0
 51
360.0
  0
ARC
  5
717
100
AcDbEntity
  8
0
100
AcDbCircle
 62
7
  6
CONTINUOUS
 10
45.162195122
 20
51.612433226
 40
1.0
100
AcDbArc
 50
0.0
 51
90.0
  0
ARC
  5
718
100
AcDbEntity
  8
0
100
AcDbCircle
 62
7
  6
CONTINUOUS
 10
53.062195122
 20
26.212433226
 40
0.7
100
AcDbArc
 50
0.0
 51
90.0
  0
ARC
  5
719
100
AcDbEntity
  8
00_COMPONENTS
100
AcDbCircle
 62
7
  6
CONTINUOUS
 10
45.332195122
 20
47.892433226
 40
0.5
100
AcDbArc
 50
0.0
 51
90.0
  0
ARC
  5
71A
100
AcDbEntity
  8
00_COMPONENTS
100
AcDbCircle
 62
7
  6
CONTINUOUS
 10
45.332195122
 20
35.932433226
 40
0.5
100
AcDbArc
 50
270.0
 51
360.0
  0
ARC
  5
71B
100
AcDbEntity
  8
0
100
AcDbCircle
 62
7
  6
CONTINUOUS
 10
56.662195122
 20
23.412433226
 40
0.5
100
AcDbArc
 50
270.0
 51
360.0
  0
ARC
  5
71C
100
AcDbEntity
  8
00_COMPONENTS
100
AcDbCircle
 62
7
  6
CONTINUOUS
 10
50.652246952
 20
39.3724380009
 40
0.4999481699
100
AcDbArc
 50
303.755617377
 51
56.2443469047
  0
ARC
  5
71D
100
AcDbEntity
  8
00_COMPONENTS
100
AcDbCircle
 62
7
  6
CONTINUOUS
 10
50.652246952
 20
44.4524380009
 40
0.4999481699
100
AcDbArc
 50
303.755617377
 51
56.2443469047
  0
ARC
  5
71E
100
AcDbEntity
  8
00_COMPONENTS
100
AcDbCircle
 62
7
  6
CONTINUOUS
 10
44.7274999046
 20
92.4471415894
 40
1.2
100
AcDbArc
 50
142.537894898
 51
308.6137695158
  0
ARC
  5
71F
100
AcDbEntity
  8
00_COMPONENTS
100
AcDbCircle
 62
7
  6
CONTINUOUS
 10
44.272573387
 20
87.9421634989
 40
1.2
100
AcDbArc
 50
270.5758322069
 51
312.3861471027
  0
ARC
  5
720
100
AcDbEntity
  8
00_COMPONENTS
100
AcDbCircle
 62
7
  6
CONTINUOUS
 10
44.7978534852
 20
85.4471379913
 40
0.7
100
AcDbArc
 50
49.6304322268
 51
221.521232187
  0
ARC
  5
721
100
AcDbEntity
  8
00_COMPONENTS
100
AcDbCircle
 62
7
  6
CONTINUOUS
 10
43.5374337431
 20
91.434951741
 40
0.5
100
AcDbArc
 50
180.5758322069
 51
270.5758322069
  0
ARC
  5
722
100
AcDbEntity
  8
0
100
AcDbCircle
 62
7
  6
CONTINUOUS
 10
56.662195122
 20
128.412433226
 40
0.5
100
AcDbArc
 50
0.0
 51
67.2614936457
  0
ARC
  5
723
100
AcDbEntity
  8
0
100
AcDbCircle
 62
7
  6
CONTINUOUS
 10
56.6635235795
 20
128.4161253255
 40
0.4963079007
100
AcDbArc
 50
67.7293979471
 51
90.0014673142
  0
ARC
  5
724
100
AcDbEntity
  8
00_COMPONENTS
100
AcDbCircle
 62
7
  6
CONTINUOUS
 10
44.0886634856
 20
86.3402343032
 40
0.4
100
AcDbArc
 50
90.5758322069
 51
180.5758322069
  0
ARC
  5
725
100
AcDbEntity
  8
0
100
AcDbCircle
 62
7
  6
CONTINUOUS
 10
139.1403816989
 20
-33.087566774
 40
60.0
100
AcDbArc
 50
90.0
 51
99.0
  0
ARC
  5
726
100
AcDbEntity
  8
0
100
AcDbCircle
 62
7
  6
CONTINUOUS
 10
104.4411708213
 20
68.912433226
 40
60.0
100
AcDbArc
 50
81.0
 51
90.0
  0
ARC
  5
727
100
AcDbEntity
  8
00_COMPONENTS
100
AcDbCircle
 62
7
  6
CONTINUOUS
 10
85.0722901951
 20
39.372433226
 40
1.175
100
AcDbArc
 50
270.0
 51
90.0
  0
ARC
  5
728
100
AcDbEntity
  8
00_COMPONENTS
100
AcDbCircle
 62
7
  6
CONTINUOUS
 10
85.0722901951
 20
44.452433226
 40
1.175
100
AcDbArc
 50
270.0
 51
90.0
  0
ARC
  5
729
100
AcDbEntity
  8
0
100
AcDbCircle
 62
7
  6
CONTINUOUS
 10
132.2772901951
 20
36.612433226
 40
0.7
100
AcDbArc
 50
180.0
 51
270.0
  0
CIRCLE
  5
72A
100
AcDbEntity
  8
AXIS
100
AcDbCircle
 62
7
  6
CONTINUOUS
 10
113.0772901951
 20
25.112433226
 40
0.6
  0
ARC
  5
72B
100
AcDbEntity
  8
00_COMPONENTS
100
AcDbCircle
 62
7
  6
CONTINUOUS
 10
90.2772901953
 20
42.7124332259
 40
0.4999999998
100
AcDbArc
 50
293.5781784642
 51
66.4218215347
  0
ARC
  5
72C
100
AcDbEntity
  8
0
100
AcDbCircle
 62
7
  6
CONTINUOUS
 10
91.8772901951
 20
23.412433226
 40
0.5
100
AcDbArc
 50
180.0
 51
270.0
  0
ARC
  5
72D
100
AcDbEntity
  8
0
100
AcDbCircle
 62
7
  6
CONTINUOUS
 10
102.3772901951
 20
74.912433226
 40
0.5
100
AcDbArc
 50
270.0
 51
360.0
  0
ARC
  5
72E
100
AcDbEntity
  8
0
100
AcDbCircle
 62
7
  6
CONTINUOUS
 10
93.3772901951
 20
74.912433226
 40
0.5
100
AcDbArc
 50
180.0
 51
270.0
  0
ARC
  5
72F
100
AcDbEntity
  8
0
100
AcDbCircle
 62
7
  6
CONTINUOUS
 10
93.3772901951
 20
52.912433226
 40
0.5
100
AcDbArc
 50
180.0
 51
270.0
  0
ARC
  5
730
100
AcDbEntity
  8
0
100
AcDbCircle
 62
7
  6
CONTINUOUS
 10
93.3772901951
 20
54.912433226
 40
0.5
100
AcDbArc
 50
90.0
 51
180.0
  0
ARC
  5
731
100
AcDbEntity
  8
0
100
AcDbCircle
 62
7
  6
CONTINUOUS
 10
102.3772901951
 20
54.912433226
 40
0.5
100
AcDbArc
 50
0.0
 51
90.0
  0
ARC
  5
732
100
AcDbEntity
  8
0
100
AcDbCircle
 62
7
  6
CONTINUOUS
 10
102.3772901951
 20
52.912433226
 40
0.5
100
AcDbArc
 50
270.0
 51
360.0
  0
CIRCLE
  5
733
100
AcDbEntity
  8
00_COMPONENTS
100
AcDbCircle
 62
7
  6
CONTINUOUS
 10
87.3472901951
 20
39.372433226
 40
0.4582575695
  0
CIRCLE
  5
734
100
AcDbEntity
  8
00_COMPONENTS
100
AcDbCircle
 62
7
  6
CONTINUOUS
 10
87.3472901951
 20
44.452433226
 40
0.4582575695
  0
ARC
  5
735
100
AcDbEntity
  8
0
100
AcDbCircle
 62
7
  6
CONTINUOUS
 10
114.2772901951
 20
33.112433226
 40
0.3
100
AcDbArc
 50
0.0
 51
48.1741981072
  0
ARC
  5
736
100
AcDbEntity
  8
00_COMPONENTS
100
AcDbCircle
 62
7
  6
CONTINUOUS
 10
91.0772901951
 20
45.5312793799
 40
0.2
100
AcDbArc
 50
180.0
 51
255.1371840577
  0
ARC
  5
737
100
AcDbEntity
  8
00_COMPONENTS
100
AcDbCircle
 62
7
  6
CONTINUOUS
 10
91.0772901951
 20
38.2935870722
 40
0.2
100
AcDbArc
 50
104.8628159423
 51
180.0
  0
ARC
  5
738
100
AcDbEntity
  8
00_COMPONENTS
100
AcDbCircle
 62
7
  6
CONTINUOUS
 10
91.0772901951
 20
40.4512793799
 40
0.2
100
AcDbArc
 50
180.0
 51
255.1371840577
  0
ARC
  5
739
100
AcDbEntity
  8
00_COMPONENTS
100
AcDbCircle
 62
7
  6
CONTINUOUS
 10
91.0772901951
 20
43.3735870722
 40
0.2
100
AcDbArc
 50
104.8628159423
 51
135.3411267695
  0
ARC
  5
73A
100
AcDbEntity
  8
0
100
AcDbCircle
 62
7
  6
CONTINUOUS
 10
197.4272901951
 20
41.312433226
 40
1.0
100
AcDbArc
 50
319.805859046
 51
49.8057910468
  0
ARC
  5
73B
100
AcDbEntity
  8
0
100
AcDbCircle
 62
7
  6
CONTINUOUS
 10
198.0272901951
 20
27.412433226
 40
1.0
100
AcDbArc
 50
270.0
 51
45.0
  0
ARC
  5
73C
100
AcDbEntity
  8
0
100
AcDbCircle
 62
7
  6
CONTINUOUS
 10
185.5828038223
 20
26.812433226
 40
1.0
100
AcDbArc
 50
270.0
 51
330.0
  0
ARC
  5
73D
100
AcDbEntity
  8
0
100
AcDbCircle
 62
7
  6
CONTINUOUS
 10
197.4272901951
 20
41.312433226
 40
0.7
100
AcDbArc
 50
319.8057910468
 51
49.8057910468
  0
ARC
  5
73E
100
AcDbEntity
  8
0
100
AcDbCircle
 62
7
  6
CONTINUOUS
 10
180.8772901951
 20
36.612433226
 40
0.7
100
AcDbArc
 50
270.0
 51
360.0
  0
ARC
  5
73F
100
AcDbEntity
  8
0
100
AcDbCircle
 62
7
  6
CONTINUOUS
 10
198.0772901951
 20
57.8195400072
 40
0.5
100
AcDbArc
 50
315.0
 51
360.0
  0
ARC
  5
740
100
AcDbEntity
  8
0
100
AcDbCircle
 62
7
  6
CONTINUOUS
 10
196.2772901951
 20
36.633035629
 40
0.5
100
AcDbArc
 50
0.0
 51
58.3924977538
  0
ARC
  5
741
100
AcDbEntity
  8
0
100
AcDbCircle
 62
7
  6
CONTINUOUS
 10
196.3772901951
 20
51.5195400072
 40
0.5
100
AcDbArc
 50
315.0
 51
360.0
  0
ARC
  5
742
100
AcDbEntity
  8
0
100
AcDbCircle
 62
7
  6
CONTINUOUS
 10
192.7343969763
 20
26.912433226
 40
0.5
100
AcDbArc
 50
225.0
 51
270.0
  0
ARC
  5
743
100
AcDbEntity
  8
0
100
AcDbCircle
 62
7
  6
CONTINUOUS
 10
192.0272901951
 20
27.6195400072
 40
0.5
100
AcDbArc
 50
180.0
 51
225.0
  0
ARC
  5
744
100
AcDbEntity
  8
0
100
AcDbCircle
 62
7
  6
CONTINUOUS
 10
195.6772901951
 20
48.412433226
 40
0.5
100
AcDbArc
 50
270.0
 51
360.0
  0
ARC
  5
745
100
AcDbEntity
  8
0
100
AcDbCircle
 62
7
  6
CONTINUOUS
 10
180.5159653297
 20
26.312433226
 40
0.5
100
AcDbArc
 50
210.0
 51
270.0
  0
ARC
  5
746
100
AcDbEntity
  8
0
100
AcDbCircle
 62
7
  6
CONTINUOUS
 10
191.2272901951
 20
29.612433226
 40
0.3
100
AcDbArc
 50
0.0
 51
90.0
  0
ARC
  5
747
100
AcDbEntity
  8
0
100
AcDbCircle
 62
7
  6
CONTINUOUS
 10
104.4411708213
 20
82.912433226
 40
60.0
100
AcDbArc
 50
270.0
 51
279.0
  0
ARC
  5
748
100
AcDbEntity
  8
0
100
AcDbCircle
 62
7
  6
CONTINUOUS
 10
132.2772901951
 20
115.212433226
 40
0.7
100
AcDbArc
 50
90.0
 51
180.0
  0
ARC
  5
749
100
AcDbEntity
  8
0
100
AcDbCircle
 62
7
  6
CONTINUOUS
 10
91.8128716312
 20
128.1174372859
 40
0.5
100
AcDbArc
 50
93.0
 51
174.0008031381
  0
ARC
  5
74A
100
AcDbEntity
  8
0
100
AcDbCircle
 62
7
  6
CONTINUOUS
 10
102.3772901951
 20
76.912433226
 40
0.5
100
AcDbArc
 50
0.0
 51
90.0
  0
ARC
  5
74B
100
AcDbEntity
  8
0
100
AcDbCircle
 62
7
  6
CONTINUOUS
 10
93.3772901951
 20
76.912433226
 40
0.5
100
AcDbArc
 50
90.0
 51
180.0
  0
ARC
  5
74C
100
AcDbEntity
  8
0
100
AcDbCircle
 62
7
  6
CONTINUOUS
 10
102.3772901951
 20
96.912433226
 40
0.5
100
AcDbArc
 50
270.0
 51
360.0
  0
ARC
  5
74D
100
AcDbEntity
  8
0
100
AcDbCircle
 62
7
  6
CONTINUOUS
 10
93.3772901951
 20
96.912433226
 40
0.5
100
AcDbArc
 50
180.0
 51
270.0
  0
ARC
  5
74E
100
AcDbEntity
  8
0
100
AcDbCircle
 62
7
  6
CONTINUOUS
 10
93.3772901951
 20
98.912433226
 40
0.5
100
AcDbArc
 50
90.0
 51
180.0
  0
ARC
  5
74F
100
AcDbEntity
  8
0
100
AcDbCircle
 62
7
  6
CONTINUOUS
 10
102.3772901951
 20
98.912433226
 40
0.5
100
AcDbArc
 50
0.0
 51
90.0
  0
ARC
  5
750
100
AcDbEntity
  8
0
100
AcDbCircle
 62
7
  6
CONTINUOUS
 10
114.2772901951
 20
120.312433226
 40
0.3
100
AcDbArc
 50
311.8258018803
 51
360.0
  0
ARC
  5
751
100
AcDbEntity
  8
0
100
AcDbCircle
 62
7
  6
CONTINUOUS
 10
89.5454777966
 20
103.612433226
 40
0.2
100
AcDbArc
 50
176.8229187066
 51
269.9999388259
  0
ARC
  5
752
100
AcDbEntity
  8
0
100
AcDbCircle
 62
7
  6
CONTINUOUS
 10
139.1403816989
 20
184.912433226
 40
60.0
100
AcDbArc
 50
261.0
 51
270.0
  0
ARC
  5
753
100
AcDbEntity
  8
0
100
AcDbCircle
 62
7
  6
CONTINUOUS
 10
180.8772901951
 20
115.212433226
 40
0.7
100
AcDbArc
 50
0.0
 51
90.0
  0
ARC
  5
754
100
AcDbEntity
  8
0
100
AcDbCircle
 62
7
  6
CONTINUOUS
 10
197.8701834139
 20
116.712433226
 40
0.5
100
AcDbArc
 50
45.0
 51
90.0
  0
ARC
  5
755
100
AcDbEntity
  8
0
100
AcDbCircle
 62
7
  6
CONTINUOUS
 10
198.0772901951
 20
116.5053264448
 40
0.5
100
AcDbArc
 50
0.0
 51
45.0
  0
ARC
  5
756
100
AcDbEntity
  8
0
100
AcDbCircle
 62
7
  6
CONTINUOUS
 10
189.3772901951
 20
124.412433226
 40
0.5
100
AcDbArc
 50
0.0
 51
90.0
  0
ARC
  5
757
100
AcDbEntity
  8
0
100
AcDbCircle
 62
7
  6
CONTINUOUS
 10
172.1778455451
 20
128.612433226
 40
0.3
100
AcDbArc
 50
90.0
 51
150.0
  0
ARC
  5
758
100
AcDbEntity
  8
0
100
AcDbCircle
 62
7
  6
CONTINUOUS
 10
176.6767348452
 20
128.612433226
 40
0.3
100
AcDbArc
 50
30.0
 51
90.0
  0
ARC
  5
759
100
AcDbEntity
  8
0
100
AcDbCircle
 62
7
  6
CONTINUOUS
 10
177.1272901951
 20
127.8320484683
 40
0.3
100
AcDbArc
 50
0.0
 51
30.0
  0
ARC
  5
75A
100
AcDbEntity
  8
0
100
AcDbCircle
 62
7
  6
CONTINUOUS
 10
171.7272901951
 20
127.8320484683
 40
0.3
100
AcDbArc
 50
150.0
 51
180.0
  0
ARC
  5
75B
100
AcDbEntity
  8
0
100
AcDbCircle
 62
7
  6
CONTINUOUS
 10
190.2772901951
 20
122.012433226
 40
0.3
100
AcDbArc
 50
0.0
 51
90.0
  0
ARC
  5
75C
100
AcDbEntity
  8
0
100
AcDbCircle
 62
7
  6
CONTINUOUS
 10
194.7272901951
 20
117.262433226
 40
0.15
100
AcDbArc
 50
0.0
 51
90.0
  0
ARC
  5
75D
100
AcDbEntity
  8
0
100
AcDbCircle
 62
7
  6
CONTINUOUS
 10
588.6518783364
 20
75.9068003831
 40
494.6800306321
100
AcDbArc
 50
173.9110989612
 51
176.7893222741
  0
ARC
  5
75E
100
AcDbEntity
  8
0
100
AcDbCircle
 62
7
  6
CONTINUOUS
 10
588.5772901951
 20
75.912433226
 40
500.0
100
AcDbArc
 50
174.0008031381
 51
176.8229157504
  0
ARC
  5
75F
100
AcDbEntity
  8
0
100
AcDbCircle
 62
7
  6
CONTINUOUS
 10
588.5772901951
 20
75.912433226
 40
494.0
100
AcDbArc
 50
173.8410276162
 51
176.8088079563
  0
ARC
  5
760
100
AcDbEntity
  8
0
100
AcDbCircle
 62
7
  6
CONTINUOUS
 10
588.5772901951
 20
75.912433226
 40
493.5
100
AcDbArc
 50
173.8347633392
 51
176.828827427
  0
ARC
  5
761
100
AcDbEntity
  8
0
100
AcDbCircle
 62
7
  6
CONTINUOUS
 10
29.8563204268
 20
170.7465468084
 40
4.2171557133
100
AcDbArc
 50
89.9380604995
 51
92.4944987284
  0
ARC
  5
762
100
AcDbEntity
  8
0
100
AcDbCircle
 62
7
  6
CONTINUOUS
 10
30.962195122
 20
176.8123537256
 40
0.7
100
AcDbArc
 50
0.0
 51
90.0
  0
ARC
  5
763
100
AcDbEntity
  8
0
100
AcDbCircle
 62
7
  6
CONTINUOUS
 10
31.362195122
 20
177.3123537256
 40
0.5
100
AcDbArc
 50
180.0
 51
270.0
  0
ARC
  5
764
100
AcDbEntity
  8
0
100
AcDbCircle
 62
7
  6
CONTINUOUS
 10
31.362195122
 20
179.5123537256
 40
0.5
100
AcDbArc
 50
90.0
 51
180.0
  0
ARC
  5
765
100
AcDbEntity
  8
0
100
AcDbCircle
 62
7
  6
CONTINUOUS
 10
31.362195122
 20
181.8123537256
 40
0.5
100
AcDbArc
 50
180.0
 51
270.0
  0
ARC
  5
766
100
AcDbEntity
  8
0
100
AcDbCircle
 62
7
  6
CONTINUOUS
 10
29.862195122
 20
169.4123537256
 40
0.5
100
AcDbArc
 50
180.0
 51
209.3778102157
  0
ARC
  5
767
100
AcDbEntity
  8
0
100
AcDbCircle
 62
7
  6
CONTINUOUS
 10
36.012195122
 20
177.1123537256
 40
0.3
100
AcDbArc
 50
270.0
 51
360.0
  0
ARC
  5
768
100
AcDbEntity
  8
0
100
AcDbCircle
 62
7
  6
CONTINUOUS
 10
36.012195122
 20
179.7123537256
 40
0.3
100
AcDbArc
 50
0.0
 51
90.0
  0
ARC
  5
769
100
AcDbEntity
  8
0
100
AcDbCircle
 62
7
  6
CONTINUOUS
 10
36.012195122
 20
181.6123537256
 40
0.3
100
AcDbArc
 50
270.0
 51
360.0
  0
ARC
  5
76A
100
AcDbEntity
  8
0
100
AcDbCircle
 62
7
  6
CONTINUOUS
 10
31.362195122
 20
184.0123537256
 40
0.5
100
AcDbArc
 50
90.0
 51
180.0
  0
ARC
  5
76B
100
AcDbEntity
  8
0
100
AcDbCircle
 62
7
  6
CONTINUOUS
 10
31.362195122
 20
186.3123537256
 40
0.5
100
AcDbArc
 50
180.0
 51
270.0
  0
ARC
  5
76C
100
AcDbEntity
  8
0
100
AcDbCircle
 62
7
  6
CONTINUOUS
 10
31.362195122
 20
188.5123537256
 40
0.5
100
AcDbArc
 50
90.0
 51
180.0
  0
ARC
  5
76D
100
AcDbEntity
  8
0
100
AcDbCircle
 62
7
  6
CONTINUOUS
 10
31.362195122
 20
213.3123537256
 40
0.5
100
AcDbArc
 50
180.0
 51
270.0
  0
ARC
  5
76E
100
AcDbEntity
  8
0
100
AcDbCircle
 62
7
  6
CONTINUOUS
 10
31.362195122
 20
211.0123537256
 40
0.5
100
AcDbArc
 50
90.0
 51
180.0
  0
ARC
  5
76F
100
AcDbEntity
  8
0
100
AcDbCircle
 62
7
  6
CONTINUOUS
 10
31.362195122
 20
208.8123537256
 40
0.5
100
AcDbArc
 50
180.0
 51
270.0
  0
ARC
  5
770
100
AcDbEntity
  8
0
100
AcDbCircle
 62
7
  6
CONTINUOUS
 10
31.362195122
 20
204.3123537256
 40
0.5
100
AcDbArc
 50
180.0
 51
270.0
  0
ARC
  5
771
100
AcDbEntity
  8
0
100
AcDbCircle
 62
7
  6
CONTINUOUS
 10
31.362195122
 20
206.5123537256
 40
0.5
100
AcDbArc
 50
90.0
 51
180.0
  0
ARC
  5
772
100
AcDbEntity
  8
0
100
AcDbCircle
 62
7
  6
CONTINUOUS
 10
31.362195122
 20
202.0123537256
 40
0.5
100
AcDbArc
 50
90.0
 51
180.0
  0
ARC
  5
773
100
AcDbEntity
  8
0
100
AcDbCircle
 62
7
  6
CONTINUOUS
 10
31.362195122
 20
197.5123537256
 40
0.5
100
AcDbArc
 50
90.0
 51
180.0
  0
ARC
  5
774
100
AcDbEntity
  8
0
100
AcDbCircle
 62
7
  6
CONTINUOUS
 10
31.362195122
 20
199.8123537256
 40
0.5
100
AcDbArc
 50
180.0
 51
270.0
  0
ARC
  5
775
100
AcDbEntity
  8
0
100
AcDbCircle
 62
7
  6
CONTINUOUS
 10
31.362195122
 20
195.3123537256
 40
0.5
100
AcDbArc
 50
180.0
 51
270.0
  0
ARC
  5
776
100
AcDbEntity
  8
0
100
AcDbCircle
 62
7
  6
CONTINUOUS
 10
35.812195122
 20
208.8123537256
 40
0.5
100
AcDbArc
 50
270.0
 51
360.0
  0
ARC
  5
777
100
AcDbEntity
  8
0
100
AcDbCircle
 62
7
  6
CONTINUOUS
 10
35.812195122
 20
211.0123537256
 40
0.5
100
AcDbArc
 50
0.0
 51
90.0
  0
ARC
  5
778
100
AcDbEntity
  8
0
100
AcDbCircle
 62
7
  6
CONTINUOUS
 10
35.812195122
 20
213.3123537256
 40
0.5
100
AcDbArc
 50
270.0
 51
360.0
  0
ARC
  5
779
100
AcDbEntity
  8
0
100
AcDbCircle
 62
7
  6
CONTINUOUS
 10
36.012195122
 20
184.2123537256
 40
0.3
100
AcDbArc
 50
0.0
 51
90.0
  0
ARC
  5
77A
100
AcDbEntity
  8
0
100
AcDbCircle
 62
7
  6
CONTINUOUS
 10
36.012195122
 20
186.1123537256
 40
0.3
100
AcDbArc
 50
270.0
 51
360.0
  0
ARC
  5
77B
100
AcDbEntity
  8
0
100
AcDbCircle
 62
7
  6
CONTINUOUS
 10
36.012195122
 20
188.7123537256
 40
0.3
100
AcDbArc
 50
0.0
 51
90.0
  0
ARC
  5
77C
100
AcDbEntity
  8
0
100
AcDbCircle
 62
7
  6
CONTINUOUS
 10
29.862195122
 20
191.8123537256
 40
0.3
100
AcDbArc
 50
48.1741981197
 51
90.0
  0
ARC
  5
77D
100
AcDbEntity
  8
0
100
AcDbCircle
 62
7
  6
CONTINUOUS
 10
33.562195122
 20
204.1123537256
 40
0.3
100
AcDbArc
 50
270.0
 51
360.0
  0
ARC
  5
77E
100
AcDbEntity
  8
0
100
AcDbCircle
 62
7
  6
CONTINUOUS
 10
33.562195122
 20
208.6123537256
 40
0.3
100
AcDbArc
 50
270.0
 51
360.0
  0
ARC
  5
77F
100
AcDbEntity
  8
0
100
AcDbCircle
 62
7
  6
CONTINUOUS
 10
33.562195122
 20
213.1123537256
 40
0.3
100
AcDbArc
 50
270.0
 51
360.0
  0
ARC
  5
780
100
AcDbEntity
  8
0
100
AcDbCircle
 62
7
  6
CONTINUOUS
 10
33.562195122
 20
211.2123537256
 40
0.3
100
AcDbArc
 50
0.0
 51
90.0
  0
ARC
  5
781
100
AcDbEntity
  8
0
100
AcDbCircle
 62
7
  6
CONTINUOUS
 10
33.562195122
 20
206.7123537256
 40
0.3
100
AcDbArc
 50
0.0
 51
90.0
  0
ARC
  5
782
100
AcDbEntity
  8
0
100
AcDbCircle
 62
7
  6
CONTINUOUS
 10
33.562195122
 20
202.2123537256
 40
0.3
100
AcDbArc
 50
0.0
 51
90.0
  0
ARC
  5
783
100
AcDbEntity
  8
0
100
AcDbCircle
 62
7
  6
CONTINUOUS
 10
33.562195122
 20
199.6123537256
 40
0.3
100
AcDbArc
 50
270.0
 51
360.0
  0
ARC
  5
784
100
AcDbEntity
  8
00_COMPONENTS
100
AcDbCircle
 62
7
  6
CONTINUOUS
 10
42.9427776874
 20
152.0823537256
 40
0.3
100
AcDbArc
 50
205.0
 51
270.0
  0
ARC
  5
785
100
AcDbEntity
  8
00_COMPONENTS
100
AcDbCircle
 62
7
  6
CONTINUOUS
 10
41.9860740437
 20
152.9823537256
 40
0.3
100
AcDbArc
 50
25.0
 51
89.9999999999
  0
ARC
  5
786
100
AcDbEntity
  8
00_COMPONENTS
100
AcDbCircle
 62
7
  6
CONTINUOUS
 10
37.652195122
 20
153.5823537256
 40
0.3
100
AcDbArc
 50
180.0
 51
270.0
  0
ARC
  5
787
100
AcDbEntity
  8
0
100
AcDbCircle
 62
7
  6
CONTINUOUS
 10
43.112195122
 20
179.7123537256
 40
0.3
100
AcDbArc
 50
0.0
 51
90.0
  0
ARC
  5
788
100
AcDbEntity
  8
0
100
AcDbCircle
 62
7
  6
CONTINUOUS
 10
43.112195122
 20
177.1123537256
 40
0.3
100
AcDbArc
 50
270.0
 51
360.0
  0
ARC
  5
789
100
AcDbEntity
  8
0
100
AcDbCircle
 62
7
  6
CONTINUOUS
 10
37.812195122
 20
177.1123537256
 40
0.3
100
AcDbArc
 50
180.0
 51
270.0
  0
ARC
  5
78A
100
AcDbEntity
  8
0
100
AcDbCircle
 62
7
  6
CONTINUOUS
 10
37.812195122
 20
179.7123537256
 40
0.3
100
AcDbArc
 50
90.0
 51
180.0
  0
ARC
  5
78B
100
AcDbEntity
  8
0
100
AcDbCircle
 62
7
  6
CONTINUOUS
 10
43.112195122
 20
181.6123537256
 40
0.3
100
AcDbArc
 50
270.0
 51
360.0
  0
ARC
  5
78C
100
AcDbEntity
  8
0
100
AcDbCircle
 62
7
  6
CONTINUOUS
 10
37.812195122
 20
181.6123537256
 40
0.3
100
AcDbArc
 50
180.0
 51
270.0
  0
ARC
  5
78D
100
AcDbEntity
  8
00_COMPONENTS
100
AcDbCircle
 62
7
  6
CONTINUOUS
 10
43.0919093246
 20
151.4623537256
 40
0.25
100
AcDbArc
 50
270.0
 51
347.5
  0
ARC
  5
78E
100
AcDbEntity
  8
00_COMPONENTS
100
AcDbCircle
 62
7
  6
CONTINUOUS
 10
42.977195122
 20
151.4123537256
 40
0.2
100
AcDbArc
 50
179.9999999999
 51
270.0000000001
  0
ARC
  5
78F
100
AcDbEntity
  8
00_COMPONENTS
100
AcDbCircle
 62
7
  6
CONTINUOUS
 10
38.762195122
 20
183.1123537256
 40
1.0
100
AcDbArc
 50
0.0
 51
90.0
  0
ARC
  5
790
100
AcDbEntity
  8
00_COMPONENTS
100
AcDbCircle
 62
7
  6
CONTINUOUS
 10
38.762195122
 20
182.7123537256
 40
1.0
100
AcDbArc
 50
270.0
 51
360.0
  0
ARC
  5
791
100
AcDbEntity
  8
0
100
AcDbCircle
 62
7
  6
CONTINUOUS
 10
38.012195122
 20
213.3123537256
 40
0.5
100
AcDbArc
 50
180.0
 51
270.0
  0
ARC
  5
792
100
AcDbEntity
  8
0
100
AcDbCircle
 62
7
  6
CONTINUOUS
 10
38.012195122
 20
211.0123537256
 40
0.5
100
AcDbArc
 50
90.0
 51
180.0
  0
ARC
  5
793
100
AcDbEntity
  8
0
100
AcDbCircle
 62
7
  6
CONTINUOUS
 10
38.012195122
 20
208.8123537256
 40
0.5
100
AcDbArc
 50
180.0
 51
270.0
  0
ARC
  5
794
100
AcDbEntity
  8
0
100
AcDbCircle
 62
7
  6
CONTINUOUS
 10
43.112195122
 20
184.2123537256
 40
0.3
100
AcDbArc
 50
0.0
 51
90.0
  0
ARC
  5
795
100
AcDbEntity
  8
0
100
AcDbCircle
 62
7
  6
CONTINUOUS
 10
37.812195122
 20
184.2123537256
 40
0.3
100
AcDbArc
 50
90.0
 51
180.0
  0
ARC
  5
796
100
AcDbEntity
  8
0
100
AcDbCircle
 62
7
  6
CONTINUOUS
 10
43.112195122
 20
186.1123537256
 40
0.3
100
AcDbArc
 50
270.0
 51
360.0
  0
ARC
  5
797
100
AcDbEntity
  8
0
100
AcDbCircle
 62
7
  6
CONTINUOUS
 10
43.112195122
 20
188.7123537256
 40
0.3
100
AcDbArc
 50
0.0
 51
90.0
  0
ARC
  5
798
100
AcDbEntity
  8
0
100
AcDbCircle
 62
7
  6
CONTINUOUS
 10
37.812195122
 20
186.1123537256
 40
0.3
100
AcDbArc
 50
180.0
 51
270.0
  0
ARC
  5
799
100
AcDbEntity
  8
0
100
AcDbCircle
 62
7
  6
CONTINUOUS
 10
37.812195122
 20
188.7123537256
 40
0.3
100
AcDbArc
 50
90.0
 51
180.0
  0
ARC
  5
79A
100
AcDbEntity
  8
0
100
AcDbCircle
 62
7
  6
CONTINUOUS
 10
39.062195122
 20
204.6123537256
 40
0.3
100
AcDbArc
 50
180.0
 51
270.0
  0
ARC
  5
79B
100
AcDbEntity
  8
0
100
AcDbCircle
 62
7
  6
CONTINUOUS
 10
39.062195122
 20
202.2123537256
 40
0.3
100
AcDbArc
 50
90.0
 51
180.0
  0
ARC
  5
79C
100
AcDbEntity
  8
0
100
AcDbCircle
 62
7
  6
CONTINUOUS
 10
39.062195122
 20
200.1123537256
 40
0.3
100
AcDbArc
 50
180.0
 51
270.0
  0
ARC
  5
79D
100
AcDbEntity
  8
0
100
AcDbCircle
 62
7
  6
CONTINUOUS
 10
39.062195122
 20
197.7123537256
 40
0.3
100
AcDbArc
 50
90.0
 51
180.0
  0
ARC
  5
79E
100
AcDbEntity
  8
0
100
AcDbCircle
 62
7
  6
CONTINUOUS
 10
39.062195122
 20
195.6123537256
 40
0.3
100
AcDbArc
 50
180.0
 51
270.0
  0
ARC
  5
79F
100
AcDbEntity
  8
0
100
AcDbCircle
 62
7
  6
CONTINUOUS
 10
39.062195122
 20
213.6123537256
 40
0.3
100
AcDbArc
 50
180.0
 51
270.0
  0
ARC
  5
7A0
100
AcDbEntity
  8
0
100
AcDbCircle
 62
7
  6
CONTINUOUS
 10
39.062195122
 20
211.2123537256
 40
0.3
100
AcDbArc
 50
90.0
 51
180.0
  0
ARC
  5
7A1
100
AcDbEntity
  8
0
100
AcDbCircle
 62
7
  6
CONTINUOUS
 10
39.062195122
 20
209.1123537256
 40
0.3
100
AcDbArc
 50
180.0
 51
270.0
  0
ARC
  5
7A2
100
AcDbEntity
  8
0
100
AcDbCircle
 62
7
  6
CONTINUOUS
 10
37.812195122
 20
204.1123537256
 40
0.3
100
AcDbArc
 50
180.0
 51
270.0
  0
ARC
  5
7A3
100
AcDbEntity
  8
0
100
AcDbCircle
 62
7
  6
CONTINUOUS
 10
37.812195122
 20
199.6123537256
 40
0.3
100
AcDbArc
 50
180.0
 51
270.0
  0
ARC
  5
7A4
100
AcDbEntity
  8
0
100
AcDbCircle
 62
7
  6
CONTINUOUS
 10
37.812195122
 20
195.6123537256
 40
0.3
100
AcDbArc
 50
180.0
 51
270.0
  0
ARC
  5
7A5
100
AcDbEntity
  8
0
100
AcDbCircle
 62
7
  6
CONTINUOUS
 10
37.812195122
 20
197.7123537256
 40
0.3
100
AcDbArc
 50
90.0
 51
180.0
  0
ARC
  5
7A6
100
AcDbEntity
  8
0
100
AcDbCircle
 62
7
  6
CONTINUOUS
 10
37.812195122
 20
202.2123537256
 40
0.3
100
AcDbArc
 50
90.0
 51
180.0
  0
ARC
  5
7A7
100
AcDbEntity
  8
0
100
AcDbCircle
 62
7
  6
CONTINUOUS
 10
37.812195122
 20
206.7123537256
 40
0.3
100
AcDbArc
 50
90.0
 51
180.0
  0
ARC
  5
7A8
100
AcDbEntity
  8
0
100
AcDbCircle
 62
7
  6
CONTINUOUS
 10
31.362195122
 20
215.5123537256
 40
0.5
100
AcDbArc
 50
90.0
 51
180.0
  0
ARC
  5
7A9
100
AcDbEntity
  8
0
100
AcDbCircle
 62
7
  6
CONTINUOUS
 10
31.362195122
 20
217.8123537256
 40
0.5
100
AcDbArc
 50
180.0
 51
270.0
  0
ARC
  5
7AA
100
AcDbEntity
  8
0
100
AcDbCircle
 62
7
  6
CONTINUOUS
 10
31.362195122
 20
226.8123537256
 40
0.5
100
AcDbArc
 50
180.0
 51
270.0
  0
ARC
  5
7AB
100
AcDbEntity
  8
0
100
AcDbCircle
 62
7
  6
CONTINUOUS
 10
31.362195122
 20
229.0123537256
 40
0.5
100
AcDbArc
 50
90.0
 51
180.0
  0
ARC
  5
7AC
100
AcDbEntity
  8
0
100
AcDbCircle
 62
7
  6
CONTINUOUS
 10
31.362195122
 20
224.5123537256
 40
0.5
100
AcDbArc
 50
90.0
 51
180.0
  0
ARC
  5
7AD
100
AcDbEntity
  8
0
100
AcDbCircle
 62
7
  6
CONTINUOUS
 10
31.362195122
 20
222.3123537256
 40
0.5
100
AcDbArc
 50
180.0
 51
270.0
  0
ARC
  5
7AE
100
AcDbEntity
  8
0
100
AcDbCircle
 62
7
  6
CONTINUOUS
 10
31.362195122
 20
220.0123537256
 40
0.5
100
AcDbArc
 50
90.0
 51
180.0
  0
ARC
  5
7AF
100
AcDbEntity
  8
0
100
AcDbCircle
 62
7
  6
CONTINUOUS
 10
33.562195122
 20
226.6123537256
 40
0.3
100
AcDbArc
 50
270.0
 51
360.0
  0
ARC
  5
7B0
100
AcDbEntity
  8
0
100
AcDbCircle
 62
7
  6
CONTINUOUS
 10
33.562195122
 20
217.6123537256
 40
0.3
100
AcDbArc
 50
270.0
 51
360.0
  0
ARC
  5
7B1
100
AcDbEntity
  8
0
100
AcDbCircle
 62
7
  6
CONTINUOUS
 10
33.562195122
 20
222.1123537256
 40
0.3
100
AcDbArc
 50
270.0
 51
360.0
  0
ARC
  5
7B2
100
AcDbEntity
  8
0
100
AcDbCircle
 62
7
  6
CONTINUOUS
 10
33.562195122
 20
224.7123537256
 40
0.3
100
AcDbArc
 50
0.0
 51
90.0
  0
ARC
  5
7B3
100
AcDbEntity
  8
0
100
AcDbCircle
 62
7
  6
CONTINUOUS
 10
33.562195122
 20
220.2123537256
 40
0.3
100
AcDbArc
 50
0.0
 51
90.0
  0
ARC
  5
7B4
100
AcDbEntity
  8
0
100
AcDbCircle
 62
7
  6
CONTINUOUS
 10
33.562195122
 20
215.7123537256
 40
0.3
100
AcDbArc
 50
0.0
 51
90.0
  0
ARC
  5
7B5
100
AcDbEntity
  8
0
100
AcDbCircle
 62
7
  6
CONTINUOUS
 10
33.562195122
 20
229.2123537256
 40
0.3
100
AcDbArc
 50
0.0
 51
90.0
  0
ARC
  5
7B6
100
AcDbEntity
  8
0
100
AcDbCircle
 62
7
  6
CONTINUOUS
 10
31.362195122
 20
244.8123537256
 40
0.5
100
AcDbArc
 50
180.0
 51
270.0
  0
ARC
  5
7B7
100
AcDbEntity
  8
0
100
AcDbCircle
 62
7
  6
CONTINUOUS
 10
31.362195122
 20
242.5123537256
 40
0.5
100
AcDbArc
 50
90.0
 51
180.0
  0
ARC
  5
7B8
100
AcDbEntity
  8
0
100
AcDbCircle
 62
7
  6
CONTINUOUS
 10
31.362195122
 20
240.3123537256
 40
0.5
100
AcDbArc
 50
180.0
 51
270.0
  0
ARC
  5
7B9
100
AcDbEntity
  8
0
100
AcDbCircle
 62
7
  6
CONTINUOUS
 10
31.362195122
 20
238.0123537256
 40
0.5
100
AcDbArc
 50
90.0
 51
180.0
  0
ARC
  5
7BA
100
AcDbEntity
  8
0
100
AcDbCircle
 62
7
  6
CONTINUOUS
 10
31.362195122
 20
235.8123537256
 40
0.5
100
AcDbArc
 50
180.0
 51
270.0
  0
ARC
  5
7BB
100
AcDbEntity
  8
0
100
AcDbCircle
 62
7
  6
CONTINUOUS
 10
31.362195122
 20
233.5123537256
 40
0.5
100
AcDbArc
 50
90.0
 51
180.0
  0
ARC
  5
7BC
100
AcDbEntity
  8
0
100
AcDbCircle
 62
7
  6
CONTINUOUS
 10
31.362195122
 20
231.3123537256
 40
0.5
100
AcDbArc
 50
180.0
 51
270.0
  0
ARC
  5
7BD
100
AcDbEntity
  8
0
100
AcDbCircle
 62
7
  6
CONTINUOUS
 10
33.562195122
 20
238.2123537256
 40
0.3
100
AcDbArc
 50
0.0
 51
90.0
  0
ARC
  5
7BE
100
AcDbEntity
  8
0
100
AcDbCircle
 62
7
  6
CONTINUOUS
 10
33.562195122
 20
242.7123537256
 40
0.3
100
AcDbArc
 50
0.0
 51
90.0
  0
ARC
  5
7BF
100
AcDbEntity
  8
0
100
AcDbCircle
 62
7
  6
CONTINUOUS
 10
33.562195122
 20
244.6123537256
 40
0.3
100
AcDbArc
 50
270.0
 51
360.0
  0
ARC
  5
7C0
100
AcDbEntity
  8
0
100
AcDbCircle
 62
7
  6
CONTINUOUS
 10
33.562195122
 20
240.1123537256
 40
0.3
100
AcDbArc
 50
270.0
 51
360.0
  0
ARC
  5
7C1
100
AcDbEntity
  8
0
100
AcDbCircle
 62
7
  6
CONTINUOUS
 10
33.562195122
 20
235.6123537256
 40
0.3
100
AcDbArc
 50
270.0
 51
360.0
  0
ARC
  5
7C2
100
AcDbEntity
  8
0
100
AcDbCircle
 62
7
  6
CONTINUOUS
 10
33.562195122
 20
231.1123537256
 40
0.3
100
AcDbArc
 50
270.0
 51
360.0
  0
ARC
  5
7C3
100
AcDbEntity
  8
0
100
AcDbCircle
 62
7
  6
CONTINUOUS
 10
33.562195122
 20
233.7123537256
 40
0.3
100
AcDbArc
 50
0.0
 51
90.0
  0
ARC
  5
7C4
100
AcDbEntity
  8
0
100
AcDbCircle
 62
7
  6
CONTINUOUS
 10
35.812195122
 20
229.0123537256
 40
0.5
100
AcDbArc
 50
0.0
 51
90.0
  0
ARC
  5
7C5
100
AcDbEntity
  8
0
100
AcDbCircle
 62
7
  6
CONTINUOUS
 10
35.812195122
 20
226.8123537256
 40
0.5
100
AcDbArc
 50
270.0
 51
360.0
  0
ARC
  5
7C6
100
AcDbEntity
  8
0
100
AcDbCircle
 62
7
  6
CONTINUOUS
 10
35.812195122
 20
224.5123537256
 40
0.5
100
AcDbArc
 50
0.0
 51
90.0
  0
ARC
  5
7C7
100
AcDbEntity
  8
0
100
AcDbCircle
 62
7
  6
CONTINUOUS
 10
35.812195122
 20
222.3123537256
 40
0.5
100
AcDbArc
 50
270.0
 51
360.0
  0
ARC
  5
7C8
100
AcDbEntity
  8
0
100
AcDbCircle
 62
7
  6
CONTINUOUS
 10
35.812195122
 20
220.0123537256
 40
0.5
100
AcDbArc
 50
0.0
 51
90.0
  0
ARC
  5
7C9
100
AcDbEntity
  8
0
100
AcDbCircle
 62
7
  6
CONTINUOUS
 10
35.812195122
 20
217.8123537256
 40
0.5
100
AcDbArc
 50
270.0
 51
360.0
  0
ARC
  5
7CA
100
AcDbEntity
  8
0
100
AcDbCircle
 62
7
  6
CONTINUOUS
 10
35.812195122
 20
215.5123537256
 40
0.5
100
AcDbArc
 50
0.0
 51
90.0
  0
ARC
  5
7CB
100
AcDbEntity
  8
0
100
AcDbCircle
 62
7
  6
CONTINUOUS
 10
35.812195122
 20
238.0123537256
 40
0.5
100
AcDbArc
 50
0.0
 51
90.0
  0
ARC
  5
7CC
100
AcDbEntity
  8
0
100
AcDbCircle
 62
7
  6
CONTINUOUS
 10
35.812195122
 20
235.8123537256
 40
0.5
100
AcDbArc
 50
270.0
 51
360.0
  0
ARC
  5
7CD
100
AcDbEntity
  8
0
100
AcDbCircle
 62
7
  6
CONTINUOUS
 10
35.812195122
 20
233.5123537256
 40
0.5
100
AcDbArc
 50
0.0
 51
90.0
  0
ARC
  5
7CE
100
AcDbEntity
  8
0
100
AcDbCircle
 62
7
  6
CONTINUOUS
 10
35.812195122
 20
231.3123537256
 40
0.5
100
AcDbArc
 50
270.0
 51
360.0
  0
ARC
  5
7CF
100
AcDbEntity
  8
0
100
AcDbCircle
 62
7
  6
CONTINUOUS
 10
35.812195122
 20
240.3123537256
 40
0.5
100
AcDbArc
 50
270.0
 51
360.0
  0
ARC
  5
7D0
100
AcDbEntity
  8
0
100
AcDbCircle
 62
7
  6
CONTINUOUS
 10
35.812195122
 20
244.8123537256
 40
0.5
100
AcDbArc
 50
270.0
 51
360.0
  0
ARC
  5
7D1
100
AcDbEntity
  8
0
100
AcDbCircle
 62
7
  6
CONTINUOUS
 10
35.812195122
 20
242.5123537256
 40
0.5
100
AcDbArc
 50
0.0
 51
90.0
  0
ARC
  5
7D2
100
AcDbEntity
  8
00_COMPONENTS
100
AcDbCircle
 62
7
  6
CONTINUOUS
 10
33.962195122
 20
255.3623537256
 40
0.5
100
AcDbArc
 50
90.0
 51
180.0
  0
ARC
  5
7D3
100
AcDbEntity
  8
0
100
AcDbCircle
 62
7
  6
CONTINUOUS
 10
29.862195122
 20
276.0623537256
 40
0.5
100
AcDbArc
 50
90.0
 51
180.0
  0
ARC
  5
7D4
100
AcDbEntity
  8
0
100
AcDbCircle
 62
7
  6
CONTINUOUS
 10
31.362195122
 20
247.0123537256
 40
0.5
100
AcDbArc
 50
90.0
 51
180.0
  0
ARC
  5
7D5
100
AcDbEntity
  8
0
100
AcDbCircle
 62
7
  6
CONTINUOUS
 10
35.812195122
 20
260.5123537256
 40
0.5
100
AcDbArc
 50
0.0
 51
90.0
  0
ARC
  5
7D6
100
AcDbEntity
  8
0
100
AcDbCircle
 62
7
  6
CONTINUOUS
 10
31.362195122
 20
260.5123537256
 40
0.5
100
AcDbArc
 50
90.0
 51
180.0
  0
ARC
  5
7D7
100
AcDbEntity
  8
0
100
AcDbCircle
 62
7
  6
CONTINUOUS
 10
35.812195122
 20
256.0123537256
 40
0.5
100
AcDbArc
 50
0.0
 51
90.0
  0
ARC
  5
7D8
100
AcDbEntity
  8
0
100
AcDbCircle
 62
7
  6
CONTINUOUS
 10
31.362195122
 20
258.3123537256
 40
0.5
100
AcDbArc
 50
180.0
 51
270.0
  0
ARC
  5
7D9
100
AcDbEntity
  8
0
100
AcDbCircle
 62
7
  6
CONTINUOUS
 10
35.812195122
 20
258.3123537256
 40
0.5
100
AcDbArc
 50
270.0
 51
360.0
  0
ARC
  5
7DA
100
AcDbEntity
  8
0
100
AcDbCircle
 62
7
  6
CONTINUOUS
 10
31.362195122
 20
256.0123537256
 40
0.5
100
AcDbArc
 50
90.0
 51
180.0
  0
ARC
  5
7DB
100
AcDbEntity
  8
0
100
AcDbCircle
 62
7
  6
CONTINUOUS
 10
35.812195122
 20
253.8123537256
 40
0.5
100
AcDbArc
 50
270.0
 51
360.0
  0
ARC
  5
7DC
100
AcDbEntity
  8
0
100
AcDbCircle
 62
7
  6
CONTINUOUS
 10
35.812195122
 20
251.5123537256
 40
0.5
100
AcDbArc
 50
0.0
 51
90.0
  0
ARC
  5
7DD
100
AcDbEntity
  8
0
100
AcDbCircle
 62
7
  6
CONTINUOUS
 10
35.812195122
 20
249.3123537256
 40
0.5
100
AcDbArc
 50
270.0
 51
360.0
  0
ARC
  5
7DE
100
AcDbEntity
  8
0
100
AcDbCircle
 62
7
  6
CONTINUOUS
 10
35.812195122
 20
247.0123537256
 40
0.5
100
AcDbArc
 50
0.0
 51
90.0
  0
ARC
  5
7DF
100
AcDbEntity
  8
0
100
AcDbCircle
 62
7
  6
CONTINUOUS
 10
31.362195122
 20
253.8123537256
 40
0.5
100
AcDbArc
 50
180.0
 51
270.0
  0
ARC
  5
7E0
100
AcDbEntity
  8
0
100
AcDbCircle
 62
7
  6
CONTINUOUS
 10
31.362195122
 20
251.5123537256
 40
0.5
100
AcDbArc
 50
90.0
 51
180.0
  0
ARC
  5
7E1
100
AcDbEntity
  8
0
100
AcDbCircle
 62
7
  6
CONTINUOUS
 10
31.362195122
 20
249.3123537256
 40
0.5
100
AcDbArc
 50
180.0
 51
270.0
  0
ARC
  5
7E2
100
AcDbEntity
  8
0
100
AcDbCircle
 62
7
  6
CONTINUOUS
 10
29.862195122
 20
266.9123537256
 40
0.5
100
AcDbArc
 50
90.0
 51
180.0
  0
ARC
  5
7E3
100
AcDbEntity
  8
0
100
AcDbCircle
 62
7
  6
CONTINUOUS
 10
29.862195122
 20
262.0123537256
 40
0.5
100
AcDbArc
 50
180.0
 51
270.0
  0
ARC
  5
7E4
100
AcDbEntity
  8
0
100
AcDbCircle
 62
7
  6
CONTINUOUS
 10
29.862195122
 20
267.6123537256
 40
0.5
100
AcDbArc
 50
90.0
 51
180.0
  0
ARC
  5
7E5
100
AcDbEntity
  8
0
100
AcDbCircle
 62
7
  6
CONTINUOUS
 10
29.862195122
 20
275.6123537256
 40
0.5
100
AcDbArc
 50
90.0
 51
180.0
  0
ARC
  5
7E6
100
AcDbEntity
  8
0
100
AcDbCircle
 62
7
  6
CONTINUOUS
 10
33.862195122
 20
251.7123537256
 40
0.3
100
AcDbArc
 50
0.0
 51
90.0
  0
ARC
  5
7E7
100
AcDbEntity
  8
0
100
AcDbCircle
 62
7
  6
CONTINUOUS
 10
33.862195122
 20
249.6123537256
 40
0.3
100
AcDbArc
 50
270.0
 51
360.0
  0
ARC
  5
7E8
100
AcDbEntity
  8
0
100
AcDbCircle
 62
7
  6
CONTINUOUS
 10
33.562195122
 20
247.2123537256
 40
0.3
100
AcDbArc
 50
0.0
 51
90.0
  0
ARC
  5
7E9
100
AcDbEntity
  8
0
100
AcDbCircle
 62
7
  6
CONTINUOUS
 10
38.012195122
 20
233.5123537256
 40
0.5
100
AcDbArc
 50
90.0
 51
180.0
  0
ARC
  5
7EA
100
AcDbEntity
  8
0
100
AcDbCircle
 62
7
  6
CONTINUOUS
 10
38.012195122
 20
231.3123537256
 40
0.5
100
AcDbArc
 50
180.0
 51
270.0
  0
ARC
  5
7EB
100
AcDbEntity
  8
0
100
AcDbCircle
 62
7
  6
CONTINUOUS
 10
38.012195122
 20
229.0123537256
 40
0.5
100
AcDbArc
 50
90.0
 51
180.0
  0
ARC
  5
7EC
100
AcDbEntity
  8
0
100
AcDbCircle
 62
7
  6
CONTINUOUS
 10
38.012195122
 20
226.8123537256
 40
0.5
100
AcDbArc
 50
180.0
 51
270.0
  0
ARC
  5
7ED
100
AcDbEntity
  8
0
100
AcDbCircle
 62
7
  6
CONTINUOUS
 10
38.012195122
 20
224.5123537256
 40
0.5
100
AcDbArc
 50
90.0
 51
180.0
  0
ARC
  5
7EE
100
AcDbEntity
  8
0
100
AcDbCircle
 62
7
  6
CONTINUOUS
 10
38.012195122
 20
222.3123537256
 40
0.5
100
AcDbArc
 50
180.0
 51
270.0
  0
ARC
  5
7EF
100
AcDbEntity
  8
0
100
AcDbCircle
 62
7
  6
CONTINUOUS
 10
38.012195122
 20
220.0123537256
 40
0.5
100
AcDbArc
 50
90.0
 51
180.0
  0
ARC
  5
7F0
100
AcDbEntity
  8
0
100
AcDbCircle
 62
7
  6
CONTINUOUS
 10
38.012195122
 20
215.5123537256
 40
0.5
100
AcDbArc
 50
90.0
 51
180.0
  0
ARC
  5
7F1
100
AcDbEntity
  8
0
100
AcDbCircle
 62
7
  6
CONTINUOUS
 10
38.012195122
 20
217.8123537256
 40
0.5
100
AcDbArc
 50
180.0
 51
270.0
  0
ARC
  5
7F2
100
AcDbEntity
  8
0
100
AcDbCircle
 62
7
  6
CONTINUOUS
 10
38.012195122
 20
244.8123537256
 40
0.5
100
AcDbArc
 50
180.0
 51
270.0
  0
ARC
  5
7F3
100
AcDbEntity
  8
0
100
AcDbCircle
 62
7
  6
CONTINUOUS
 10
38.012195122
 20
242.5123537256
 40
0.5
100
AcDbArc
 50
90.0
 51
180.0
  0
ARC
  5
7F4
100
AcDbEntity
  8
0
100
AcDbCircle
 62
7
  6
CONTINUOUS
 10
38.012195122
 20
240.3123537256
 40
0.5
100
AcDbArc
 50
180.0
 51
270.0
  0
ARC
  5
7F5
100
AcDbEntity
  8
0
100
AcDbCircle
 62
7
  6
CONTINUOUS
 10
38.012195122
 20
238.0123537256
 40
0.5
100
AcDbArc
 50
90.0
 51
180.0
  0
ARC
  5
7F6
100
AcDbEntity
  8
0
100
AcDbCircle
 62
7
  6
CONTINUOUS
 10
38.012195122
 20
235.8123537256
 40
0.5
100
AcDbArc
 50
180.0
 51
270.0
  0
ARC
  5
7F7
100
AcDbEntity
  8
0
100
AcDbCircle
 62
7
  6
CONTINUOUS
 10
39.062195122
 20
233.7123537256
 40
0.3
100
AcDbArc
 50
90.0
 51
180.0
  0
ARC
  5
7F8
100
AcDbEntity
  8
0
100
AcDbCircle
 62
7
  6
CONTINUOUS
 10
39.062195122
 20
231.6123537256
 40
0.3
100
AcDbArc
 50
180.0
 51
270.0
  0
ARC
  5
7F9
100
AcDbEntity
  8
0
100
AcDbCircle
 62
7
  6
CONTINUOUS
 10
39.062195122
 20
229.2123537256
 40
0.3
100
AcDbArc
 50
90.0
 51
180.0
  0
ARC
  5
7FA
100
AcDbEntity
  8
0
100
AcDbCircle
 62
7
  6
CONTINUOUS
 10
39.062195122
 20
227.1123537256
 40
0.3
100
AcDbArc
 50
180.0
 51
270.0
  0
ARC
  5
7FB
100
AcDbEntity
  8
0
100
AcDbCircle
 62
7
  6
CONTINUOUS
 10
39.062195122
 20
224.7123537256
 40
0.3
100
AcDbArc
 50
90.0
 51
180.0
  0
ARC
  5
7FC
100
AcDbEntity
  8
0
100
AcDbCircle
 62
7
  6
CONTINUOUS
 10
39.062195122
 20
222.6123537256
 40
0.3
100
AcDbArc
 50
180.0
 51
270.0
  0
ARC
  5
7FD
100
AcDbEntity
  8
0
100
AcDbCircle
 62
7
  6
CONTINUOUS
 10
39.062195122
 20
220.2123537256
 40
0.3
100
AcDbArc
 50
90.0
 51
180.0
  0
ARC
  5
7FE
100
AcDbEntity
  8
0
100
AcDbCircle
 62
7
  6
CONTINUOUS
 10
39.062195122
 20
218.1123537256
 40
0.3
100
AcDbArc
 50
180.0
 51
270.0
  0
ARC
  5
7FF
100
AcDbEntity
  8
0
100
AcDbCircle
 62
7
  6
CONTINUOUS
 10
39.062195122
 20
215.7123537256
 40
0.3
100
AcDbArc
 50
90.0
 51
180.0
  0
ARC
  5
800
100
AcDbEntity
  8
0
100
AcDbCircle
 62
7
  6
CONTINUOUS
 10
38.662195122
 20
260.9354593512
 40
1.0
100
AcDbArc
 50
179.999781306
 51
194.0363936677
  0
ARC
  5
801
100
AcDbEntity
  8
0
100
AcDbCircle
 62
7
  6
CONTINUOUS
 10
37.212195122
 20
258.4892481
 40
1.0
100
AcDbArc
 50
0.000105629
 51
14.0361132187
  0
ARC
  5
802
100
AcDbEntity
  8
0
100
AcDbCircle
 62
7
  6
CONTINUOUS
 10
37.8122648298
 20
248.9425131896
 40
0.8000622585
100
AcDbArc
 50
179.9952753244
 51
269.9950078897
  0
ARC
  5
803
100
AcDbEntity
  8
0
100
AcDbCircle
 62
7
  6
CONTINUOUS
 10
38.012195122
 20
247.0123537256
 40
0.5
100
AcDbArc
 50
90.0
 51
180.0
  0
ARC
  5
804
100
AcDbEntity
  8
0
100
AcDbCircle
 62
7
  6
CONTINUOUS
 10
38.012195122
 20
259.4739065384
 40
0.5
100
AcDbArc
 50
180.0
 51
194.0362434679
  0
ARC
  5
805
100
AcDbEntity
  8
0
100
AcDbCircle
 62
7
  6
CONTINUOUS
 10
37.212195122
 20
258.5508009128
 40
0.5
100
AcDbArc
 50
0.0
 51
14.0362434679
  0
ARC
  5
806
100
AcDbEntity
  8
0
100
AcDbCircle
 62
7
  6
CONTINUOUS
 10
39.712195122
 20
249.2956870589
 40
0.4833333333
100
AcDbArc
 50
223.6028226626
 51
316.3971775477
  0
ARC
  5
807
100
AcDbEntity
  8
0
100
AcDbCircle
 62
7
  6
CONTINUOUS
 10
38.662195122
 20
265.9290203923
 40
0.4833333333
100
AcDbArc
 50
43.6028225351
 51
136.3971771739
  0
ARC
  5
808
100
AcDbEntity
  8
0
100
AcDbCircle
 62
7
  6
CONTINUOUS
 10
37.924695122
 20
265.2623537256
 40
0.3625
100
AcDbArc
 50
136.3971819069
 51
223.6028180928
  0
ARC
  5
809
100
AcDbEntity
  8
0
100
AcDbCircle
 62
7
  6
CONTINUOUS
 10
37.924695122
 20
249.7123537256
 40
0.3625
100
AcDbArc
 50
136.3971819069
 51
223.6028180928
  0
ARC
  5
80A
100
AcDbEntity
  8
0
100
AcDbCircle
 62
7
  6
CONTINUOUS
 10
37.8123044755
 20
248.9424699321
 40
0.3000990884
100
AcDbArc
 50
179.9791457906
 51
269.9791211872
  0
ARC
  5
80B
100
AcDbEntity
  8
0
100
AcDbCircle
 62
7
  6
CONTINUOUS
 10
38.512195122
 20
258.2623537256
 40
0.3
100
AcDbArc
 50
180.0
 51
270.0
  0
ARC
  5
80C
100
AcDbEntity
  8
0
100
AcDbCircle
 62
7
  6
CONTINUOUS
 10
37.962195122
 20
265.9623537256
 40
0.3
100
AcDbArc
 50
90.0
 51
180.0
  0
ARC
  5
80D
100
AcDbEntity
  8
0
100
AcDbCircle
 62
7
  6
CONTINUOUS
 10
37.962195122
 20
249.2623537256
 40
0.3
100
AcDbArc
 50
180.0
 51
270.0
  0
ARC
  5
80E
100
AcDbEntity
  8
0
100
AcDbCircle
 62
7
  6
CONTINUOUS
 10
37.962195122
 20
254.6623537256
 40
0.3
100
AcDbArc
 50
90.0
 51
180.0
  0
ARC
  5
80F
100
AcDbEntity
  8
0
100
AcDbCircle
 62
7
  6
CONTINUOUS
 10
42.012195122
 20
247.7623537256
 40
0.3
100
AcDbArc
 50
236.7340461891
 51
270.0
  0
ARC
  5
810
100
AcDbEntity
  8
0
100
AcDbCircle
 62
7
  6
CONTINUOUS
 10
37.812195122
 20
249.0123537256
 40
0.3
100
AcDbArc
 50
180.0
 51
270.0
  0
ARC
  5
811
100
AcDbEntity
  8
0
100
AcDbCircle
 62
7
  6
CONTINUOUS
 10
37.812195122
 20
266.2123537256
 40
0.3
100
AcDbArc
 50
90.0
 51
180.0
  0
ARC
  5
812
100
AcDbEntity
  8
0
100
AcDbCircle
 62
7
  6
CONTINUOUS
 10
37.912195122
 20
256.6623537256
 40
0.25
100
AcDbArc
 50
89.9999741077
 51
180.0
  0
ARC
  5
813
100
AcDbEntity
  8
0
100
AcDbCircle
 62
7
  6
CONTINUOUS
 10
37.962195122
 20
257.1623537256
 40
0.25
100
AcDbArc
 50
270.0
 51
360.0
  0
ARC
  5
814
100
AcDbEntity
  8
0
100
AcDbCircle
 62
7
  6
CONTINUOUS
 10
37.512195122
 20
257.6123537256
 40
0.2
100
AcDbArc
 50
270.0
 51
360.0
  0
ARC
  5
815
100
AcDbEntity
  8
00_COMPONENTS
100
AcDbCircle
 62
7
  6
CONTINUOUS
 10
49.0760030217
 20
155.0564489293
 40
0.951183574
100
AcDbArc
 50
180.0
 51
360.0
  0
ARC
  5
816
100
AcDbEntity
  8
0
100
AcDbCircle
 62
7
  6
CONTINUOUS
 10
48.412195122
 20
179.5123537256
 40
0.5
100
AcDbArc
 50
0.0
 51
90.0
  0
ARC
  5
817
100
AcDbEntity
  8
0
100
AcDbCircle
 62
7
  6
CONTINUOUS
 10
48.412195122
 20
177.3123537256
 40
0.5
100
AcDbArc
 50
270.0
 51
360.0
  0
ARC
  5
818
100
AcDbEntity
  8
00_COMPONENTS
100
AcDbCircle
 62
7
  6
CONTINUOUS
 10
49.0760030217
 20
155.3375100127
 40
0.4567242606
100
AcDbArc
 50
25.8849244576
 51
154.1150755423
  0
ARC
  5
819
100
AcDbEntity
  8
00_COMPONENTS
100
AcDbCircle
 62
7
  6
CONTINUOUS
 10
49.0760030217
 20
155.3375100127
 40
0.4567242606
100
AcDbArc
 50
205.8849244576
 51
334.1150755426
  0
ARC
  5
81A
100
AcDbEntity
  8
00_COMPONENTS
100
AcDbCircle
 62
7
  6
CONTINUOUS
 10
44.552195122
 20
152.0823537256
 40
0.3
100
AcDbArc
 50
270.0
 51
360.0
  0
ARC
  5
81B
100
AcDbEntity
  8
00_COMPONENTS
100
AcDbCircle
 62
7
  6
CONTINUOUS
 10
44.4624809193
 20
151.4623537256
 40
0.25
100
AcDbArc
 50
192.5
 51
270.0
  0
CIRCLE
  5
81C
100
AcDbEntity
  8
00_COMPONENTS
100
AcDbCircle
 62
7
  6
CONTINUOUS
 10
49.0760030217
 20
155.3375100127
 40
0.2283621303
  0
ARC
  5
81D
100
AcDbEntity
  8
00_COMPONENTS
100
AcDbCircle
 62
7
  6
CONTINUOUS
 10
50.1413993094
 20
153.9931495382
 40
0.2107958126
100
AcDbArc
 50
270.0
 51
359.9999999999
  0
ARC
  5
81E
100
AcDbEntity
  8
00_COMPONENTS
100
AcDbCircle
 62
7
  6
CONTINUOUS
 10
50.1413993094
 20
156.571557913
 40
0.2107958126
100
AcDbArc
 50
0.0
 51
90.0000000001
  0
ARC
  5
81F
100
AcDbEntity
  8
00_COMPONENTS
100
AcDbCircle
 62
7
  6
CONTINUOUS
 10
47.5629909345
 20
156.571557913
 40
0.2107958126
100
AcDbArc
 50
90.0
 51
179.9999999999
  0
ARC
  5
820
100
AcDbEntity
  8
00_COMPONENTS
100
AcDbCircle
 62
7
  6
CONTINUOUS
 10
47.5629909345
 20
153.9931495382
 40
0.2107958126
100
AcDbArc
 50
180.0
 51
270.0000000001
  0
ARC
  5
821
100
AcDbEntity
  8
00_COMPONENTS
100
AcDbCircle
 62
7
  6
CONTINUOUS
 10
49.152195122
 20
153.2823537256
 40
0.2
100
AcDbArc
 50
180.0
 51
360.0
  0
ARC
  5
822
100
AcDbEntity
  8
00_COMPONENTS
100
AcDbCircle
 62
7
  6
CONTINUOUS
 10
45.052195122
 20
153.0823537256
 40
0.2
100
AcDbArc
 50
90.0
 51
180.0
  0
ARC
  5
823
100
AcDbEntity
  8
00_COMPONENTS
100
AcDbCircle
 62
7
  6
CONTINUOUS
 10
44.577195122
 20
151.4123537256
 40
0.2
100
AcDbArc
 50
270.0
 51
359.9999999999
  0
ARC
  5
824
100
AcDbEntity
  8
00_COMPONENTS
100
AcDbCircle
 62
7
  6
CONTINUOUS
 10
49.8690897363
 20
156.2825388952
 40
0.1580968594
100
AcDbArc
 50
0.0
 51
90.0000000001
  0
ARC
  5
825
100
AcDbEntity
  8
00_COMPONENTS
100
AcDbCircle
 62
7
  6
CONTINUOUS
 10
47.8353005076
 20
156.2825388952
 40
0.1580968594
100
AcDbArc
 50
90.0
 51
179.9999999999
  0
ARC
  5
826
100
AcDbEntity
  8
00_COMPONENTS
100
AcDbCircle
 62
7
  6
CONTINUOUS
 10
47.8353005076
 20
155.6059194463
 40
0.1580968594
100
AcDbArc
 50
180.0
 51
269.9999999998
  0
ARC
  5
827
100
AcDbEntity
  8
00_COMPONENTS
100
AcDbCircle
 62
7
  6
CONTINUOUS
 10
48.5228652581
 20
155.6059194463
 40
0.1580968594
100
AcDbArc
 50
270.0
 51
334.1150755428
  0
ARC
  5
828
100
AcDbEntity
  8
00_COMPONENTS
100
AcDbCircle
 62
7
  6
CONTINUOUS
 10
49.6291407854
 20
155.6059194463
 40
0.1580968594
100
AcDbArc
 50
205.8849244576
 51
270.0000000004
  0
ARC
  5
829
100
AcDbEntity
  8
00_COMPONENTS
100
AcDbCircle
 62
7
  6
CONTINUOUS
 10
49.8690897363
 20
155.6059194463
 40
0.1580968594
100
AcDbArc
 50
270.0
 51
359.9999999997
  0
ARC
  5
82A
100
AcDbEntity
  8
00_COMPONENTS
100
AcDbCircle
 62
7
  6
CONTINUOUS
 10
49.8690897363
 20
155.0691005791
 40
0.1580968594
100
AcDbArc
 50
0.0
 51
90.0000000003
  0
ARC
  5
82B
100
AcDbEntity
  8
00_COMPONENTS
100
AcDbCircle
 62
7
  6
CONTINUOUS
 10
49.6291407854
 20
155.0691005791
 40
0.1580968594
100
AcDbArc
 50
90.0
 51
154.1150755419
  0
ARC
  5
82C
100
AcDbEntity
  8
00_COMPONENTS
100
AcDbCircle
 62
7
  6
CONTINUOUS
 10
48.5228652581
 20
155.0691005791
 40
0.1580968594
100
AcDbArc
 50
25.8849244576
 51
89.9999999999
  0
ARC
  5
82D
100
AcDbEntity
  8
00_COMPONENTS
100
AcDbCircle
 62
7
  6
CONTINUOUS
 10
48.2829163071
 20
155.0691005791
 40
0.1580968594
100
AcDbArc
 50
90.0
 51
180.0000000001
  0
ARC
  5
82E
100
AcDbEntity
  8
0
100
AcDbCircle
 62
7
  6
CONTINUOUS
 10
49.312195122
 20
211.2123537256
 40
0.3
100
AcDbArc
 50
0.0
 51
90.0
  0
ARC
  5
82F
100
AcDbEntity
  8
0
100
AcDbCircle
 62
7
  6
CONTINUOUS
 10
49.312195122
 20
206.7123537256
 40
0.3
100
AcDbArc
 50
0.0
 51
90.0
  0
ARC
  5
830
100
AcDbEntity
  8
0
100
AcDbCircle
 62
7
  6
CONTINUOUS
 10
49.312195122
 20
202.2123537256
 40
0.3
100
AcDbArc
 50
0.0
 51
90.0
  0
ARC
  5
831
100
AcDbEntity
  8
0
100
AcDbCircle
 62
7
  6
CONTINUOUS
 10
49.312195122
 20
197.7123537256
 40
0.3
100
AcDbArc
 50
0.0
 51
90.0
  0
ARC
  5
832
100
AcDbEntity
  8
0
100
AcDbCircle
 62
7
  6
CONTINUOUS
 10
49.312195122
 20
213.1123537256
 40
0.3
100
AcDbArc
 50
270.0
 51
360.0
  0
ARC
  5
833
100
AcDbEntity
  8
0
100
AcDbCircle
 62
7
  6
CONTINUOUS
 10
49.312195122
 20
208.6123537256
 40
0.3
100
AcDbArc
 50
270.0
 51
360.0
  0
ARC
  5
834
100
AcDbEntity
  8
0
100
AcDbCircle
 62
7
  6
CONTINUOUS
 10
49.312195122
 20
204.1123537256
 40
0.3
100
AcDbArc
 50
270.0
 51
360.0
  0
ARC
  5
835
100
AcDbEntity
  8
0
100
AcDbCircle
 62
7
  6
CONTINUOUS
 10
49.312195122
 20
199.6123537256
 40
0.3
100
AcDbArc
 50
270.0
 51
360.0
  0
ARC
  5
836
100
AcDbEntity
  8
0
100
AcDbCircle
 62
7
  6
CONTINUOUS
 10
49.312195122
 20
195.6123537256
 40
0.3
100
AcDbArc
 50
270.0
 51
360.0
  0
ARC
  5
837
100
AcDbEntity
  8
00_COMPONENTS
100
AcDbCircle
 62
7
  6
CONTINUOUS
 10
50.652195122
 20
164.8823537256
 40
0.5
100
AcDbArc
 50
293.578178478
 51
66.421821522
  0
ARC
  5
838
100
AcDbEntity
  8
0
100
AcDbCircle
 62
7
  6
CONTINUOUS
 10
55.162195122
 20
181.8123537256
 40
0.5
100
AcDbArc
 50
270.0
 51
360.0
  0
ARC
  5
839
100
AcDbEntity
  8
0
100
AcDbCircle
 62
7
  6
CONTINUOUS
 10
56.662195122
 20
169.4123537256
 40
0.5
100
AcDbArc
 50
330.6221897843
 51
360.0
  0
ARC
  5
83A
100
AcDbEntity
  8
0
100
AcDbCircle
 62
7
  6
CONTINUOUS
 10
50.862195122
 20
177.3123537256
 40
0.5
100
AcDbArc
 50
180.0
 51
270.0
  0
ARC
  5
83B
100
AcDbEntity
  8
0
100
AcDbCircle
 62
7
  6
CONTINUOUS
 10
50.862195122
 20
179.9123537256
 40
0.5
100
AcDbArc
 50
90.0
 51
180.0
  0
ARC
  5
83C
100
AcDbEntity
  8
0
100
AcDbCircle
 62
7
  6
CONTINUOUS
 10
53.862195122
 20
177.3123537256
 40
0.5
100
AcDbArc
 50
270.0
 51
360.0
  0
ARC
  5
83D
100
AcDbEntity
  8
0
100
AcDbCircle
 62
7
  6
CONTINUOUS
 10
53.862195122
 20
179.9123537256
 40
0.5
100
AcDbArc
 50
0.0
 51
90.0
  0
ARC
  5
83E
100
AcDbEntity
  8
00_COMPONENTS
100
AcDbCircle
 62
7
  6
CONTINUOUS
 10
52.052195122
 20
153.5823537256
 40
0.3
100
AcDbArc
 50
270.0
 51
360.0
  0
ARC
  5
83F
100
AcDbEntity
  8
00_COMPONENTS
100
AcDbCircle
 62
7
  6
CONTINUOUS
 10
54.562195122
 20
207.8623537256
 40
0.5
100
AcDbArc
 50
65.0214159611
 51
90.0
  0
ARC
  5
840
100
AcDbEntity
  8
00_COMPONENTS
100
AcDbCircle
 62
7
  6
CONTINUOUS
 10
54.562195122
 20
205.3623537256
 40
0.5
100
AcDbArc
 50
270.0
 51
307.5717350941
  0
ARC
  5
841
100
AcDbEntity
  8
0
100
AcDbCircle
 62
7
  6
CONTINUOUS
 10
55.162195122
 20
188.5123537256
 40
0.5
100
AcDbArc
 50
0.0
 51
90.0
  0
ARC
  5
842
100
AcDbEntity
  8
0
100
AcDbCircle
 62
7
  6
CONTINUOUS
 10
55.162195122
 20
186.3123537256
 40
0.5
100
AcDbArc
 50
270.0
 51
360.0
  0
ARC
  5
843
100
AcDbEntity
  8
0
100
AcDbCircle
 62
7
  6
CONTINUOUS
 10
55.162195122
 20
184.0123537256
 40
0.5
100
AcDbArc
 50
0.0
 51
90.0
  0
ARC
  5
844
100
AcDbEntity
  8
0
100
AcDbCircle
 62
7
  6
CONTINUOUS
 10
55.162195122
 20
206.5123537256
 40
0.5
100
AcDbArc
 50
0.0
 51
90.0
  0
ARC
  5
845
100
AcDbEntity
  8
0
100
AcDbCircle
 62
7
  6
CONTINUOUS
 10
55.162195122
 20
213.3123537256
 40
0.5
100
AcDbArc
 50
270.0
 51
360.0
  0
ARC
  5
846
100
AcDbEntity
  8
0
100
AcDbCircle
 62
7
  6
CONTINUOUS
 10
55.162195122
 20
211.0123537256
 40
0.5
100
AcDbArc
 50
0.0
 51
90.0
  0
ARC
  5
847
100
AcDbEntity
  8
0
100
AcDbCircle
 62
7
  6
CONTINUOUS
 10
55.162195122
 20
208.8123537256
 40
0.5
100
AcDbArc
 50
270.0
 51
360.0
  0
ARC
  5
848
100
AcDbEntity
  8
0
100
AcDbCircle
 62
7
  6
CONTINUOUS
 10
55.162195122
 20
204.3123537256
 40
0.5
100
AcDbArc
 50
270.0
 51
360.0
  0
ARC
  5
849
100
AcDbEntity
  8
0
100
AcDbCircle
 62
7
  6
CONTINUOUS
 10
55.162195122
 20
202.0123537256
 40
0.5
100
AcDbArc
 50
0.0
 51
90.0
  0
ARC
  5
84A
100
AcDbEntity
  8
0
100
AcDbCircle
 62
7
  6
CONTINUOUS
 10
55.162195122
 20
199.8123537256
 40
0.5
100
AcDbArc
 50
270.0
 51
360.0
  0
ARC
  5
84B
100
AcDbEntity
  8
0
100
AcDbCircle
 62
7
  6
CONTINUOUS
 10
55.162195122
 20
197.5123537256
 40
0.5
100
AcDbArc
 50
0.0
 51
90.0
  0
ARC
  5
84C
100
AcDbEntity
  8
0
100
AcDbCircle
 62
7
  6
CONTINUOUS
 10
55.162195122
 20
195.3123537256
 40
0.5
100
AcDbArc
 50
270.0
 51
360.0
  0
ARC
  5
84D
100
AcDbEntity
  8
0
100
AcDbCircle
 62
7
  6
CONTINUOUS
 10
56.662195122
 20
191.8123537256
 40
0.3
100
AcDbArc
 50
90.0
 51
131.8258018883
  0
ARC
  5
84E
100
AcDbEntity
  8
0
100
AcDbCircle
 62
7
  6
CONTINUOUS
 10
54.512195122
 20
209.1123537256
 40
0.3
100
AcDbArc
 50
180.0
 51
270.0
  0
ARC
  5
84F
100
AcDbEntity
  8
0
100
AcDbCircle
 62
7
  6
CONTINUOUS
 10
54.512195122
 20
213.6123537256
 40
0.3
100
AcDbArc
 50
180.0
 51
270.0
  0
ARC
  5
850
100
AcDbEntity
  8
0
100
AcDbCircle
 62
7
  6
CONTINUOUS
 10
54.512195122
 20
200.1123537256
 40
0.3
100
AcDbArc
 50
180.0
 51
270.0
  0
ARC
  5
851
100
AcDbEntity
  8
0
100
AcDbCircle
 62
7
  6
CONTINUOUS
 10
54.512195122
 20
204.6123537256
 40
0.3
100
AcDbArc
 50
180.0
 51
270.0
  0
ARC
  5
852
100
AcDbEntity
  8
0
100
AcDbCircle
 62
7
  6
CONTINUOUS
 10
54.512195122
 20
211.2123537256
 40
0.3
100
AcDbArc
 50
90.0
 51
180.0
  0
ARC
  5
853
100
AcDbEntity
  8
0
100
AcDbCircle
 62
7
  6
CONTINUOUS
 10
54.512195122
 20
206.7123537256
 40
0.3
100
AcDbArc
 50
90.0
 51
180.0
  0
ARC
  5
854
100
AcDbEntity
  8
0
100
AcDbCircle
 62
7
  6
CONTINUOUS
 10
54.512195122
 20
202.2123537256
 40
0.3
100
AcDbArc
 50
90.0
 51
180.0
  0
ARC
  5
855
100
AcDbEntity
  8
0
100
AcDbCircle
 62
7
  6
CONTINUOUS
 10
54.512195122
 20
197.7123537256
 40
0.3
100
AcDbArc
 50
90.0
 51
180.0
  0
ARC
  5
856
100
AcDbEntity
  8
0
100
AcDbCircle
 62
7
  6
CONTINUOUS
 10
54.512195122
 20
195.6123537256
 40
0.3
100
AcDbArc
 50
180.0
 51
270.0
  0
ARC
  5
857
100
AcDbEntity
  8
0
100
AcDbCircle
 62
7
  6
CONTINUOUS
 10
55.362195122
 20
195.6123537256
 40
0.3
100
AcDbArc
 50
270.0
 51
360.0
  0
ARC
  5
858
100
AcDbEntity
  8
0
100
AcDbCircle
 62
7
  6
CONTINUOUS
 10
54.512195122
 20
199.6123537256
 40
0.3
100
AcDbArc
 50
180.0
 51
270.0
  0
ARC
  5
859
100
AcDbEntity
  8
0
100
AcDbCircle
 62
7
  6
CONTINUOUS
 10
54.512195122
 20
204.1123537256
 40
0.3
100
AcDbArc
 50
180.0
 51
270.0
  0
ARC
  5
85A
100
AcDbEntity
  8
0
100
AcDbCircle
 62
7
  6
CONTINUOUS
 10
54.512195122
 20
208.6123537256
 40
0.3
100
AcDbArc
 50
180.0
 51
270.0
  0
ARC
  5
85B
100
AcDbEntity
  8
0
100
AcDbCircle
 62
7
  6
CONTINUOUS
 10
54.512195122
 20
213.1123537256
 40
0.3
100
AcDbArc
 50
180.0
 51
270.0
  0
ARC
  5
85C
100
AcDbEntity
  8
0
100
AcDbCircle
 62
7
  6
CONTINUOUS
 10
49.312195122
 20
242.7123537256
 40
0.3
100
AcDbArc
 50
0.0
 51
90.0
  0
ARC
  5
85D
100
AcDbEntity
  8
0
100
AcDbCircle
 62
7
  6
CONTINUOUS
 10
49.312195122
 20
238.2123537256
 40
0.3
100
AcDbArc
 50
0.0
 51
90.0
  0
ARC
  5
85E
100
AcDbEntity
  8
0
100
AcDbCircle
 62
7
  6
CONTINUOUS
 10
49.312195122
 20
233.7123537256
 40
0.3
100
AcDbArc
 50
0.0
 51
90.0
  0
ARC
  5
85F
100
AcDbEntity
  8
0
100
AcDbCircle
 62
7
  6
CONTINUOUS
 10
49.312195122
 20
229.2123537256
 40
0.3
100
AcDbArc
 50
0.0
 51
90.0
  0
ARC
  5
860
100
AcDbEntity
  8
0
100
AcDbCircle
 62
7
  6
CONTINUOUS
 10
49.312195122
 20
224.7123537256
 40
0.3
100
AcDbArc
 50
0.0
 51
90.0
  0
ARC
  5
861
100
AcDbEntity
  8
0
100
AcDbCircle
 62
7
  6
CONTINUOUS
 10
49.312195122
 20
220.2123537256
 40
0.3
100
AcDbArc
 50
0.0
 51
90.0
  0
ARC
  5
862
100
AcDbEntity
  8
0
100
AcDbCircle
 62
7
  6
CONTINUOUS
 10
49.312195122
 20
215.7123537256
 40
0.3
100
AcDbArc
 50
0.0
 51
90.0
  0
ARC
  5
863
100
AcDbEntity
  8
0
100
AcDbCircle
 62
7
  6
CONTINUOUS
 10
49.312195122
 20
244.6123537256
 40
0.3
100
AcDbArc
 50
270.0
 51
360.0
  0
ARC
  5
864
100
AcDbEntity
  8
0
100
AcDbCircle
 62
7
  6
CONTINUOUS
 10
49.312195122
 20
240.1123537256
 40
0.3
100
AcDbArc
 50
270.0
 51
360.0
  0
ARC
  5
865
100
AcDbEntity
  8
0
100
AcDbCircle
 62
7
  6
CONTINUOUS
 10
49.312195122
 20
235.6123537256
 40
0.3
100
AcDbArc
 50
270.0
 51
360.0
  0
ARC
  5
866
100
AcDbEntity
  8
0
100
AcDbCircle
 62
7
  6
CONTINUOUS
 10
49.312195122
 20
231.1123537256
 40
0.3
100
AcDbArc
 50
270.0
 51
360.0
  0
ARC
  5
867
100
AcDbEntity
  8
0
100
AcDbCircle
 62
7
  6
CONTINUOUS
 10
49.312195122
 20
226.6123537256
 40
0.3
100
AcDbArc
 50
270.0
 51
360.0
  0
ARC
  5
868
100
AcDbEntity
  8
0
100
AcDbCircle
 62
7
  6
CONTINUOUS
 10
49.312195122
 20
222.1123537256
 40
0.3
100
AcDbArc
 50
270.0
 51
360.0
  0
ARC
  5
869
100
AcDbEntity
  8
0
100
AcDbCircle
 62
7
  6
CONTINUOUS
 10
49.312195122
 20
217.6123537256
 40
0.3
100
AcDbArc
 50
270.0
 51
360.0
  0
ARC
  5
86A
100
AcDbEntity
  8
0
100
AcDbCircle
 62
7
  6
CONTINUOUS
 10
48.762195122
 20
260.9354593512
 40
1.0
100
AcDbArc
 50
345.9636139129
 51
0.0002184357
  0
ARC
  5
86B
100
AcDbEntity
  8
0
100
AcDbCircle
 62
7
  6
CONTINUOUS
 10
50.212195122
 20
258.4892481
 40
1.0
100
AcDbArc
 50
165.9638947788
 51
179.9998917208
  0
ARC
  5
86C
100
AcDbEntity
  8
0
100
AcDbCircle
 62
7
  6
CONTINUOUS
 10
49.6121254039
 20
248.9425132254
 40
0.8000622585
100
AcDbArc
 50
270.0049928358
 51
0.0047221139
  0
ARC
  5
86D
100
AcDbEntity
  8
0
100
AcDbCircle
 62
7
  6
CONTINUOUS
 10
49.412195122
 20
259.4739065384
 40
0.5
100
AcDbArc
 50
345.9637565321
 51
360.0
  0
ARC
  5
86E
100
AcDbEntity
  8
0
100
AcDbCircle
 62
7
  6
CONTINUOUS
 10
50.212195122
 20
258.5508009128
 40
0.5
100
AcDbArc
 50
165.9637565321
 51
180.0
  0
ARC
  5
86F
100
AcDbEntity
  8
0
100
AcDbCircle
 62
7
  6
CONTINUOUS
 10
47.712195122
 20
249.2956870589
 40
0.4833333333
100
AcDbArc
 50
223.6028226626
 51
316.3971775477
  0
ARC
  5
870
100
AcDbEntity
  8
0
100
AcDbCircle
 62
7
  6
CONTINUOUS
 10
48.762195122
 20
265.9290203923
 40
0.4833333333
100
AcDbArc
 50
43.6028227017
 51
136.3971775295
  0
ARC
  5
871
100
AcDbEntity
  8
0
100
AcDbCircle
 62
7
  6
CONTINUOUS
 10
49.499695122
 20
265.2623537256
 40
0.3625
100
AcDbArc
 50
316.397181907
 51
43.6028180929
  0
ARC
  5
872
100
AcDbEntity
  8
0
100
AcDbCircle
 62
7
  6
CONTINUOUS
 10
49.499695122
 20
249.7123537256
 40
0.3625
100
AcDbArc
 50
316.3971819069
 51
43.6028180928
  0
ARC
  5
873
100
AcDbEntity
  8
0
100
AcDbCircle
 62
7
  6
CONTINUOUS
 10
49.6120857684
 20
248.9424699321
 40
0.3000990884
100
AcDbArc
 50
270.02087881
 51
0.0208542066
  0
ARC
  5
874
100
AcDbEntity
  8
0
100
AcDbCircle
 62
7
  6
CONTINUOUS
 10
48.912195122
 20
258.2623537256
 40
0.3
100
AcDbArc
 50
270.0
 51
360.0
  0
ARC
  5
875
100
AcDbEntity
  8
0
100
AcDbCircle
 62
7
  6
CONTINUOUS
 10
49.462195122
 20
265.9623537256
 40
0.3
100
AcDbArc
 50
0.0
 51
90.0
  0
ARC
  5
876
100
AcDbEntity
  8
0
100
AcDbCircle
 62
7
  6
CONTINUOUS
 10
49.462195122
 20
249.2623537256
 40
0.3
100
AcDbArc
 50
270.0
 51
360.0
  0
ARC
  5
877
100
AcDbEntity
  8
0
100
AcDbCircle
 62
7
  6
CONTINUOUS
 10
49.462195122
 20
254.6623537256
 40
0.3
100
AcDbArc
 50
0.0
 51
90.0
  0
ARC
  5
878
100
AcDbEntity
  8
0
100
AcDbCircle
 62
7
  6
CONTINUOUS
 10
45.412195122
 20
247.7623537256
 40
0.3
100
AcDbArc
 50
270.0
 51
303.2659538109
  0
ARC
  5
879
100
AcDbEntity
  8
0
100
AcDbCircle
 62
7
  6
CONTINUOUS
 10
49.312195122
 20
247.2123537256
 40
0.3
100
AcDbArc
 50
0.0
 51
90.0
  0
ARC
  5
87A
100
AcDbEntity
  8
0
100
AcDbCircle
 62
7
  6
CONTINUOUS
 10
49.612195122
 20
266.2123537256
 40
0.3
100
AcDbArc
 50
0.0
 51
90.0
  0
ARC
  5
87B
100
AcDbEntity
  8
0
100
AcDbCircle
 62
7
  6
CONTINUOUS
 10
49.612195122
 20
249.0123537256
 40
0.3
100
AcDbArc
 50
270.0
 51
360.0
  0
ARC
  5
87C
100
AcDbEntity
  8
0
100
AcDbCircle
 62
7
  6
CONTINUOUS
 10
49.512195122
 20
256.6623537256
 40
0.25
100
AcDbArc
 50
359.9999741077
 51
90.0
  0
ARC
  5
87D
100
AcDbEntity
  8
0
100
AcDbCircle
 62
7
  6
CONTINUOUS
 10
49.462195122
 20
257.1623537256
 40
0.25
100
AcDbArc
 50
180.0
 51
270.0
  0
ARC
  5
87E
100
AcDbEntity
  8
0
100
AcDbCircle
 62
7
  6
CONTINUOUS
 10
49.912195122
 20
257.6123537256
 40
0.2
100
AcDbArc
 50
180.0
 51
270.0
  0
ARC
  5
87F
100
AcDbEntity
  8
0
100
AcDbCircle
 62
7
  6
CONTINUOUS
 10
55.162195122
 20
215.5123537256
 40
0.5
100
AcDbArc
 50
0.0
 51
90.0
  0
ARC
  5
880
100
AcDbEntity
  8
0
100
AcDbCircle
 62
7
  6
CONTINUOUS
 10
55.162195122
 20
244.8123537256
 40
0.5
100
AcDbArc
 50
270.0
 51
360.0
  0
ARC
  5
881
100
AcDbEntity
  8
0
100
AcDbCircle
 62
7
  6
CONTINUOUS
 10
55.162195122
 20
242.5123537256
 40
0.5
100
AcDbArc
 50
0.0
 51
90.0
  0
ARC
  5
882
100
AcDbEntity
  8
0
100
AcDbCircle
 62
7
  6
CONTINUOUS
 10
55.162195122
 20
240.3123537256
 40
0.5
100
AcDbArc
 50
270.0
 51
360.0
  0
ARC
  5
883
100
AcDbEntity
  8
0
100
AcDbCircle
 62
7
  6
CONTINUOUS
 10
55.162195122
 20
238.0123537256
 40
0.5
100
AcDbArc
 50
0.0
 51
90.0
  0
ARC
  5
884
100
AcDbEntity
  8
0
100
AcDbCircle
 62
7
  6
CONTINUOUS
 10
55.162195122
 20
235.8123537256
 40
0.5
100
AcDbArc
 50
270.0
 51
360.0
  0
ARC
  5
885
100
AcDbEntity
  8
0
100
AcDbCircle
 62
7
  6
CONTINUOUS
 10
55.162195122
 20
233.5123537256
 40
0.5
100
AcDbArc
 50
0.0
 51
90.0
  0
ARC
  5
886
100
AcDbEntity
  8
0
100
AcDbCircle
 62
7
  6
CONTINUOUS
 10
55.162195122
 20
231.3123537256
 40
0.5
100
AcDbArc
 50
270.0
 51
360.0
  0
ARC
  5
887
100
AcDbEntity
  8
0
100
AcDbCircle
 62
7
  6
CONTINUOUS
 10
55.162195122
 20
229.0123537256
 40
0.5
100
AcDbArc
 50
0.0
 51
90.0
  0
ARC
  5
888
100
AcDbEntity
  8
0
100
AcDbCircle
 62
7
  6
CONTINUOUS
 10
55.162195122
 20
226.8123537256
 40
0.5
100
AcDbArc
 50
270.0
 51
360.0
  0
ARC
  5
889
100
AcDbEntity
  8
0
100
AcDbCircle
 62
7
  6
CONTINUOUS
 10
55.162195122
 20
224.5123537256
 40
0.5
100
AcDbArc
 50
0.0
 51
90.0
  0
ARC
  5
88A
100
AcDbEntity
  8
0
100
AcDbCircle
 62
7
  6
CONTINUOUS
 10
55.162195122
 20
222.3123537256
 40
0.5
100
AcDbArc
 50
270.0
 51
360.0
  0
ARC
  5
88B
100
AcDbEntity
  8
0
100
AcDbCircle
 62
7
  6
CONTINUOUS
 10
55.162195122
 20
220.0123537256
 40
0.5
100
AcDbArc
 50
0.0
 51
90.0
  0
ARC
  5
88C
100
AcDbEntity
  8
0
100
AcDbCircle
 62
7
  6
CONTINUOUS
 10
55.162195122
 20
217.8123537256
 40
0.5
100
AcDbArc
 50
270.0
 51
360.0
  0
ARC
  5
88D
100
AcDbEntity
  8
0
100
AcDbCircle
 62
7
  6
CONTINUOUS
 10
54.512195122
 20
218.1123537256
 40
0.3
100
AcDbArc
 50
180.0
 51
270.0
  0
ARC
  5
88E
100
AcDbEntity
  8
0
100
AcDbCircle
 62
7
  6
CONTINUOUS
 10
54.512195122
 20
222.6123537256
 40
0.3
100
AcDbArc
 50
180.0
 51
270.0
  0
ARC
  5
88F
100
AcDbEntity
  8
0
100
AcDbCircle
 62
7
  6
CONTINUOUS
 10
54.512195122
 20
240.6123537256
 40
0.3
100
AcDbArc
 50
180.0
 51
270.0
  0
ARC
  5
890
100
AcDbEntity
  8
0
100
AcDbCircle
 62
7
  6
CONTINUOUS
 10
54.512195122
 20
245.1123537256
 40
0.3
100
AcDbArc
 50
180.0
 51
270.0
  0
ARC
  5
891
100
AcDbEntity
  8
0
100
AcDbCircle
 62
7
  6
CONTINUOUS
 10
54.512195122
 20
227.1123537256
 40
0.3
100
AcDbArc
 50
180.0
 51
270.0
  0
ARC
  5
892
100
AcDbEntity
  8
0
100
AcDbCircle
 62
7
  6
CONTINUOUS
 10
54.512195122
 20
231.6123537256
 40
0.3
100
AcDbArc
 50
180.0
 51
270.0
  0
ARC
  5
893
100
AcDbEntity
  8
0
100
AcDbCircle
 62
7
  6
CONTINUOUS
 10
54.512195122
 20
236.1123537256
 40
0.3
100
AcDbArc
 50
180.0
 51
270.0
  0
ARC
  5
894
100
AcDbEntity
  8
0
100
AcDbCircle
 62
7
  6
CONTINUOUS
 10
54.512195122
 20
242.7123537256
 40
0.3
100
AcDbArc
 50
90.0
 51
180.0
  0
ARC
  5
895
100
AcDbEntity
  8
0
100
AcDbCircle
 62
7
  6
CONTINUOUS
 10
54.512195122
 20
238.2123537256
 40
0.3
100
AcDbArc
 50
90.0
 51
180.0
  0
ARC
  5
896
100
AcDbEntity
  8
0
100
AcDbCircle
 62
7
  6
CONTINUOUS
 10
54.512195122
 20
233.7123537256
 40
0.3
100
AcDbArc
 50
90.0
 51
180.0
  0
ARC
  5
897
100
AcDbEntity
  8
0
100
AcDbCircle
 62
7
  6
CONTINUOUS
 10
54.512195122
 20
229.2123537256
 40
0.3
100
AcDbArc
 50
90.0
 51
180.0
  0
ARC
  5
898
100
AcDbEntity
  8
0
100
AcDbCircle
 62
7
  6
CONTINUOUS
 10
54.512195122
 20
224.7123537256
 40
0.3
100
AcDbArc
 50
90.0
 51
180.0
  0
ARC
  5
899
100
AcDbEntity
  8
0
100
AcDbCircle
 62
7
  6
CONTINUOUS
 10
54.512195122
 20
220.2123537256
 40
0.3
100
AcDbArc
 50
90.0
 51
180.0
  0
ARC
  5
89A
100
AcDbEntity
  8
0
100
AcDbCircle
 62
7
  6
CONTINUOUS
 10
54.512195122
 20
215.7123537256
 40
0.3
100
AcDbArc
 50
90.0
 51
180.0
  0
ARC
  5
89B
100
AcDbEntity
  8
0
100
AcDbCircle
 62
7
  6
CONTINUOUS
 10
54.512195122
 20
217.6123537256
 40
0.3
100
AcDbArc
 50
180.0
 51
270.0
  0
ARC
  5
89C
100
AcDbEntity
  8
0
100
AcDbCircle
 62
7
  6
CONTINUOUS
 10
54.512195122
 20
222.1123537256
 40
0.3
100
AcDbArc
 50
180.0
 51
270.0
  0
ARC
  5
89D
100
AcDbEntity
  8
0
100
AcDbCircle
 62
7
  6
CONTINUOUS
 10
54.512195122
 20
226.6123537256
 40
0.3
100
AcDbArc
 50
180.0
 51
270.0
  0
ARC
  5
89E
100
AcDbEntity
  8
0
100
AcDbCircle
 62
7
  6
CONTINUOUS
 10
54.512195122
 20
231.1123537256
 40
0.3
100
AcDbArc
 50
180.0
 51
270.0
  0
ARC
  5
89F
100
AcDbEntity
  8
0
100
AcDbCircle
 62
7
  6
CONTINUOUS
 10
54.512195122
 20
235.6123537256
 40
0.3
100
AcDbArc
 50
180.0
 51
270.0
  0
ARC
  5
8A0
100
AcDbEntity
  8
0
100
AcDbCircle
 62
7
  6
CONTINUOUS
 10
54.512195122
 20
240.1123537256
 40
0.3
100
AcDbArc
 50
180.0
 51
270.0
  0
ARC
  5
8A1
100
AcDbEntity
  8
0
100
AcDbCircle
 62
7
  6
CONTINUOUS
 10
54.512195122
 20
244.6123537256
 40
0.3
100
AcDbArc
 50
180.0
 51
270.0
  0
ARC
  5
8A2
100
AcDbEntity
  8
0
100
AcDbCircle
 62
7
  6
CONTINUOUS
 10
53.712195122
 20
264.9123537256
 40
0.75
100
AcDbArc
 50
311.8537465609
 51
40.739493093
  0
ARC
  5
8A3
100
AcDbEntity
  8
00_COMPONENTS
100
AcDbCircle
 62
7
  6
CONTINUOUS
 10
54.562195122
 20
255.3623537256
 40
0.5
100
AcDbArc
 50
52.4282649059
 51
90.0
  0
ARC
  5
8A4
100
AcDbEntity
  8
0
100
AcDbCircle
 62
7
  6
CONTINUOUS
 10
56.662195122
 20
276.0623537256
 40
0.5
100
AcDbArc
 50
0.0
 51
90.0
  0
ARC
  5
8A5
100
AcDbEntity
  8
0
100
AcDbCircle
 62
7
  6
CONTINUOUS
 10
55.162195122
 20
265.0123537256
 40
0.5
100
AcDbArc
 50
0.0
 51
90.0
  0
ARC
  5
8A6
100
AcDbEntity
  8
0
100
AcDbCircle
 62
7
  6
CONTINUOUS
 10
55.162195122
 20
262.8123537256
 40
0.5
100
AcDbArc
 50
270.0
 51
360.0
  0
ARC
  5
8A7
100
AcDbEntity
  8
0
100
AcDbCircle
 62
7
  6
CONTINUOUS
 10
55.162195122
 20
260.5123537256
 40
0.5
100
AcDbArc
 50
0.0
 51
90.0
  0
ARC
  5
8A8
100
AcDbEntity
  8
0
100
AcDbCircle
 62
7
  6
CONTINUOUS
 10
55.162195122
 20
258.3123537256
 40
0.5
100
AcDbArc
 50
270.0
 51
360.0
  0
ARC
  5
8A9
100
AcDbEntity
  8
0
100
AcDbCircle
 62
7
  6
CONTINUOUS
 10
55.162195122
 20
256.0123537256
 40
0.5
100
AcDbArc
 50
0.0
 51
90.0
  0
ARC
  5
8AA
100
AcDbEntity
  8
0
100
AcDbCircle
 62
7
  6
CONTINUOUS
 10
55.162195122
 20
251.5123537256
 40
0.5
100
AcDbArc
 50
0.0
 51
90.0
  0
ARC
  5
8AB
100
AcDbEntity
  8
0
100
AcDbCircle
 62
7
  6
CONTINUOUS
 10
55.162195122
 20
253.8123537256
 40
0.5
100
AcDbArc
 50
270.0
 51
360.0
  0
ARC
  5
8AC
100
AcDbEntity
  8
0
100
AcDbCircle
 62
7
  6
CONTINUOUS
 10
55.162195122
 20
247.0123537256
 40
0.5
100
AcDbArc
 50
0.0
 51
90.0
  0
ARC
  5
8AD
100
AcDbEntity
  8
0
100
AcDbCircle
 62
7
  6
CONTINUOUS
 10
55.162195122
 20
249.3123537256
 40
0.5
100
AcDbArc
 50
270.0
 51
360.0
  0
ARC
  5
8AE
100
AcDbEntity
  8
0
100
AcDbCircle
 62
7
  6
CONTINUOUS
 10
51.612195122
 20
265.0123537256
 40
0.5
100
AcDbArc
 50
90.0
 51
180.0
  0
ARC
  5
8AF
100
AcDbEntity
  8
0
100
AcDbCircle
 62
7
  6
CONTINUOUS
 10
51.612195122
 20
260.5123537256
 40
0.5
100
AcDbArc
 50
90.0
 51
180.0
  0
ARC
  5
8B0
100
AcDbEntity
  8
0
100
AcDbCircle
 62
7
  6
CONTINUOUS
 10
51.612195122
 20
262.8123537256
 40
0.5
100
AcDbArc
 50
180.0
 51
270.0
  0
ARC
  5
8B1
100
AcDbEntity
  8
0
100
AcDbCircle
 62
7
  6
CONTINUOUS
 10
51.612195122
 20
258.3123537256
 40
0.5
100
AcDbArc
 50
180.0
 51
270.0
  0
ARC
  5
8B2
100
AcDbEntity
  8
0
100
AcDbCircle
 62
7
  6
CONTINUOUS
 10
51.612195122
 20
256.0123537256
 40
0.5
100
AcDbArc
 50
90.0
 51
180.0
  0
ARC
  5
8B3
100
AcDbEntity
  8
0
100
AcDbCircle
 62
7
  6
CONTINUOUS
 10
51.612195122
 20
253.8123537256
 40
0.5
100
AcDbArc
 50
180.0
 51
270.0
  0
ARC
  5
8B4
100
AcDbEntity
  8
0
100
AcDbCircle
 62
7
  6
CONTINUOUS
 10
51.612195122
 20
251.5123537256
 40
0.5
100
AcDbArc
 50
90.0
 51
180.0
  0
ARC
  5
8B5
100
AcDbEntity
  8
0
100
AcDbCircle
 62
7
  6
CONTINUOUS
 10
51.612195122
 20
249.3123537256
 40
0.5
100
AcDbArc
 50
180.0
 51
270.0
  0
ARC
  5
8B6
100
AcDbEntity
  8
0
100
AcDbCircle
 62
7
  6
CONTINUOUS
 10
56.662195122
 20
266.9123537256
 40
0.5
100
AcDbArc
 50
0.0
 51
90.0
  0
ARC
  5
8B7
100
AcDbEntity
  8
0
100
AcDbCircle
 62
7
  6
CONTINUOUS
 10
56.662195122
 20
267.6123537256
 40
0.5
100
AcDbArc
 50
0.0
 51
90.0
  0
ARC
  5
8B8
100
AcDbEntity
  8
0
100
AcDbCircle
 62
7
  6
CONTINUOUS
 10
56.662195122
 20
275.6123537256
 40
0.5
100
AcDbArc
 50
0.0
 51
90.0
  0
ARC
  5
8B9
100
AcDbEntity
  8
0
100
AcDbCircle
 62
7
  6
CONTINUOUS
 10
54.512195122
 20
249.6123537256
 40
0.3
100
AcDbArc
 50
180.0
 51
270.0
  0
ARC
  5
8BA
100
AcDbEntity
  8
0
100
AcDbCircle
 62
7
  6
CONTINUOUS
 10
54.512195122
 20
256.2123537256
 40
0.3
100
AcDbArc
 50
90.0
 51
180.0
  0
ARC
  5
8BB
100
AcDbEntity
  8
0
100
AcDbCircle
 62
7
  6
CONTINUOUS
 10
54.512195122
 20
251.7123537256
 40
0.3
100
AcDbArc
 50
90.0
 51
180.0
  0
ARC
  5
8BC
100
AcDbEntity
  8
0
100
AcDbCircle
 62
7
  6
CONTINUOUS
 10
54.512195122
 20
247.2123537256
 40
0.3
100
AcDbArc
 50
90.0
 51
180.0
  0
ARC
  5
8BD
100
AcDbEntity
  8
0
100
AcDbCircle
 62
7
  6
CONTINUOUS
 10
54.512195122
 20
265.2123537256
 40
0.3
100
AcDbArc
 50
90.0
 51
180.0
  0
ARC
  5
8BE
100
AcDbEntity
  8
0
100
AcDbCircle
 62
7
  6
CONTINUOUS
 10
54.512195122
 20
260.7123537256
 40
0.3
100
AcDbArc
 50
90.0
 51
180.0
  0
ARC
  5
8BF
100
AcDbEntity
  8
0
100
AcDbCircle
 62
7
  6
CONTINUOUS
 10
54.512195122
 20
262.6123537256
 40
0.3
100
AcDbArc
 50
180.0
 51
270.0
  0
ARC
  5
8C0
100
AcDbEntity
  8
0
100
AcDbCircle
 62
7
  6
CONTINUOUS
 10
54.512195122
 20
249.1123537256
 40
0.3
100
AcDbArc
 50
180.0
 51
270.0
  0
ARC
  5
8C1
100
AcDbEntity
  8
0
100
AcDbCircle
 62
7
  6
CONTINUOUS
 10
54.512195122
 20
253.6123537256
 40
0.3
100
AcDbArc
 50
180.0
 51
270.0
  0
ARC
  5
8C2
100
AcDbEntity
  8
0
100
AcDbCircle
 62
7
  6
CONTINUOUS
 10
54.512195122
 20
258.1123537256
 40
0.3
100
AcDbArc
 50
180.0
 51
270.0
  0
SPLINE
  5
8C3
100
AcDbEntity
  8
0
100
AcDbSpline
 62
7
  6
CONTINUOUS
 70
0
 71
3
 72
12
 73
8
 74
0
 42
0.0000001
 43
0.0000001
 44
0.0000000001
 40
0.0
 40
0.0
 40
0.0
 40
0.0
 40
0.1898287087
 40
0.4038946573
 40
0.6619296971
 40
0.8192461167
 40
1.0
 40
1.0
 40
1.0
 40
1.0
 10
56.851615039
 20
128.875410787
 30
0.0
 10
56.885591514
 20
128.8573701443
 30
0.0
 10
56.9539067917
 20
128.811001505
 30
0.0
 10
57.0466982116
 20
128.712685128
 30
0.0
 10
57.1097320267
 20
128.5997859901
 30
0.0
 10
57.1443478323
 20
128.4835819476
 30
0.0
 10
57.1515700626
 20
128.4148598723
 30
0.0
 10
57.1515701475
 20
128.378229875
 30
0.0
  0
SPLINE
  5
8C4
100
AcDbEntity
  8
0
100
AcDbSpline
 62
7
  6
CONTINUOUS
 70
0
 71
3
 72
13
 73
9
 74
0
 42
0.0000001
 43
0.0000001
 44
0.0000000001
 40
0.0
 40
0.0
 40
0.0
 40
0.0
 40
0.198063821
 40
0.3610583885
 40
0.4950376881
 40
0.6112736398
 40
0.8142026486
 40
1.0
 40
1.0
 40
1.0
 40
1.0
 10
57.1516139195
 20
103.6126292574
 30
0.0
 10
57.1516139444
 20
103.5922843773
 30
0.0
 10
57.1460653363
 20
103.5549410373
 30
0.0
 10
57.1251504711
 20
103.5080650165
 30
0.0
 10
57.0993801395
 20
103.4739397855
 30
0.0
 10
57.0644908532
 20
103.4427939098
 30
0.0
 10
57.017469235
 20
103.4186427262
 30
0.0
 10
56.9772954881
 20
103.412433226
 30
0.0
 10
56.9582106053
 20
103.412433226
 30
0.0
  0
SPLINE
  5
8C5
100
AcDbEntity
  8
0
100
AcDbSpline
 62
7
  6
CONTINUOUS
 70
0
 71
3
 72
12
 73
8
 74
0
 42
0.0000001
 43
0.0000001
 44
0.0000000001
 40
0.0
 40
0.0
 40
0.0
 40
0.0
 40
0.1807538834
 40
0.3380703029
 40
0.5961053427
 40
0.8101712913
 40
1.0
 40
1.0
 40
1.0
 40
1.0
 10
29.3728200964
 20
128.3782298749
 30
0.0
 10
29.3728201813
 20
128.4148598722
 30
0.0
 10
29.3800424117
 20
128.4835819475
 30
0.0
 10
29.4146582173
 20
128.5997859902
 30
0.0
 10
29.4776920324
 20
128.7126851281
 30
0.0
 10
29.5704834523
 20
128.811001505
 30
0.0
 10
29.6387987301
 20
128.8573701443
 30
0.0
 10
29.6727752051
 20
128.8754107871
 30
0.0
  0
SPLINE
  5
8C6
100
AcDbEntity
  8
0
100
AcDbSpline
 62
7
  6
CONTINUOUS
 70
0
 71
3
 72
13
 73
9
 74
0
 42
0.0000001
 43
0.0000001
 44
0.0000000001
 40
0.0
 40
0.0
 40
0.0
 40
0.0
 40
0.1857973507
 40
0.3887263592
 40
0.5049623109
 40
0.6389416108
 40
0.801936179
 40
1.0
 40
1.0
 40
1.0
 40
1.0
 10
29.5661796392
 20
103.412433226
 30
0.0
 10
29.5470947564
 20
103.412433226
 30
0.0
 10
29.5069210097
 20
103.4186427261
 30
0.0
 10
29.4598993914
 20
103.4427939096
 30
0.0
 10
29.4250101052
 20
103.4739397853
 30
0.0
 10
29.3992397734
 20
103.5080650164
 30
0.0
 10
29.3783249081
 20
103.5549410372
 30
0.0
 10
29.3727763
 20
103.5922843773
 30
0.0
 10
29.3727763249
 20
103.6126292574
 30
0.0
  0
LINE
  5
8C7
100
AcDbEntity
  8
0
100
AcDbLine
 62
7
  6
CONTINUOUS
 10
57.1250137752
 20
106.212433226
 11
57.1211612438
 21
109.612433226
  0
LINE
  5
8C8
100
AcDbEntity
  8
0
100
AcDbLine
 62
7
  6
CONTINUOUS
 10
57.1251582027
 20
122.712433226
 11
57.1193033452
 21
126.112433226
  0
LINE
  5
8C9
100
AcDbEntity
  8
0
100
AcDbLine
 62
7
  6
CONTINUOUS
 10
29.4032290001
 20
109.612433226
 11
29.3993764687
 21
106.212433226
  0
LINE
  5
8CA
100
AcDbEntity
  8
0
100
AcDbLine
 62
7
  6
CONTINUOUS
 10
29.4050868987
 20
126.112433226
 11
29.3992320412
 21
122.712433226
  0
LINE
  5
8CB
100
AcDbEntity
  8
0
100
AcDbLine
 62
7
  6
CONTINUOUS
 10
57.1386163087
 20
109.612433226
 11
57.1424688401
 21
106.212433226
  0
LINE
  5
8CC
100
AcDbEntity
  8
0
100
AcDbLine
 62
7
  6
CONTINUOUS
 10
57.1367584101
 20
126.112433226
 11
57.1426132676
 21
122.712433226
  0
LINE
  5
8CD
100
AcDbEntity
  8
0
100
AcDbLine
 62
7
  6
CONTINUOUS
 10
29.3819214038
 20
106.212433226
 11
29.3857739352
 21
109.612433226
  0
LINE
  5
8CE
100
AcDbEntity
  8
0
100
AcDbLine
 62
7
  6
CONTINUOUS
 10
29.3817769763
 20
122.712433226
 11
29.3876318338
 21
126.112433226
  0
SPLINE
  5
8CF
100
AcDbEntity
  8
0
100
AcDbSpline
 62
7
  6
CONTINUOUS
 70
0
 71
3
 72
17
 73
13
 74
0
 42
0.0000001
 43
0.0000001
 44
0.0000000001
 40
0.0
 40
0.0
 40
0.0
 40
0.0
 40
0.0676144309
 40
0.1340419852
 40
0.1990031607
 40
0.2627740769
 40
0.3878619876
 40
0.5113241458
 40
0.6339355586
 40
0.7561033865
 40
0.8780684942
 40
1.0
 40
1.0
 40
1.0
 40
1.0
 10
94.7483252515
 20
103.6126292574
 30
0.0
 10
94.7477338352
 20
103.602085495
 30
0.0
 10
94.749892189
 20
103.5808571261
 30
0.0
 10
94.7620134957
 20
103.551864503
 30
0.0
 10
94.7799751718
 20
103.5269892085
 30
0.0
 10
94.8084288912
 20
103.4991905256
 30
0.0
 10
94.8495129942
 20
103.4721567436
 30
0.0
 10
94.902643737
 20
103.4485919585
 30
0.0
 10
94.9577573577
 20
103.4317491817
 30
0.0
 10
95.0139798854
 20
103.4204076276
 30
0.0
 10
95.0708361579
 20
103.4138561904
 30
0.0
 10
95.1089451663
 20
103.412433226
 30
0.0
 10
95.1279889955
 20
103.412433226
 30
0.0
  0
SPLINE
  5
8D0
100
AcDbEntity
  8
0
100
AcDbSpline
 62
7
  6
CONTINUOUS
 70
0
 71
3
 72
18
 73
14
 74
0
 42
0.0000001
 43
0.0000001
 44
0.0000000001
 40
0.0
 40
0.0
 40
0.0
 40
0.0
 40
0.1208805518
 40
0.2423426209
 40
0.3645472347
 40
0.4260131517
 40
0.4877653388
 40
0.6122835083
 40
0.7386783321
 40
0.8028995287
 40
0.867897529
 40
0.9336758311
 40
1.0
 40
1.0
 40
1.0
 40
1.0
 10
97.424642836
 20
128.875410787
 30
0.0
 10
97.3906035477
 20
128.8667497516
 30
0.0
 10
97.3228460671
 20
128.8473947658
 30
0.0
 10
97.2229759828
 20
128.8118780058
 30
0.0
 10
97.1416893551
 20
128.7762266012
 30
0.0
 10
97.0783042233
 20
128.7435024042
 30
0.0
 10
97.0159411494
 20
128.7075034754
 30
0.0
 10
96.9409095744
 20
128.655933068
 30
0.0
 10
96.8729250904
 20
128.5938835593
 30
0.0
 10
96.8259387244
 20
128.5361811798
 30
0.0
 10
96.7957321065
 20
128.4880290697
 30
0.0
 10
96.7729578292
 20
128.4352004567
 30
0.0
 10
96.7646242731
 20
128.3973927487
 30
0.0
 10
96.7625800321
 20
128.378229875
 30
0.0
  0
SPLINE
  5
8D1
100
AcDbEntity
  8
0
100
AcDbSpline
 62
7
  6
CONTINUOUS
 70
0
 71
3
 72
16
 73
12
 74
0
 42
0.0000001
 43
0.0000001
 44
0.0000000001
 40
0.0
 40
0.0
 40
0.0
 40
0.0
 40
0.2986666558
 40
0.4436277287
 40
0.5827160345
 40
0.7128109429
 40
0.8295608645
 40
0.8811735387
 40
0.9271889603
 40
0.9668838636
 40
1.0
 40
1.0
 40
1.0
 40
1.0
 10
189.3772901951
 20
122.012433226
 30
0.0
 10
189.4207081409
 20
122.0460646222
 30
0.0
 10
189.4851860906
 20
122.0960403547
 30
0.0
 10
189.5707669392
 20
122.1605212836
 30
0.0
 10
189.6323206098
 20
122.2053738991
 30
0.0
 10
189.6907873665
 20
122.2456070716
 30
0.0
 10
189.7373974915
 20
122.2746766124
 30
0.0
 10
189.7722249609
 20
122.2931790549
 30
0.0
 10
189.7953048125
 20
122.3035073159
 30
0.0
 10
189.8160872894
 20
122.3103708707
 30
0.0
 10
189.8294582569
 20
122.312433226
 30
0.0
 10
189.8355477646
 20
122.312433226
 30
0.0
  0
SPLINE
  5
8D2
100
AcDbEntity
  8
0
100
AcDbSpline
 62
7
  6
CONTINUOUS
 70
0
 71
3
 72
9
 73
5
 74
0
 42
0.0000001
 43
0.0000001
 44
0.0000000001
 40
0.0
 40
0.0
 40
0.0
 40
0.0
 40
0.2560062416
 40
1.0
 40
1.0
 40
1.0
 40
1.0
 10
56.6635108693
 20
174.9637000575
 30
0.0
 10
56.6795671395
 20
174.9637000575
 30
0.0
 10
56.7422845754
 20
174.963369601
 30
0.0
 10
56.80499846
 20
174.9617648516
 30
0.0
 10
56.851615039
 20
174.9597063665
 30
0.0
  0
SPLINE
  5
8D3
100
AcDbEntity
  8
0
100
AcDbSpline
 62
7
  6
CONTINUOUS
 70
0
 71
3
 72
22
 73
18
 74
0
 42
0.0000001
 43
0.0000001
 44
0.0000000001
 40
0.0
 40
0.0
 40
0.0
 40
0.0
 40
0.0064526051
 40
0.017258323
 40
0.0319703861
 40
0.0500676008
 40
0.071039717
 40
0.0944414841
 40
0.1470557779
 40
0.2055720681
 40
0.2684117174
 40
0.334502931
 40
0.4031046148
 40
0.5458699739
 40
0.6939244654
 40
0.8456465854
 40
1.0
 40
1.0
 40
1.0
 40
1.0
 10
29.3728200964
 20
174.2976435604
 30
0.0
 10
29.3728201304
 20
174.2992077259
 30
0.0
 10
29.3738190707
 20
174.3033299733
 30
0.0
 10
29.3760567413
 20
174.3107171819
 30
0.0
 10
29.3796411226
 20
174.3206824024
 30
0.0
 10
29.3843088974
 20
174.3328494684
 30
0.0
 10
29.3899631594
 20
174.3469004651
 30
0.0
 10
29.39897051
 20
174.3686167723
 30
0.0
 10
29.41182937
 20
174.3985879771
 30
0.0
 10
29.428816325
 20
174.4371874253
 30
0.0
 10
29.4473930536
 20
174.4786556703
 30
0.0
 10
29.4671814313
 20
174.522259171
 30
0.0
 10
29.4952112339
 20
174.5833984723
 30
0.0
 10
29.5318919044
 20
174.6624281223
 30
0.0
 10
29.5774874307
 20
174.7595322665
 30
0.0
 10
29.6246310478
 20
174.8590119714
 30
0.0
 10
29.6566058746
 20
174.9259639345
 30
0.0
 10
29.6727752051
 20
174.9597063665
 30
0.0
  0
SPLINE
  5
8D4
100
AcDbEntity
  8
0
100
AcDbSpline
 62
7
  6
CONTINUOUS
 70
0
 71
3
 72
22
 73
18
 74
0
 42
0.0000001
 43
0.0000001
 44
0.0000000001
 40
0.0
 40
0.0
 40
0.0
 40
0.0
 40
0.1543534148
 40
0.3060755348
 40
0.4541300265
 40
0.5968953856
 40
0.6654970695
 40
0.7315882831
 40
0.7944279324
 40
0.8529442225
 40
0.9055585163
 40
0.9289602833
 40
0.9499323995
 40
0.9680296142
 40
0.9827416772
 40
0.993547395
 40
1.0
 40
1.0
 40
1.0
 40
1.0
 10
56.851615039
 20
174.9597063665
 30
0.0
 10
56.8677843695
 20
174.9259639346
 30
0.0
 10
56.8997591962
 20
174.8590119716
 30
0.0
 10
56.9469028133
 20
174.7595322669
 30
0.0
 10
56.9924983396
 20
174.662428123
 30
0.0
 10
57.0291790101
 20
174.5833984731
 30
0.0
 10
57.0572088127
 20
174.522259172
 30
0.0
 10
57.0769971903
 20
174.4786556715
 30
0.0
 10
57.095573919
 20
174.4371874266
 30
0.0
 10
57.112560874
 20
174.3985879785
 30
0.0
 10
57.1254197339
 20
174.3686167739
 30
0.0
 10
57.1344270846
 20
174.3469004668
 30
0.0
 10
57.1400813466
 20
174.3328494701
 30
0.0
 10
57.1447491213
 20
174.3206824042
 30
0.0
 10
57.1483335027
 20
174.3107171838
 30
0.0
 10
57.1505711732
 20
174.3033299753
 30
0.0
 10
57.1515701135
 20
174.299207728
 30
0.0
 10
57.1515701475
 20
174.2976435625
 30
0.0
  0
SPLINE
  5
8D5
100
AcDbEntity
  8
0
100
AcDbSpline
 62
7
  6
CONTINUOUS
 70
0
 71
3
 72
20
 73
16
 74
0
 42
0.0000001
 43
0.0000001
 44
0.0000000001
 40
0.0
 40
0.0
 40
0.0
 40
0.0
 40
0.0113066131
 40
0.0190931982
 40
0.0287398215
 40
0.0541085548
 40
0.0878750247
 40
0.1299876165
 40
0.1801871767
 40
0.2380823364
 40
0.3031797302
 40
0.4525841744
 40
0.6229173872
 40
0.8077492548
 40
1.0
 40
1.0
 40
1.0
 40
1.0
 10
57.162195122
 20
175.4128530126
 30
0.0
 10
57.162195122
 20
175.414770691
 30
0.0
 10
57.1603695762
 20
175.4178914823
 30
0.0
 10
57.1566255661
 20
175.420946628
 30
0.0
 10
57.1503775103
 20
175.4247263583
 30
0.0
 10
57.1395045632
 20
175.4290615166
 30
0.0
 10
57.1230076575
 20
175.4338698511
 30
0.0
 10
57.1021205983
 20
175.4385079297
 30
0.0
 10
57.0770295728
 20
175.4429483922
 30
0.0
 10
57.0479491364
 20
175.4471252571
 30
0.0
 10
57.0020627257
 20
175.4525333294
 30
0.0
 10
56.9370160833
 20
175.4581198804
 30
0.0
 10
56.8515655382
 20
175.4629502043
 30
0.0
 10
56.7587600084
 20
175.4659359005
 30
0.0
 10
56.6948021546
 20
175.4666057567
 30
0.0
 10
56.662195122
 20
175.4666057567
 30
0.0
  0
SPLINE
  5
8D6
100
AcDbEntity
  8
0
100
AcDbSpline
 62
7
  6
CONTINUOUS
 70
0
 71
3
 72
20
 73
16
 74
0
 42
0.0000001
 43
0.0000001
 44
0.0000000001
 40
0.0
 40
0.0
 40
0.0
 40
0.0
 40
0.1922507452
 40
0.3770826128
 40
0.5474158256
 40
0.6968202698
 40
0.7619176636
 40
0.8198128233
 40
0.8700123835
 40
0.9121249753
 40
0.9458914452
 40
0.9712601785
 40
0.9809068018
 40
0.9886933869
 40
1.0
 40
1.0
 40
1.0
 40
1.0
 10
29.862195122
 20
175.4666057567
 30
0.0
 10
29.8295880893
 20
175.4666057567
 30
0.0
 10
29.7656302355
 20
175.4659359005
 30
0.0
 10
29.6728247057
 20
175.4629502043
 30
0.0
 10
29.5873741606
 20
175.4581198804
 30
0.0
 10
29.5223275182
 20
175.4525333294
 30
0.0
 10
29.4764411075
 20
175.4471252571
 30
0.0
 10
29.4473606711
 20
175.4429483922
 30
0.0
 10
29.4222696456
 20
175.4385079297
 30
0.0
 10
29.4013825864
 20
175.4338698511
 30
0.0
 10
29.3848856807
 20
175.4290615166
 30
0.0
 10
29.3740127336
 20
175.4247263583
 30
0.0
 10
29.3677646778
 20
175.420946628
 30
0.0
 10
29.3640206677
 20
175.4178914823
 30
0.0
 10
29.362195122
 20
175.414770691
 30
0.0
 10
29.362195122
 20
175.4128530126
 30
0.0
  0
SPLINE
  5
8D7
100
AcDbEntity
  8
0
100
AcDbSpline
 62
7
  6
CONTINUOUS
 70
0
 71
3
 72
13
 73
9
 74
0
 42
0.0000001
 43
0.0000001
 44
0.0000000001
 40
0.0
 40
0.0
 40
0.0
 40
0.0
 40
0.2497464661
 40
0.4994821471
 40
0.6246229337
 40
0.7497578326
 40
0.8748820262
 40
1.0
 40
1.0
 40
1.0
 40
1.0
 10
35.1445758796
 20
268.11235361
 30
0.0
 10
35.0935865676
 20
268.1123535976
 30
0.0
 10
34.9911466759
 20
268.0986772637
 30
0.0
 10
34.8720879383
 20
268.0487380163
 30
0.0
 10
34.787600814
 20
267.9909448879
 30
0.0
 10
34.7307895021
 20
267.9390944365
 30
0.0
 10
34.6821118735
 20
267.8795555901
 30
0.0
 10
34.6560440669
 20
267.8353267339
 30
0.0
 10
34.6448740771
 20
267.8123537256
 30
0.0
  0
SPLINE
  5
8D8
100
AcDbEntity
  8
0
100
AcDbSpline
 62
7
  6
CONTINUOUS
 70
0
 71
3
 72
16
 73
12
 74
0
 42
0.0000001
 43
0.0000001
 44
0.0000000001
 40
0.0
 40
0.0
 40
0.0
 40
0.0
 40
0.0646807836
 40
0.1028128025
 40
0.1455993467
 40
0.1933088691
 40
0.2460149601
 40
0.3660588602
 40
0.5045654699
 40
0.6592468761
 40
1.0
 40
1.0
 40
1.0
 40
1.0
 10
31.1682668997
 20
268.1123537256
 30
0.0
 10
31.1758774163
 20
268.1123537256
 30
0.0
 10
31.1879826874
 20
268.1087802893
 30
0.0
 10
31.2026273655
 20
268.0999023343
 30
0.0
 10
31.214414733
 20
268.0903189657
 30
0.0
 10
31.2262145562
 20
268.0782567648
 30
0.0
 10
31.2425559727
 20
268.0580694659
 30
0.0
 10
31.2619445219
 20
268.0268300944
 30
0.0
 10
31.2820288113
 20
267.9824123633
 30
0.0
 10
31.3043408786
 20
267.9111025205
 30
0.0
 10
31.31136202
 20
267.8524476636
 30
0.0
 10
31.31136202
 20
267.8123537256
 30
0.0
  0
SPLINE
  5
8D9
100
AcDbEntity
  8
0
100
AcDbSpline
 62
7
  6
CONTINUOUS
 70
0
 71
3
 72
16
 73
12
 74
0
 42
0.0000001
 43
0.0000001
 44
0.0000000001
 40
0.0
 40
0.0
 40
0.0
 40
0.0
 40
0.3407531239
 40
0.4954345301
 40
0.6339411398
 40
0.7539850399
 40
0.8066911309
 40
0.8544006533
 40
0.8971871975
 40
0.9353192164
 40
1.0
 40
1.0
 40
1.0
 40
1.0
 10
34.3130282239
 20
267.8123537256
 30
0.0
 10
34.3130282239
 20
267.8524476636
 30
0.0
 10
34.3200493653
 20
267.9111025205
 30
0.0
 10
34.3423614326
 20
267.9824123633
 30
0.0
 10
34.362445722
 20
268.0268300944
 30
0.0
 10
34.3818342712
 20
268.0580694659
 30
0.0
 10
34.3981756877
 20
268.0782567648
 30
0.0
 10
34.4099755109
 20
268.0903189657
 30
0.0
 10
34.4217628784
 20
268.0999023343
 30
0.0
 10
34.4364075565
 20
268.1087802893
 30
0.0
 10
34.4485128276
 20
268.1123537256
 30
0.0
 10
34.4561233442
 20
268.1123537256
 30
0.0
  0
SPLINE
  5
8DA
100
AcDbEntity
  8
0
100
AcDbSpline
 62
7
  6
CONTINUOUS
 70
0
 71
3
 72
15
 73
11
 74
0
 42
0.0000001
 43
0.0000001
 44
0.0000000001
 40
0.0
 40
0.0
 40
0.0
 40
0.0
 40
0.1289079511
 40
0.2572073924
 40
0.3844509
 40
0.5104393916
 40
0.6352071289
 40
0.7589164576
 40
0.8816224567
 40
1.0
 40
1.0
 40
1.0
 40
1.0
 10
35.709899845
 20
267.6123537256
 30
0.0
 10
35.7099009198
 20
267.6447898135
 30
0.0
 10
35.7039695307
 20
267.7096661635
 30
0.0
 10
35.6775575023
 20
267.8032762155
 30
0.0
 10
35.6345196031
 20
267.8897387611
 30
0.0
 10
35.576347679
 20
267.9657404225
 30
0.0
 10
35.5051491942
 20
268.0283904212
 30
0.0
 10
35.423638588
 20
268.0752878594
 30
0.0
 10
35.3359479363
 20
268.1043542005
 30
0.0
 10
35.2752583792
 20
268.1117577014
 30
0.0
 10
35.2454768455
 20
268.1122963618
 30
0.0
  0
SPLINE
  5
8DB
100
AcDbEntity
  8
0
100
AcDbSpline
 62
7
  6
CONTINUOUS
 70
0
 71
3
 72
14
 73
10
 74
0
 42
0.0000001
 43
0.0000001
 44
0.0000000001
 40
0.0
 40
0.0
 40
0.0
 40
0.0
 40
0.2500882326
 40
0.3751401154
 40
0.500171463
 40
0.6251743249
 40
0.7501458934
 40
0.875087219
 40
1.0
 40
1.0
 40
1.0
 40
1.0
 10
30.962195122
 20
177.9123537256
 30
0.0
 10
31.047996482
 20
177.8474939939
 30
0.0
 10
31.176840536
 20
177.7500268267
 30
0.0
 10
31.3349054386
 20
177.6037583288
 30
0.0
 10
31.4424426207
 20
177.4830788775
 30
0.0
 10
31.5343161949
 20
177.3499170693
 30
0.0
 10
31.6055696882
 20
177.2044986072
 30
0.0
 10
31.6513780733
 20
177.0491000046
 30
0.0
 10
31.662195122
 20
176.9413810129
 30
0.0
 10
31.662195122
 20
176.887658649
 30
0.0
  0
SPLINE
  5
8DC
100
AcDbEntity
  8
0
100
AcDbSpline
 62
7
  6
CONTINUOUS
 70
0
 71
3
 72
19
 73
15
 74
0
 42
0.0000001
 43
0.0000001
 44
0.0000000001
 40
0.0
 40
0.0
 40
0.0
 40
0.0
 40
0.0089836114
 40
0.0160203974
 40
0.0251161056
 40
0.0497903365
 40
0.0832141862
 40
0.1252246748
 40
0.1754997873
 40
0.2990155549
 40
0.4492778399
 40
0.6206467544
 40
0.8065992434
 40
1.0
 40
1.0
 40
1.0
 40
1.0
 10
29.362195122
 20
257.3730028722
 30
0.0
 10
29.362195122
 20
257.3745155166
 30
0.0
 10
29.3642861573
 20
257.376893859
 30
0.0
 10
29.3678392194
 20
257.3789830894
 30
0.0
 10
29.3741778715
 20
257.3817970491
 30
0.0
 10
29.3850456138
 20
257.3849398061
 30
0.0
 10
29.4015452396
 20
257.3884669862
 30
0.0
 10
29.4224420544
 20
257.3918561713
 30
0.0
 10
29.4584840342
 20
257.3965128857
 30
0.0
 10
29.5128359018
 20
257.4014826789
 30
0.0
 10
29.5876466217
 20
257.4061855433
 30
0.0
 10
29.6730466432
 20
257.4096948991
 30
0.0
 10
29.7657545976
 20
257.4118674543
 30
0.0
 10
29.8296306483
 20
257.4123537256
 30
0.0
 10
29.862195122
 20
257.4123537256
 30
0.0
  0
SPLINE
  5
8DD
100
AcDbEntity
  8
0
100
AcDbSpline
 62
7
  6
CONTINUOUS
 70
0
 71
3
 72
15
 73
11
 74
0
 42
0.0000001
 43
0.0000001
 44
0.0000000001
 40
0.0
 40
0.0
 40
0.0
 40
0.0
 40
0.1249705569
 40
0.2499449657
 40
0.3749273472
 40
0.4999200949
 40
0.6249244333
 40
0.7499402801
 40
0.8749661838
 40
1.0
 40
1.0
 40
1.0
 40
1.0
 10
35.6740127262
 20
267.6123537256
 30
0.0
 10
35.6740127262
 20
267.6460136657
 30
0.0
 10
35.6668266018
 20
267.7135509507
 30
0.0
 10
35.6350804146
 20
267.8101627308
 30
0.0
 10
35.5840599935
 20
267.8981564471
 30
0.0
 10
35.5163367436
 20
267.9739957833
 30
0.0
 10
35.4350711939
 20
268.0350492834
 30
0.0
 10
35.3436998411
 20
268.0795226075
 30
0.0
 10
35.2457618242
 20
268.1064052328
 30
0.0
 10
35.1782528581
 20
268.1123536183
 30
0.0
 10
35.1445758796
 20
268.11235361
 30
0.0
  0
SPLINE
  5
8DE
100
AcDbEntity
  8
0
100
AcDbSpline
 62
7
  6
CONTINUOUS
 70
0
 71
3
 72
13
 73
9
 74
0
 42
0.0000001
 43
0.0000001
 44
0.0000000001
 40
0.0
 40
0.0
 40
0.0
 40
0.0
 40
0.1249931972
 40
0.2499903444
 40
0.3749877465
 40
0.4999877203
 40
0.7499913487
 40
1.0
 40
1.0
 40
1.0
 40
1.0
 10
36.312195122
 20
214.9559004994
 30
0.0
 10
36.312195122
 20
214.6356953474
 30
0.0
 10
36.3224009618
 20
213.9952587408
 30
0.0
 10
36.3597626715
 20
213.0352970234
 30
0.0
 10
36.4135949418
 20
212.0761154357
 30
0.0
 10
36.5019386229
 20
210.7982468441
 30
0.0
 10
36.6353629035
 20
209.2026088178
 30
0.0
 10
36.7532511566
 20
207.9271264927
 30
0.0
 10
36.812195122
 20
207.289377327
 30
0.0
  0
SPLINE
  5
8DF
100
AcDbEntity
  8
0
100
AcDbSpline
 62
7
  6
CONTINUOUS
 70
0
 71
3
 72
13
 73
9
 74
0
 42
0.0000001
 43
0.0000001
 44
0.0000000001
 40
0.0
 40
0.0
 40
0.0
 40
0.0
 40
0.2504135343
 40
0.5004040091
 40
0.6255674587
 40
0.750597634
 40
0.8754132543
 40
1.0
 40
1.0
 40
1.0
 40
1.0
 10
55.3967159099
 20
272.4123537256
 30
0.0
 10
55.4247954639
 20
272.4123537256
 30
0.0
 10
55.4809652561
 20
272.4097919843
 30
0.0
 10
55.5500957519
 20
272.3934884981
 30
0.0
 10
55.6002032689
 20
272.3675672953
 30
0.0
 10
55.6327729252
 20
272.3402584789
 30
0.0
 10
55.6562660998
 20
272.3045648502
 30
0.0
 10
55.662195122
 20
272.2763239779
 30
0.0
 10
55.662195122
 20
272.2623537256
 30
0.0
  0
SPLINE
  5
8E0
100
AcDbEntity
  8
0
100
AcDbSpline
 62
7
  6
CONTINUOUS
 70
0
 71
3
 72
13
 73
9
 74
0
 42
0.0000001
 43
0.0000001
 44
0.0000000001
 40
0.0
 40
0.0
 40
0.0
 40
0.0
 40
0.124586701
 40
0.249402283
 40
0.3744324318
 40
0.4995958433
 40
0.7495863357
 40
1.0
 40
1.0
 40
1.0
 40
1.0
 10
54.662195122
 20
272.2623537256
 30
0.0
 10
54.662195122
 20
272.2763239729
 30
0.0
 10
54.6681241391
 20
272.3045648358
 30
0.0
 10
54.6916173003
 20
272.3402584584
 30
0.0
 10
54.724186943
 20
272.3675672729
 30
0.0
 10
54.7742944498
 20
272.393488484
 30
0.0
 10
54.8434249563
 20
272.4097919827
 30
0.0
 10
54.8995947653
 20
272.4123537256
 30
0.0
 10
54.927674334
 20
272.4123537256
 30
0.0
  0
SPLINE
  5
8E1
100
AcDbEntity
  8
0
100
AcDbSpline
 62
7
  6
CONTINUOUS
 70
0
 71
3
 72
13
 73
9
 74
0
 42
0.0000001
 43
0.0000001
 44
0.0000000001
 40
0.0
 40
0.0
 40
0.0
 40
0.0
 40
0.2504135343
 40
0.5004040091
 40
0.6255674587
 40
0.750597634
 40
0.8754132543
 40
1.0
 40
1.0
 40
1.0
 40
1.0
 10
31.5967159099
 20
272.4123537256
 30
0.0
 10
31.6247954639
 20
272.4123537256
 30
0.0
 10
31.6809652561
 20
272.4097919843
 30
0.0
 10
31.7500957519
 20
272.3934884981
 30
0.0
 10
31.8002032689
 20
272.3675672953
 30
0.0
 10
31.8327729252
 20
272.3402584789
 30
0.0
 10
31.8562660998
 20
272.3045648502
 30
0.0
 10
31.862195122
 20
272.2763239779
 30
0.0
 10
31.862195122
 20
272.2623537256
 30
0.0
  0
SPLINE
  5
8E2
100
AcDbEntity
  8
0
100
AcDbSpline
 62
7
  6
CONTINUOUS
 70
0
 71
3
 72
13
 73
9
 74
0
 42
0.0000001
 43
0.0000001
 44
0.0000000001
 40
0.0
 40
0.0
 40
0.0
 40
0.0
 40
0.124586701
 40
0.249402283
 40
0.3744324318
 40
0.4995958433
 40
0.7495863357
 40
1.0
 40
1.0
 40
1.0
 40
1.0
 10
30.862195122
 20
272.2623537256
 30
0.0
 10
30.862195122
 20
272.2763239729
 30
0.0
 10
30.8681241391
 20
272.3045648358
 30
0.0
 10
30.8916173003
 20
272.3402584584
 30
0.0
 10
30.924186943
 20
272.3675672729
 30
0.0
 10
30.9742944498
 20
272.393488484
 30
0.0
 10
31.0434249563
 20
272.4097919827
 30
0.0
 10
31.0995947653
 20
272.4123537256
 30
0.0
 10
31.127674334
 20
272.4123537256
 30
0.0
  0
ELLIPSE
  5
8E3
100
AcDbEntity
  8
00_COMPONENTS
100
AcDbEllipse
 62
7
  6
CONTINUOUS
 10
44.1080880851
 20
36.7465436982
 30
0.0
 11
0.3024689788
 21
-0.3024689788
 31
0.0
 40
0.9351131265
 41
-0.7518794143
 42
0.2466423562
  0
ELLIPSE
  5
8E4
100
AcDbEntity
  8
00_COMPONENTS
100
AcDbEllipse
 62
7
  6
CONTINUOUS
 10
44.1080880851
 20
47.0783227539
 30
0.0
 11
0.3024689788
 21
0.3024689788
 31
0.0
 40
0.9351131265
 41
-0.246977105
 42
0.7518794143
  0
ELLIPSE
  5
8E5
100
AcDbEntity
  8
00_COMPONENTS
100
AcDbEllipse
 62
7
  6
CONTINUOUS
 10
52.0271951219
 20
44.452433226
 30
0.0
 11
0.0
 21
1.175
 31
0.0
 40
1.0
 41
-4.7123889804
 42
-3.7827085585
  0
ELLIPSE
  5
8E6
100
AcDbEntity
  8
00_COMPONENTS
100
AcDbEllipse
 62
7
  6
CONTINUOUS
 10
52.0271951219
 20
44.452433226
 30
0.0
 11
1.175
 21
0.0
 31
0.0
 40
1.0
 41
2.2119122964
 42
3.1415926536
  0
ELLIPSE
  5
8E7
100
AcDbEntity
  8
00_COMPONENTS
100
AcDbEllipse
 62
7
  6
CONTINUOUS
 10
52.0271951219
 20
39.372433226
 30
0.0
 11
1.175
 21
0.0
 31
0.0
 40
1.0
 41
2.2119122964
 42
3.1415926536
  0
ELLIPSE
  5
8E8
100
AcDbEntity
  8
00_COMPONENTS
100
AcDbEllipse
 62
7
  6
CONTINUOUS
 10
52.0271951219
 20
39.372433226
 30
0.0
 11
-0.0
 21
1.175
 31
0.0
 40
1.0
 41
-4.7123889804
 42
-3.7827085585
  0
ELLIPSE
  5
8E9
100
AcDbEntity
  8
00_COMPONENTS
100
AcDbEllipse
 62
7
  6
CONTINUOUS
 10
40.9429358627
 20
39.572433226
 30
0.0
 11
1.2592592593
 21
0.0
 31
0.0
 40
0.8086898285
 41
-1.2397845987
 42
1.2397845987
  0
ELLIPSE
  5
8EA
100
AcDbEntity
  8
00_COMPONENTS
100
AcDbEllipse
 62
7
  6
CONTINUOUS
 10
39.4614543812
 20
39.572433226
 30
0.0
 11
1.2592592593
 21
0.0
 31
0.0
 40
0.8086898285
 41
1.9018080549
 42
4.3813772523
  0
ELLIPSE
  5
8EB
100
AcDbEntity
  8
00_COMPONENTS
100
AcDbEllipse
 62
7
  6
CONTINUOUS
 10
40.9429358627
 20
44.652433226
 30
0.0
 11
1.2592592593
 21
0.0
 31
0.0
 40
0.8086898285
 41
-1.2397845987
 42
1.2397845987
  0
ELLIPSE
  5
8EC
100
AcDbEntity
  8
00_COMPONENTS
100
AcDbEllipse
 62
7
  6
CONTINUOUS
 10
39.4614543812
 20
44.652433226
 30
0.0
 11
1.2592592593
 21
-0.0
 31
0.0
 40
0.8086898285
 41
8.1849933621
 42
10.6645625595
  0
ELLIPSE
  5
8ED
100
AcDbEntity
  8
00_COMPONENTS
100
AcDbEllipse
 62
7
  6
CONTINUOUS
 10
90.8772901951
 20
47.892433226
 30
0.0
 11
1.3737387097
 21
-0.0
 31
0.0
 40
0.3639702343
 41
1.1982544229
 42
1.5707963268
  0
ELLIPSE
  5
8EE
100
AcDbEntity
  8
00_COMPONENTS
100
AcDbEllipse
 62
7
  6
CONTINUOUS
 10
90.8772901951
 20
35.932433226
 30
0.0
 11
1.3737387097
 21
0.0
 31
0.0
 40
0.3639702343
 41
-1.5707963268
 42
-1.1982544252
  0
ELLIPSE
  5
8EF
100
AcDbEntity
  8
00_COMPONENTS
100
AcDbEllipse
 62
7
  6
CONTINUOUS
 10
87.2472901951
 20
39.372433226
 30
0.0
 11
2.5
 21
0.0
 31
0.0
 40
1.0
 41
1.9823131729
 42
2.6523018756
  0
ELLIPSE
  5
8F0
100
AcDbEntity
  8
00_COMPONENTS
100
AcDbEllipse
 62
7
  6
CONTINUOUS
 10
87.2472901951
 20
39.372433226
 30
0.0
 11
2.5
 21
0.0
 31
0.0
 40
1.0
 41
-2.6523018756
 42
-1.9823131729
  0
ELLIPSE
  5
8F1
100
AcDbEntity
  8
00_COMPONENTS
100
AcDbEllipse
 62
7
  6
CONTINUOUS
 10
87.2472901951
 20
44.452433226
 30
0.0
 11
2.5
 21
0.0
 31
0.0
 40
1.0
 41
-2.6523018756
 42
-1.9823131729
  0
ELLIPSE
  5
8F2
100
AcDbEntity
  8
00_COMPONENTS
100
AcDbEllipse
 62
7
  6
CONTINUOUS
 10
87.2472901951
 20
44.452433226
 30
0.0
 11
2.5
 21
0.0
 31
0.0
 40
1.0
 41
1.9823131729
 42
2.6523018756
  0
ELLIPSE
  5
8F3
100
AcDbEntity
  8
0
100
AcDbEllipse
 62
7
  6
CONTINUOUS
 10
42.6066933904
 20
251.0678554572
 30
0.0
 11
-0.3545231217
 21
0.3545231217
 31
0.0
 40
0.9972646886
 41
2.3575640181
 42
3.9256212891
  0
ELLIPSE
  5
8F4
100
AcDbEntity
  8
0
100
AcDbEllipse
 62
7
  6
CONTINUOUS
 10
39.7676968535
 20
251.0678554572
 30
0.0
 11
0.3545231217
 21
0.3545231217
 31
0.0
 40
0.9972646886
 41
2.3575640181
 42
3.9256212891
  0
ELLIPSE
  5
8F5
100
AcDbEntity
  8
0
100
AcDbEllipse
 62
7
  6
CONTINUOUS
 10
39.7676968535
 20
252.856851994
 30
0.0
 11
-0.3545231217
 21
0.3545231217
 31
0.0
 40
0.9972646886
 41
-0.7840286355
 42
0.7840286355
  0
ELLIPSE
  5
8F6
100
AcDbEntity
  8
0
100
AcDbEllipse
 62
7
  6
CONTINUOUS
 10
42.6066933904
 20
252.856851994
 30
0.0
 11
0.3545231217
 21
0.3545231217
 31
0.0
 40
0.9972646886
 41
-0.7840286355
 42
0.7840286355
  0
ELLIPSE
  5
8F7
100
AcDbEntity
  8
0
100
AcDbEllipse
 62
7
  6
CONTINUOUS
 10
44.8176968535
 20
251.0678554572
 30
0.0
 11
-0.3545231217
 21
-0.3545231217
 31
0.0
 40
0.9972646886
 41
-0.7840286355
 42
0.7840286355
  0
ELLIPSE
  5
8F8
100
AcDbEntity
  8
0
100
AcDbEllipse
 62
7
  6
CONTINUOUS
 10
44.8176968535
 20
252.856851994
 30
0.0
 11
0.3545231217
 21
-0.3545231217
 31
0.0
 40
0.9972646886
 41
2.3575640181
 42
3.9256212891
  0
ELLIPSE
  5
8F9
100
AcDbEntity
  8
0
100
AcDbEllipse
 62
7
  6
CONTINUOUS
 10
47.6566933904
 20
252.856851994
 30
0.0
 11
-0.3545231217
 21
-0.3545231217
 31
0.0
 40
0.9972646886
 41
2.3575640181
 42
3.9256212891
  0
ELLIPSE
  5
8FA
100
AcDbEntity
  8
0
100
AcDbEllipse
 62
7
  6
CONTINUOUS
 10
47.6566933904
 20
251.0678554572
 30
0.0
 11
0.3545231217
 21
-0.3545231217
 31
0.0
 40
0.9972646886
 41
-0.7840286355
 42
0.7840286355
  0
ELLIPSE
  5
8FB
100
AcDbEntity
  8
0
100
AcDbEllipse
 62
7
  6
CONTINUOUS
 10
49.912195122
 20
266.9123537256
 30
0.0
 11
0.0
 21
0.5
 31
0.0
 40
1.0
 41
-1.5707963268
 42
0.0
  0
ELLIPSE
  5
8FC
100
AcDbEntity
  8
0
100
AcDbEllipse
 62
7
  6
CONTINUOUS
 10
37.512195122
 20
266.9123537256
 30
0.0
 11
0.0
 21
0.5
 31
0.0
 40
1.0
 41
-0.0
 42
1.5707963268
  0
ELLIPSE
  5
8FD
100
AcDbEntity
  8
0
100
AcDbEllipse
 62
7
  6
CONTINUOUS
 10
37.212195122
 20
257.6123537256
 30
0.0
 11
0.2
 21
0.0
 31
0.0
 40
1.0
 41
-3.1415926536
 42
-1.5707963268
  0
ELLIPSE
  5
8FE
100
AcDbEntity
  8
0
100
AcDbEllipse
 62
7
  6
CONTINUOUS
 10
37.212195122
 20
259.7877326005
 30
0.0
 11
-0.1414213562
 21
1.1487806144
 31
0.0
 40
0.1231056256
 41
-0.7853981634
 42
0.7853981634
  0
ELLIPSE
  5
8FF
100
AcDbEntity
  8
0
100
AcDbEllipse
 62
7
  6
CONTINUOUS
 10
50.212195122
 20
259.7877326005
 30
0.0
 11
0.1414213562
 21
1.1487806144
 31
0.0
 40
0.1231056256
 41
-0.7853981634
 42
0.7853981634
  0
ELLIPSE
  5
900
100
AcDbEntity
  8
0
100
AcDbEllipse
 62
7
  6
CONTINUOUS
 10
50.212195122
 20
257.6123537256
 30
0.0
 11
0.2
 21
0.0
 31
0.0
 40
1.0
 41
-1.5707963268
 42
0.0
  0
ELLIPSE
  5
901
100
AcDbEntity
  8
0
100
AcDbEllipse
 62
7
  6
CONTINUOUS
 10
33.662195122
 20
258.2768198197
 30
0.0
 11
0.0
 21
0.7071067812
 31
0.0
 40
0.7071067812
 41
-1.5707963268
 42
0.0
  0
ELLIPSE
  5
902
100
AcDbEntity
  8
0
100
AcDbEllipse
 62
7
  6
CONTINUOUS
 10
54.712195122
 20
257.2768198197
 30
0.0
 11
0.0
 21
-0.7071067812
 31
0.0
 40
0.7071067812
 41
3.1415926536
 42
3.8069043032
  0
ELLIPSE
  5
903
100
AcDbEntity
  8
0
100
AcDbEllipse
 62
7
  6
CONTINUOUS
 10
54.712195122
 20
258.2768198197
 30
0.0
 11
0.0
 21
0.7071067812
 31
0.0
 40
0.7071067812
 41
0.0
 42
1.5707963268
  0
ELLIPSE
  5
904
100
AcDbEntity
  8
0
100
AcDbEllipse
 62
7
  6
CONTINUOUS
 10
33.662195122
 20
257.2768198197
 30
0.0
 11
0.0
 21
0.7071067812
 31
0.0
 40
0.7071067812
 41
-0.710859795
 42
-0.0
  0
ENDSEC
  0
SECTION
  2
OBJECTS
  0
DICTIONARY
  5
905
100
AcDbDictionary
  3
ACAD_GROUP
350
906
  3
ACAD_MLINESTYLE
350
907
  0
DICTIONARY
  5
906
102
{ACAD_REACTORS
330
905
102
}
100
AcDbDictionary
  0
DICTIONARY
  5
907
102
{ACAD_REACTORS
330
905
102
}
100
AcDbDictionary
  3
STANDARD
350
908
  0
MLINESTYLE
  5
908
102
{ACAD_REACTORS
330
907
102
}
100
AcDbMlineStyle
  2
STANDARD
 70
0
  3

 62
256
 51
90.0
 52
90.0
 71
2
 49
0.5
 62
256
  6
BYLAYER
 49
-0.5
 62
256
  6
BYLAYER
  0
ENDSEC
  0
EOF
