  0
SECTION
  2
HEADER
  9
$ACADVER
  1
AC1015
  9
$ACADMAINTVER
 70
     6
  9
$DWGCODEPAGE
  3
DOS932
  9
$INSBASE
 10
0.0
 20
0.0
 30
0.0
  9
$EXTMIN
 10
0.0
 20
0.0
 30
0.0
  9
$EXTMAX
 10
420.0
 20
297.0
 30
0.0
  9
$LIMMIN
 10
0.0
 20
0.0
  9
$LIMMAX
 10
0.0
 20
0.0
  9
$ORTHOMODE
 70
     0
  9
$REGENMODE
 70
     1
  9
$FILLMODE
 70
     1
  9
$QTEXTMODE
 70
     0
  9
$MIRRTEXT
 70
     1
  9
$LTSCALE
 40
1.0
  9
$ATTMODE
 70
     1
  9
$TEXTSIZE
 40
3.2
  9
$TRACEWID
 40
1.0
  9
$TEXTSTYLE
  7
Standard
  9
$CLAYER
  8
0
  9
$CELTYPE
  6
ByLayer
  9
$CECOLOR
 62
   256
  9
$CELTSCALE
 40
1.0
  9
$DISPSILH
 70
     0
  9
$DIMSCALE
 40
1.0
  9
$DIMASZ
 40
2.0
  9
$DIMEXO
 40
1.0
  9
$DIMDLI
 40
3.75
  9
$DIMRND
 40
0.0
  9
$DIMDLE
 40
0.0
  9
$DIMEXE
 40
1.0
  9
$DIMTP
 40
0.0
  9
$DIMTM
 40
0.0
  9
$DIMTXT
 40
3.2
  9
$DIMCEN
 40
2.5
  9
$DIMTSZ
 40
0.0
  9
$DIMTOL
 70
     0
  9
$DIMLIM
 70
     0
  9
$DIMTIH
 70
     1
  9
$DIMTOH
 70
     1
  9
$DIMSE1
 70
     0
  9
$DIMSE2
 70
     0
  9
$DIMTAD
 70
     1
  9
$DIMZIN
 70
     0
  9
$DIMBLK
  1

  9
$DIMASO
 70
     1
  9
$DIMSHO
 70
     1
  9
$DIMPOST
  1

  9
$DIMAPOST
  1

  9
$DIMALT
 70
     0
  9
$DIMALTD
 70
     3
  9
$DIMALTF
 40
0.0393700787
  9
$DIMLFAC
 40
1.0
  9
$DIMTOFL
 70
     1
  9
$DIMTVP
 40
0.0
  9
$DIMTIX
 70
     0
  9
$DIMSOXD
 70
     0
  9
$DIMSAH
 70
     0
  9
$DIMBLK1
  1

  9
$DIMBLK2
  1

  9
$DIMSTYLE
  2
ISO-25
  9
$DIMCLRD
 70
     0
  9
$DIMCLRE
 70
     0
  9
$DIMCLRT
 70
     0
  9
$DIMTFAC
 40
1.0
  9
$DIMGAP
 40
1.524
  9
$DIMJUST
 70
     0
  9
$DIMSD1
 70
     0
  9
$DIMSD2
 70
     0
  9
$DIMTOLJ
 70
     0
  9
$DIMTZIN
 70
     0
  9
$DIMALTZ
 70
     0
  9
$DIMALTTZ
 70
     0
  9
$DIMUPT
 70
     0
  9
$DIMDEC
 70
     2
  9
$DIMTDEC
 70
     2
  9
$DIMALTU
 70
     2
  9
$DIMALTTD
 70
     3
  9
$DIMTXSTY
  7
Standard
  9
$DIMAUNIT
 70
     0
  9
$DIMADEC
 70
     0
  9
$DIMALTRND
 40
0.0
  9
$DIMAZIN
 70
     0
  9
$DIMDSEP
 70
    44
  9
$DIMATFIT
 70
     3
  9
$DIMFRAC
 70
     0
  9
$DIMLDRBLK
  1

  9
$DIMLUNIT
 70
     2
  9
$DIMLWD
 70
    -2
  9
$DIMLWE
 70
    -2
  9
$DIMTMOVE
 70
     0
  9
$LUNITS
 70
     2
  9
$LUPREC
 70
     4
  9
$SKETCHINC
 40
1.0
  9
$FILLETRAD
 40
10.0
  9
$AUNITS
 70
     0
  9
$AUPREC
 70
     0
  9
$MENU
  1
.
  9
$ELEVATION
 40
0.0
  9
$PELEVATION
 40
0.0
  9
$THICKNESS
 40
0.0
  9
$LIMCHECK
 70
     0
  9
$CHAMFERA
 40
10.0
  9
$CHAMFERB
 40
10.0
  9
$CHAMFERC
 40
20.0
  9
$CHAMFERD
 40
0.0
  9
$SKPOLY
 70
     0
  9
$TDCREATE
 40
2455044.506580035
  9
$TDUCREATE
 40
2455044.131580035
  9
$TDUPDATE
 40
2455044.506580046
  9
$TDUUPDATE
 40
2455044.131580046
  9
$TDINDWG
 40
0.0000000116
  9
$TDUSRTIMER
 40
0.0000000116
  9
$USRTIMER
 70
     1
  9
$ANGBASE
 50
0.0
  9
$ANGDIR
 70
     0
  9
$PDMODE
 70
     0
  9
$PDSIZE
 40
-1.0
  9
$PLINEWID
 40
0.0
  9
$SPLFRAME
 70
     0
  9
$SPLINETYPE
 70
     6
  9
$SPLINESEGS
 70
     8
  9
$HANDSEED
  5
705
  9
$SURFTAB1
 70
     6
  9
$SURFTAB2
 70
     6
  9
$SURFTYPE
 70
     6
  9
$SURFU
 70
     6
  9
$SURFV
 70
     6
  9
$UCSBASE
  2

  9
$UCSNAME
  2

  9
$UCSORG
 10
0.0
 20
0.0
 30
0.0
  9
$UCSXDIR
 10
1.0
 20
0.0
 30
0.0
  9
$UCSYDIR
 10
0.0
 20
1.0
 30
0.0
  9
$UCSORTHOREF
  2

  9
$UCSORTHOVIEW
 70
     0
  9
$UCSORGTOP
 10
0.0
 20
0.0
 30
0.0
  9
$UCSORGBOTTOM
 10
0.0
 20
0.0
 30
0.0
  9
$UCSORGLEFT
 10
0.0
 20
0.0
 30
0.0
  9
$UCSORGRIGHT
 10
0.0
 20
0.0
 30
0.0
  9
$UCSORGFRONT
 10
0.0
 20
0.0
 30
0.0
  9
$UCSORGBACK
 10
0.0
 20
0.0
 30
0.0
  9
$PUCSBASE
  2

  9
$PUCSNAME
  2

  9
$PUCSORG
 10
0.0
 20
0.0
 30
0.0
  9
$PUCSXDIR
 10
1.0
 20
0.0
 30
0.0
  9
$PUCSYDIR
 10
0.0
 20
1.0
 30
0.0
  9
$PUCSORTHOREF
  2

  9
$PUCSORTHOVIEW
 70
     0
  9
$PUCSORGTOP
 10
0.0
 20
0.0
 30
0.0
  9
$PUCSORGBOTTOM
 10
0.0
 20
0.0
 30
0.0
  9
$PUCSORGLEFT
 10
0.0
 20
0.0
 30
0.0
  9
$PUCSORGRIGHT
 10
0.0
 20
0.0
 30
0.0
  9
$PUCSORGFRONT
 10
0.0
 20
0.0
 30
0.0
  9
$PUCSORGBACK
 10
0.0
 20
0.0
 30
0.0
  9
$USERI1
 70
     0
  9
$USERI2
 70
     0
  9
$USERI3
 70
     0
  9
$USERI4
 70
     0
  9
$USERI5
 70
     0
  9
$USERR1
 40
0.0
  9
$USERR2
 40
0.0
  9
$USERR3
 40
0.0
  9
$USERR4
 40
0.0
  9
$USERR5
 40
0.0
  9
$WORLDVIEW
 70
     1
  9
$SHADEDGE
 70
     3
  9
$SHADEDIF
 70
    70
  9
$TILEMODE
 70
     1
  9
$MAXACTVP
 70
    64
  9
$PINSBASE
 10
0.0
 20
0.0
 30
0.0
  9
$PLIMCHECK
 70
     0
  9
$PEXTMIN
 10
1.0000000000E+20
 20
1.0000000000E+20
 30
1.0000000000E+20
  9
$PEXTMAX
 10
-1.0000000000E+20
 20
-1.0000000000E+20
 30
-1.0000000000E+20
  9
$PLIMMIN
 10
0.0
 20
0.0
  9
$PLIMMAX
 10
420.0
 20
297.0
  9
$UNITMODE
 70
     0
  9
$VISRETAIN
 70
     1
  9
$PLINEGEN
 70
     0
  9
$PSLTSCALE
 70
     1
  9
$TREEDEPTH
 70
  3020
  9
$CMLSTYLE
  2
Standard
  9
$CMLJUST
 70
     0
  9
$CMLSCALE
 40
20.0
  9
$PROXYGRAPHICS
 70
     1
  9
$MEASUREMENT
 70
     1
  9
$CELWEIGHT
370
    -1
  9
$ENDCAPS
280
     0
  9
$JOINSTYLE
280
     0
  9
$LWDISPLAY
290
     1
  9
$INSUNITS
 70
     4
  9
$HYPERLINKBASE
  1

  9
$STYLESHEET
  1

  9
$XEDIT
290
     1
  9
$CEPSNTYPE
380
     0
  9
$PSTYLEMODE
290
     1
  9
$FINGERPRINTGUID
  2
{06DFA8EF-3031-4283-9CBC-085BB52C2096}
  9
$VERSIONGUID
  2
{FAEB1C32-E019-11D5-929B-00C0DF256EC4}
  9
$EXTNAMES
290
     1
  9
$PSVPSCALE
 40
0.0
  9
$OLESTARTUP
290
     0
  0
ENDSEC
  0
SECTION
  2
CLASSES
  0
CLASS
  1
ACDBDICTIONARYWDFLT
  2
AcDbDictionaryWithDefault
  3
ObjectDBX Classes
 90
        0
280
     0
281
     0
  0
CLASS
  1
ACDBPLACEHOLDER
  2
AcDbPlaceHolder
  3
ObjectDBX Classes
 90
        0
280
     0
281
     0
  0
CLASS
  1
LAYOUT
  2
AcDbLayout
  3
ObjectDBX Classes
 90
        0
280
     0
281
     0
  0
ENDSEC
  0
SECTION
  2
TABLES
  0
TABLE
  2
VPORT
  5
8
330
0
100
AcDbSymbolTable
 70
     1
  0
VPORT
  5
29
330
8
100
AcDbSymbolTableRecord
100
AcDbViewportTableRecord
  2
*Active
 70
     0
 10
0.0
 20
0.0
 11
1.0
 21
1.0
 12
210.0
 22
148.5
 13
0.0
 23
0.0
 14
10.0
 24
10.0
 15
10.0
 25
10.0
 16
0.0
 26
0.0
 36
1.0
 17
0.0
 27
0.0
 37
0.0
 40
297.0
 41
1.9729729729
 42
50.0
 43
0.0
 44
0.0
 50
0.0
 51
0.0
 71
     0
 72
  2000
 73
     1
 74
     3
 75
     0
 76
     0
 77
     0
 78
     0
281
     0
 65
     1
110
0.0
120
0.0
130
0.0
111
1.0
121
0.0
131
0.0
112
0.0
122
1.0
132
0.0
 79
     0
146
0.0
  0
ENDTAB
  0
TABLE
  2
LTYPE
  5
5
330
0
100
AcDbSymbolTable
 70
     6
  0
LTYPE
  5
14
330
5
100
AcDbSymbolTableRecord
100
AcDbLinetypeTableRecord
  2
ByBlock
 70
     0
  3

 72
    65
 73
     0
 40
0.0
  0
LTYPE
  5
15
330
5
100
AcDbSymbolTableRecord
100
AcDbLinetypeTableRecord
  2
ByLayer
 70
     0
  3

 72
    65
 73
     0
 40
0.0
  0
LTYPE
  5
16
330
5
100
AcDbSymbolTableRecord
100
AcDbLinetypeTableRecord
  2
Continuous
 70
     0
  3
Solid line
 72
    65
 73
     0
 40
0.0
  0
LTYPE
  5
2A
330
5
100
AcDbSymbolTableRecord
100
AcDbLinetypeTableRecord
  2
HIDDEN
 70
     0
  3
Hidden __ __ __ __ __ __ __ __ __ __ __ __ __ __
 72
    65
 73
     2
 40
1.905
 49
1.27
 74
     0
 49
-0.635
 74
     0
  0
LTYPE
  5
2B
330
5
100
AcDbSymbolTableRecord
100
AcDbLinetypeTableRecord
  2
PHANTOM
 70
     0
  3
Phantom ______  __  __  ______  __  __  ______
 72
    65
 73
     6
 40
12.7
 49
6.35
 74
     0
 49
-1.27
 74
     0
 49
1.27
 74
     0
 49
-1.27
 74
     0
 49
1.27
 74
     0
 49
-1.27
 74
     0
  0
LTYPE
  5
2C
330
5
100
AcDbSymbolTableRecord
100
AcDbLinetypeTableRecord
  2
CENTER
 70
     0
  3
Center ____ _ ____ _ ____ _ ____ _ ____ _ ____
 72
    65
 73
     4
 40
10.16
 49
6.35
 74
     0
 49
-1.27
 74
     0
 49
1.27
 74
     0
 49
-1.27
 74
     0
  0
LTYPE
  5
2D
330
5
100
AcDbSymbolTableRecord
100
AcDbLinetypeTableRecord
  2
CENTERX2
 70
     0
  3
Center (2x) ________  __  ________  __  _____
 72
    65
 73
     4
 40
20.32
 49
12.7
 74
     0
 49
-2.54
 74
     0
 49
2.54
 74
     0
 49
-2.54
 74
     0
  0
LTYPE
  5
2E
330
5
100
AcDbSymbolTableRecord
100
AcDbLinetypeTableRecord
  2
DOT2
 70
     0
  3
Dot (.5x) ........................................
 72
    65
 73
     2
 40
0.635
 49
0.0
 74
     0
 49
-0.635
 74
     0
  0
ENDTAB
  0
TABLE
  2
LAYER
  5
2
330
0
100
AcDbSymbolTable
 70
     2
  0
LAYER
  5
10
330
2
100
AcDbSymbolTableRecord
100
AcDbLayerTableRecord
  2
0
 70
     0
 62
     7
  6
Continuous
370
    -3
390
F
  0
LAYER
  5
1BA
330
2
100
AcDbSymbolTableRecord
100
AcDbLayerTableRecord
  2
Defpoints
 70
     0
 62
     7
  6
Continuous
290
     0
370
    -3
390
F
  0
ENDTAB
  0
TABLE
  2
STYLE
  5
3
330
0
100
AcDbSymbolTable
 70
     2
  0
STYLE
  5
11
330
3
100
AcDbSymbolTableRecord
100
AcDbTextStyleTableRecord
  2
Standard
 70
     0
 40
0.0
 41
1.0
 50
0.0
 71
     0
 42
2.5
  3
txt
  4
bigfont
  0
STYLE
  5
1C8
330
3
100
AcDbSymbolTableRecord
100
AcDbTextStyleTableRecord
  2
SLDTEXTSTYLE0
 70
     0
 40
0.0
 41
0.7
 50
0.0
 71
     0
 42
0.2
  3
TXT
  4
bigfont
  0
ENDTAB
  0
TABLE
  2
VIEW
  5
6
330
0
100
AcDbSymbolTable
 70
     0
  0
ENDTAB
  0
TABLE
  2
UCS
  5
7
330
0
100
AcDbSymbolTable
 70
     0
  0
ENDTAB
  0
TABLE
  2
APPID
  5
9
330
0
100
AcDbSymbolTable
 70
     1
  0
APPID
  5
12
330
9
100
AcDbSymbolTableRecord
100
AcDbRegAppTableRecord
  2
ACAD
 70
     0
  0
ENDTAB
  0
TABLE
  2
DIMSTYLE
  5
A
330
0
100
AcDbSymbolTable
 70
     6
100
AcDbDimStyleTable
  0
DIMSTYLE
105
27
330
A
100
AcDbSymbolTableRecord
100
AcDbDimStyleTableRecord
  2
ISO-25
 70
     0
 41
2.5
 42
0.625
 43
3.75
 44
1.25
 73
     0
 74
     0
 77
     1
 78
     8
140
2.5
141
2.5
143
0.0393700787
147
0.625
171
     3
172
     1
271
     2
272
     2
274
     3
278
    44
283
     0
284
     8
340
11
  0
DIMSTYLE
105
1C9
102
{ACAD_REACTORS
330
1B9
330
1D6
330
1EA
330
1FD
330
214
330
22C
330
240
330
28A
330
2A1
330
3E1
330
3F4
330
43B
102
}
330
A
100
AcDbSymbolTableRecord
100
AcDbDimStyleTableRecord
  2
SLDDIMSTYLE0
 70
     0
 41
2.0
 44
0.0
 73
     0
 74
     0
 77
     3
 78
    12
140
3.2
147
0.8
173
     1
272
     2
284
    12
340
1C8
341
1CA
343
1CA
344
1CA
  0
DIMSTYLE
105
267
102
{ACAD_REACTORS
330
257
102
}
330
A
100
AcDbSymbolTableRecord
100
AcDbDimStyleTableRecord
  2
SLDDIMSTYLE1
 70
     0
 41
2.0
 44
0.0
 73
     0
 74
     0
 77
     3
 78
    12
140
3.2
147
0.8
173
     1
271
     1
272
     2
284
    12
340
1C8
341
1CA
343
1CA
344
1CA
  0
DIMSTYLE
105
282
102
{ACAD_REACTORS
330
272
102
}
330
A
100
AcDbSymbolTableRecord
100
AcDbDimStyleTableRecord
  2
SLDDIMSTYLE2
 70
     0
 41
2.0
 44
0.0
 73
     0
 74
     0
 77
     3
 78
     8
140
3.2
147
0.8
173
     1
272
     2
284
    12
340
1C8
341
1CA
343
1CA
344
1CA
  0
DIMSTYLE
105
2BB
330
A
100
AcDbSymbolTableRecord
100
AcDbDimStyleTableRecord
  2
SLDDIMSTYLE3
 70
     0
 41
2.0
 44
0.0
140
2.0
147
0.5
173
     1
271
     0
272
     0
340
11
341
1CA
343
1CA
344
1CA
  0
DIMSTYLE
105
419
102
{ACAD_REACTORS
330
40C
330
422
102
}
330
A
100
AcDbSymbolTableRecord
100
AcDbDimStyleTableRecord
  2
SLDDIMSTYLE4
 70
     0
 41
2.0
 44
0.0
 73
     0
 74
     0
 77
     3
 78
    12
140
3.2
147
0.8
173
     1
271
     2
272
     2
284
    12
340
1C8
341
1CA
343
1CA
344
1CA
  0
ENDTAB
  0
TABLE
  2
BLOCK_RECORD
  5
1
330
0
100
AcDbSymbolTable
 70
    25
  0
BLOCK_RECORD
  5
1F
330
1
100
AcDbSymbolTableRecord
100
AcDbBlockTableRecord
  2
*Model_Space
340
22
  0
BLOCK_RECORD
  5
1B
330
1
100
AcDbSymbolTableRecord
100
AcDbBlockTableRecord
  2
*Paper_Space
340
1E
  0
BLOCK_RECORD
  5
23
330
1
100
AcDbSymbolTableRecord
100
AcDbBlockTableRecord
  2
*Paper_Space0
340
26
  0
BLOCK_RECORD
  5
1BB
330
1
100
AcDbSymbolTableRecord
100
AcDbBlockTableRecord
  2
*D1
340
0
  0
BLOCK_RECORD
  5
1CA
330
1
100
AcDbSymbolTableRecord
100
AcDbBlockTableRecord
  2
_Open30
340
0
102
{BLKREFS
331
1C0
331
1BF
331
1D0
331
1D1
331
1DC
331
1DB
331
1E4
331
1E5
331
1F0
331
1EF
331
1F7
331
1F8
331
204
331
203
331
20C
331
20D
331
21B
331
21A
331
224
331
225
331
232
331
231
331
23A
331
23B
331
247
331
246
331
24F
331
250
331
25E
331
25D
331
268
331
269
331
279
331
278
331
283
331
284
331
291
331
290
331
29A
331
29B
331
2A7
331
2A6
331
2AF
331
2B0
331
3E7
331
3E6
331
3EE
331
3EF
331
3FB
331
3FA
331
404
331
405
331
412
331
411
331
41A
331
41B
331
429
331
428
331
431
331
432
331
442
331
441
331
44B
331
44C
102
}
  0
BLOCK_RECORD
  5
1D7
330
1
100
AcDbSymbolTableRecord
100
AcDbBlockTableRecord
  2
*D3
340
0
  0
BLOCK_RECORD
  5
1EB
330
1
100
AcDbSymbolTableRecord
100
AcDbBlockTableRecord
  2
*D4
340
0
  0
BLOCK_RECORD
  5
1FE
330
1
100
AcDbSymbolTableRecord
100
AcDbBlockTableRecord
  2
*D5
340
0
  0
BLOCK_RECORD
  5
215
330
1
100
AcDbSymbolTableRecord
100
AcDbBlockTableRecord
  2
*D6
340
0
  0
BLOCK_RECORD
  5
22D
330
1
100
AcDbSymbolTableRecord
100
AcDbBlockTableRecord
  2
*D7
340
0
  0
BLOCK_RECORD
  5
241
330
1
100
AcDbSymbolTableRecord
100
AcDbBlockTableRecord
  2
*D8
340
0
  0
BLOCK_RECORD
  5
258
330
1
100
AcDbSymbolTableRecord
100
AcDbBlockTableRecord
  2
*D9
340
0
  0
BLOCK_RECORD
  5
273
330
1
100
AcDbSymbolTableRecord
100
AcDbBlockTableRecord
  2
*D10
340
0
  0
BLOCK_RECORD
  5
28B
330
1
100
AcDbSymbolTableRecord
100
AcDbBlockTableRecord
  2
*D11
340
0
  0
BLOCK_RECORD
  5
2A2
330
1
100
AcDbSymbolTableRecord
100
AcDbBlockTableRecord
  2
*D12
340
0
  0
BLOCK_RECORD
  5
2B5
330
1
100
AcDbSymbolTableRecord
100
AcDbBlockTableRecord
  2
SW_NOTE_0
340
0
102
{BLKREFS
331
2BA
102
}
  0
BLOCK_RECORD
  5
2BD
330
1
100
AcDbSymbolTableRecord
100
AcDbBlockTableRecord
  2
SW_NOTE_1
340
0
102
{BLKREFS
331
2C2
102
}
  0
BLOCK_RECORD
  5
2C4
330
1
100
AcDbSymbolTableRecord
100
AcDbBlockTableRecord
  2
SW_NOTE_2
340
0
102
{BLKREFS
331
2C9
102
}
  0
BLOCK_RECORD
  5
2CB
330
1
100
AcDbSymbolTableRecord
100
AcDbBlockTableRecord
  2
SW_NOTE_3
340
0
102
{BLKREFS
331
2D0
102
}
  0
BLOCK_RECORD
  5
2D2
330
1
100
AcDbSymbolTableRecord
100
AcDbBlockTableRecord
  2
SW_NOTE_4
340
0
102
{BLKREFS
331
2D7
102
}
  0
BLOCK_RECORD
  5
2D9
330
1
100
AcDbSymbolTableRecord
100
AcDbBlockTableRecord
  2
SW_CENTERMARKSYMBOL_0
340
0
102
{BLKREFS
331
2E4
102
}
  0
BLOCK_RECORD
  5
2E5
330
1
100
AcDbSymbolTableRecord
100
AcDbBlockTableRecord
  2
SW_CENTERMARKSYMBOL_1
340
0
102
{BLKREFS
331
2F0
102
}
  0
BLOCK_RECORD
  5
3E2
330
1
100
AcDbSymbolTableRecord
100
AcDbBlockTableRecord
  2
*D20
340
0
  0
BLOCK_RECORD
  5
3F5
330
1
100
AcDbSymbolTableRecord
100
AcDbBlockTableRecord
  2
*D21
340
0
  0
BLOCK_RECORD
  5
40D
330
1
100
AcDbSymbolTableRecord
100
AcDbBlockTableRecord
  2
*D22
340
0
  0
BLOCK_RECORD
  5
423
330
1
100
AcDbSymbolTableRecord
100
AcDbBlockTableRecord
  2
*D23
340
0
  0
BLOCK_RECORD
  5
43C
330
1
100
AcDbSymbolTableRecord
100
AcDbBlockTableRecord
  2
*D24
340
0
  0
ENDTAB
  0
ENDSEC
  0
SECTION
  2
BLOCKS
  0
BLOCK
  5
20
330
1F
100
AcDbEntity
  8
0
100
AcDbBlockBegin
  2
*Model_Space
 70
     0
 71
     0
 10
0.0
 20
0.0
 30
0.0
  3
*Model_Space
  1

  0
ENDBLK
  5
21
330
1F
100
AcDbEntity
  8
0
100
AcDbBlockEnd
  0
BLOCK
  5
1C
330
1B
100
AcDbEntity
 67
     1
  8
0
100
AcDbBlockBegin
  2
*Paper_Space
 70
     0
 71
     0
 10
0.0
 20
0.0
 30
0.0
  3
*Paper_Space
  1

  0
ENDBLK
  5
1D
330
1B
100
AcDbEntity
 67
     1
  8
0
100
AcDbBlockEnd
  0
BLOCK
  5
24
330
23
100
AcDbEntity
  8
0
100
AcDbBlockBegin
  2
*Paper_Space0
 70
     0
 71
     0
 10
0.0
 20
0.0
 30
0.0
  3
*Paper_Space0
  1

  0
ENDBLK
  5
25
330
23
100
AcDbEntity
  8
0
100
AcDbBlockEnd
  0
BLOCK
  5
1C6
330
1BB
100
AcDbEntity
  8
0
100
AcDbBlockBegin
  2
*D1
 70
     1
 71
     0
 10
0.0
 20
0.0
 30
0.0
  3
*D1
  1

  0
INSERT
  5
1D0
330
1BB
100
AcDbEntity
  8
0
  6
Continuous
 62
     7
370
     0
100
AcDbBlockReference
  2
_Open30
 10
171.2199876822
 20
87.2895201342
 30
5.6
 41
2.0
 42
2.0
 50
270.0
  0
INSERT
  5
1D1
330
1BB
100
AcDbEntity
  8
0
  6
Continuous
 62
     7
370
     0
100
AcDbBlockReference
  2
_Open30
 10
171.2199876822
 20
185.2895201342
 30
5.6
 41
2.0
 42
2.0
 50
90.0
  0
LINE
  5
1D2
330
1BB
100
AcDbEntity
  8
0
  6
Continuous
 62
     7
370
     0
100
AcDbLine
 10
136.1976652105
 20
87.2895201342
 30
0.0
 11
172.2199876822
 21
87.2895201342
 31
0.0
  0
LINE
  5
1D3
330
1BB
100
AcDbEntity
  8
0
  6
Continuous
 62
     7
370
     0
100
AcDbLine
 10
136.1976652105
 20
185.2895201342
 30
0.0
 11
172.2199876822
 21
185.2895201342
 31
0.0
  0
LINE
  5
1D4
330
1BB
100
AcDbEntity
  8
0
  6
Continuous
 62
     7
370
     0
100
AcDbLine
 10
171.2199876822
 20
87.2895201342
 30
0.0
 11
171.2199876822
 21
185.2895201342
 31
0.0
  0
MTEXT
  5
1D5
330
1BB
100
AcDbEntity
  8
0
  6
Continuous
 62
     7
370
     0
100
AcDbMText
 10
167.4963512604
 20
134.429189859
 30
0.0
 40
3.2
 41
0.0
 71
     1
 72
     1
  1
98
  7
SLDTEXTSTYLE0
 11
6.123031769111886E-17
 21
1.0
 31
0.0
 73
     1
 44
1.0
  0
ENDBLK
  5
1C7
330
1BB
100
AcDbEntity
  8
0
100
AcDbBlockEnd
  0
BLOCK
  5
1CB
330
1CA
100
AcDbEntity
  8
0
100
AcDbBlockBegin
  2
_Open30
 70
     0
 71
     0
 10
0.0
 20
0.0
 30
0.0
  3
_Open30
  1

  0
LINE
  5
1CD
330
1CA
100
AcDbEntity
  8
0
  6
ByBlock
 62
     0
370
    -2
100
AcDbLine
 10
-1.0
 20
0.267949
 30
0.0
 11
0.0
 21
0.0
 31
0.0
  0
LINE
  5
1CE
330
1CA
100
AcDbEntity
  8
0
  6
ByBlock
 62
     0
370
    -2
100
AcDbLine
 10
0.0
 20
0.0
 30
0.0
 11
-1.0
 21
-0.267949
 31
0.0
  0
LINE
  5
1CF
330
1CA
100
AcDbEntity
  8
0
  6
ByBlock
 62
     0
370
    -2
100
AcDbLine
 10
0.0
 20
0.0
 30
0.0
 11
-1.0
 21
0.0
 31
0.0
  0
ENDBLK
  5
1CC
330
1CA
100
AcDbEntity
  8
0
100
AcDbBlockEnd
  0
BLOCK
  5
1E2
330
1D7
100
AcDbEntity
  8
0
100
AcDbBlockBegin
  2
*D3
 70
     1
 71
     0
 10
0.0
 20
0.0
 30
0.0
  3
*D3
  1

  0
INSERT
  5
1E4
330
1D7
100
AcDbEntity
  8
0
  6
Continuous
 62
     7
370
     0
100
AcDbBlockReference
  2
_Open30
 10
148.7018971052
 20
100.4895201342
 30
5.6
 41
2.0
 42
2.0
 50
90.0
  0
INSERT
  5
1E5
330
1D7
100
AcDbEntity
  8
0
  6
Continuous
 62
     7
370
     0
100
AcDbBlockReference
  2
_Open30
 10
148.7018971052
 20
87.2895201342
 30
5.6
 41
2.0
 42
2.0
 50
270.0
  0
LINE
  5
1E6
330
1D7
100
AcDbEntity
  8
0
  6
Continuous
 62
     7
370
     0
100
AcDbLine
 10
131.0976652105
 20
100.4895201342
 30
0.0
 11
149.7018971052
 21
100.4895201342
 31
0.0
  0
LINE
  5
1E7
330
1D7
100
AcDbEntity
  8
0
  6
Continuous
 62
     7
370
     0
100
AcDbLine
 10
136.1976652105
 20
87.2895201342
 30
0.0
 11
149.7018971052
 21
87.2895201342
 31
0.0
  0
LINE
  5
1E8
330
1D7
100
AcDbEntity
  8
0
  6
Continuous
 62
     7
370
     0
100
AcDbLine
 10
148.7018971052
 20
100.4895201342
 30
0.0
 11
148.7018971052
 21
87.2895201342
 31
0.0
  0
MTEXT
  5
1E9
330
1D7
100
AcDbEntity
  8
0
  6
Continuous
 62
     7
370
     0
100
AcDbMText
 10
144.9782606834
 20
90.1666760975
 30
0.0
 40
3.2
 41
0.0
 71
     1
 72
     1
  1
13.2
  7
SLDTEXTSTYLE0
 11
-7.044197039909883E-15
 21
1.0
 31
0.0
 73
     1
 44
1.0
  0
ENDBLK
  5
1E3
330
1D7
100
AcDbEntity
  8
0
100
AcDbBlockEnd
  0
BLOCK
  5
1F5
330
1EB
100
AcDbEntity
  8
0
100
AcDbBlockBegin
  2
*D4
 70
     1
 71
     0
 10
0.0
 20
0.0
 30
0.0
  3
*D4
  1

  0
INSERT
  5
1F7
330
1EB
100
AcDbEntity
  8
0
  6
Continuous
 62
     7
370
     0
100
AcDbBlockReference
  2
_Open30
 10
108.4976652105
 20
61.571829048
 30
5.6
 41
2.0
 42
2.0
 50
180.0
  0
INSERT
  5
1F8
330
1EB
100
AcDbEntity
  8
0
  6
Continuous
 62
     7
370
     0
100
AcDbBlockReference
  2
_Open30
 10
135.8976652105
 20
61.571829048
 30
5.6
 41
2.0
 42
2.0
 50
360.0
  0
LINE
  5
1F9
330
1EB
100
AcDbEntity
  8
0
  6
Continuous
 62
     7
370
     0
100
AcDbLine
 10
108.4976652105
 20
86.9895201342
 30
0.0
 11
108.4976652105
 21
60.571829048
 31
0.0
  0
LINE
  5
1FA
330
1EB
100
AcDbEntity
  8
0
  6
Continuous
 62
     7
370
     0
100
AcDbLine
 10
135.8976652105
 20
86.9895201342
 30
0.0
 11
135.8976652105
 21
60.571829048
 31
0.0
  0
LINE
  5
1FB
330
1EB
100
AcDbEntity
  8
0
  6
Continuous
 62
     7
370
     0
100
AcDbLine
 10
108.4976652105
 20
61.571829048
 30
0.0
 11
135.8976652105
 21
61.571829048
 31
0.0
  0
MTEXT
  5
1FC
330
1EB
100
AcDbEntity
  8
0
  6
Continuous
 62
     7
370
     0
100
AcDbMText
 10
118.4748211738
 20
65.2954654699
 30
0.0
 40
3.2
 41
0.0
 71
     1
 72
     1
  1
27.4
  7
SLDTEXTSTYLE0
 73
     1
 44
1.0
  0
ENDBLK
  5
1F6
330
1EB
100
AcDbEntity
  8
0
100
AcDbBlockEnd
  0
BLOCK
  5
20A
330
1FE
100
AcDbEntity
  8
0
100
AcDbBlockBegin
  2
*D5
 70
     1
 71
     0
 10
0.0
 20
0.0
 30
0.0
  3
*D5
  1

  0
INSERT
  5
20C
330
1FE
100
AcDbEntity
  8
0
  6
Continuous
 62
     7
370
     0
100
AcDbBlockReference
  2
_Open30
 10
171.2199876822
 20
85.2895201342
 30
5.6
 41
2.0
 42
2.0
 50
90.0
  0
INSERT
  5
20D
330
1FE
100
AcDbEntity
  8
0
  6
Continuous
 62
     7
370
     0
100
AcDbBlockReference
  2
_Open30
 10
171.2199876822
 20
87.2895201342
 30
5.6
 41
2.0
 42
2.0
 50
270.0
  0
LINE
  5
20E
330
1FE
100
AcDbEntity
  8
0
  6
Continuous
 62
     7
370
     0
100
AcDbLine
 10
131.9976652105
 20
85.2895201342
 30
0.0
 11
172.2199876822
 21
85.2895201342
 31
0.0
  0
LINE
  5
20F
330
1FE
100
AcDbEntity
  8
0
  6
Continuous
 62
     7
370
     0
100
AcDbLine
 10
136.1976652105
 20
87.2895201342
 30
0.0
 11
172.2199876822
 21
87.2895201342
 31
0.0
  0
LINE
  5
210
330
1FE
100
AcDbEntity
  8
0
  6
Continuous
 62
     7
370
     0
100
AcDbLine
 10
171.2199876822
 20
85.2895201342
 30
0.0
 11
171.2199876822
 21
78.9922948338
 31
0.0
  0
LINE
  5
211
330
1FE
100
AcDbEntity
  8
0
  6
Continuous
 62
     7
370
     0
100
AcDbLine
 10
171.2199876822
 20
85.2895201342
 30
0.0
 11
171.2199876822
 21
87.2895201342
 31
0.0
  0
LINE
  5
212
330
1FE
100
AcDbEntity
  8
0
  6
Continuous
 62
     7
370
     0
100
AcDbLine
 10
171.2199876822
 20
87.2895201342
 30
0.0
 11
171.2199876822
 21
91.2895201342
 31
0.0
  0
MTEXT
  5
213
330
1FE
100
AcDbEntity
  8
0
  6
Continuous
 62
     7
370
     0
100
AcDbMText
 10
167.4963512604
 20
80.5797948338
 30
0.0
 40
3.2
 41
0.0
 71
     1
 72
     1
  1
2
  7
SLDTEXTSTYLE0
 11
6.123031769111886E-17
 21
1.0
 31
0.0
 73
     1
 44
1.0
  0
ENDBLK
  5
20B
330
1FE
100
AcDbEntity
  8
0
100
AcDbBlockEnd
  0
BLOCK
  5
222
330
215
100
AcDbEntity
  8
0
100
AcDbBlockBegin
  2
*D6
 70
     1
 71
     0
 10
0.0
 20
0.0
 30
0.0
  3
*D6
  1

  0
INSERT
  5
224
330
215
100
AcDbEntity
  8
0
  6
Continuous
 62
     7
370
     0
100
AcDbBlockReference
  2
_Open30
 10
126.5976652105
 20
199.7207864503
 30
5.6
 41
2.0
 42
2.0
 50
180.0
  0
INSERT
  5
225
330
215
100
AcDbEntity
  8
0
  6
Continuous
 62
     7
370
     0
100
AcDbBlockReference
  2
_Open30
 10
122.1976652105
 20
199.7207864503
 30
5.6
 41
2.0
 42
2.0
 50
360.0
  0
LINE
  5
226
330
215
100
AcDbEntity
  8
0
  6
Continuous
 62
     7
370
     0
100
AcDbLine
 10
126.5976652105
 20
168.7895201342
 30
0.0
 11
126.5976652105
 21
200.7207864503
 31
0.0
  0
LINE
  5
227
330
215
100
AcDbEntity
  8
0
  6
Continuous
 62
     7
370
     0
100
AcDbLine
 10
122.1976652105
 20
193.5356588416
 30
0.0
 11
122.1976652105
 21
200.7207864503
 31
0.0
  0
LINE
  5
228
330
215
100
AcDbEntity
  8
0
  6
Continuous
 62
     7
370
     0
100
AcDbLine
 10
126.5976652105
 20
199.7207864503
 30
0.0
 11
136.9650968173
 21
199.7207864503
 31
0.0
  0
LINE
  5
229
330
215
100
AcDbEntity
  8
0
  6
Continuous
 62
     7
370
     0
100
AcDbLine
 10
126.5976652105
 20
199.7207864503
 30
0.0
 11
122.1976652105
 21
199.7207864503
 31
0.0
  0
LINE
  5
22A
330
215
100
AcDbEntity
  8
0
  6
Continuous
 62
     7
370
     0
100
AcDbLine
 10
122.1976652105
 20
199.7207864503
 30
0.0
 11
118.1976652105
 21
199.7207864503
 31
0.0
  0
MTEXT
  5
22B
330
215
100
AcDbEntity
  8
0
  6
Continuous
 62
     7
370
     0
100
AcDbMText
 10
129.7922390192
 20
203.4444228722
 30
0.0
 40
3.2
 41
0.0
 71
     1
 72
     1
  1
4.4
  7
SLDTEXTSTYLE0
 73
     1
 44
1.0
  0
ENDBLK
  5
223
330
215
100
AcDbEntity
  8
0
100
AcDbBlockEnd
  0
BLOCK
  5
238
330
22D
100
AcDbEntity
  8
0
100
AcDbBlockBegin
  2
*D7
 70
     1
 71
     0
 10
0.0
 20
0.0
 30
0.0
  3
*D7
  1

  0
INSERT
  5
23A
330
22D
100
AcDbEntity
  8
0
  6
Continuous
 62
     7
370
     0
100
AcDbBlockReference
  2
_Open30
 10
163.3290173801
 20
163.2895201342
 30
5.6
 41
2.0
 42
2.0
 50
90.0
  0
INSERT
  5
23B
330
22D
100
AcDbEntity
  8
0
  6
Continuous
 62
     7
370
     0
100
AcDbBlockReference
  2
_Open30
 10
163.3290173801
 20
87.2895201342
 30
5.6
 41
2.0
 42
2.0
 50
270.0
  0
LINE
  5
23C
330
22D
100
AcDbEntity
  8
0
  6
Continuous
 62
     7
370
     0
100
AcDbLine
 10
132.0976652105
 20
163.2895201342
 30
0.0
 11
164.3290173801
 21
163.2895201342
 31
0.0
  0
LINE
  5
23D
330
22D
100
AcDbEntity
  8
0
  6
Continuous
 62
     7
370
     0
100
AcDbLine
 10
136.1976652105
 20
87.2895201342
 30
0.0
 11
164.3290173801
 21
87.2895201342
 31
0.0
  0
LINE
  5
23E
330
22D
100
AcDbEntity
  8
0
  6
Continuous
 62
     7
370
     0
100
AcDbLine
 10
163.3290173801
 20
163.2895201342
 30
0.0
 11
163.3290173801
 21
87.2895201342
 31
0.0
  0
MTEXT
  5
23F
330
22D
100
AcDbEntity
  8
0
  6
Continuous
 62
     7
370
     0
100
AcDbMText
 10
159.6053809583
 20
123.429189859
 30
0.0
 40
3.2
 41
0.0
 71
     1
 72
     1
  1
76
  7
SLDTEXTSTYLE0
 11
-7.044197039909883E-15
 21
1.0
 31
0.0
 73
     1
 44
1.0
  0
ENDBLK
  5
239
330
22D
100
AcDbEntity
  8
0
100
AcDbBlockEnd
  0
BLOCK
  5
24D
330
241
100
AcDbEntity
  8
0
100
AcDbBlockBegin
  2
*D8
 70
     1
 71
     0
 10
0.0
 20
0.0
 30
0.0
  3
*D8
  1

  0
INSERT
  5
24F
330
241
100
AcDbEntity
  8
0
  6
Continuous
 62
     7
370
     0
100
AcDbBlockReference
  2
_Open30
 10
171.2199876822
 20
185.2895201342
 30
5.6
 41
2.0
 42
2.0
 50
90.0
  0
INSERT
  5
250
330
241
100
AcDbEntity
  8
0
  6
Continuous
 62
     7
370
     0
100
AcDbBlockReference
  2
_Open30
 10
171.2199876822
 20
187.2895201342
 30
5.6
 41
2.0
 42
2.0
 50
270.0
  0
LINE
  5
251
330
241
100
AcDbEntity
  8
0
  6
Continuous
 62
     7
370
     0
100
AcDbLine
 10
136.1976652105
 20
185.2895201342
 30
0.0
 11
172.2199876822
 21
185.2895201342
 31
0.0
  0
LINE
  5
252
330
241
100
AcDbEntity
  8
0
  6
Continuous
 62
     7
370
     0
100
AcDbLine
 10
128.7976652105
 20
187.2895201342
 30
0.0
 11
172.2199876822
 21
187.2895201342
 31
0.0
  0
LINE
  5
253
330
241
100
AcDbEntity
  8
0
  6
Continuous
 62
     7
370
     0
100
AcDbLine
 10
171.2199876822
 20
185.2895201342
 30
0.0
 11
171.2199876822
 21
181.2895201342
 31
0.0
  0
LINE
  5
254
330
241
100
AcDbEntity
  8
0
  6
Continuous
 62
     7
370
     0
100
AcDbLine
 10
171.2199876822
 20
185.2895201342
 30
0.0
 11
171.2199876822
 21
187.2895201342
 31
0.0
  0
LINE
  5
255
330
241
100
AcDbEntity
  8
0
  6
Continuous
 62
     7
370
     0
100
AcDbLine
 10
171.2199876822
 20
187.2895201342
 30
0.0
 11
171.2199876822
 21
193.5244612085
 31
0.0
  0
MTEXT
  5
256
330
241
100
AcDbEntity
  8
0
  6
Continuous
 62
     7
370
     0
100
AcDbMText
 10
167.4963512604
 20
190.0766309333
 30
0.0
 40
3.2
 41
0.0
 71
     1
 72
     1
  1
2
  7
SLDTEXTSTYLE0
 11
6.123031769111886E-17
 21
1.0
 31
0.0
 73
     1
 44
1.0
  0
ENDBLK
  5
24E
330
241
100
AcDbEntity
  8
0
100
AcDbBlockEnd
  0
BLOCK
  5
265
330
258
100
AcDbEntity
  8
0
100
AcDbBlockBegin
  2
*D9
 70
     1
 71
     0
 10
0.0
 20
0.0
 30
0.0
  3
*D9
  1

  0
INSERT
  5
268
330
258
100
AcDbEntity
  8
0
  6
Continuous
 62
     7
370
     0
100
AcDbBlockReference
  2
_Open30
 10
119.6476652105
 20
68.5579529107
 30
5.6
 41
2.0
 42
2.0
 50
360.0
  0
INSERT
  5
269
330
258
100
AcDbEntity
  8
0
  6
Continuous
 62
     7
370
     0
100
AcDbBlockReference
  2
_Open30
 10
122.1976652105
 20
68.5579529107
 30
5.6
 41
2.0
 42
2.0
 50
180.0
  0
LINE
  5
26A
330
258
100
AcDbEntity
  8
0
  6
Continuous
 62
     7
370
     0
100
AcDbLine
 10
119.6476652105
 20
79.2895201342
 30
0.0
 11
119.6476652105
 21
67.5579529107
 31
0.0
  0
LINE
  5
26B
330
258
100
AcDbEntity
  8
0
  6
Continuous
 62
     7
370
     0
100
AcDbLine
 10
122.1976652105
 20
76.1708171675
 30
0.0
 11
122.1976652105
 21
67.5579529107
 31
0.0
  0
LINE
  5
26C
330
258
100
AcDbEntity
  8
0
  6
Continuous
 62
     7
370
     0
100
AcDbLine
 10
119.6476652105
 20
68.5579529107
 30
0.0
 11
115.6476652105
 21
68.5579529107
 31
0.0
  0
LINE
  5
26D
330
258
100
AcDbEntity
  8
0
  6
Continuous
 62
     7
370
     0
100
AcDbLine
 10
119.6476652105
 20
68.5579529107
 30
0.0
 11
122.1976652105
 21
68.5579529107
 31
0.0
  0
LINE
  5
26E
330
258
100
AcDbEntity
  8
0
  6
Continuous
 62
     7
370
     0
100
AcDbLine
 10
122.1976652105
 20
68.5579529107
 30
0.0
 11
135.6359917248
 21
68.5579529107
 31
0.0
  0
MTEXT
  5
26F
330
258
100
AcDbEntity
  8
0
  6
Continuous
 62
     7
370
     0
100
AcDbMText
 10
124.7424733761
 20
72.2815893325
 30
0.0
 40
3.2
 41
0.0
 71
     1
 72
     1
  1
(
  7
SLDTEXTSTYLE0
 73
     1
 44
1.0
  0
MTEXT
  5
270
330
258
100
AcDbEntity
  8
0
  6
Continuous
 62
     7
370
     0
100
AcDbMText
 10
126.6028036514
 20
72.2815893325
 30
0.0
 40
3.2
 41
0.0
 71
     1
 72
     1
  1
2.6
  7
SLDTEXTSTYLE0
 73
     1
 44
1.0
  0
MTEXT
  5
271
330
258
100
AcDbEntity
  8
0
  6
Continuous
 62
     7
370
     0
100
AcDbMText
 10
132.1881614495
 20
72.2815893325
 30
0.0
 40
3.2
 41
0.0
 71
     1
 72
     1
  1
)
  7
SLDTEXTSTYLE0
 73
     1
 44
1.0
  0
ENDBLK
  5
266
330
258
100
AcDbEntity
  8
0
100
AcDbBlockEnd
  0
BLOCK
  5
280
330
273
100
AcDbEntity
  8
0
100
AcDbBlockBegin
  2
*D10
 70
     1
 71
     0
 10
0.0
 20
0.0
 30
0.0
  3
*D10
  1

  0
INSERT
  5
283
330
273
100
AcDbEntity
  8
0
  6
Continuous
 62
     7
370
     0
100
AcDbBlockReference
  2
_Open30
 10
122.0976652105
 20
112.4344458076
 30
5.6
 41
2.0
 42
2.0
 50
360.0
  0
INSERT
  5
284
330
273
100
AcDbEntity
  8
0
  6
Continuous
 62
     7
370
     0
100
AcDbBlockReference
  2
_Open30
 10
122.1976652105
 20
112.4344458076
 30
5.6
 41
2.0
 42
2.0
 50
180.0
  0
LINE
  5
285
330
273
100
AcDbEntity
  8
0
  6
Continuous
 62
     7
370
     0
100
AcDbLine
 10
122.0976652105
 20
113.2290510162
 30
0.0
 11
122.0976652105
 21
113.4344458076
 31
0.0
  0
LINE
  5
286
330
273
100
AcDbEntity
  8
0
  6
Continuous
 62
     7
370
     0
100
AcDbLine
 10
122.0976652105
 20
112.4344458076
 30
0.0
 11
109.6080065862
 21
112.4344458076
 31
0.0
  0
LINE
  5
287
330
273
100
AcDbEntity
  8
0
  6
Continuous
 62
     7
370
     0
100
AcDbLine
 10
122.0976652105
 20
112.4344458076
 30
0.0
 11
122.1976652105
 21
112.4344458076
 31
0.0
  0
LINE
  5
288
330
273
100
AcDbEntity
  8
0
  6
Continuous
 62
     7
370
     0
100
AcDbLine
 10
122.1976652105
 20
112.4344458076
 30
0.0
 11
126.1976652105
 21
112.4344458076
 31
0.0
  0
MTEXT
  5
289
330
273
100
AcDbEntity
  8
0
  6
Continuous
 62
     7
370
     0
100
AcDbMText
 10
111.1955065862
 20
116.1580822295
 30
0.0
 40
3.2
 41
0.0
 71
     1
 72
     1
  1
0.1
  7
SLDTEXTSTYLE0
 73
     1
 44
1.0
  0
ENDBLK
  5
281
330
273
100
AcDbEntity
  8
0
100
AcDbBlockEnd
  0
BLOCK
  5
298
330
28B
100
AcDbEntity
  8
0
100
AcDbBlockBegin
  2
*D11
 70
     1
 71
     0
 10
0.0
 20
0.0
 30
0.0
  3
*D11
  1

  0
INSERT
  5
29A
330
28B
100
AcDbEntity
  8
0
  6
Continuous
 62
     7
370
     0
100
AcDbBlockReference
  2
_Open30
 10
119.5976652105
 20
130.1173215548
 30
5.6
 41
2.0
 42
2.0
 50
360.0
  0
INSERT
  5
29B
330
28B
100
AcDbEntity
  8
0
  6
Continuous
 62
     7
370
     0
100
AcDbBlockReference
  2
_Open30
 10
122.1976652105
 20
130.1173215548
 30
5.6
 41
2.0
 42
2.0
 50
180.0
  0
LINE
  5
29C
330
28B
100
AcDbEntity
  8
0
  6
Continuous
 62
     7
370
     0
100
AcDbLine
 10
119.5976652105
 20
134.5895201342
 30
0.0
 11
119.5976652105
 21
129.1173215548
 31
0.0
  0
LINE
  5
29D
330
28B
100
AcDbEntity
  8
0
  6
Continuous
 62
     7
370
     0
100
AcDbLine
 10
119.5976652105
 20
130.1173215548
 30
0.0
 11
109.5974910432
 21
130.1173215548
 31
0.0
  0
LINE
  5
29E
330
28B
100
AcDbEntity
  8
0
  6
Continuous
 62
     7
370
     0
100
AcDbLine
 10
119.5976652105
 20
130.1173215548
 30
0.0
 11
122.1976652105
 21
130.1173215548
 31
0.0
  0
LINE
  5
29F
330
28B
100
AcDbEntity
  8
0
  6
Continuous
 62
     7
370
     0
100
AcDbLine
 10
122.1976652105
 20
130.1173215548
 30
0.0
 11
126.1976652105
 21
130.1173215548
 31
0.0
  0
MTEXT
  5
2A0
330
28B
100
AcDbEntity
  8
0
  6
Continuous
 62
     7
370
     0
100
AcDbMText
 10
111.1849910432
 20
133.8409579766
 30
0.0
 40
3.2
 41
0.0
 71
     1
 72
     1
  1
2.6
  7
SLDTEXTSTYLE0
 73
     1
 44
1.0
  0
ENDBLK
  5
299
330
28B
100
AcDbEntity
  8
0
100
AcDbBlockEnd
  0
BLOCK
  5
2AD
330
2A2
100
AcDbEntity
  8
0
100
AcDbBlockBegin
  2
*D12
 70
     1
 71
     0
 10
0.0
 20
0.0
 30
0.0
  3
*D12
  1

  0
INSERT
  5
2AF
330
2A2
100
AcDbEntity
  8
0
  6
Continuous
 62
     7
370
     0
100
AcDbBlockReference
  2
_Open30
 10
155.6067361395
 20
87.2895201342
 30
5.6
 41
2.0
 42
2.0
 50
270.0
  0
INSERT
  5
2B0
330
2A2
100
AcDbEntity
  8
0
  6
Continuous
 62
     7
370
     0
100
AcDbBlockReference
  2
_Open30
 10
155.6067361395
 20
146.5895201342
 30
5.6
 41
2.0
 42
2.0
 50
90.0
  0
LINE
  5
2B1
330
2A2
100
AcDbEntity
  8
0
  6
Continuous
 62
     7
370
     0
100
AcDbLine
 10
136.1976652105
 20
87.2895201342
 30
0.0
 11
156.6067361395
 21
87.2895201342
 31
0.0
  0
LINE
  5
2B2
330
2A2
100
AcDbEntity
  8
0
  6
Continuous
 62
     7
370
     0
100
AcDbLine
 10
131.5976652105
 20
146.5895201342
 30
0.0
 11
156.6067361395
 21
146.5895201342
 31
0.0
  0
LINE
  5
2B3
330
2A2
100
AcDbEntity
  8
0
  6
Continuous
 62
     7
370
     0
100
AcDbLine
 10
155.6067361395
 20
87.2895201342
 30
0.0
 11
155.6067361395
 21
146.5895201342
 31
0.0
  0
MTEXT
  5
2B4
330
2A2
100
AcDbEntity
  8
0
  6
Continuous
 62
     7
370
     0
100
AcDbMText
 10
151.8830997177
 20
113.2166760975
 30
0.0
 40
3.2
 41
0.0
 71
     1
 72
     1
  1
59.3
  7
SLDTEXTSTYLE0
 11
6.123031769111886E-17
 21
1.0
 31
0.0
 73
     1
 44
1.0
  0
ENDBLK
  5
2AE
330
2A2
100
AcDbEntity
  8
0
100
AcDbBlockEnd
  0
BLOCK
  5
2B6
330
2B5
100
AcDbEntity
  8
0
100
AcDbBlockBegin
  2
SW_NOTE_0
 70
     0
 71
     0
 10
0.0
 20
0.0
 30
0.0
  3
SW_NOTE_0
  1

  0
MTEXT
  5
2B8
330
2B5
100
AcDbEntity
  8
0
  6
Continuous
 62
     7
370
     0
100
AcDbMText
 10
0.0026974173
 20
7.927502331
 30
0.0
 40
3.2
 41
0.0
 71
     1
 72
     1
  1
5-動作表示灯
  7
SLDTEXTSTYLE0
 73
     1
 44
1.0
  0
MTEXT
  5
2B9
330
2B5
100
AcDbEntity
  8
0
  6
Continuous
 62
     7
370
     0
100
AcDbMText
 10
0.0026974173
 20
3.7275024808
 30
0.0
 40
3.2
 41
0.0
 71
     1
 72
     1
  1
5-INDICATOR
  7
SLDTEXTSTYLE0
 73
     1
 44
1.0
  0
ENDBLK
  5
2B7
330
2B5
100
AcDbEntity
  8
0
100
AcDbBlockEnd
  0
BLOCK
  5
2BE
330
2BD
100
AcDbEntity
  8
0
100
AcDbBlockBegin
  2
SW_NOTE_1
 70
     0
 71
     0
 10
0.0
 20
0.0
 30
0.0
  3
SW_NOTE_1
  1

  0
MTEXT
  5
2C0
330
2BD
100
AcDbEntity
  8
0
  6
Continuous
 62
     7
370
     0
100
AcDbMText
 10
0.0001602234
 20
7.9269169401
 30
0.0
 40
3.2
 41
0.0
 71
     1
 72
     1
  1
取外レバー
  7
SLDTEXTSTYLE0
 73
     1
 44
1.0
  0
MTEXT
  5
2C1
330
2BD
100
AcDbEntity
  8
0
  6
Continuous
 62
     7
370
     0
100
AcDbMText
 10
0.0001602234
 20
3.7269170898
 30
0.0
 40
3.2
 41
0.0
 71
     1
 72
     1
  1
REMOVE LEVER
  7
SLDTEXTSTYLE0
 73
     1
 44
1.0
  0
ENDBLK
  5
2BF
330
2BD
100
AcDbEntity
  8
0
100
AcDbBlockEnd
  0
BLOCK
  5
2C5
330
2C4
100
AcDbEntity
  8
0
100
AcDbBlockBegin
  2
SW_NOTE_2
 70
     0
 71
     0
 10
0.0
 20
0.0
 30
0.0
  3
SW_NOTE_2
  1

  0
MTEXT
  5
2C7
330
2C4
100
AcDbEntity
  8
0
  6
Continuous
 62
     7
370
     0
100
AcDbMText
 10
-14.8939054113
 20
7.9251656996
 30
36.0
 40
3.2
 41
0.0
 71
     1
 72
     1
  1
スイッチ
  7
SLDTEXTSTYLE0
 73
     1
 44
1.0
  0
MTEXT
  5
2C8
330
2C4
100
AcDbEntity
  8
0
  6
Continuous
 62
     7
370
     0
100
AcDbMText
 10
-14.8939054113
 20
3.7251658493
 30
36.0
 40
3.2
 41
0.0
 71
     1
 72
     1
  1
SWITCH
  7
SLDTEXTSTYLE0
 73
     1
 44
1.0
  0
ENDBLK
  5
2C6
330
2C4
100
AcDbEntity
  8
0
100
AcDbBlockEnd
  0
BLOCK
  5
2CC
330
2CB
100
AcDbEntity
  8
0
100
AcDbBlockBegin
  2
SW_NOTE_3
 70
     0
 71
     0
 10
0.0
 20
0.0
 30
0.0
  3
SW_NOTE_3
  1

  0
MTEXT
  5
2CE
330
2CB
100
AcDbEntity
  8
0
  6
Continuous
 62
     7
370
     0
100
AcDbMText
 10
-14.8958021893
 20
7.9249928809
 30
44.2
 40
3.2
 41
0.0
 71
     1
 72
     1
  1
端子
  7
SLDTEXTSTYLE0
 73
     1
 44
1.0
  0
MTEXT
  5
2CF
330
2CB
100
AcDbEntity
  8
0
  6
Continuous
 62
     7
370
     0
100
AcDbMText
 10
-14.8958021893
 20
3.7249930306
 30
44.2
 40
3.2
 41
0.0
 71
     1
 72
     1
  1
TERMINAL
  7
SLDTEXTSTYLE0
 73
     1
 44
1.0
  0
ENDBLK
  5
2CD
330
2CB
100
AcDbEntity
  8
0
100
AcDbBlockEnd
  0
BLOCK
  5
2D3
330
2D2
100
AcDbEntity
  8
0
100
AcDbBlockBegin
  2
SW_NOTE_4
 70
     0
 71
     0
 10
0.0
 20
0.0
 30
0.0
  3
SW_NOTE_4
  1

  0
MTEXT
  5
2D5
330
2D2
100
AcDbEntity
  8
0
  6
Continuous
 62
     7
370
     0
100
AcDbMText
 10
0.0019957164
 20
7.9262505318
 30
44.0
 40
3.2
 41
0.0
 71
     1
 72
     1
  1
コネクター
  7
SLDTEXTSTYLE0
 73
     1
 44
1.0
  0
MTEXT
  5
2D6
330
2D2
100
AcDbEntity
  8
0
  6
Continuous
 62
     7
370
     0
100
AcDbMText
 10
0.0019957164
 20
3.7262506816
 30
44.0
 40
3.2
 41
0.0
 71
     1
 72
     1
  1
CONNECTOR
  7
SLDTEXTSTYLE0
 73
     1
 44
1.0
  0
ENDBLK
  5
2D4
330
2D2
100
AcDbEntity
  8
0
100
AcDbBlockEnd
  0
BLOCK
  5
2DA
330
2D9
100
AcDbEntity
  8
0
100
AcDbBlockBegin
  2
SW_CENTERMARKSYMBOL_0
 70
     0
 71
     0
 10
0.0
 20
0.0
 30
0.0
  3
SW_CENTERMARKSYMBOL_0
  1

  0
LINE
  5
2DC
330
2D9
100
AcDbEntity
  8
0
  6
Continuous
 62
     7
370
     0
100
AcDbLine
 10
0.0
 20
0.0
 30
0.0
 11
0.0
 21
2.5
 31
0.0
  0
LINE
  5
2DD
330
2D9
100
AcDbEntity
  8
0
  6
Continuous
 62
     7
370
     0
100
AcDbLine
 10
0.0
 20
0.0
 30
0.0
 11
-2.5
 21
0.0
 31
0.0
  0
LINE
  5
2DE
330
2D9
100
AcDbEntity
  8
0
  6
Continuous
 62
     7
370
     0
100
AcDbLine
 10
0.0
 20
0.0
 30
0.0
 11
0.0
 21
-2.5
 31
0.0
  0
LINE
  5
2DF
330
2D9
100
AcDbEntity
  8
0
  6
Continuous
 62
     7
370
     0
100
AcDbLine
 10
0.0
 20
0.0
 30
0.0
 11
2.5
 21
0.0
 31
0.0
  0
LINE
  5
2E0
330
2D9
100
AcDbEntity
  8
0
  6
Continuous
 62
     7
370
     0
100
AcDbLine
 10
0.0
 20
5.0
 30
0.0
 11
0.0
 21
11.0
 31
0.0
  0
LINE
  5
2E1
330
2D9
100
AcDbEntity
  8
0
  6
Continuous
 62
     7
370
     0
100
AcDbLine
 10
-5.0
 20
0.0
 30
0.0
 11
-11.0
 21
0.0
 31
0.0
  0
LINE
  5
2E2
330
2D9
100
AcDbEntity
  8
0
  6
Continuous
 62
     7
370
     0
100
AcDbLine
 10
0.0
 20
-5.0
 30
0.0
 11
0.0
 21
-11.0
 31
0.0
  0
LINE
  5
2E3
330
2D9
100
AcDbEntity
  8
0
  6
Continuous
 62
     7
370
     0
100
AcDbLine
 10
5.0
 20
0.0
 30
0.0
 11
11.0
 21
0.0
 31
0.0
  0
ENDBLK
  5
2DB
330
2D9
100
AcDbEntity
  8
0
100
AcDbBlockEnd
  0
BLOCK
  5
2E6
330
2E5
100
AcDbEntity
  8
0
100
AcDbBlockBegin
  2
SW_CENTERMARKSYMBOL_1
 70
     0
 71
     0
 10
0.0
 20
0.0
 30
0.0
  3
SW_CENTERMARKSYMBOL_1
  1

  0
LINE
  5
2E8
330
2E5
100
AcDbEntity
  8
0
  6
Continuous
 62
     7
370
     0
100
AcDbLine
 10
0.0
 20
0.0
 30
0.0
 11
0.0
 21
2.5
 31
0.0
  0
LINE
  5
2E9
330
2E5
100
AcDbEntity
  8
0
  6
Continuous
 62
     7
370
     0
100
AcDbLine
 10
0.0
 20
0.0
 30
0.0
 11
-2.5
 21
0.0
 31
0.0
  0
LINE
  5
2EA
330
2E5
100
AcDbEntity
  8
0
  6
Continuous
 62
     7
370
     0
100
AcDbLine
 10
0.0
 20
0.0
 30
0.0
 11
0.0
 21
-2.5
 31
0.0
  0
LINE
  5
2EB
330
2E5
100
AcDbEntity
  8
0
  6
Continuous
 62
     7
370
     0
100
AcDbLine
 10
0.0
 20
0.0
 30
0.0
 11
2.5
 21
0.0
 31
0.0
  0
LINE
  5
2EC
330
2E5
100
AcDbEntity
  8
0
  6
Continuous
 62
     7
370
     0
100
AcDbLine
 10
0.0
 20
2.5
 30
0.0
 11
0.0
 21
4.5
 31
0.0
  0
LINE
  5
2ED
330
2E5
100
AcDbEntity
  8
0
  6
Continuous
 62
     7
370
     0
100
AcDbLine
 10
-2.5
 20
0.0
 30
0.0
 11
-4.5
 21
0.0
 31
0.0
  0
LINE
  5
2EE
330
2E5
100
AcDbEntity
  8
0
  6
Continuous
 62
     7
370
     0
100
AcDbLine
 10
0.0
 20
-2.5
 30
0.0
 11
0.0
 21
-4.5
 31
0.0
  0
LINE
  5
2EF
330
2E5
100
AcDbEntity
  8
0
  6
Continuous
 62
     7
370
     0
100
AcDbLine
 10
2.5
 20
0.0
 30
0.0
 11
4.5
 21
0.0
 31
0.0
  0
ENDBLK
  5
2E7
330
2E5
100
AcDbEntity
  8
0
100
AcDbBlockEnd
  0
BLOCK
  5
3EC
330
3E2
100
AcDbEntity
  8
0
100
AcDbBlockBegin
  2
*D20
 70
     1
 71
     0
 10
0.0
 20
0.0
 30
0.0
  3
*D20
  1

  0
INSERT
  5
3EE
330
3E2
100
AcDbEntity
  8
0
  6
Continuous
 62
     7
370
     0
100
AcDbBlockReference
  2
_Open30
 10
224.2129419278
 20
66.8035666664
 30
0.1
 41
2.0
 42
2.0
 50
180.0
  0
INSERT
  5
3EF
330
3E2
100
AcDbEntity
  8
0
  6
Continuous
 62
     7
370
     0
100
AcDbBlockReference
  2
_Open30
 10
314.7129419278
 20
66.8035666664
 30
0.1
 41
2.0
 42
2.0
 50
0.0
  0
LINE
  5
3F0
330
3E2
100
AcDbEntity
  8
0
  6
Continuous
 62
     7
370
     0
100
AcDbLine
 10
224.2129419278
 20
86.9895201342
 30
0.0
 11
224.2129419278
 21
65.8035666664
 31
0.0
  0
LINE
  5
3F1
330
3E2
100
AcDbEntity
  8
0
  6
Continuous
 62
     7
370
     0
100
AcDbLine
 10
314.7129419278
 20
89.7895201342
 30
0.0
 11
314.7129419278
 21
65.8035666664
 31
0.0
  0
LINE
  5
3F2
330
3E2
100
AcDbEntity
  8
0
  6
Continuous
 62
     7
370
     0
100
AcDbLine
 10
224.2129419278
 20
66.8035666664
 30
0.0
 11
314.7129419278
 21
66.8035666664
 31
0.0
  0
MTEXT
  5
3F3
330
3E2
100
AcDbEntity
  8
0
  6
Continuous
 62
     7
370
     0
100
AcDbMText
 10
265.7400978911
 20
70.5272030883
 30
0.0
 40
3.2
 41
0.0
 71
     1
 72
     1
  1
90.5
  7
SLDTEXTSTYLE0
 73
     1
 44
1.0
  0
ENDBLK
  5
3ED
330
3E2
100
AcDbEntity
  8
0
100
AcDbBlockEnd
  0
BLOCK
  5
402
330
3F5
100
AcDbEntity
  8
0
100
AcDbBlockBegin
  2
*D21
 70
     1
 71
     0
 10
0.0
 20
0.0
 30
0.0
  3
*D21
  1

  0
INSERT
  5
404
330
3F5
100
AcDbEntity
  8
0
  6
Continuous
 62
     7
370
     0
100
AcDbBlockReference
  2
_Open30
 10
314.7129419278
 20
66.8035666664
 30
0.1
 41
2.0
 42
2.0
 50
0.0
  0
INSERT
  5
405
330
3F5
100
AcDbEntity
  8
0
  6
Continuous
 62
     7
370
     0
100
AcDbBlockReference
  2
_Open30
 10
317.2129419278
 20
66.8035666664
 30
0.1
 41
2.0
 42
2.0
 50
180.0
  0
LINE
  5
406
330
3F5
100
AcDbEntity
  8
0
  6
Continuous
 62
     7
370
     0
100
AcDbLine
 10
314.7129419278
 20
89.7895201342
 30
0.0
 11
314.7129419278
 21
65.8035666664
 31
0.0
  0
LINE
  5
407
330
3F5
100
AcDbEntity
  8
0
  6
Continuous
 62
     7
370
     0
100
AcDbLine
 10
317.2129419278
 20
91.2895201342
 30
0.0
 11
317.2129419278
 21
65.8035666664
 31
0.0
  0
LINE
  5
408
330
3F5
100
AcDbEntity
  8
0
  6
Continuous
 62
     7
370
     0
100
AcDbLine
 10
314.7129419278
 20
66.8035666664
 30
0.0
 11
310.7129419278
 21
66.8035666664
 31
0.0
  0
LINE
  5
409
330
3F5
100
AcDbEntity
  8
0
  6
Continuous
 62
     7
370
     0
100
AcDbLine
 10
314.7129419278
 20
66.8035666664
 30
0.0
 11
317.2129419278
 21
66.8035666664
 31
0.0
  0
LINE
  5
40A
330
3F5
100
AcDbEntity
  8
0
  6
Continuous
 62
     7
370
     0
100
AcDbLine
 10
317.2129419278
 20
66.8035666664
 30
0.0
 11
328.5281631674
 21
66.8035666664
 31
0.0
  0
MTEXT
  5
40B
330
3F5
100
AcDbEntity
  8
0
  6
Continuous
 62
     7
370
     0
100
AcDbMText
 10
321.3553053692
 20
70.5272030883
 30
0.0
 40
3.2
 41
0.0
 71
     1
 72
     1
  1
2.5
  7
SLDTEXTSTYLE0
 73
     1
 44
1.0
  0
ENDBLK
  5
403
330
3F5
100
AcDbEntity
  8
0
100
AcDbBlockEnd
  0
BLOCK
  5
417
330
40D
100
AcDbEntity
  8
0
100
AcDbBlockBegin
  2
*D22
 70
     1
 71
     0
 10
0.0
 20
0.0
 30
0.0
  3
*D22
  1

  0
INSERT
  5
41A
330
40D
100
AcDbEntity
  8
0
  6
Continuous
 62
     7
370
     0
100
AcDbBlockReference
  2
_Open30
 10
224.2129419278
 20
66.8035666664
 30
0.1
 41
2.0
 42
2.0
 50
360.0
  0
INSERT
  5
41B
330
40D
100
AcDbEntity
  8
0
  6
Continuous
 62
     7
370
     0
100
AcDbBlockReference
  2
_Open30
 10
208.2129419278
 20
66.8035666664
 30
0.1
 41
2.0
 42
2.0
 50
180.0
  0
LINE
  5
41C
330
40D
100
AcDbEntity
  8
0
  6
Continuous
 62
     7
370
     0
100
AcDbLine
 10
224.2129419278
 20
86.9895201342
 30
0.0
 11
224.2129419278
 21
65.8035666664
 31
0.0
  0
LINE
  5
41D
330
40D
100
AcDbEntity
  8
0
  6
Continuous
 62
     7
370
     0
100
AcDbLine
 10
208.2129419278
 20
90.9895201342
 30
0.0
 11
208.2129419278
 21
65.8035666664
 31
0.0
  0
LINE
  5
41E
330
40D
100
AcDbEntity
  8
0
  6
Continuous
 62
     7
370
     0
100
AcDbLine
 10
224.2129419278
 20
66.8035666664
 30
0.0
 11
208.2129419278
 21
66.8035666664
 31
0.0
  0
MTEXT
  5
41F
330
40D
100
AcDbEntity
  8
0
  6
Continuous
 62
     7
370
     0
100
AcDbMText
 10
212.4922813774
 20
70.5272030883
 30
0.0
 40
3.2
 41
0.0
 71
     1
 72
     1
  1
(
  7
SLDTEXTSTYLE0
 73
     1
 44
1.0
  0
MTEXT
  5
420
330
40D
100
AcDbEntity
  8
0
  6
Continuous
 62
     7
370
     0
100
AcDbMText
 10
214.3526116526
 20
70.5272030883
 30
0.0
 40
3.2
 41
0.0
 71
     1
 72
     1
  1
16
  7
SLDTEXTSTYLE0
 73
     1
 44
1.0
  0
MTEXT
  5
421
330
40D
100
AcDbEntity
  8
0
  6
Continuous
 62
     7
370
     0
100
AcDbMText
 10
218.0732722031
 20
70.5272030883
 30
0.0
 40
3.2
 41
0.0
 71
     1
 72
     1
  1
)
  7
SLDTEXTSTYLE0
 73
     1
 44
1.0
  0
ENDBLK
  5
418
330
40D
100
AcDbEntity
  8
0
100
AcDbBlockEnd
  0
BLOCK
  5
42F
330
423
100
AcDbEntity
  8
0
100
AcDbBlockBegin
  2
*D23
 70
     1
 71
     0
 10
0.0
 20
0.0
 30
0.0
  3
*D23
  1

  0
INSERT
  5
431
330
423
100
AcDbEntity
  8
0
  6
Continuous
 62
     7
370
     0
100
AcDbBlockReference
  2
_Open30
 10
334.7645856887
 20
87.2895201342
 30
0.1
 41
2.0
 42
2.0
 50
270.0
  0
INSERT
  5
432
330
423
100
AcDbEntity
  8
0
  6
Continuous
 62
     7
370
     0
100
AcDbBlockReference
  2
_Open30
 10
334.7645856887
 20
82.2895201342
 30
0.1
 41
2.0
 42
2.0
 50
90.0
  0
LINE
  5
433
330
423
100
AcDbEntity
  8
0
  6
Continuous
 62
     7
370
     0
100
AcDbLine
 10
306.9808911203
 20
87.2895201342
 30
0.0
 11
335.7645856887
 21
87.2895201342
 31
0.0
  0
LINE
  5
434
330
423
100
AcDbEntity
  8
0
  6
Continuous
 62
     7
370
     0
100
AcDbLine
 10
312.2129419278
 20
82.2895201342
 30
0.0
 11
335.7645856887
 21
82.2895201342
 31
0.0
  0
LINE
  5
435
330
423
100
AcDbEntity
  8
0
  6
Continuous
 62
     7
370
     0
100
AcDbLine
 10
334.7645856887
 20
87.2895201342
 30
0.0
 11
334.7645856887
 21
91.2895201342
 31
0.0
  0
LINE
  5
436
330
423
100
AcDbEntity
  8
0
  6
Continuous
 62
     7
370
     0
100
AcDbLine
 10
334.7645856887
 20
87.2895201342
 30
0.0
 11
334.7645856887
 21
82.2895201342
 31
0.0
  0
LINE
  5
437
330
423
100
AcDbEntity
  8
0
  6
Continuous
 62
     7
370
     0
100
AcDbLine
 10
334.7645856887
 20
82.2895201342
 30
0.0
 11
334.7645856887
 21
72.1851035035
 31
0.0
  0
MTEXT
  5
438
330
423
100
AcDbEntity
  8
0
  6
Continuous
 62
     7
370
     0
100
AcDbMText
 10
331.0409492668
 20
73.7726035035
 30
0.0
 40
3.2
 41
0.0
 71
     1
 72
     1
  1
(
  7
SLDTEXTSTYLE0
 11
-7.044197039909883E-15
 21
1.0
 31
0.0
 73
     1
 44
1.0
  0
MTEXT
  5
439
330
423
100
AcDbEntity
  8
0
  6
Continuous
 62
     7
370
     0
100
AcDbMText
 10
331.0409492668
 20
75.6329337788
 30
0.0
 40
3.2
 41
0.0
 71
     1
 72
     1
  1
5
  7
SLDTEXTSTYLE0
 11
-7.044197039909883E-15
 21
1.0
 31
0.0
 73
     1
 44
1.0
  0
MTEXT
  5
43A
330
423
100
AcDbEntity
  8
0
  6
Continuous
 62
     7
370
     0
100
AcDbMText
 10
331.0409492668
 20
77.493264054
 30
0.0
 40
3.2
 41
0.0
 71
     1
 72
     1
  1
)
  7
SLDTEXTSTYLE0
 11
-7.044197039909883E-15
 21
1.0
 31
0.0
 73
     1
 44
1.0
  0
ENDBLK
  5
430
330
423
100
AcDbEntity
  8
0
100
AcDbBlockEnd
  0
BLOCK
  5
449
330
43C
100
AcDbEntity
  8
0
100
AcDbBlockBegin
  2
*D24
 70
     1
 71
     0
 10
0.0
 20
0.0
 30
0.0
  3
*D24
  1

  0
INSERT
  5
44B
330
43C
100
AcDbEntity
  8
0
  6
Continuous
 62
     7
370
     0
100
AcDbBlockReference
  2
_Open30
 10
224.2129419278
 20
158.1016789583
 30
0.1
 41
2.0
 42
2.0
 50
180.0
  0
INSERT
  5
44C
330
43C
100
AcDbEntity
  8
0
  6
Continuous
 62
     7
370
     0
100
AcDbBlockReference
  2
_Open30
 10
219.2129419278
 20
158.1016789583
 30
0.1
 41
2.0
 42
2.0
 50
360.0
  0
LINE
  5
44D
330
43C
100
AcDbEntity
  8
0
  6
Continuous
 62
     7
370
     0
100
AcDbLine
 10
219.2129419278
 20
155.2380494046
 30
0.0
 11
219.2129419278
 21
159.1016789583
 31
0.0
  0
LINE
  5
44E
330
43C
100
AcDbEntity
  8
0
  6
Continuous
 62
     7
370
     0
100
AcDbLine
 10
224.2129419278
 20
158.1016789583
 30
0.0
 11
228.2129419278
 21
158.1016789583
 31
0.0
  0
LINE
  5
44F
330
43C
100
AcDbEntity
  8
0
  6
Continuous
 62
     7
370
     0
100
AcDbLine
 10
224.2129419278
 20
158.1016789583
 30
0.0
 11
219.2129419278
 21
158.1016789583
 31
0.0
  0
LINE
  5
450
330
43C
100
AcDbEntity
  8
0
  6
Continuous
 62
     7
370
     0
100
AcDbLine
 10
219.2129419278
 20
158.1016789583
 30
0.0
 11
212.9104721817
 21
158.1016789583
 31
0.0
  0
MTEXT
  5
451
330
43C
100
AcDbEntity
  8
0
  6
Continuous
 62
     7
370
     0
100
AcDbMText
 10
214.4979721817
 20
161.8253153802
 30
0.0
 40
3.2
 41
0.0
 71
     1
 72
     1
  1
5
  7
SLDTEXTSTYLE0
 73
     1
 44
1.0
  0
ENDBLK
  5
44A
330
43C
100
AcDbEntity
  8
0
100
AcDbBlockEnd
  0
ENDSEC
  0
SECTION
  2
ENTITIES
  0
LINE
  5
2F
330
1F
100
AcDbEntity
  8
0
  6
HIDDEN
 62
     7
370
     0
100
AcDbLine
 10
119.6222864516
 20
97.0295201342
 30
0.0
 11
121.7476652105
 21
97.0295201342
 31
0.0
  0
LINE
  5
30
330
1F
100
AcDbEntity
  8
0
  6
HIDDEN
 62
     7
370
     0
100
AcDbLine
 10
121.7476652105
 20
96.3295201342
 30
0.0
 11
119.6222864516
 21
96.3295201342
 31
0.0
  0
LINE
  5
31
330
1F
100
AcDbEntity
  8
0
  6
HIDDEN
 62
     7
370
     0
100
AcDbLine
 10
124.5730439694
 20
96.3295201342
 30
0.0
 11
122.4476652105
 21
96.3295201342
 31
0.0
  0
LINE
  5
32
330
1F
100
AcDbEntity
  8
0
  6
HIDDEN
 62
     7
370
     0
100
AcDbLine
 10
122.4476652105
 20
97.0295201342
 30
0.0
 11
124.5730439694
 21
97.0295201342
 31
0.0
  0
LINE
  5
33
330
1F
100
AcDbEntity
  8
0
  6
HIDDEN
 62
     7
370
     0
100
AcDbLine
 10
121.7476652105
 20
98.1795201342
 30
0.0
 11
122.4476652105
 21
98.1795201342
 31
0.0
  0
LINE
  5
34
330
1F
100
AcDbEntity
  8
0
  6
HIDDEN
 62
     7
370
     0
100
AcDbLine
 10
122.4476652105
 20
95.1795201342
 30
0.0
 11
121.7476652105
 21
95.1795201342
 31
0.0
  0
LINE
  5
35
330
1F
100
AcDbEntity
  8
0
  6
HIDDEN
 62
     7
370
     0
100
AcDbLine
 10
121.7476652105
 20
95.1795201342
 30
0.0
 11
121.7476652105
 21
96.3295201342
 31
0.0
  0
LINE
  5
36
330
1F
100
AcDbEntity
  8
0
  6
HIDDEN
 62
     7
370
     0
100
AcDbLine
 10
122.4476652105
 20
96.3295201342
 30
0.0
 11
122.4476652105
 21
95.1795201342
 31
0.0
  0
LINE
  5
37
330
1F
100
AcDbEntity
  8
0
  6
HIDDEN
 62
     7
370
     0
100
AcDbLine
 10
122.4476652105
 20
98.1795201342
 30
0.0
 11
122.4476652105
 21
97.0295201342
 31
0.0
  0
LINE
  5
38
330
1F
100
AcDbEntity
  8
0
  6
HIDDEN
 62
     7
370
     0
100
AcDbLine
 10
121.7476652105
 20
97.0295201342
 30
0.0
 11
121.7476652105
 21
98.1795201342
 31
0.0
  0
LINE
  5
39
330
1F
100
AcDbEntity
  8
0
  6
HIDDEN
 62
     7
370
     0
100
AcDbLine
 10
121.7476652105
 20
103.9495201342
 30
0.0
 11
119.6222864516
 21
103.9495201342
 31
0.0
  0
LINE
  5
3A
330
1F
100
AcDbEntity
  8
0
  6
HIDDEN
 62
     7
370
     0
100
AcDbLine
 10
119.6222864516
 20
104.6495201342
 30
0.0
 11
121.7476652105
 21
104.6495201342
 31
0.0
  0
LINE
  5
3B
330
1F
100
AcDbEntity
  8
0
  6
HIDDEN
 62
     7
370
     0
100
AcDbLine
 10
122.4476652105
 20
105.7995201342
 30
0.0
 11
122.4476652105
 21
104.6495201342
 31
0.0
  0
LINE
  5
3C
330
1F
100
AcDbEntity
  8
0
  6
HIDDEN
 62
     7
370
     0
100
AcDbLine
 10
121.7476652105
 20
105.7995201342
 30
0.0
 11
122.4476652105
 21
105.7995201342
 31
0.0
  0
LINE
  5
3D
330
1F
100
AcDbEntity
  8
0
  6
HIDDEN
 62
     7
370
     0
100
AcDbLine
 10
121.7476652105
 20
104.6495201342
 30
0.0
 11
121.7476652105
 21
105.7995201342
 31
0.0
  0
LINE
  5
3E
330
1F
100
AcDbEntity
  8
0
  6
HIDDEN
 62
     7
370
     0
100
AcDbLine
 10
121.7476652105
 20
102.7995201342
 30
0.0
 11
121.7476652105
 21
103.9495201342
 31
0.0
  0
LINE
  5
3F
330
1F
100
AcDbEntity
  8
0
  6
HIDDEN
 62
     7
370
     0
100
AcDbLine
 10
122.4476652105
 20
102.7995201342
 30
0.0
 11
121.7476652105
 21
102.7995201342
 31
0.0
  0
LINE
  5
40
330
1F
100
AcDbEntity
  8
0
  6
HIDDEN
 62
     7
370
     0
100
AcDbLine
 10
122.4476652105
 20
103.9495201342
 30
0.0
 11
122.4476652105
 21
102.7995201342
 31
0.0
  0
LINE
  5
41
330
1F
100
AcDbEntity
  8
0
  6
HIDDEN
 62
     7
370
     0
100
AcDbLine
 10
124.5730439694
 20
103.9495201342
 30
0.0
 11
122.4476652105
 21
103.9495201342
 31
0.0
  0
LINE
  5
42
330
1F
100
AcDbEntity
  8
0
  6
HIDDEN
 62
     7
370
     0
100
AcDbLine
 10
122.4476652105
 20
104.6495201342
 30
0.0
 11
124.5730439694
 21
104.6495201342
 31
0.0
  0
LINE
  5
43
330
1F
100
AcDbEntity
  8
0
  6
HIDDEN
 62
     7
370
     0
100
AcDbLine
 10
128.0976652105
 20
92.2595201342
 30
0.0
 11
116.0976652105
 21
92.2595201342
 31
0.0
  0
LINE
  5
44
330
1F
100
AcDbEntity
  8
0
  6
HIDDEN
 62
     7
370
     0
100
AcDbLine
 10
128.0976652105
 20
93.4795201342
 30
0.0
 11
116.0976652105
 21
93.4795201342
 31
0.0
  0
LINE
  5
45
330
1F
100
AcDbEntity
  8
0
  6
HIDDEN
 62
     7
370
     0
100
AcDbLine
 10
128.0976652105
 20
99.8795201342
 30
0.0
 11
116.0976652105
 21
99.8795201342
 31
0.0
  0
LINE
  5
46
330
1F
100
AcDbEntity
  8
0
  6
HIDDEN
 62
     7
370
     0
100
AcDbLine
 10
128.0976652105
 20
101.0995201342
 30
0.0
 11
116.0976652105
 21
101.0995201342
 31
0.0
  0
LINE
  5
47
330
1F
100
AcDbEntity
  8
0
  6
HIDDEN
 62
     7
370
     0
100
AcDbLine
 10
128.0976652105
 20
107.4995201342
 30
0.0
 11
116.0976652105
 21
107.4995201342
 31
0.0
  0
LINE
  5
48
330
1F
100
AcDbEntity
  8
0
  6
HIDDEN
 62
     7
370
     0
100
AcDbLine
 10
128.0976652105
 20
108.7195201342
 30
0.0
 11
116.0976652105
 21
108.7195201342
 31
0.0
  0
LINE
  5
49
330
1F
100
AcDbEntity
  8
0
  6
HIDDEN
 62
     7
370
     0
100
AcDbLine
 10
128.0976652105
 20
109.6995201342
 30
0.0
 11
128.0976652105
 21
91.2795201342
 31
0.0
  0
LINE
  5
4A
330
1F
100
AcDbEntity
  8
0
  6
HIDDEN
 62
     7
370
     0
100
AcDbLine
 10
116.0976652105
 20
109.6995201342
 30
0.0
 11
116.0976652105
 21
91.2795201342
 31
0.0
  0
LINE
  5
4B
330
1F
100
AcDbEntity
  8
0
  6
Continuous
 62
     7
370
     0
100
AcDbLine
 10
126.5976652105
 20
92.2595201342
 30
0.0
 11
126.5976652105
 21
91.2795201342
 31
0.0
  0
LINE
  5
4C
330
1F
100
AcDbEntity
  8
0
  6
Continuous
 62
     7
370
     0
100
AcDbLine
 10
117.5976652105
 20
92.2595201342
 30
0.0
 11
117.5976652105
 21
91.2795201342
 31
0.0
  0
LINE
  5
4D
330
1F
100
AcDbEntity
  8
0
  6
Continuous
 62
     7
370
     0
100
AcDbLine
 10
117.5976652105
 20
108.7195201342
 30
0.0
 11
117.5976652105
 21
109.6995201342
 31
0.0
  0
LINE
  5
4E
330
1F
100
AcDbEntity
  8
0
  6
Continuous
 62
     7
370
     0
100
AcDbLine
 10
126.5976652105
 20
108.7195201342
 30
0.0
 11
126.5976652105
 21
109.6995201342
 31
0.0
  0
LINE
  5
4F
330
1F
100
AcDbEntity
  8
0
  6
HIDDEN
 62
     7
370
     0
100
AcDbLine
 10
126.5976652105
 20
99.8795201342
 30
0.0
 11
126.5976652105
 21
93.4795201342
 31
0.0
  0
LINE
  5
50
330
1F
100
AcDbEntity
  8
0
  6
HIDDEN
 62
     7
370
     0
100
AcDbLine
 10
117.5976652105
 20
99.8795201342
 30
0.0
 11
117.5976652105
 21
93.4795201342
 31
0.0
  0
LINE
  5
51
330
1F
100
AcDbEntity
  8
0
  6
HIDDEN
 62
     7
370
     0
100
AcDbLine
 10
117.5976652105
 20
107.4995201342
 30
0.0
 11
117.5976652105
 21
101.0995201342
 31
0.0
  0
LINE
  5
52
330
1F
100
AcDbEntity
  8
0
  6
HIDDEN
 62
     7
370
     0
100
AcDbLine
 10
126.5976652105
 20
107.4995201342
 30
0.0
 11
126.5976652105
 21
101.0995201342
 31
0.0
  0
LINE
  5
53
330
1F
100
AcDbEntity
  8
0
  6
HIDDEN
 62
     7
370
     0
100
AcDbLine
 10
123.9976652105
 20
182.1495201342
 30
0.0
 11
123.9976652105
 21
180.3495201342
 31
0.0
  0
LINE
  5
54
330
1F
100
AcDbEntity
  8
0
  6
HIDDEN
 62
     7
370
     0
100
AcDbLine
 10
125.3976652105
 20
182.1495201342
 30
0.0
 11
123.9976652105
 21
182.1495201342
 31
0.0
  0
LINE
  5
55
330
1F
100
AcDbEntity
  8
0
  6
HIDDEN
 62
     7
370
     0
100
AcDbLine
 10
125.3976652105
 20
180.3495201342
 30
0.0
 11
125.3976652105
 21
182.1495201342
 31
0.0
  0
LINE
  5
56
330
1F
100
AcDbEntity
  8
0
  6
HIDDEN
 62
     7
370
     0
100
AcDbLine
 10
123.9976652105
 20
180.3495201342
 30
0.0
 11
125.3976652105
 21
180.3495201342
 31
0.0
  0
LINE
  5
57
330
1F
100
AcDbEntity
  8
0
  6
HIDDEN
 62
     7
370
     0
100
AcDbLine
 10
121.3976652105
 20
172.7295201342
 30
0.0
 11
121.3976652105
 21
174.5295201342
 31
0.0
  0
LINE
  5
58
330
1F
100
AcDbEntity
  8
0
  6
HIDDEN
 62
     7
370
     0
100
AcDbLine
 10
119.9976652105
 20
172.7295201342
 30
0.0
 11
121.3976652105
 21
172.7295201342
 31
0.0
  0
LINE
  5
59
330
1F
100
AcDbEntity
  8
0
  6
HIDDEN
 62
     7
370
     0
100
AcDbLine
 10
119.9976652105
 20
174.5295201342
 30
0.0
 11
119.9976652105
 21
172.7295201342
 31
0.0
  0
LINE
  5
5A
330
1F
100
AcDbEntity
  8
0
  6
HIDDEN
 62
     7
370
     0
100
AcDbLine
 10
121.3976652105
 20
174.5295201342
 30
0.0
 11
119.9976652105
 21
174.5295201342
 31
0.0
  0
LINE
  5
5B
330
1F
100
AcDbEntity
  8
0
  6
HIDDEN
 62
     7
370
     0
100
AcDbLine
 10
119.9976652105
 20
177.0695201342
 30
0.0
 11
119.9976652105
 21
175.2695201342
 31
0.0
  0
LINE
  5
5C
330
1F
100
AcDbEntity
  8
0
  6
HIDDEN
 62
     7
370
     0
100
AcDbLine
 10
119.9976652105
 20
175.2695201342
 30
0.0
 11
121.3976652105
 21
175.2695201342
 31
0.0
  0
LINE
  5
5D
330
1F
100
AcDbEntity
  8
0
  6
HIDDEN
 62
     7
370
     0
100
AcDbLine
 10
121.3976652105
 20
175.2695201342
 30
0.0
 11
121.3976652105
 21
177.0695201342
 31
0.0
  0
LINE
  5
5E
330
1F
100
AcDbEntity
  8
0
  6
HIDDEN
 62
     7
370
     0
100
AcDbLine
 10
121.3976652105
 20
177.0695201342
 30
0.0
 11
119.9976652105
 21
177.0695201342
 31
0.0
  0
LINE
  5
5F
330
1F
100
AcDbEntity
  8
0
  6
HIDDEN
 62
     7
370
     0
100
AcDbLine
 10
119.9976652105
 20
177.8095201342
 30
0.0
 11
121.3976652105
 21
177.8095201342
 31
0.0
  0
LINE
  5
60
330
1F
100
AcDbEntity
  8
0
  6
HIDDEN
 62
     7
370
     0
100
AcDbLine
 10
121.3976652105
 20
177.8095201342
 30
0.0
 11
121.3976652105
 21
179.6095201342
 31
0.0
  0
LINE
  5
61
330
1F
100
AcDbEntity
  8
0
  6
HIDDEN
 62
     7
370
     0
100
AcDbLine
 10
119.9976652105
 20
179.6095201342
 30
0.0
 11
119.9976652105
 21
177.8095201342
 31
0.0
  0
LINE
  5
62
330
1F
100
AcDbEntity
  8
0
  6
HIDDEN
 62
     7
370
     0
100
AcDbLine
 10
121.3976652105
 20
179.6095201342
 30
0.0
 11
119.9976652105
 21
179.6095201342
 31
0.0
  0
LINE
  5
63
330
1F
100
AcDbEntity
  8
0
  6
HIDDEN
 62
     7
370
     0
100
AcDbLine
 10
119.9976652105
 20
182.1495201342
 30
0.0
 11
119.9976652105
 21
180.3495201342
 31
0.0
  0
LINE
  5
64
330
1F
100
AcDbEntity
  8
0
  6
HIDDEN
 62
     7
370
     0
100
AcDbLine
 10
121.3976652105
 20
182.1495201342
 30
0.0
 11
119.9976652105
 21
182.1495201342
 31
0.0
  0
LINE
  5
65
330
1F
100
AcDbEntity
  8
0
  6
HIDDEN
 62
     7
370
     0
100
AcDbLine
 10
121.3976652105
 20
180.3495201342
 30
0.0
 11
121.3976652105
 21
182.1495201342
 31
0.0
  0
LINE
  5
66
330
1F
100
AcDbEntity
  8
0
  6
HIDDEN
 62
     7
370
     0
100
AcDbLine
 10
119.9976652105
 20
180.3495201342
 30
0.0
 11
121.3976652105
 21
180.3495201342
 31
0.0
  0
ARC
  5
67
330
1F
100
AcDbEntity
  8
0
  6
HIDDEN
 62
     7
370
     0
100
AcDbCircle
 10
122.0976652105
 20
96.6795201342
 30
0.0
 40
2.500000000000009
100
AcDbArc
 50
171.9521537527
 51
188.0478462473
  0
ARC
  5
68
330
1F
100
AcDbEntity
  8
0
  6
HIDDEN
 62
     7
370
     0
100
AcDbCircle
 10
122.0976652105
 20
96.6795201342
 30
0.0
 40
2.500000000000008
100
AcDbArc
 50
188.0478462473
 51
351.9521537527
  0
ARC
  5
69
330
1F
100
AcDbEntity
  8
0
  6
Continuous
 62
     7
370
     0
100
AcDbCircle
 10
122.0976652105
 20
96.6795201342
 30
0.0
 40
2.500000000000009
100
AcDbArc
 50
351.9521537527
 51
8.0478462473
  0
ARC
  5
6A
330
1F
100
AcDbEntity
  8
0
  6
HIDDEN
 62
     7
370
     0
100
AcDbCircle
 10
122.0976652105
 20
96.6795201342
 30
0.0
 40
2.500000000000009
100
AcDbArc
 50
8.0478462473
 51
171.9521537527
  0
ARC
  5
6B
330
1F
100
AcDbEntity
  8
0
  6
HIDDEN
 62
     7
370
     0
100
AcDbCircle
 10
122.0976652105
 20
104.2995201342
 30
0.0
 40
2.500000000000009
100
AcDbArc
 50
351.9521537527
 51
8.0478462473
  0
ARC
  5
6C
330
1F
100
AcDbEntity
  8
0
  6
HIDDEN
 62
     7
370
     0
100
AcDbCircle
 10
122.0976652105
 20
104.2995201342
 30
0.0
 40
2.500000000000009
100
AcDbArc
 50
188.0478462473
 51
351.9521537527
  0
ARC
  5
6D
330
1F
100
AcDbEntity
  8
0
  6
HIDDEN
 62
     7
370
     0
100
AcDbCircle
 10
122.0976652105
 20
104.2995201342
 30
0.0
 40
2.500000000000009
100
AcDbArc
 50
171.9521537527
 51
188.0478462473
  0
ARC
  5
6E
330
1F
100
AcDbEntity
  8
0
  6
HIDDEN
 62
     7
370
     0
100
AcDbCircle
 10
122.0976652105
 20
104.2995201342
 30
0.0
 40
2.500000000000009
100
AcDbArc
 50
8.0478462473
 51
171.9521537527
  0
LINE
  5
6F
330
1F
100
AcDbEntity
  8
0
  6
Continuous
 62
     7
370
    15
100
AcDbLine
 10
128.9476652105
 20
91.9895201342
 30
0.0
 11
128.9476652105
 21
108.9895201342
 31
0.0
  0
LINE
  5
70
330
1F
100
AcDbEntity
  8
0
  6
Continuous
 62
     7
370
    15
100
AcDbLine
 10
115.2476652105
 20
108.9895201342
 30
0.0
 11
115.2476652105
 21
91.9895201342
 31
0.0
  0
LINE
  5
71
330
1F
100
AcDbEntity
  8
0
  6
Continuous
 62
     7
370
    15
100
AcDbLine
 10
126.2493314517
 20
164.2395188706
 30
0.0
 11
125.3553337247
 21
164.2395188706
 31
0.0
  0
LINE
  5
72
330
1F
100
AcDbEntity
  8
0
  6
Continuous
 62
     7
370
    15
100
AcDbLine
 10
125.3553337247
 20
162.3395165102
 30
0.0
 11
126.2493314517
 21
162.3395165102
 31
0.0
  0
LINE
  5
73
330
1F
100
AcDbEntity
  8
0
  6
Continuous
 62
     7
370
    15
100
AcDbLine
 10
109.1976652105
 20
185.2895201342
 30
0.0
 11
135.1976652105
 21
185.2895201342
 31
0.0
  0
LINE
  5
74
330
1F
100
AcDbEntity
  8
0
  6
Continuous
 62
     7
370
    15
100
AcDbLine
 10
109.0829111122
 20
170.2895201342
 30
0.0
 11
135.3124193089
 21
170.2895201342
 31
0.0
  0
ARC
  5
75
330
1F
100
AcDbEntity
  8
0
  6
Continuous
 62
     7
370
    15
100
AcDbCircle
 10
135.1976652105
 20
184.5895201342
 30
0.0
 40
0.7000000000000171
100
AcDbArc
 50
0.0
 51
90.0
  0
LINE
  5
76
330
1F
100
AcDbEntity
  8
0
  6
Continuous
 62
     7
370
    15
100
AcDbLine
 10
135.8976652105
 20
184.5895201342
 30
0.0
 11
135.8976652105
 21
170.2895201342
 31
0.0
  0
LINE
  5
77
330
1F
100
AcDbEntity
  8
0
  6
Continuous
 62
     7
370
    15
100
AcDbLine
 10
135.8976652105
 20
170.2895201342
 30
0.0
 11
135.3124193089
 21
170.2895201342
 31
0.0
  0
LINE
  5
78
330
1F
100
AcDbEntity
  8
0
  6
Continuous
 62
     7
370
    15
100
AcDbLine
 10
108.4976652105
 20
170.2895201342
 30
0.0
 11
108.4976652105
 21
184.5895201342
 31
0.0
  0
LINE
  5
79
330
1F
100
AcDbEntity
  8
0
  6
Continuous
 62
     7
370
    15
100
AcDbLine
 10
109.0829111122
 20
170.2895201342
 30
0.0
 11
108.4976652105
 21
170.2895201342
 31
0.0
  0
ARC
  5
7A
330
1F
100
AcDbEntity
  8
0
  6
Continuous
 62
     7
370
    15
100
AcDbCircle
 10
109.1976652105
 20
184.5895201342
 30
0.0
 40
0.7000000000000171
100
AcDbArc
 50
90.0
 51
180.0
  0
LINE
  5
7B
330
1F
100
AcDbEntity
  8
0
  6
Continuous
 62
     7
370
    15
100
AcDbLine
 10
124.5976652105
 20
161.7895201342
 30
0.0
 11
128.5976652105
 21
161.7895201342
 31
0.0
  0
ARC
  5
7C
330
1F
100
AcDbEntity
  8
0
  6
Continuous
 62
     7
370
    15
100
AcDbCircle
 10
128.5976654701
 20
163.2895214157
 30
0.0
 40
1.499999314546644
100
AcDbArc
 50
269.9999839115
 51
90.0000160885
  0
LINE
  5
7D
330
1F
100
AcDbEntity
  8
0
  6
Continuous
 62
     7
370
    15
100
AcDbLine
 10
128.5976652105
 20
164.7895201342
 30
0.0
 11
124.5976652105
 21
164.7895201342
 31
0.0
  0
LINE
  5
7E
330
1F
100
AcDbEntity
  8
0
  6
Continuous
 62
     7
370
    15
100
AcDbLine
 10
109.0829111122
 20
169.7895201342
 30
0.0
 11
135.3124193089
 21
169.7895201342
 31
0.0
  0
ARC
  5
7F
330
1F
100
AcDbEntity
  8
0
  6
Continuous
 62
     7
370
    15
100
AcDbCircle
 10
116.6976649216
 20
109.3895201638
 30
0.0
 40
0.9999998452115986
100
AcDbArc
 50
89.9999817398
 51
180.0
  0
LINE
  5
80
330
1F
100
AcDbEntity
  8
0
  6
Continuous
 62
     7
370
    15
100
AcDbLine
 10
115.6976650764
 20
109.3895198451
 30
0.0
 11
115.6976650764
 21
108.9895205246
 31
0.0
  0
LINE
  5
81
330
1F
100
AcDbEntity
  8
0
  6
Continuous
 62
     7
370
    15
100
AcDbLine
 10
115.6976650764
 20
91.9895200664
 30
0.0
 11
115.6976650764
 21
91.5895202802
 31
0.0
  0
ARC
  5
82
330
1F
100
AcDbEntity
  8
0
  6
Continuous
 62
     7
370
    15
100
AcDbCircle
 10
116.6976654862
 20
91.5895205261
 30
0.0
 40
1.000000409751111
100
AcDbArc
 50
180.0
 51
269.9999859145
  0
ARC
  5
83
330
1F
100
AcDbEntity
  8
0
  6
Continuous
 62
     7
370
    15
100
AcDbCircle
 10
127.4976649716
 20
91.5895203634
 30
0.0
 40
1.000000247107312
100
AcDbArc
 50
270.0000047667
 51
360.0
  0
LINE
  5
84
330
1F
100
AcDbEntity
  8
0
  6
Continuous
 62
     7
370
    15
100
AcDbLine
 10
128.4976652187
 20
91.5895202802
 30
0.0
 11
128.4976652187
 21
91.9895200664
 31
0.0
  0
LINE
  5
85
330
1F
100
AcDbEntity
  8
0
  6
Continuous
 62
     7
370
    15
100
AcDbLine
 10
128.4976652187
 20
108.9895205246
 30
0.0
 11
128.4976652187
 21
109.3895198451
 31
0.0
  0
ARC
  5
86
330
1F
100
AcDbEntity
  8
0
  6
Continuous
 62
     7
370
    15
100
AcDbCircle
 10
127.4976658513
 20
109.3895206415
 30
0.0
 40
0.9999993674682958
100
AcDbArc
 50
360.0
 51
90.000045633
  0
LINE
  5
87
330
1F
100
AcDbEntity
  8
0
  6
Continuous
 62
     7
370
    15
100
AcDbLine
 10
127.4976652105
 20
110.3895201342
 30
0.0
 11
116.6976652105
 21
110.3895201342
 31
0.0
  0
LINE
  5
88
330
1F
100
AcDbEntity
  8
0
  6
Continuous
 62
     7
370
    15
100
AcDbLine
 10
116.6976652105
 20
90.5895201342
 30
0.0
 11
127.4976652105
 21
90.5895201342
 31
0.0
  0
CIRCLE
  5
89
330
1F
100
AcDbEntity
  8
0
  6
Continuous
 62
     7
370
    15
100
AcDbCircle
 10
119.5977407962
 20
146.5891170322
 30
0.0
 40
8.499591921337281
  0
ARC
  5
8A
330
1F
100
AcDbEntity
  8
0
  6
Continuous
 62
     7
370
    15
100
AcDbCircle
 10
124.5976616117
 20
163.2895214157
 30
0.0
 40
1.49999931455118
100
AcDbArc
 50
89.9998581805
 51
270.0001418195
  0
LINE
  5
8B
330
1F
100
AcDbEntity
  8
0
  6
Continuous
 62
     7
370
    15
100
AcDbLine
 10
135.1976652105
 20
87.2895201342
 30
0.0
 11
109.1976652105
 21
87.2895201342
 31
0.0
  0
ARC
  5
8C
330
1F
100
AcDbEntity
  8
0
  6
Continuous
 62
     7
370
    15
100
AcDbCircle
 10
109.1976652105
 20
87.9895201342
 30
0.0
 40
0.7000000000000028
100
AcDbArc
 50
180.0
 51
270.0
  0
LINE
  5
8D
330
1F
100
AcDbEntity
  8
0
  6
Continuous
 62
     7
370
    15
100
AcDbLine
 10
108.4976652105
 20
87.9895201342
 30
0.0
 11
108.4976652105
 21
169.7895201342
 31
0.0
  0
LINE
  5
8E
330
1F
100
AcDbEntity
  8
0
  6
Continuous
 62
     7
370
    15
100
AcDbLine
 10
108.4976652105
 20
169.7895201342
 30
0.0
 11
109.0829111122
 21
169.7895201342
 31
0.0
  0
LINE
  5
8F
330
1F
100
AcDbEntity
  8
0
  6
Continuous
 62
     7
370
    15
100
AcDbLine
 10
135.8976652105
 20
169.7895201342
 30
0.0
 11
135.8976652105
 21
87.9895201342
 31
0.0
  0
LINE
  5
90
330
1F
100
AcDbEntity
  8
0
  6
Continuous
 62
     7
370
    15
100
AcDbLine
 10
135.3124193089
 20
169.7895201342
 30
0.0
 11
135.8976652105
 21
169.7895201342
 31
0.0
  0
ARC
  5
91
330
1F
100
AcDbEntity
  8
0
  6
Continuous
 62
     7
370
    15
100
AcDbCircle
 10
135.1976652105
 20
87.9895201342
 30
0.0
 40
0.6999999999999886
100
AcDbArc
 50
270.0
 51
0.0
  0
LINE
  5
92
330
1F
100
AcDbEntity
  8
0
  6
Continuous
 62
     7
370
    15
100
AcDbLine
 10
109.1976649423
 20
169.7895234124
 30
0.0
 11
109.1976649423
 21
170.2895169751
 31
0.0
  0
LINE
  5
93
330
1F
100
AcDbEntity
  8
0
  6
Continuous
 62
     7
370
    15
100
AcDbLine
 10
109.497665364
 20
170.2895169751
 30
0.0
 11
109.497665364
 21
169.7895234124
 31
0.0
  0
LINE
  5
94
330
1F
100
AcDbEntity
  8
0
  6
Continuous
 62
     7
370
    15
100
AcDbLine
 10
134.8976650571
 20
169.7895234124
 30
0.0
 11
134.8976650571
 21
170.2895169751
 31
0.0
  0
LINE
  5
95
330
1F
100
AcDbEntity
  8
0
  6
Continuous
 62
     7
370
    15
100
AcDbLine
 10
135.1976654788
 20
170.2895169751
 30
0.0
 11
135.1976654788
 21
169.7895234124
 31
0.0
  0
LINE
  5
96
330
1F
100
AcDbEntity
  8
0
  6
Continuous
 62
     7
370
    15
100
AcDbLine
 10
135.8976652105
 20
169.7895201342
 30
0.0
 11
135.8976652105
 21
170.2895201342
 31
0.0
  0
LINE
  5
97
330
1F
100
AcDbEntity
  8
0
  6
Continuous
 62
     7
370
    15
100
AcDbLine
 10
108.4976652105
 20
169.7895201342
 30
0.0
 11
108.4976652105
 21
170.2895201342
 31
0.0
  0
LINE
  5
98
330
1F
100
AcDbEntity
  8
0
  6
Continuous
 62
     7
370
    15
100
AcDbLine
 10
121.7476652105
 20
82.2895201342
 30
0.0
 11
117.5476652105
 21
82.2895201342
 31
0.0
  0
LINE
  5
99
330
1F
100
AcDbEntity
  8
0
  6
Continuous
 62
     7
370
    15
100
AcDbLine
 10
117.5476652105
 20
82.2895201342
 30
0.0
 11
117.5476652105
 21
85.2895201342
 31
0.0
  0
LINE
  5
9A
330
1F
100
AcDbEntity
  8
0
  6
Continuous
 62
     7
370
    15
100
AcDbLine
 10
121.7476652105
 20
85.2895201342
 30
0.0
 11
121.7476652105
 21
82.2895201342
 31
0.0
  0
LINE
  5
9B
330
1F
100
AcDbEntity
  8
0
  6
Continuous
 62
     7
370
    15
100
AcDbLine
 10
127.8864520538
 20
108.9895201342
 30
0.0
 11
116.3088783673
 21
108.9895201342
 31
0.0
  0
LINE
  5
9C
330
1F
100
AcDbEntity
  8
0
  6
Continuous
 62
     7
370
    15
100
AcDbLine
 10
127.8864520538
 20
91.9895201342
 30
0.0
 11
116.3088783673
 21
91.9895201342
 31
0.0
  0
LINE
  5
9D
330
1F
100
AcDbEntity
  8
0
  6
Continuous
 62
     7
370
    15
100
AcDbLine
 10
128.9476652105
 20
108.9895201342
 30
0.0
 11
127.8864520538
 21
108.9895201342
 31
0.0
  0
LINE
  5
9E
330
1F
100
AcDbEntity
  8
0
  6
Continuous
 62
     7
370
    15
100
AcDbLine
 10
128.9476652105
 20
91.9895201342
 30
0.0
 11
127.8864520538
 21
91.9895201342
 31
0.0
  0
LINE
  5
9F
330
1F
100
AcDbEntity
  8
0
  6
Continuous
 62
     7
370
    15
100
AcDbLine
 10
116.3088783673
 20
108.9895201342
 30
0.0
 11
115.2476652105
 21
108.9895201342
 31
0.0
  0
LINE
  5
A0
330
1F
100
AcDbEntity
  8
0
  6
Continuous
 62
     7
370
    15
100
AcDbLine
 10
116.3088783673
 20
91.9895201342
 30
0.0
 11
115.2476652105
 21
91.9895201342
 31
0.0
  0
LINE
  5
A1
330
1F
100
AcDbEntity
  8
0
  6
Continuous
 62
     7
370
    15
100
AcDbLine
 10
126.5976651867
 20
108.9895205246
 30
0.0
 11
126.5976651867
 21
109.6995198773
 31
0.0
  0
LINE
  5
A2
330
1F
100
AcDbEntity
  8
0
  6
Continuous
 62
     7
370
    15
100
AcDbLine
 10
117.5976651085
 20
108.9895205246
 30
0.0
 11
117.5976651085
 21
109.6995198773
 31
0.0
  0
LINE
  5
A3
330
1F
100
AcDbEntity
  8
0
  6
Continuous
 62
     7
370
    15
100
AcDbLine
 10
117.5976651085
 20
109.6995198773
 30
0.0
 11
126.5976651867
 21
109.6995198773
 31
0.0
  0
LINE
  5
A4
330
1F
100
AcDbEntity
  8
0
  6
Continuous
 62
     7
370
    15
100
AcDbLine
 10
126.5976651867
 20
91.9895200664
 30
0.0
 11
126.5976651867
 21
91.279520248
 31
0.0
  0
LINE
  5
A5
330
1F
100
AcDbEntity
  8
0
  6
Continuous
 62
     7
370
    15
100
AcDbLine
 10
117.5976651085
 20
91.279520248
 30
0.0
 11
126.5976651867
 21
91.279520248
 31
0.0
  0
LINE
  5
A6
330
1F
100
AcDbEntity
  8
0
  6
Continuous
 62
     7
370
    15
100
AcDbLine
 10
117.5976651085
 20
91.9895200664
 30
0.0
 11
117.5976651085
 21
91.279520248
 31
0.0
  0
LINE
  5
A7
330
1F
100
AcDbEntity
  8
0
  6
Continuous
 62
     7
370
    15
100
AcDbLine
 10
116.0976653283
 20
109.6995198773
 30
0.0
 11
117.5976651085
 21
109.6995198773
 31
0.0
  0
LINE
  5
A8
330
1F
100
AcDbEntity
  8
0
  6
Continuous
 62
     7
370
    15
100
AcDbLine
 10
116.0976653283
 20
108.9895205246
 30
0.0
 11
116.0976653283
 21
109.6995198773
 31
0.0
  0
LINE
  5
A9
330
1F
100
AcDbEntity
  8
0
  6
Continuous
 62
     7
370
    15
100
AcDbLine
 10
126.5976651867
 20
109.6995198773
 30
0.0
 11
128.0976654326
 21
109.6995198773
 31
0.0
  0
LINE
  5
AA
330
1F
100
AcDbEntity
  8
0
  6
Continuous
 62
     7
370
    15
100
AcDbLine
 10
128.0976654326
 20
108.9895205246
 30
0.0
 11
128.0976654326
 21
109.6995198773
 31
0.0
  0
LINE
  5
AB
330
1F
100
AcDbEntity
  8
0
  6
Continuous
 62
     7
370
    15
100
AcDbLine
 10
126.5976651867
 20
91.279520248
 30
0.0
 11
128.0976654326
 21
91.279520248
 31
0.0
  0
LINE
  5
AC
330
1F
100
AcDbEntity
  8
0
  6
Continuous
 62
     7
370
    15
100
AcDbLine
 10
128.0976654326
 20
91.9895200664
 30
0.0
 11
128.0976654326
 21
91.279520248
 31
0.0
  0
LINE
  5
AD
330
1F
100
AcDbEntity
  8
0
  6
Continuous
 62
     7
370
    15
100
AcDbLine
 10
116.0976653283
 20
91.279520248
 30
0.0
 11
117.5976651085
 21
91.279520248
 31
0.0
  0
LINE
  5
AE
330
1F
100
AcDbEntity
  8
0
  6
Continuous
 62
     7
370
    15
100
AcDbLine
 10
116.0976653283
 20
91.9895200664
 30
0.0
 11
116.0976653283
 21
91.279520248
 31
0.0
  0
LINE
  5
AF
330
1F
100
AcDbEntity
  8
0
  6
Continuous
 62
     7
370
    15
100
AcDbLine
 10
116.0976653283
 20
110.1755523728
 30
0.0
 11
116.0976653283
 21
109.6995198773
 31
0.0
  0
LINE
  5
B0
330
1F
100
AcDbEntity
  8
0
  6
Continuous
 62
     7
370
    15
100
AcDbLine
 10
116.0976653283
 20
91.279520248
 30
0.0
 11
116.0976653283
 21
90.7952350704
 31
0.0
  0
LINE
  5
B1
330
1F
100
AcDbEntity
  8
0
  6
Continuous
 62
     7
370
    15
100
AcDbLine
 10
116.2384310101
 20
91.3461442711
 30
0.0
 11
116.1277181764
 21
90.7785336626
 31
0.0
  0
LINE
  5
B2
330
1F
100
AcDbEntity
  8
0
  6
Continuous
 62
     7
370
    15
100
AcDbLine
 10
128.0976654326
 20
91.3461442711
 30
0.0
 11
128.4563154277
 21
91.3461442711
 31
0.0
  0
LINE
  5
B3
330
1F
100
AcDbEntity
  8
0
  6
Continuous
 62
     7
370
    15
100
AcDbLine
 10
125.6976652105
 20
110.3895201342
 30
0.0
 11
125.6976652105
 21
109.6995201342
 31
0.0
  0
LINE
  5
B4
330
1F
100
AcDbEntity
  8
0
  6
Continuous
 62
     7
370
    15
100
AcDbLine
 10
112.261964835
 20
144.0895201342
 30
0.0
 11
112.5265973987
 21
144.0895201342
 31
0.0
  0
ARC
  5
B5
330
1F
100
AcDbEntity
  8
0
  6
Continuous
 62
     7
370
    15
100
AcDbCircle
 10
119.5976652105
 20
146.5895201342
 30
0.0
 40
7.500000000000001
100
AcDbArc
 50
99.5940682269
 51
160.5287793655
  0
LINE
  5
B6
330
1F
100
AcDbEntity
  8
0
  6
Continuous
 62
     7
370
    15
100
AcDbLine
 10
118.3476652105
 20
154.2380494046
 30
0.0
 11
118.3476652105
 21
153.9846198631
 31
0.0
  0
ARC
  5
B7
330
1F
100
AcDbEntity
  8
0
  6
Continuous
 62
     7
370
    15
100
AcDbCircle
 10
119.5976652105
 20
146.5895201342
 30
0.0
 40
7.500000000000001
100
AcDbArc
 50
19.4712206345
 51
80.4059317731
  0
LINE
  5
B8
330
1F
100
AcDbEntity
  8
0
  6
Continuous
 62
     7
370
    15
100
AcDbLine
 10
126.9333655861
 20
149.0895201342
 30
0.0
 11
126.6687330224
 21
149.0895201342
 31
0.0
  0
ARC
  5
B9
330
1F
100
AcDbEntity
  8
0
  6
Continuous
 62
     7
370
    15
100
AcDbCircle
 10
119.5976652105
 20
146.5895201342
 30
0.0
 40
7.750000000000001
100
AcDbArc
 50
341.180936631
 51
18.819063369
  0
LINE
  5
BA
330
1F
100
AcDbEntity
  8
0
  6
Continuous
 62
     7
370
    15
100
AcDbLine
 10
126.6687330224
 20
144.0895201342
 30
0.0
 11
126.9333655861
 21
144.0895201342
 31
0.0
  0
ARC
  5
BB
330
1F
100
AcDbEntity
  8
0
  6
Continuous
 62
     7
370
    15
100
AcDbCircle
 10
119.5976652105
 20
146.5895201342
 30
0.0
 40
7.500000000000001
100
AcDbArc
 50
199.4712206345
 51
340.5287793655
  0
ARC
  5
BC
330
1F
100
AcDbEntity
  8
0
  6
Continuous
 62
     7
370
    15
100
AcDbCircle
 10
119.5976652105
 20
146.5895201342
 30
0.0
 40
7.750000000000014
100
AcDbArc
 50
161.180936631
 51
198.819063369
  0
LINE
  5
BD
330
1F
100
AcDbEntity
  8
0
  6
Continuous
 62
     7
370
    15
100
AcDbLine
 10
120.8476652105
 20
153.9846198631
 30
0.0
 11
120.8476652105
 21
154.2380494046
 31
0.0
  0
CIRCLE
  5
BE
330
1F
100
AcDbEntity
  8
0
  6
Continuous
 62
     7
370
    15
100
AcDbCircle
 10
119.5976652105
 20
146.5895201342
 30
0.0
 40
6.599999999999994
  0
LINE
  5
BF
330
1F
100
AcDbEntity
  8
0
  6
Continuous
 62
     7
370
    15
100
AcDbLine
 10
112.5265973987
 20
149.0895201342
 30
0.0
 11
112.261964835
 21
149.0895201342
 31
0.0
  0
ARC
  5
C0
330
1F
100
AcDbEntity
  8
0
  6
Continuous
 62
     7
370
    15
100
AcDbCircle
 10
119.5976652105
 20
146.5895201342
 30
0.0
 40
7.750000000000041
100
AcDbArc
 50
80.7182009133
 51
99.2817990867
  0
ARC
  5
C1
330
1F
100
AcDbEntity
  8
0
  6
Continuous
 62
     7
370
    15
100
AcDbCircle
 10
119.5976652105
 20
146.5895201342
 30
0.0
 40
5.0
100
AcDbArc
 50
236.5220322352
 51
243.2563160496
  0
ARC
  5
C2
330
1F
100
AcDbEntity
  8
0
  6
Continuous
 62
     7
370
    15
100
AcDbCircle
 10
116.0976652105
 20
143.0895201342
 30
0.0
 40
1.000000000000012
100
AcDbArc
 50
317.8951056765
 51
132.1048943235
  0
ARC
  5
C3
330
1F
100
AcDbEntity
  8
0
  6
Continuous
 62
     7
370
    15
100
AcDbCircle
 10
119.5976652105
 20
146.5895201342
 30
0.0
 40
5.000000000000004
100
AcDbArc
 50
201.4575720705
 51
213.4779677648
  0
LINE
  5
C4
330
1F
100
AcDbEntity
  8
0
  6
Continuous
 62
     7
370
    15
100
AcDbLine
 10
114.9442216625
 20
144.7604594066
 30
0.0
 11
115.2976652903
 21
144.9645204143
 31
0.0
  0
LINE
  5
C5
330
1F
100
AcDbEntity
  8
0
  6
Continuous
 62
     7
370
    15
100
AcDbLine
 10
115.2976652903
 20
144.9645204143
 30
0.0
 11
115.2976652903
 21
148.2145195501
 31
0.0
  0
LINE
  5
C6
330
1F
100
AcDbEntity
  8
0
  6
Continuous
 62
     7
370
    15
100
AcDbLine
 10
115.2976652903
 20
148.2145195501
 30
0.0
 11
114.9442216625
 21
148.4185808618
 31
0.0
  0
ARC
  5
C7
330
1F
100
AcDbEntity
  8
0
  6
Continuous
 62
     7
370
    15
100
AcDbCircle
 10
116.0976652105
 20
150.0895201342
 30
0.0
 40
1.000000000000011
100
AcDbArc
 50
227.8951056765
 51
42.1048943235
  0
ARC
  5
C8
330
1F
100
AcDbEntity
  8
0
  6
Continuous
 62
     7
370
    15
100
AcDbCircle
 10
119.5976652105
 20
146.5895201342
 30
0.0
 40
5.000000000000024
100
AcDbArc
 50
116.7436839504
 51
123.4779677648
  0
LINE
  5
C9
330
1F
100
AcDbEntity
  8
0
  6
Continuous
 62
     7
370
    15
100
AcDbLine
 10
117.3476650675
 20
148.839518954
 30
0.0
 11
115.5976652463
 21
148.839518954
 31
0.0
  0
LINE
  5
CA
330
1F
100
AcDbEntity
  8
0
  6
Continuous
 62
     7
370
    15
100
AcDbLine
 10
115.5976652463
 20
148.839518954
 30
0.0
 11
115.5976652463
 21
144.3395210104
 31
0.0
  0
ARC
  5
CB
330
1F
100
AcDbEntity
  8
0
  6
Continuous
 62
     7
370
    15
100
AcDbCircle
 10
119.5976652105
 20
146.5895201342
 30
0.0
 40
5.000000000000008
100
AcDbArc
 50
146.5220322352
 51
158.5424279295
  0
LINE
  5
CC
330
1F
100
AcDbEntity
  8
0
  6
Continuous
 62
     7
370
    15
100
AcDbLine
 10
115.5976652463
 20
144.3395210104
 30
0.0
 11
117.3476650675
 21
144.3395210104
 31
0.0
  0
LINE
  5
CD
330
1F
100
AcDbEntity
  8
0
  6
Continuous
 62
     7
370
    15
100
AcDbLine
 10
117.3476652105
 20
151.0546629091
 30
0.0
 11
117.3476650675
 21
148.839518954
 31
0.0
  0
LINE
  5
CE
330
1F
100
AcDbEntity
  8
0
  6
Continuous
 62
     7
370
    15
100
AcDbLine
 10
117.3476650675
 20
144.3395210104
 30
0.0
 11
117.3476652105
 21
142.1243773593
 31
0.0
  0
LINE
  5
CF
330
1F
100
AcDbEntity
  8
0
  6
Continuous
 62
     7
370
    15
100
AcDbLine
 10
123.8976652331
 20
144.9645204143
 30
0.0
 11
124.2511087586
 21
144.7604594066
 31
0.0
  0
LINE
  5
D0
330
1F
100
AcDbEntity
  8
0
  6
Continuous
 62
     7
370
    15
100
AcDbLine
 10
124.2511087586
 20
148.4185808618
 30
0.0
 11
123.8976652331
 21
148.2145195501
 31
0.0
  0
ARC
  5
D1
330
1F
100
AcDbEntity
  8
0
  6
Continuous
 62
     7
370
    15
100
AcDbCircle
 10
123.2746204727
 20
150.2664753964
 30
0.0
 40
1.399999999999995
100
AcDbArc
 50
150.9456430044
 51
299.0543569956
  0
ARC
  5
D2
330
1F
100
AcDbEntity
  8
0
  6
Continuous
 62
     7
370
    15
100
AcDbCircle
 10
123.0976652105
 20
143.0895201342
 30
0.0
 40
1.000000000000003
100
AcDbArc
 50
47.8951056765
 51
222.1048943235
  0
LINE
  5
D3
330
1F
100
AcDbEntity
  8
0
  6
Continuous
 62
     7
370
    15
100
AcDbLine
 10
123.5976651606
 20
148.5895184474
 30
0.0
 11
121.597665182
 21
148.5895184474
 31
0.0
  0
ARC
  5
D4
330
1F
100
AcDbEntity
  8
0
  6
Continuous
 62
     7
370
    15
100
AcDbCircle
 10
119.5976652105
 20
146.5895201342
 30
0.0
 40
4.999999999999993
100
AcDbArc
 50
296.7436839504
 51
303.4779677648
  0
LINE
  5
D5
330
1F
100
AcDbEntity
  8
0
  6
Continuous
 62
     7
370
    15
100
AcDbLine
 10
121.8476652105
 20
142.1243773593
 30
0.0
 11
121.847665223
 21
144.3395210104
 31
0.0
  0
LINE
  5
D6
330
1F
100
AcDbEntity
  8
0
  6
Continuous
 62
     7
370
    15
100
AcDbLine
 10
121.847665223
 20
144.3395210104
 30
0.0
 11
123.5976651606
 21
144.3395210104
 31
0.0
  0
LINE
  5
D7
330
1F
100
AcDbEntity
  8
0
  6
Continuous
 62
     7
370
    15
100
AcDbLine
 10
123.8976652331
 20
148.2145195501
 30
0.0
 11
123.8976652331
 21
144.9645204143
 31
0.0
  0
ARC
  5
D8
330
1F
100
AcDbEntity
  8
0
  6
Continuous
 62
     7
370
    15
100
AcDbCircle
 10
119.5976652105
 20
146.5895201342
 30
0.0
 40
5.000000000000014
100
AcDbArc
 50
60.6182367682
 51
66.4218215218
  0
ARC
  5
D9
330
1F
100
AcDbEntity
  8
0
  6
Continuous
 62
     7
370
    15
100
AcDbCircle
 10
119.5976652105
 20
146.5895201342
 30
0.0
 40
4.999999999999994
100
AcDbArc
 50
326.5220322352
 51
338.5424279295
  0
ARC
  5
DA
330
1F
100
AcDbEntity
  8
0
  6
Continuous
 62
     7
370
    15
100
AcDbCircle
 10
119.5976652105
 20
146.5895201342
 30
0.0
 40
5.000000000000007
100
AcDbArc
 50
21.4575720705
 51
29.3817632318
  0
LINE
  5
DB
330
1F
100
AcDbEntity
  8
0
  6
Continuous
 62
     7
370
    15
100
AcDbLine
 10
123.5976651606
 20
144.3395210104
 30
0.0
 11
123.5976651606
 21
148.5895184474
 31
0.0
  0
LINE
  5
DC
330
1F
100
AcDbEntity
  8
0
  6
Continuous
 62
     7
370
    15
100
AcDbLine
 10
121.597665182
 20
148.5895184474
 30
0.0
 11
121.5976652105
 21
151.1720958291
 31
0.0
  0
LINE
  5
DD
330
1F
100
AcDbEntity
  8
0
  6
Continuous
 62
     7
370
    15
100
AcDbLine
 10
117.4476653633
 20
150.4895170824
 30
0.0
 11
117.4476653633
 21
148.7395209865
 31
0.0
  0
LINE
  5
DE
330
1F
100
AcDbEntity
  8
0
  6
Continuous
 62
     7
370
    15
100
AcDbLine
 10
118.4476652944
 20
151.489519109
 30
0.0
 11
117.4476653633
 21
150.4895170824
 31
0.0
  0
LINE
  5
DF
330
1F
100
AcDbEntity
  8
0
  6
Continuous
 62
     7
370
    15
100
AcDbLine
 10
120.497665188
 20
151.489519109
 30
0.0
 11
118.4476652944
 21
151.489519109
 31
0.0
  0
LINE
  5
E0
330
1F
100
AcDbEntity
  8
0
  6
Continuous
 62
     7
370
    15
100
AcDbLine
 10
121.4976652355
 20
150.4895170824
 30
0.0
 11
120.497665188
 21
151.489519109
 31
0.0
  0
LINE
  5
E1
330
1F
100
AcDbEntity
  8
0
  6
Continuous
 62
     7
370
    15
100
AcDbLine
 10
121.4976652355
 20
148.4895204799
 30
0.0
 11
121.4976652355
 21
150.4895170824
 31
0.0
  0
LINE
  5
E2
330
1F
100
AcDbEntity
  8
0
  6
Continuous
 62
     7
370
    15
100
AcDbLine
 10
123.4976652141
 20
148.4895204799
 30
0.0
 11
121.4976652355
 21
148.4895204799
 31
0.0
  0
LINE
  5
E3
330
1F
100
AcDbEntity
  8
0
  6
Continuous
 62
     7
370
    15
100
AcDbLine
 10
123.4976652141
 20
144.4395189779
 30
0.0
 11
123.4976652141
 21
148.4895204799
 31
0.0
  0
LINE
  5
E4
330
1F
100
AcDbEntity
  8
0
  6
Continuous
 62
     7
370
    15
100
AcDbLine
 10
121.7476652183
 20
142.5895211892
 30
0.0
 11
121.7476652183
 21
144.4395189779
 31
0.0
  0
LINE
  5
E5
330
1F
100
AcDbEntity
  8
0
  6
Continuous
 62
     7
370
    15
100
AcDbLine
 10
120.747665229
 20
141.5895191626
 30
0.0
 11
121.7476652183
 21
142.5895211892
 31
0.0
  0
LINE
  5
E6
330
1F
100
AcDbEntity
  8
0
  6
Continuous
 62
     7
370
    15
100
AcDbLine
 10
117.4476653633
 20
144.4395189779
 30
0.0
 11
117.4476653633
 21
142.5895211892
 31
0.0
  0
LINE
  5
E7
330
1F
100
AcDbEntity
  8
0
  6
Continuous
 62
     7
370
    15
100
AcDbLine
 10
115.6976650764
 20
144.4395189779
 30
0.0
 11
117.4476653633
 21
144.4395189779
 31
0.0
  0
LINE
  5
E8
330
1F
100
AcDbEntity
  8
0
  6
Continuous
 62
     7
370
    15
100
AcDbLine
 10
115.6976650764
 20
148.7395209865
 30
0.0
 11
115.6976650764
 21
144.4395189779
 31
0.0
  0
LINE
  5
E9
330
1F
100
AcDbEntity
  8
0
  6
Continuous
 62
     7
370
    15
100
AcDbLine
 10
117.4476653633
 20
148.7395209865
 30
0.0
 11
115.6976650764
 21
148.7395209865
 31
0.0
  0
CIRCLE
  5
EA
330
1F
100
AcDbEntity
  8
0
  6
Continuous
 62
     7
370
    15
100
AcDbCircle
 10
120.5976652105
 20
149.5895201342
 30
0.0
 40
0.8500000000000085
  0
CIRCLE
  5
EB
330
1F
100
AcDbEntity
  8
0
  6
Continuous
 62
     7
370
    15
100
AcDbCircle
 10
116.5976652105
 20
147.5895201342
 30
0.0
 40
0.8499999999999943
  0
CIRCLE
  5
EC
330
1F
100
AcDbEntity
  8
0
  6
Continuous
 62
     7
370
    15
100
AcDbCircle
 10
120.5976652105
 20
147.5895201342
 30
0.0
 40
0.8500000000000085
  0
CIRCLE
  5
ED
330
1F
100
AcDbEntity
  8
0
  6
Continuous
 62
     7
370
    15
100
AcDbCircle
 10
118.5976652105
 20
147.5895201342
 30
0.0
 40
0.8499999999999943
  0
CIRCLE
  5
EE
330
1F
100
AcDbEntity
  8
0
  6
Continuous
 62
     7
370
    15
100
AcDbCircle
 10
122.5976652105
 20
147.5895201342
 30
0.0
 40
0.8499999999999943
  0
CIRCLE
  5
EF
330
1F
100
AcDbEntity
  8
0
  6
Continuous
 62
     7
370
    15
100
AcDbCircle
 10
122.5976652105
 20
145.5895201342
 30
0.0
 40
0.8499999999999943
  0
CIRCLE
  5
F0
330
1F
100
AcDbEntity
  8
0
  6
Continuous
 62
     7
370
    15
100
AcDbCircle
 10
120.7976652105
 20
143.3895201342
 30
0.0
 40
0.8500000000000085
  0
CIRCLE
  5
F1
330
1F
100
AcDbEntity
  8
0
  6
Continuous
 62
     7
370
    15
100
AcDbCircle
 10
118.3976652105
 20
143.3895201342
 30
0.0
 40
0.8499999999999943
  0
CIRCLE
  5
F2
330
1F
100
AcDbEntity
  8
0
  6
Continuous
 62
     7
370
    15
100
AcDbCircle
 10
118.5976652105
 20
145.5895201342
 30
0.0
 40
0.8499999999999943
  0
CIRCLE
  5
F3
330
1F
100
AcDbEntity
  8
0
  6
Continuous
 62
     7
370
    15
100
AcDbCircle
 10
120.5976652105
 20
145.5895201342
 30
0.0
 40
0.8500000000000085
  0
CIRCLE
  5
F4
330
1F
100
AcDbEntity
  8
0
  6
Continuous
 62
     7
370
    15
100
AcDbCircle
 10
116.5976652105
 20
145.5895201342
 30
0.0
 40
0.8499999999999943
  0
CIRCLE
  5
F5
330
1F
100
AcDbEntity
  8
0
  6
Continuous
 62
     7
370
    15
100
AcDbCircle
 10
118.3976652105
 20
149.7895201342
 30
0.0
 40
0.8499999999999943
  0
LINE
  5
F6
330
1F
100
AcDbEntity
  8
0
  6
Continuous
 62
     7
370
    15
100
AcDbLine
 10
118.4476652944
 20
141.5895191626
 30
0.0
 11
120.747665229
 21
141.5895191626
 31
0.0
  0
LINE
  5
F7
330
1F
100
AcDbEntity
  8
0
  6
Continuous
 62
     7
370
    15
100
AcDbLine
 10
117.4476653633
 20
142.5895211892
 30
0.0
 11
118.4476652944
 21
141.5895191626
 31
0.0
  0
LINE
  5
F8
330
1F
100
AcDbEntity
  8
0
  6
Continuous
 62
     7
370
    15
100
AcDbLine
 10
121.7476652183
 20
144.4395189779
 30
0.0
 11
123.4976652141
 21
144.4395189779
 31
0.0
  0
LINE
  5
F9
330
1F
100
AcDbEntity
  8
0
  6
Continuous
 62
     7
370
    15
100
AcDbLine
 10
120.2215793838
 20
144.0145192342
 30
0.0
 11
121.3737511371
 21
144.0145192342
 31
0.0
  0
LINE
  5
FA
330
1F
100
AcDbEntity
  8
0
  6
Continuous
 62
     7
370
    15
100
AcDbLine
 10
115.9726650749
 20
145.0134334759
 30
0.0
 11
115.9726650749
 21
146.1656061606
 31
0.0
  0
LINE
  5
FB
330
1F
100
AcDbEntity
  8
0
  6
Continuous
 62
     7
370
    15
100
AcDbLine
 10
117.9726654028
 20
145.0134334759
 30
0.0
 11
117.9726654028
 21
146.1656061606
 31
0.0
  0
LINE
  5
FC
330
1F
100
AcDbEntity
  8
0
  6
Continuous
 62
     7
370
    15
100
AcDbLine
 10
120.0215792579
 20
150.2145236032
 30
0.0
 11
121.1737511276
 21
150.2145236032
 31
0.0
  0
LINE
  5
FD
330
1F
100
AcDbEntity
  8
0
  6
Continuous
 62
     7
370
    15
100
AcDbLine
 10
120.172665158
 20
142.8134334879
 30
0.0
 11
120.172665158
 21
143.9656061725
 31
0.0
  0
LINE
  5
FE
330
1F
100
AcDbEntity
  8
0
  6
Continuous
 62
     7
370
    15
100
AcDbLine
 10
119.0226652489
 20
143.9656061725
 30
0.0
 11
119.0226652489
 21
142.8134334879
 31
0.0
  0
LINE
  5
FF
330
1F
100
AcDbEntity
  8
0
  6
Continuous
 62
     7
370
    15
100
AcDbLine
 10
118.973751256
 20
149.1645207302
 30
0.0
 11
117.8215792698
 21
149.1645207302
 31
0.0
  0
LINE
  5
100
330
1F
100
AcDbEntity
  8
0
  6
Continuous
 62
     7
370
    15
100
AcDbLine
 10
118.0215793957
 20
146.2145192222
 30
0.0
 11
119.1737511491
 21
146.2145192222
 31
0.0
  0
LINE
  5
101
330
1F
100
AcDbEntity
  8
0
  6
Continuous
 62
     7
370
    15
100
AcDbLine
 10
121.1737511276
 20
144.9645204143
 30
0.0
 11
120.0215792579
 21
144.9645204143
 31
0.0
  0
LINE
  5
102
330
1F
100
AcDbEntity
  8
0
  6
Continuous
 62
     7
370
    15
100
AcDbLine
 10
117.8215792698
 20
144.0145192342
 30
0.0
 11
118.973751256
 21
144.0145192342
 31
0.0
  0
LINE
  5
103
330
1F
100
AcDbEntity
  8
0
  6
Continuous
 62
     7
370
    15
100
AcDbLine
 10
117.7726652769
 20
142.8134334879
 30
0.0
 11
117.7726652769
 21
143.9656061725
 31
0.0
  0
LINE
  5
104
330
1F
100
AcDbEntity
  8
0
  6
Continuous
 62
     7
370
    15
100
AcDbLine
 10
121.222665237
 20
146.1656061606
 30
0.0
 11
121.222665237
 21
145.0134334759
 31
0.0
  0
LINE
  5
105
330
1F
100
AcDbEntity
  8
0
  6
Continuous
 62
     7
370
    15
100
AcDbLine
 10
121.3737511371
 20
142.7645204262
 30
0.0
 11
120.2215793838
 21
142.7645204262
 31
0.0
  0
LINE
  5
106
330
1F
100
AcDbEntity
  8
0
  6
Continuous
 62
     7
370
    15
100
AcDbLine
 10
119.9726652649
 20
147.0134338038
 30
0.0
 11
119.9726652649
 21
148.1656064884
 31
0.0
  0
LINE
  5
107
330
1F
100
AcDbEntity
  8
0
  6
Continuous
 62
     7
370
    15
100
AcDbLine
 10
120.0215792579
 20
148.2145195501
 30
0.0
 11
121.1737511276
 21
148.2145195501
 31
0.0
  0
LINE
  5
108
330
1F
100
AcDbEntity
  8
0
  6
Continuous
 62
     7
370
    15
100
AcDbLine
 10
118.973751256
 20
142.7645204262
 30
0.0
 11
117.8215792698
 21
142.7645204262
 31
0.0
  0
LINE
  5
109
330
1F
100
AcDbEntity
  8
0
  6
Continuous
 62
     7
370
    15
100
AcDbLine
 10
117.2226652798
 20
146.1656061606
 30
0.0
 11
117.2226652798
 21
145.0134334759
 31
0.0
  0
LINE
  5
10A
330
1F
100
AcDbEntity
  8
0
  6
Continuous
 62
     7
370
    15
100
AcDbLine
 10
117.1737512869
 20
144.9645204143
 30
0.0
 11
116.0215790679
 21
144.9645204143
 31
0.0
  0
LINE
  5
10B
330
1F
100
AcDbEntity
  8
0
  6
Continuous
 62
     7
370
    15
100
AcDbLine
 10
117.1737512869
 20
146.9645207422
 30
0.0
 11
116.0215790679
 21
146.9645207422
 31
0.0
  0
LINE
  5
10C
330
1F
100
AcDbEntity
  8
0
  6
Continuous
 62
     7
370
    15
100
AcDbLine
 10
118.0215793957
 20
148.2145195501
 30
0.0
 11
119.1737511491
 21
148.2145195501
 31
0.0
  0
LINE
  5
10D
330
1F
100
AcDbEntity
  8
0
  6
Continuous
 62
     7
370
    15
100
AcDbLine
 10
119.9726652649
 20
145.0134334759
 30
0.0
 11
119.9726652649
 21
146.1656061606
 31
0.0
  0
LINE
  5
10E
330
1F
100
AcDbEntity
  8
0
  6
Continuous
 62
     7
370
    15
100
AcDbLine
 10
121.4226651883
 20
143.9656061725
 30
0.0
 11
121.4226651883
 21
142.8134334879
 31
0.0
  0
LINE
  5
10F
330
1F
100
AcDbEntity
  8
0
  6
Continuous
 62
     7
370
    15
100
AcDbLine
 10
119.222665142
 20
146.1656061606
 30
0.0
 11
119.222665142
 21
145.0134334759
 31
0.0
  0
LINE
  5
110
330
1F
100
AcDbEntity
  8
0
  6
Continuous
 62
     7
370
    15
100
AcDbLine
 10
119.1737511491
 20
144.9645204143
 30
0.0
 11
118.0215793957
 21
144.9645204143
 31
0.0
  0
LINE
  5
111
330
1F
100
AcDbEntity
  8
0
  6
Continuous
 62
     7
370
    15
100
AcDbLine
 10
120.0215792579
 20
146.2145192222
 30
0.0
 11
121.1737511276
 21
146.2145192222
 31
0.0
  0
LINE
  5
112
330
1F
100
AcDbEntity
  8
0
  6
Continuous
 62
     7
370
    15
100
AcDbLine
 10
116.0215790679
 20
146.2145192222
 30
0.0
 11
117.1737512869
 21
146.2145192222
 31
0.0
  0
ARC
  5
113
330
1F
100
AcDbEntity
  8
0
  6
Continuous
 62
     7
370
    15
100
AcDbCircle
 10
119.5976652105
 20
146.5895201342
 30
0.0
 40
4.999999999999995
100
AcDbArc
 50
243.2563160496
 51
254.5714044572
  0
ARC
  5
114
330
1F
100
AcDbEntity
  8
0
  6
Continuous
 62
     7
370
    15
100
AcDbCircle
 10
119.5976652105
 20
146.5895201342
 30
0.0
 40
5.000000000000019
100
AcDbArc
 50
103.8259955672
 51
116.7436839504
  0
LINE
  5
115
330
1F
100
AcDbEntity
  8
0
  6
Continuous
 62
     7
370
    15
100
AcDbLine
 10
119.0226652489
 20
150.3656064765
 30
0.0
 11
119.0226652489
 21
149.2134337919
 31
0.0
  0
LINE
  5
116
330
1F
100
AcDbEntity
  8
0
  6
Continuous
 62
     7
370
    15
100
AcDbLine
 10
121.9726652144
 20
147.0134338038
 30
0.0
 11
121.9726652144
 21
148.1656064884
 31
0.0
  0
LINE
  5
117
330
1F
100
AcDbEntity
  8
0
  6
Continuous
 62
     7
370
    15
100
AcDbLine
 10
121.222665237
 20
150.165603091
 30
0.0
 11
121.222665237
 21
149.0134341316
 31
0.0
  0
LINE
  5
118
330
1F
100
AcDbEntity
  8
0
  6
Continuous
 62
     7
370
    15
100
AcDbLine
 10
121.1737511276
 20
148.96452107
 30
0.0
 11
120.0215792579
 21
148.96452107
 31
0.0
  0
LINE
  5
119
330
1F
100
AcDbEntity
  8
0
  6
Continuous
 62
     7
370
    15
100
AcDbLine
 10
119.9726652649
 20
149.0134341316
 30
0.0
 11
119.9726652649
 21
150.165603091
 31
0.0
  0
LINE
  5
11A
330
1F
100
AcDbEntity
  8
0
  6
Continuous
 62
     7
370
    15
100
AcDbLine
 10
123.1737511644
 20
144.9645204143
 30
0.0
 11
122.0215792801
 21
144.9645204143
 31
0.0
  0
LINE
  5
11B
330
1F
100
AcDbEntity
  8
0
  6
Continuous
 62
     7
370
    15
100
AcDbLine
 10
121.222665237
 20
148.1656064884
 30
0.0
 11
121.222665237
 21
147.0134338038
 31
0.0
  0
LINE
  5
11C
330
1F
100
AcDbEntity
  8
0
  6
Continuous
 62
     7
370
    15
100
AcDbLine
 10
117.7726652769
 20
149.2134337919
 30
0.0
 11
117.7726652769
 21
150.3656064765
 31
0.0
  0
LINE
  5
11D
330
1F
100
AcDbEntity
  8
0
  6
Continuous
 62
     7
370
    15
100
AcDbLine
 10
117.8215792698
 20
150.4145195381
 30
0.0
 11
118.973751256
 21
150.4145195381
 31
0.0
  0
LINE
  5
11E
330
1F
100
AcDbEntity
  8
0
  6
Continuous
 62
     7
370
    15
100
AcDbLine
 10
122.0215792801
 20
148.2145195501
 30
0.0
 11
123.1737511644
 21
148.2145195501
 31
0.0
  0
LINE
  5
11F
330
1F
100
AcDbEntity
  8
0
  6
Continuous
 62
     7
370
    15
100
AcDbLine
 10
123.2226652156
 20
146.1656061606
 30
0.0
 11
123.2226652156
 21
145.0134334759
 31
0.0
  0
LINE
  5
120
330
1F
100
AcDbEntity
  8
0
  6
Continuous
 62
     7
370
    15
100
AcDbLine
 10
121.9726652144
 20
145.0134334759
 30
0.0
 11
121.9726652144
 21
146.1656061606
 31
0.0
  0
LINE
  5
121
330
1F
100
AcDbEntity
  8
0
  6
Continuous
 62
     7
370
    15
100
AcDbLine
 10
122.0215792801
 20
146.2145192222
 30
0.0
 11
123.1737511644
 21
146.2145192222
 31
0.0
  0
ARC
  5
122
330
1F
100
AcDbEntity
  8
0
  6
Continuous
 62
     7
370
    15
100
AcDbCircle
 10
119.5976652105
 20
146.5895201342
 30
0.0
 40
4.999999999999995
100
AcDbArc
 50
285.4285955428
 51
296.7436839504
  0
ARC
  5
123
330
1F
100
AcDbEntity
  8
0
  6
Continuous
 62
     7
370
    15
100
AcDbCircle
 10
119.5976652105
 20
146.5895201342
 30
0.0
 40
5.000000000000004
100
AcDbArc
 50
66.4218215218
 51
101.4783409545
  0
LINE
  5
124
330
1F
100
AcDbEntity
  8
0
  6
Continuous
 62
     7
370
    15
100
AcDbLine
 10
119.1737511491
 20
146.9645207422
 30
0.0
 11
118.0215793957
 21
146.9645207422
 31
0.0
  0
LINE
  5
125
330
1F
100
AcDbEntity
  8
0
  6
Continuous
 62
     7
370
    15
100
AcDbLine
 10
117.2226652798
 20
148.1656064884
 30
0.0
 11
117.2226652798
 21
147.0134338038
 31
0.0
  0
LINE
  5
126
330
1F
100
AcDbEntity
  8
0
  6
Continuous
 62
     7
370
    15
100
AcDbLine
 10
115.9726650749
 20
147.0134338038
 30
0.0
 11
115.9726650749
 21
148.1656064884
 31
0.0
  0
LINE
  5
127
330
1F
100
AcDbEntity
  8
0
  6
Continuous
 62
     7
370
    15
100
AcDbLine
 10
116.0215790679
 20
148.2145195501
 30
0.0
 11
117.1737512869
 21
148.2145195501
 31
0.0
  0
LINE
  5
128
330
1F
100
AcDbEntity
  8
0
  6
Continuous
 62
     7
370
    15
100
AcDbLine
 10
123.2226652156
 20
148.1656064884
 30
0.0
 11
123.2226652156
 21
147.0134338038
 31
0.0
  0
LINE
  5
129
330
1F
100
AcDbEntity
  8
0
  6
Continuous
 62
     7
370
    15
100
AcDbLine
 10
117.9726654028
 20
147.0134338038
 30
0.0
 11
117.9726654028
 21
148.1656064884
 31
0.0
  0
LINE
  5
12A
330
1F
100
AcDbEntity
  8
0
  6
Continuous
 62
     7
370
    15
100
AcDbLine
 10
119.222665142
 20
148.1656064884
 30
0.0
 11
119.222665142
 21
147.0134338038
 31
0.0
  0
LINE
  5
12B
330
1F
100
AcDbEntity
  8
0
  6
Continuous
 62
     7
370
    15
100
AcDbLine
 10
121.1737511276
 20
146.9645207422
 30
0.0
 11
120.0215792579
 21
146.9645207422
 31
0.0
  0
LINE
  5
12C
330
1F
100
AcDbEntity
  8
0
  6
Continuous
 62
     7
370
    15
100
AcDbLine
 10
123.1737511644
 20
146.9645207422
 30
0.0
 11
122.0215792801
 21
146.9645207422
 31
0.0
  0
LINE
  5
12D
330
1F
100
AcDbEntity
  8
0
  6
Continuous
 62
     7
370
    15
100
AcDbLine
 10
118.2726653588
 20
147.2645183699
 30
0.0
 11
118.2726653588
 21
148.1645187037
 31
0.0
  0
LINE
  5
12E
330
1F
100
AcDbEntity
  8
0
  6
Continuous
 62
     7
370
    15
100
AcDbLine
 10
118.922665186
 20
147.2645183699
 30
0.0
 11
118.2726653588
 21
147.2645183699
 31
0.0
  0
LINE
  5
12F
330
1F
100
AcDbEntity
  8
0
  6
Continuous
 62
     7
370
    15
100
AcDbLine
 10
118.922665186
 20
148.1645187037
 30
0.0
 11
118.922665186
 21
147.2645183699
 31
0.0
  0
LINE
  5
130
330
1F
100
AcDbEntity
  8
0
  6
Continuous
 62
     7
370
    15
100
AcDbLine
 10
119.222665142
 20
148.1645187037
 30
0.0
 11
118.922665186
 21
148.1645187037
 31
0.0
  0
ARC
  5
131
330
1F
100
AcDbEntity
  8
0
  6
Continuous
 62
     7
370
    15
100
AcDbCircle
 10
118.9226652105
 20
147.2645201342
 30
0.0
 40
0.3000000000000114
100
AcDbArc
 50
270.0
 51
0.0
  0
ARC
  5
132
330
1F
100
AcDbEntity
  8
0
  6
Continuous
 62
     7
370
    15
100
AcDbCircle
 10
118.2726652105
 20
147.2645201342
 30
0.0
 40
0.3000000000000114
100
AcDbArc
 50
180.0
 51
270.0
  0
LINE
  5
133
330
1F
100
AcDbEntity
  8
0
  6
Continuous
 62
     7
370
    15
100
AcDbLine
 10
118.2726653588
 20
148.1645187037
 30
0.0
 11
117.9726654028
 21
148.1645187037
 31
0.0
  0
LINE
  5
134
330
1F
100
AcDbEntity
  8
0
  6
Continuous
 62
     7
370
    15
100
AcDbLine
 10
120.272665221
 20
145.2645217674
 30
0.0
 11
120.272665221
 21
146.1645183758
 31
0.0
  0
LINE
  5
135
330
1F
100
AcDbEntity
  8
0
  6
Continuous
 62
     7
370
    15
100
AcDbLine
 10
120.9226651645
 20
145.2645217674
 30
0.0
 11
120.272665221
 21
145.2645217674
 31
0.0
  0
LINE
  5
136
330
1F
100
AcDbEntity
  8
0
  6
Continuous
 62
     7
370
    15
100
AcDbLine
 10
120.9226651645
 20
146.1645183758
 30
0.0
 11
120.9226651645
 21
145.2645217674
 31
0.0
  0
LINE
  5
137
330
1F
100
AcDbEntity
  8
0
  6
Continuous
 62
     7
370
    15
100
AcDbLine
 10
121.222665237
 20
146.1645183758
 30
0.0
 11
120.9226651645
 21
146.1645183758
 31
0.0
  0
ARC
  5
138
330
1F
100
AcDbEntity
  8
0
  6
Continuous
 62
     7
370
    15
100
AcDbCircle
 10
120.9226652105
 20
145.2645201342
 30
0.0
 40
0.3000000000000114
100
AcDbArc
 50
270.0
 51
0.0
  0
ARC
  5
139
330
1F
100
AcDbEntity
  8
0
  6
Continuous
 62
     7
370
    15
100
AcDbCircle
 10
120.2726652105
 20
145.2645201342
 30
0.0
 40
0.3000000000000114
100
AcDbArc
 50
180.0
 51
270.0
  0
LINE
  5
13A
330
1F
100
AcDbEntity
  8
0
  6
Continuous
 62
     7
370
    15
100
AcDbLine
 10
120.272665221
 20
146.1645183758
 30
0.0
 11
119.9726652649
 21
146.1645183758
 31
0.0
  0
LINE
  5
13B
330
1F
100
AcDbEntity
  8
0
  6
Continuous
 62
     7
370
    15
100
AcDbLine
 10
121.122665174
 20
143.9645183878
 30
0.0
 11
121.122665174
 21
143.0645217793
 31
0.0
  0
LINE
  5
13C
330
1F
100
AcDbEntity
  8
0
  6
Continuous
 62
     7
370
    15
100
AcDbLine
 10
121.4226651883
 20
143.9645183878
 30
0.0
 11
121.122665174
 21
143.9645183878
 31
0.0
  0
ARC
  5
13D
330
1F
100
AcDbEntity
  8
0
  6
Continuous
 62
     7
370
    15
100
AcDbCircle
 10
121.1226652105
 20
143.0645201342
 30
0.0
 40
0.2999999999999972
100
AcDbArc
 50
270.0
 51
0.0
  0
ARC
  5
13E
330
1F
100
AcDbEntity
  8
0
  6
Continuous
 62
     7
370
    15
100
AcDbCircle
 10
120.4726652105
 20
143.0645201342
 30
0.0
 40
0.3000000000000114
100
AcDbArc
 50
180.0
 51
270.0
  0
LINE
  5
13F
330
1F
100
AcDbEntity
  8
0
  6
Continuous
 62
     7
370
    15
100
AcDbLine
 10
120.4726652305
 20
143.9645183878
 30
0.0
 11
120.172665158
 21
143.9645183878
 31
0.0
  0
LINE
  5
140
330
1F
100
AcDbEntity
  8
0
  6
Continuous
 62
     7
370
    15
100
AcDbLine
 10
120.4726652305
 20
143.0645217793
 30
0.0
 11
120.4726652305
 21
143.9645183878
 31
0.0
  0
LINE
  5
141
330
1F
100
AcDbEntity
  8
0
  6
Continuous
 62
     7
370
    15
100
AcDbLine
 10
121.122665174
 20
143.0645217793
 30
0.0
 11
120.4726652305
 21
143.0645217793
 31
0.0
  0
LINE
  5
142
330
1F
100
AcDbEntity
  8
0
  6
Continuous
 62
     7
370
    15
100
AcDbLine
 10
118.0726652329
 20
149.464518358
 30
0.0
 11
118.0726652329
 21
150.3645186918
 31
0.0
  0
LINE
  5
143
330
1F
100
AcDbEntity
  8
0
  6
Continuous
 62
     7
370
    15
100
AcDbLine
 10
118.7226652929
 20
149.464518358
 30
0.0
 11
118.0726652329
 21
149.464518358
 31
0.0
  0
LINE
  5
144
330
1F
100
AcDbEntity
  8
0
  6
Continuous
 62
     7
370
    15
100
AcDbLine
 10
118.7226652929
 20
150.3645186918
 30
0.0
 11
118.7226652929
 21
149.464518358
 31
0.0
  0
LINE
  5
145
330
1F
100
AcDbEntity
  8
0
  6
Continuous
 62
     7
370
    15
100
AcDbLine
 10
119.0226652489
 20
150.3645186918
 30
0.0
 11
118.7226652929
 21
150.3645186918
 31
0.0
  0
ARC
  5
146
330
1F
100
AcDbEntity
  8
0
  6
Continuous
 62
     7
370
    15
100
AcDbCircle
 10
118.7226652105
 20
149.4645201342
 30
0.0
 40
0.3000000000000114
100
AcDbArc
 50
270.0
 51
0.0
  0
LINE
  5
147
330
1F
100
AcDbEntity
  8
0
  6
Continuous
 62
     7
370
    15
100
AcDbLine
 10
118.0726652329
 20
150.3645186918
 30
0.0
 11
117.7726652769
 21
150.3645186918
 31
0.0
  0
ARC
  5
148
330
1F
100
AcDbEntity
  8
0
  6
Continuous
 62
     7
370
    15
100
AcDbCircle
 10
118.0726652105
 20
149.4645201342
 30
0.0
 40
0.3000000000000114
100
AcDbArc
 50
180.0
 51
270.0
  0
LINE
  5
149
330
1F
100
AcDbEntity
  8
0
  6
Continuous
 62
     7
370
    15
100
AcDbLine
 10
116.9226653238
 20
146.1645183758
 30
0.0
 11
116.9226653238
 21
145.2645217674
 31
0.0
  0
LINE
  5
14A
330
1F
100
AcDbEntity
  8
0
  6
Continuous
 62
     7
370
    15
100
AcDbLine
 10
117.2226652798
 20
146.1645183758
 30
0.0
 11
116.9226653238
 21
146.1645183758
 31
0.0
  0
ARC
  5
14B
330
1F
100
AcDbEntity
  8
0
  6
Continuous
 62
     7
370
    15
100
AcDbCircle
 10
116.9226652105
 20
145.2645201342
 30
0.0
 40
0.3000000000000114
100
AcDbArc
 50
270.0
 51
0.0
  0
ARC
  5
14C
330
1F
100
AcDbEntity
  8
0
  6
Continuous
 62
     7
370
    15
100
AcDbCircle
 10
116.2726652105
 20
145.2645201342
 30
0.0
 40
0.3000000000000114
100
AcDbArc
 50
180.0
 51
270.0
  0
LINE
  5
14D
330
1F
100
AcDbEntity
  8
0
  6
Continuous
 62
     7
370
    15
100
AcDbLine
 10
116.272665031
 20
146.1645183758
 30
0.0
 11
115.9726650749
 21
146.1645183758
 31
0.0
  0
LINE
  5
14E
330
1F
100
AcDbEntity
  8
0
  6
Continuous
 62
     7
370
    15
100
AcDbLine
 10
116.9226653238
 20
145.2645217674
 30
0.0
 11
116.272665031
 21
145.2645217674
 31
0.0
  0
LINE
  5
14F
330
1F
100
AcDbEntity
  8
0
  6
Continuous
 62
     7
370
    15
100
AcDbLine
 10
116.272665031
 20
145.2645217674
 30
0.0
 11
116.272665031
 21
146.1645183758
 31
0.0
  0
LINE
  5
150
330
1F
100
AcDbEntity
  8
0
  6
Continuous
 62
     7
370
    15
100
AcDbLine
 10
120.272665221
 20
149.2645186977
 30
0.0
 11
120.272665221
 21
150.1645227568
 31
0.0
  0
LINE
  5
151
330
1F
100
AcDbEntity
  8
0
  6
Continuous
 62
     7
370
    15
100
AcDbLine
 10
120.9226651645
 20
149.2645186977
 30
0.0
 11
120.272665221
 21
149.2645186977
 31
0.0
  0
ARC
  5
152
330
1F
100
AcDbEntity
  8
0
  6
Continuous
 62
     7
370
    15
100
AcDbCircle
 10
120.9226652105
 20
149.2645201342
 30
0.0
 40
0.3000000000000114
100
AcDbArc
 50
270.0
 51
0.0
  0
ARC
  5
153
330
1F
100
AcDbEntity
  8
0
  6
Continuous
 62
     7
370
    15
100
AcDbCircle
 10
120.2726652105
 20
149.2645201342
 30
0.0
 40
0.3000000000000114
100
AcDbArc
 50
180.0
 51
270.0
  0
LINE
  5
154
330
1F
100
AcDbEntity
  8
0
  6
Continuous
 62
     7
370
    15
100
AcDbLine
 10
121.222665237
 20
150.1645227568
 30
0.0
 11
120.9226651645
 21
150.1645227568
 31
0.0
  0
LINE
  5
155
330
1F
100
AcDbEntity
  8
0
  6
Continuous
 62
     7
370
    15
100
AcDbLine
 10
120.9226651645
 20
150.1645227568
 30
0.0
 11
120.9226651645
 21
149.2645186977
 31
0.0
  0
LINE
  5
156
330
1F
100
AcDbEntity
  8
0
  6
Continuous
 62
     7
370
    15
100
AcDbLine
 10
120.272665221
 20
150.1645227568
 30
0.0
 11
119.9726652649
 21
150.1645227568
 31
0.0
  0
LINE
  5
157
330
1F
100
AcDbEntity
  8
0
  6
Continuous
 62
     7
370
    15
100
AcDbLine
 10
119.0226652489
 20
143.9645183878
 30
0.0
 11
118.7226652929
 21
143.9645183878
 31
0.0
  0
LINE
  5
158
330
1F
100
AcDbEntity
  8
0
  6
Continuous
 62
     7
370
    15
100
AcDbLine
 10
118.7226652929
 20
143.9645183878
 30
0.0
 11
118.7226652929
 21
143.0645217793
 31
0.0
  0
ARC
  5
159
330
1F
100
AcDbEntity
  8
0
  6
Continuous
 62
     7
370
    15
100
AcDbCircle
 10
118.0726652105
 20
143.0645201342
 30
0.0
 40
0.2999999999999972
100
AcDbArc
 50
180.0
 51
270.0
  0
ARC
  5
15A
330
1F
100
AcDbEntity
  8
0
  6
Continuous
 62
     7
370
    15
100
AcDbCircle
 10
118.7226652105
 20
143.0645201342
 30
0.0
 40
0.2999999999999972
100
AcDbArc
 50
270.0
 51
0.0
  0
LINE
  5
15B
330
1F
100
AcDbEntity
  8
0
  6
Continuous
 62
     7
370
    15
100
AcDbLine
 10
118.7226652929
 20
143.0645217793
 30
0.0
 11
118.0726652329
 21
143.0645217793
 31
0.0
  0
LINE
  5
15C
330
1F
100
AcDbEntity
  8
0
  6
Continuous
 62
     7
370
    15
100
AcDbLine
 10
118.0726652329
 20
143.9645183878
 30
0.0
 11
117.7726652769
 21
143.9645183878
 31
0.0
  0
LINE
  5
15D
330
1F
100
AcDbEntity
  8
0
  6
Continuous
 62
     7
370
    15
100
AcDbLine
 10
118.0726652329
 20
143.0645217793
 30
0.0
 11
118.0726652329
 21
143.9645183878
 31
0.0
  0
LINE
  5
15E
330
1F
100
AcDbEntity
  8
0
  6
Continuous
 62
     7
370
    15
100
AcDbLine
 10
122.2726652141
 20
147.2645183699
 30
0.0
 11
122.2726652141
 21
148.1645187037
 31
0.0
  0
LINE
  5
15F
330
1F
100
AcDbEntity
  8
0
  6
Continuous
 62
     7
370
    15
100
AcDbLine
 10
122.9226652013
 20
147.2645183699
 30
0.0
 11
122.2726652141
 21
147.2645183699
 31
0.0
  0
LINE
  5
160
330
1F
100
AcDbEntity
  8
0
  6
Continuous
 62
     7
370
    15
100
AcDbLine
 10
122.9226652013
 20
148.1645187037
 30
0.0
 11
122.9226652013
 21
147.2645183699
 31
0.0
  0
LINE
  5
161
330
1F
100
AcDbEntity
  8
0
  6
Continuous
 62
     7
370
    15
100
AcDbLine
 10
123.2226652156
 20
148.1645187037
 30
0.0
 11
122.9226652013
 21
148.1645187037
 31
0.0
  0
ARC
  5
162
330
1F
100
AcDbEntity
  8
0
  6
Continuous
 62
     7
370
    15
100
AcDbCircle
 10
122.2726652105
 20
147.2645201342
 30
0.0
 40
0.3000000000000114
100
AcDbArc
 50
180.0
 51
270.0
  0
LINE
  5
163
330
1F
100
AcDbEntity
  8
0
  6
Continuous
 62
     7
370
    15
100
AcDbLine
 10
122.2726652141
 20
148.1645187037
 30
0.0
 11
121.9726652144
 21
148.1645187037
 31
0.0
  0
ARC
  5
164
330
1F
100
AcDbEntity
  8
0
  6
Continuous
 62
     7
370
    15
100
AcDbCircle
 10
122.9226652105
 20
147.2645201342
 30
0.0
 40
0.3000000000000114
100
AcDbArc
 50
270.0
 51
0.0
  0
ARC
  5
165
330
1F
100
AcDbEntity
  8
0
  6
Continuous
 62
     7
370
    15
100
AcDbCircle
 10
116.9226652105
 20
147.2645201342
 30
0.0
 40
0.3000000000000114
100
AcDbArc
 50
270.0
 51
0.0
  0
ARC
  5
166
330
1F
100
AcDbEntity
  8
0
  6
Continuous
 62
     7
370
    15
100
AcDbCircle
 10
116.2726652105
 20
147.2645201342
 30
0.0
 40
0.3000000000000114
100
AcDbArc
 50
180.0
 51
270.0
  0
LINE
  5
167
330
1F
100
AcDbEntity
  8
0
  6
Continuous
 62
     7
370
    15
100
AcDbLine
 10
116.9226653238
 20
148.1645187037
 30
0.0
 11
116.9226653238
 21
147.2645183699
 31
0.0
  0
LINE
  5
168
330
1F
100
AcDbEntity
  8
0
  6
Continuous
 62
     7
370
    15
100
AcDbLine
 10
117.2226652798
 20
148.1645187037
 30
0.0
 11
116.9226653238
 21
148.1645187037
 31
0.0
  0
LINE
  5
169
330
1F
100
AcDbEntity
  8
0
  6
Continuous
 62
     7
370
    15
100
AcDbLine
 10
116.9226653238
 20
147.2645183699
 30
0.0
 11
116.272665031
 21
147.2645183699
 31
0.0
  0
LINE
  5
16A
330
1F
100
AcDbEntity
  8
0
  6
Continuous
 62
     7
370
    15
100
AcDbLine
 10
116.272665031
 20
147.2645183699
 30
0.0
 11
116.272665031
 21
148.1645187037
 31
0.0
  0
LINE
  5
16B
330
1F
100
AcDbEntity
  8
0
  6
Continuous
 62
     7
370
    15
100
AcDbLine
 10
116.272665031
 20
148.1645187037
 30
0.0
 11
115.9726650749
 21
148.1645187037
 31
0.0
  0
ARC
  5
16C
330
1F
100
AcDbEntity
  8
0
  6
Continuous
 62
     7
370
    15
100
AcDbCircle
 10
118.2726652105
 20
145.2645201342
 30
0.0
 40
0.3000000000000114
100
AcDbArc
 50
180.0
 51
270.0
  0
LINE
  5
16D
330
1F
100
AcDbEntity
  8
0
  6
Continuous
 62
     7
370
    15
100
AcDbLine
 10
118.922665186
 20
145.2645217674
 30
0.0
 11
118.2726653588
 21
145.2645217674
 31
0.0
  0
LINE
  5
16E
330
1F
100
AcDbEntity
  8
0
  6
Continuous
 62
     7
370
    15
100
AcDbLine
 10
119.222665142
 20
146.1645183758
 30
0.0
 11
118.922665186
 21
146.1645183758
 31
0.0
  0
LINE
  5
16F
330
1F
100
AcDbEntity
  8
0
  6
Continuous
 62
     7
370
    15
100
AcDbLine
 10
118.922665186
 20
146.1645183758
 30
0.0
 11
118.922665186
 21
145.2645217674
 31
0.0
  0
LINE
  5
170
330
1F
100
AcDbEntity
  8
0
  6
Continuous
 62
     7
370
    15
100
AcDbLine
 10
118.2726653588
 20
146.1645183758
 30
0.0
 11
117.9726654028
 21
146.1645183758
 31
0.0
  0
LINE
  5
171
330
1F
100
AcDbEntity
  8
0
  6
Continuous
 62
     7
370
    15
100
AcDbLine
 10
118.2726653588
 20
145.2645217674
 30
0.0
 11
118.2726653588
 21
146.1645183758
 31
0.0
  0
ARC
  5
172
330
1F
100
AcDbEntity
  8
0
  6
Continuous
 62
     7
370
    15
100
AcDbCircle
 10
118.9226652105
 20
145.2645201342
 30
0.0
 40
0.3000000000000114
100
AcDbArc
 50
270.0
 51
0.0
  0
ARC
  5
173
330
1F
100
AcDbEntity
  8
0
  6
Continuous
 62
     7
370
    15
100
AcDbCircle
 10
120.2726652105
 20
147.2645201342
 30
0.0
 40
0.3000000000000114
100
AcDbArc
 50
180.0
 51
270.0
  0
LINE
  5
174
330
1F
100
AcDbEntity
  8
0
  6
Continuous
 62
     7
370
    15
100
AcDbLine
 10
121.222665237
 20
148.1645187037
 30
0.0
 11
120.9226651645
 21
148.1645187037
 31
0.0
  0
ARC
  5
175
330
1F
100
AcDbEntity
  8
0
  6
Continuous
 62
     7
370
    15
100
AcDbCircle
 10
120.9226652105
 20
147.2645201342
 30
0.0
 40
0.3000000000000114
100
AcDbArc
 50
270.0
 51
0.0
  0
LINE
  5
176
330
1F
100
AcDbEntity
  8
0
  6
Continuous
 62
     7
370
    15
100
AcDbLine
 10
120.9226651645
 20
147.2645183699
 30
0.0
 11
120.272665221
 21
147.2645183699
 31
0.0
  0
LINE
  5
177
330
1F
100
AcDbEntity
  8
0
  6
Continuous
 62
     7
370
    15
100
AcDbLine
 10
120.272665221
 20
148.1645187037
 30
0.0
 11
119.9726652649
 21
148.1645187037
 31
0.0
  0
LINE
  5
178
330
1F
100
AcDbEntity
  8
0
  6
Continuous
 62
     7
370
    15
100
AcDbLine
 10
120.9226651645
 20
148.1645187037
 30
0.0
 11
120.9226651645
 21
147.2645183699
 31
0.0
  0
LINE
  5
179
330
1F
100
AcDbEntity
  8
0
  6
Continuous
 62
     7
370
    15
100
AcDbLine
 10
120.272665221
 20
147.2645183699
 30
0.0
 11
120.272665221
 21
148.1645187037
 31
0.0
  0
ARC
  5
17A
330
1F
100
AcDbEntity
  8
0
  6
Continuous
 62
     7
370
    15
100
AcDbCircle
 10
122.2726652105
 20
145.2645201342
 30
0.0
 40
0.3000000000000114
100
AcDbArc
 50
180.0
 51
270.0
  0
ARC
  5
17B
330
1F
100
AcDbEntity
  8
0
  6
Continuous
 62
     7
370
    15
100
AcDbCircle
 10
122.9226652105
 20
145.2645201342
 30
0.0
 40
0.3000000000000114
100
AcDbArc
 50
270.0
 51
0.0
  0
LINE
  5
17C
330
1F
100
AcDbEntity
  8
0
  6
Continuous
 62
     7
370
    15
100
AcDbLine
 10
122.9226652013
 20
145.2645217674
 30
0.0
 11
122.2726652141
 21
145.2645217674
 31
0.0
  0
LINE
  5
17D
330
1F
100
AcDbEntity
  8
0
  6
Continuous
 62
     7
370
    15
100
AcDbLine
 10
122.2726652141
 20
145.2645217674
 30
0.0
 11
122.2726652141
 21
146.1645183758
 31
0.0
  0
LINE
  5
17E
330
1F
100
AcDbEntity
  8
0
  6
Continuous
 62
     7
370
    15
100
AcDbLine
 10
122.2726652141
 20
146.1645183758
 30
0.0
 11
121.9726652144
 21
146.1645183758
 31
0.0
  0
LINE
  5
17F
330
1F
100
AcDbEntity
  8
0
  6
Continuous
 62
     7
370
    15
100
AcDbLine
 10
122.9226652013
 20
146.1645183758
 30
0.0
 11
122.9226652013
 21
145.2645217674
 31
0.0
  0
LINE
  5
180
330
1F
100
AcDbEntity
  8
0
  6
Continuous
 62
     7
370
    15
100
AcDbLine
 10
123.2226652156
 20
146.1645183758
 30
0.0
 11
122.9226652013
 21
146.1645183758
 31
0.0
  0
LINE
  5
181
330
1F
100
AcDbEntity
  8
0
  6
Continuous
 62
     7
370
    15
100
AcDbLine
 10
119.0976651215
 20
151.289523174
 30
0.0
 11
119.0976651215
 21
151.489519109
 31
0.0
  0
LINE
  5
182
330
1F
100
AcDbEntity
  8
0
  6
Continuous
 62
     7
370
    15
100
AcDbLine
 10
119.0976651215
 20
151.289523174
 30
0.0
 11
120.0976652854
 21
151.289523174
 31
0.0
  0
LINE
  5
183
330
1F
100
AcDbEntity
  8
0
  6
Continuous
 62
     7
370
    15
100
AcDbLine
 10
120.0976652854
 20
151.289523174
 30
0.0
 11
120.0976652854
 21
151.489519109
 31
0.0
  0
LINE
  5
184
330
1F
100
AcDbEntity
  8
0
  6
Continuous
 62
     7
370
    15
100
AcDbLine
 10
119.0976651215
 20
151.489519109
 30
0.0
 11
120.0976652854
 21
151.489519109
 31
0.0
  0
ARC
  5
185
330
1F
100
AcDbEntity
  8
0
  6
Continuous
 62
     7
370
    15
100
AcDbCircle
 10
120.5976652105
 20
146.9895201342
 30
0.0
 40
0.3500000000000327
100
AcDbArc
 50
51.7867892983
 51
128.2132107017
  0
ARC
  5
186
330
1F
100
AcDbEntity
  8
0
  6
Continuous
 62
     7
370
    15
100
AcDbCircle
 10
118.5976652105
 20
146.9895201342
 30
0.0
 40
0.3500000000000327
100
AcDbArc
 50
51.7867892983
 51
128.2132107017
  0
ARC
  5
187
330
1F
100
AcDbEntity
  8
0
  6
Continuous
 62
     7
370
    15
100
AcDbCircle
 10
122.5976652105
 20
146.9895201342
 30
0.0
 40
0.3500000000000239
100
AcDbArc
 50
51.7867892983
 51
128.2132107017
  0
ARC
  5
188
330
1F
100
AcDbEntity
  8
0
  6
Continuous
 62
     7
370
    15
100
AcDbCircle
 10
122.5976652105
 20
144.9895201342
 30
0.0
 40
0.3500000000000239
100
AcDbArc
 50
51.7867892983
 51
128.2132107017
  0
ARC
  5
189
330
1F
100
AcDbEntity
  8
0
  6
Continuous
 62
     7
370
    15
100
AcDbCircle
 10
116.5976652105
 20
144.9895201342
 30
0.0
 40
0.3500000000000239
100
AcDbArc
 50
51.7867892983
 51
128.2132107017
  0
ARC
  5
18A
330
1F
100
AcDbEntity
  8
0
  6
Continuous
 62
     7
370
    15
100
AcDbCircle
 10
116.5976652105
 20
146.9895201342
 30
0.0
 40
0.3500000000000239
100
AcDbArc
 50
51.7867892983
 51
128.2132107017
  0
ARC
  5
18B
330
1F
100
AcDbEntity
  8
0
  6
Continuous
 62
     7
370
    15
100
AcDbCircle
 10
120.7976652105
 20
142.7895201342
 30
0.0
 40
0.349999999999988
100
AcDbArc
 50
51.7867892983
 51
128.2132107017
  0
ARC
  5
18C
330
1F
100
AcDbEntity
  8
0
  6
Continuous
 62
     7
370
    15
100
AcDbCircle
 10
118.3976652105
 20
142.7895201342
 30
0.0
 40
0.349999999999988
100
AcDbArc
 50
51.7867892983
 51
128.2132107017
  0
ARC
  5
18D
330
1F
100
AcDbEntity
  8
0
  6
Continuous
 62
     7
370
    15
100
AcDbCircle
 10
118.3976652105
 20
149.1895201342
 30
0.0
 40
0.3500000000000015
100
AcDbArc
 50
51.7867892983
 51
128.2132107017
  0
ARC
  5
18E
330
1F
100
AcDbEntity
  8
0
  6
Continuous
 62
     7
370
    15
100
AcDbCircle
 10
118.5976652105
 20
144.9895201342
 30
0.0
 40
0.3500000000000327
100
AcDbArc
 50
51.7867892983
 51
128.2132107017
  0
ARC
  5
18F
330
1F
100
AcDbEntity
  8
0
  6
Continuous
 62
     7
370
    15
100
AcDbCircle
 10
120.5976652105
 20
144.9895201342
 30
0.0
 40
0.3500000000000327
100
AcDbArc
 50
51.7867892983
 51
128.2132107017
  0
ARC
  5
190
330
1F
100
AcDbEntity
  8
0
  6
Continuous
 62
     7
370
    15
100
AcDbCircle
 10
120.5976652105
 20
148.9895201342
 30
0.0
 40
0.3500000000000103
100
AcDbArc
 50
51.7867892983
 51
128.2132107017
  0
LINE
  5
191
330
1F
100
AcDbEntity
  8
0
  6
Continuous
 62
     7
370
    15
100
AcDbLine
 10
122.5976652004
 20
145.2645217674
 30
0.0
 11
122.5976652004
 21
145.3395193116
 31
0.0
  0
LINE
  5
192
330
1F
100
AcDbEntity
  8
0
  6
Continuous
 62
     7
370
    15
100
AcDbLine
 10
122.5976652004
 20
147.2645183699
 30
0.0
 11
122.5976652004
 21
147.3395196395
 31
0.0
  0
LWPOLYLINE
  5
193
330
1F
100
AcDbEntity
  8
0
  6
Continuous
 62
     7
370
    15
100
AcDbPolyline
 90
       17
 70
   128
 43
0.0
 10
125.9055397769
 20
163.2895176904
 10
125.857747562
 20
163.5382627742
 10
125.7216464092
 20
163.7491365568
 10
125.5179566161
 20
163.8900419371
 10
125.2776879647
 20
163.9395212428
 10
125.0374195461
 20
163.8900419371
 10
124.833729753
 20
163.7491365568
 10
124.6976286003
 20
163.5382627742
 10
124.6498363854
 20
163.2895176904
 10
124.6976286003
 20
163.0407726066
 10
124.833729753
 20
162.829898824
 10
125.0374195461
 20
162.6890008943
 10
125.2776879647
 20
162.6395215885
 10
125.5179566161
 20
162.6890008943
 10
125.7216464092
 20
162.829898824
 10
125.857747562
 20
163.0407726066
 10
125.9055397769
 20
163.2895176904
  0
LWPOLYLINE
  5
194
330
1F
100
AcDbEntity
  8
0
  6
Continuous
 62
     7
370
    15
100
AcDbPolyline
 90
       17
 70
   128
 43
0.0
 10
126.2729632963
 20
163.2895176904
 10
126.2031131719
 20
162.9259740607
 10
126.0041959413
 20
162.6177658932
 10
125.7064954207
 20
162.4118318455
 10
125.3553337247
 20
162.3395165102
 10
125.0041722615
 20
162.4118318455
 10
124.7064717409
 20
162.6177658932
 10
124.5075547432
 20
162.9259740607
 10
124.4377041531
 20
163.2895176904
 10
124.5075547432
 20
163.6530687706
 10
124.7064717409
 20
163.9612694876
 10
125.0041722615
 20
164.1672035353
 10
125.3553337247
 20
164.2395188706
 10
125.7064954207
 20
164.1672035353
 10
126.0041959413
 20
163.9612694876
 10
126.2031131719
 20
163.6530687706
 10
126.2729632963
 20
163.2895176904
  0
ELLIPSE
  5
195
330
1F
100
AcDbEntity
  8
0
  6
Continuous
 62
     7
370
    15
100
AcDbEllipse
 10
126.2493312604
 20
163.2895201342
 30
0.0
 11
0.9835123713895654
 21
0.0
 31
0.0
210
0.0
220
0.0
230
1.0
 40
0.9659258263
 41
4.712388980384674
 42
6.283185307179586
  0
ELLIPSE
  5
196
330
1F
100
AcDbEntity
  8
0
  6
Continuous
 62
     7
370
    15
100
AcDbEllipse
 10
126.2493312604
 20
163.2895201342
 30
0.0
 11
0.9835123713895654
 21
0.0
 31
0.0
210
0.0
220
0.0
230
1.0
 40
0.9659258263
 41
0.0
 42
1.570796326794897
  0
ARC
  5
197
330
1F
100
AcDbEntity
  8
0
  6
Continuous
 62
     7
370
    15
100
AcDbCircle
 10
126.5976652105
 20
163.2895201342
 30
0.0
 40
2.000000000000021
100
AcDbArc
 50
0.0
 51
49.0253697706
  0
ARC
  5
198
330
1F
100
AcDbEntity
  8
0
  6
Continuous
 62
     7
370
    15
100
AcDbCircle
 10
126.5976652105
 20
163.2895201342
 30
0.0
 40
2.000000000000021
100
AcDbArc
 50
130.9746302294
 51
160.0135324138
  0
ARC
  5
199
330
1F
100
AcDbEntity
  8
0
  6
Continuous
 62
     7
370
    15
100
AcDbCircle
 10
126.5976652105
 20
163.2895201342
 30
0.0
 40
2.000000000000006
100
AcDbArc
 50
199.9864675855
 51
228.5903778907
  0
ARC
  5
19A
330
1F
100
AcDbEntity
  8
0
  6
Continuous
 62
     7
370
    15
100
AcDbCircle
 10
126.5976652105
 20
163.2895201342
 30
0.0
 40
2.000000000000014
100
AcDbArc
 50
311.8409010714
 51
0.0
  0
LINE
  5
19B
330
1F
100
AcDbEntity
  8
0
  6
Continuous
 62
     7
370
    15
100
AcDbLine
 10
124.0976652426
 20
161.8940462963
 30
0.0
 11
124.0976652426
 21
164.7030269401
 31
0.0
  0
LINE
  5
19C
330
1F
100
AcDbEntity
  8
0
  6
Continuous
 62
     7
370
    15
100
AcDbLine
 10
129.0976651308
 20
164.684854974
 30
0.0
 11
129.0976651308
 21
161.8757104175
 31
0.0
  0
LINE
  5
19D
330
1F
100
AcDbEntity
  8
0
  6
Continuous
 62
     7
370
    15
100
AcDbLine
 10
129.5976652128
 20
162.1884932415
 30
0.0
 11
129.5976652128
 21
164.394349386
 31
0.0
  0
LINE
  5
19E
330
1F
100
AcDbEntity
  8
0
  6
Continuous
 62
     7
370
    15
100
AcDbLine
 10
123.5976651606
 20
164.3901100056
 30
0.0
 11
123.5976651606
 21
162.1846710937
 31
0.0
  0
LINE
  5
19F
330
1F
100
AcDbEntity
  8
0
  6
Continuous
 62
     7
370
    15
100
AcDbLine
 10
135.897665221
 20
180.0395181076
 30
0.0
 11
136.0976648812
 21
180.0395181076
 31
0.0
  0
LINE
  5
1A0
330
1F
100
AcDbEntity
  8
0
  6
Continuous
 62
     7
370
    15
100
AcDbLine
 10
136.0976648812
 20
180.0395181076
 30
0.0
 11
136.0976648812
 21
170.5395212071
 31
0.0
  0
LINE
  5
1A1
330
1F
100
AcDbEntity
  8
0
  6
Continuous
 62
     7
370
    15
100
AcDbLine
 10
136.0976648812
 20
170.5395212071
 30
0.0
 11
135.897665221
 21
170.5395212071
 31
0.0
  0
LINE
  5
1A2
330
1F
100
AcDbEntity
  8
0
  6
Continuous
 62
     7
370
    15
100
AcDbLine
 10
135.897665221
 20
105.0395207153
 30
0.0
 11
136.0976648812
 21
105.0395207153
 31
0.0
  0
LINE
  5
1A3
330
1F
100
AcDbEntity
  8
0
  6
Continuous
 62
     7
370
    15
100
AcDbLine
 10
136.0976648812
 20
105.0395207153
 30
0.0
 11
136.0976648812
 21
95.5395200895
 31
0.0
  0
LINE
  5
1A4
330
1F
100
AcDbEntity
  8
0
  6
Continuous
 62
     7
370
    15
100
AcDbLine
 10
136.0976648812
 20
95.5395200895
 30
0.0
 11
135.897665221
 21
95.5395200895
 31
0.0
  0
LINE
  5
1A5
330
1F
100
AcDbEntity
  8
0
  6
Continuous
 62
     7
370
    15
100
AcDbLine
 10
108.4976652001
 20
170.5395212071
 30
0.0
 11
108.2976655399
 21
170.5395212071
 31
0.0
  0
LINE
  5
1A6
330
1F
100
AcDbEntity
  8
0
  6
Continuous
 62
     7
370
    15
100
AcDbLine
 10
108.2976655399
 20
180.0395181076
 30
0.0
 11
108.2976655399
 21
170.5395212071
 31
0.0
  0
LINE
  5
1A7
330
1F
100
AcDbEntity
  8
0
  6
Continuous
 62
     7
370
    15
100
AcDbLine
 10
108.2976655399
 20
180.0395181076
 30
0.0
 11
108.4976652001
 21
180.0395181076
 31
0.0
  0
LINE
  5
1A8
330
1F
100
AcDbEntity
  8
0
  6
Continuous
 62
     7
370
    15
100
AcDbLine
 10
108.4976652001
 20
95.5395200895
 30
0.0
 11
108.2976655399
 21
95.5395200895
 31
0.0
  0
LINE
  5
1A9
330
1F
100
AcDbEntity
  8
0
  6
Continuous
 62
     7
370
    15
100
AcDbLine
 10
108.2976655399
 20
105.0395207153
 30
0.0
 11
108.2976655399
 21
95.5395200895
 31
0.0
  0
LINE
  5
1AA
330
1F
100
AcDbEntity
  8
0
  6
Continuous
 62
     7
370
    15
100
AcDbLine
 10
108.2976655399
 20
105.0395207153
 30
0.0
 11
108.4976652001
 21
105.0395207153
 31
0.0
  0
LINE
  5
1AB
330
1F
100
AcDbEntity
  8
0
  6
Continuous
 62
     7
370
    15
100
AcDbLine
 10
117.7976652105
 20
187.2895201342
 30
0.0
 11
127.7976652105
 21
187.2895201342
 31
0.0
  0
LINE
  5
1AC
330
1F
100
AcDbEntity
  8
0
  6
Continuous
 62
     7
370
    15
100
AcDbLine
 10
127.7976652105
 20
187.2895201342
 30
0.0
 11
127.7976652105
 21
186.7895201342
 31
0.0
  0
LINE
  5
1AD
330
1F
100
AcDbEntity
  8
0
  6
Continuous
 62
     7
370
    15
100
AcDbLine
 10
117.7976652105
 20
186.7895201342
 30
0.0
 11
117.7976652105
 21
187.2895201342
 31
0.0
  0
LINE
  5
1AE
330
1F
100
AcDbEntity
  8
0
  6
Continuous
 62
     7
370
    15
100
AcDbLine
 10
127.7976652105
 20
186.7895201342
 30
0.0
 11
127.7976650109
 21
185.2895175712
 31
0.0
  0
LINE
  5
1AF
330
1F
100
AcDbEntity
  8
0
  6
Continuous
 62
     7
370
    15
100
AcDbLine
 10
117.7976652105
 20
186.7895201342
 30
0.0
 11
117.7976652344
 21
185.2895175712
 31
0.0
  0
ARC
  5
1B0
330
1F
100
AcDbEntity
  8
0
  6
Continuous
 62
     7
370
    15
100
AcDbCircle
 10
130.9976652105
 20
86.2895201342
 30
0.0
 40
1.0
100
AcDbArc
 50
270.0
 51
0.0
  0
LINE
  5
1B1
330
1F
100
AcDbEntity
  8
0
  6
Continuous
 62
     7
370
    15
100
AcDbLine
 10
131.9976653268
 20
87.2895201342
 30
0.0
 11
131.9976652105
 21
86.2895201342
 31
0.0
  0
ARC
  5
1B2
330
1F
100
AcDbEntity
  8
0
  6
Continuous
 62
     7
370
    15
100
AcDbCircle
 10
113.3976652105
 20
86.2895201342
 30
0.0
 40
1.0
100
AcDbArc
 50
180.0
 51
270.0
  0
LINE
  5
1B3
330
1F
100
AcDbEntity
  8
0
  6
Continuous
 62
     7
370
    15
100
AcDbLine
 10
130.9976652105
 20
85.2895201342
 30
0.0
 11
113.3976652105
 21
85.2895201342
 31
0.0
  0
LINE
  5
1B4
330
1F
100
AcDbEntity
  8
0
  6
Continuous
 62
     7
370
    15
100
AcDbLine
 10
112.3976652105
 20
86.2895201342
 30
0.0
 11
112.3976650943
 21
87.2895201342
 31
0.0
  0
LINE
  5
1B5
330
1F
100
AcDbEntity
  8
0
  6
Continuous
 62
     7
370
    15
100
AcDbLine
 10
121.4976652355
 20
110.389520009
 30
0.0
 11
121.4976652355
 21
109.6995198773
 31
0.0
  0
LINE
  5
1B6
330
1F
100
AcDbEntity
  8
0
  6
Continuous
 62
     7
370
    15
100
AcDbLine
 10
116.7976650705
 20
109.6995198773
 30
0.0
 11
116.7976650705
 21
110.389520009
 31
0.0
  0
LINE
  5
1B7
330
1F
100
AcDbEntity
  8
0
  6
Continuous
 62
     7
370
    15
100
AcDbLine
 10
116.7976650705
 20
145.2645217674
 30
0.0
 11
116.7976650705
 21
145.2767481701
 31
0.0
  0
LINE
  5
1B8
330
1F
100
AcDbEntity
  8
0
  6
Continuous
 62
     7
370
    15
100
AcDbLine
 10
116.7976650705
 20
147.2645183699
 30
0.0
 11
116.7976650705
 21
147.2767484979
 31
0.0
  0
DIMENSION
  5
1B9
330
1F
100
AcDbEntity
  8
0
  6
Continuous
 62
     7
370
     0
100
AcDbDimension
  2
*D1
 10
171.2199876822
 20
185.2895201342
 30
0.0
 11
171.2199876822
 21
136.2895201342
 31
0.0
 70
   160
 71
     1
 42
98.0
  3
SLDDIMSTYLE0
100
AcDbAlignedDimension
 13
135.1976652105
 23
87.2895201342
 33
0.0
 14
135.1976652105
 24
185.2895201342
 34
0.0
 50
90.0
100
AcDbRotatedDimension
1001
ACAD
1000
DSTYLE
1002
{
1070
    77
1070
     3
1070
   143
1040
0.0393700787
1070
    41
1040
2.0
1070
    44
1040
1.0
1070
    42
1040
1.0
1070
   147
1040
1.524
1070
    73
1070
     0
1070
    74
1070
     0
1070
   140
1040
3.2
1070
   284
1070
    12
1070
    78
1070
    12
1002
}
  0
DIMENSION
  5
1D6
330
1F
100
AcDbEntity
  8
0
  6
Continuous
 62
     7
370
     0
100
AcDbDimension
  2
*D3
 10
148.7018971052
 20
87.2895201342
 30
0.0
 11
148.7018971052
 21
93.8895201342
 31
0.0
 70
   160
 71
     1
 42
13.2
  3
SLDDIMSTYLE0
100
AcDbAlignedDimension
 13
130.0976652105
 23
100.4895201342
 33
0.0
 14
135.1976652105
 24
87.2895201342
 34
0.0
 50
90.0
100
AcDbRotatedDimension
1001
ACAD
1000
DSTYLE
1002
{
1070
    77
1070
     3
1070
   143
1040
0.0393700787
1070
    41
1040
2.0
1070
    44
1040
1.0
1070
    42
1040
1.0
1070
   147
1040
1.524
1070
    73
1070
     0
1070
    74
1070
     0
1070
   140
1040
3.2
1070
   284
1070
    12
1070
    78
1070
    12
1002
}
  0
DIMENSION
  5
1EA
330
1F
100
AcDbEntity
  8
0
  6
Continuous
 62
     7
370
     0
100
AcDbDimension
  2
*D4
 10
135.8976652105
 20
61.571829048
 30
0.0
 11
122.1976652105
 21
61.571829048
 31
0.0
 70
   160
 71
     1
 42
27.4
  3
SLDDIMSTYLE0
100
AcDbAlignedDimension
 13
108.4976652105
 23
87.9895201342
 33
0.0
 14
135.8976652105
 24
87.9895201342
 34
0.0
100
AcDbRotatedDimension
1001
ACAD
1000
DSTYLE
1002
{
1070
    77
1070
     3
1070
   143
1040
0.0393700787
1070
    41
1040
2.0
1070
    44
1040
1.0
1070
    42
1040
1.0
1070
   147
1040
1.524
1070
    73
1070
     0
1070
    74
1070
     0
1070
   140
1040
3.2
1070
   284
1070
    12
1070
    78
1070
    12
1002
}
  0
DIMENSION
  5
1FD
330
1F
100
AcDbEntity
  8
0
  6
Continuous
 62
     7
370
     0
100
AcDbDimension
  2
*D5
 10
171.2199876822
 20
87.2895201342
 30
0.0
 11
171.2199876822
 21
81.5099599714
 31
0.0
 70
   160
 71
     1
 42
2.0
  3
SLDDIMSTYLE0
100
AcDbAlignedDimension
 13
130.9976652105
 23
85.2895201342
 33
0.0
 14
135.1976652105
 24
87.2895201342
 34
0.0
 50
90.0
100
AcDbRotatedDimension
1001
ACAD
1000
DSTYLE
1002
{
1070
    77
1070
     3
1070
   143
1040
0.0393700787
1070
    41
1040
2.0
1070
    44
1040
1.0
1070
    42
1040
1.0
1070
   147
1040
1.524
1070
    73
1070
     0
1070
    74
1070
     0
1070
   140
1040
3.2
1070
   284
1070
    12
1070
    78
1070
    12
1002
}
  0
DIMENSION
  5
214
330
1F
100
AcDbEntity
  8
0
  6
Continuous
 62
     7
370
     0
100
AcDbDimension
  2
*D6
 10
122.1976652105
 20
199.7207864503
 30
0.0
 11
132.5849179182
 21
199.7207864503
 31
0.0
 70
   160
 71
     1
 42
4.4
  3
SLDDIMSTYLE0
100
AcDbAlignedDimension
 13
126.5976652105
 23
167.7895201342
 33
0.0
 14
122.1976652105
 24
192.5356588416
 34
0.0
100
AcDbRotatedDimension
1001
ACAD
1000
DSTYLE
1002
{
1070
    77
1070
     3
1070
   143
1040
0.0393700787
1070
    41
1040
2.0
1070
    44
1040
1.0
1070
    42
1040
1.0
1070
   147
1040
1.524
1070
    73
1070
     0
1070
    74
1070
     0
1070
   140
1040
3.2
1070
   284
1070
    12
1070
    78
1070
    12
1002
}
  0
DIMENSION
  5
22C
330
1F
100
AcDbEntity
  8
0
  6
Continuous
 62
     7
370
     0
100
AcDbDimension
  2
*D7
 10
163.3290173801
 20
87.2895201342
 30
0.0
 11
163.3290173801
 21
125.2895201342
 31
0.0
 70
   160
 71
     1
 42
76.0
  3
SLDDIMSTYLE0
100
AcDbAlignedDimension
 13
131.0976652105
 23
163.2895201342
 33
0.0
 14
135.1976652105
 24
87.2895201342
 34
0.0
 50
90.0
100
AcDbRotatedDimension
1001
ACAD
1000
DSTYLE
1002
{
1070
    77
1070
     3
1070
   143
1040
0.0393700787
1070
    41
1040
2.0
1070
    44
1040
1.0
1070
    42
1040
1.0
1070
   147
1040
1.524
1070
    73
1070
     0
1070
    74
1070
     0
1070
   140
1040
3.2
1070
   284
1070
    12
1070
    78
1070
    12
1002
}
  0
DIMENSION
  5
240
330
1F
100
AcDbEntity
  8
0
  6
Continuous
 62
     7
370
     0
100
AcDbDimension
  2
*D8
 10
171.2199876822
 20
187.2895201342
 30
0.0
 11
171.2199876822
 21
191.0067960709
 31
0.0
 70
   160
 71
     1
 42
2.0
  3
SLDDIMSTYLE0
100
AcDbAlignedDimension
 13
135.1976652105
 23
185.2895201342
 33
0.0
 14
127.7976652105
 24
187.2895201342
 34
0.0
 50
90.0
100
AcDbRotatedDimension
1001
ACAD
1000
DSTYLE
1002
{
1070
    77
1070
     3
1070
   143
1040
0.0393700787
1070
    41
1040
2.0
1070
    44
1040
1.0
1070
    42
1040
1.0
1070
   147
1040
1.524
1070
    73
1070
     0
1070
    74
1070
     0
1070
   140
1040
3.2
1070
   284
1070
    12
1070
    78
1070
    12
1002
}
  0
DIMENSION
  5
257
330
1F
100
AcDbEntity
  8
0
  6
Continuous
 62
     7
370
     0
100
AcDbDimension
  2
*D9
 10
122.1976652105
 20
68.5579529107
 30
0.0
 11
129.3954825504
 21
68.5579529107
 31
0.0
 70
   160
  1
(<>)
 71
     1
 42
2.55
  3
SLDDIMSTYLE1
100
AcDbAlignedDimension
 13
119.6476652105
 23
80.2895201342
 33
0.0
 14
122.1976652105
 24
77.1708171675
 34
0.0
100
AcDbRotatedDimension
1001
ACAD
1000
DSTYLE
1002
{
1070
    77
1070
     3
1070
   143
1040
0.0393700787
1070
    41
1040
2.0
1070
    44
1040
1.0
1070
    42
1040
1.0
1070
   147
1040
1.524
1070
    73
1070
     0
1070
    74
1070
     0
1070
   140
1040
3.2
1070
   284
1070
    12
1070
    78
1070
    12
1002
}
  0
DIMENSION
  5
272
330
1F
100
AcDbEntity
  8
0
  6
Continuous
 62
     7
370
     0
100
AcDbDimension
  2
*D10
 10
122.1976652105
 20
112.4344458076
 30
0.0
 11
113.9881854853
 21
112.4344458076
 31
0.0
 70
   160
 71
     1
 42
0.1
  3
SLDDIMSTYLE2
100
AcDbAlignedDimension
 13
122.0976652105
 23
112.2290510162
 33
0.0
 14
122.1976652105
 24
77.1708171675
 34
0.0
100
AcDbRotatedDimension
1001
ACAD
1000
DSTYLE
1002
{
1070
    77
1070
     3
1070
   143
1040
0.0393700787
1070
    41
1040
2.0
1070
    44
1040
1.0
1070
    42
1040
1.0
1070
   147
1040
1.524
1070
    73
1070
     0
1070
    74
1070
     0
1070
   140
1040
3.2
1070
   284
1070
    12
1070
    78
1070
     8
1002
}
  0
DIMENSION
  5
28A
330
1F
100
AcDbEntity
  8
0
  6
Continuous
 62
     7
370
     0
100
AcDbDimension
  2
*D11
 10
122.1976652105
 20
130.1173215548
 30
0.0
 11
113.9776699423
 21
130.1173215548
 31
0.0
 70
   160
 71
     1
 42
2.6
  3
SLDDIMSTYLE0
100
AcDbAlignedDimension
 13
119.5976652105
 23
135.5895201342
 33
0.0
 14
122.1976652105
 24
77.1708171675
 34
0.0
100
AcDbRotatedDimension
1001
ACAD
1000
DSTYLE
1002
{
1070
    77
1070
     3
1070
   143
1040
0.0393700787
1070
    41
1040
2.0
1070
    44
1040
1.0
1070
    42
1040
1.0
1070
   147
1040
1.524
1070
    73
1070
     0
1070
    74
1070
     0
1070
   140
1040
3.2
1070
   284
1070
    12
1070
    78
1070
    12
1002
}
  0
DIMENSION
  5
2A1
330
1F
100
AcDbEntity
  8
0
  6
Continuous
 62
     7
370
     0
100
AcDbDimension
  2
*D12
 10
155.6067361395
 20
146.5895201342
 30
0.0
 11
155.6067361395
 21
116.9395201342
 31
0.0
 70
   160
 71
     1
 42
59.3
  3
SLDDIMSTYLE0
100
AcDbAlignedDimension
 13
135.1976652105
 23
87.2895201342
 33
0.0
 14
130.5976652105
 24
146.5895201342
 34
0.0
 50
90.0
100
AcDbRotatedDimension
1001
ACAD
1000
DSTYLE
1002
{
1070
    77
1070
     3
1070
   143
1040
0.0393700787
1070
    41
1040
2.0
1070
    44
1040
1.0
1070
    42
1040
1.0
1070
   147
1040
1.524
1070
    73
1070
     0
1070
    74
1070
     0
1070
   140
1040
3.2
1070
   284
1070
    12
1070
    78
1070
    12
1002
}
  0
INSERT
  5
2BA
102
{ACAD_REACTORS
330
2BC
102
}
330
1F
100
AcDbEntity
  8
0
  6
Continuous
 62
     7
370
     0
100
AcDbBlockReference
  2
SW_NOTE_0
 10
79.667706422
 20
193.4099293578
 30
0.0
  0
LEADER
  5
2BC
330
1F
100
AcDbEntity
  8
0
  6
Continuous
 62
     7
370
     0
100
AcDbLeader
  3
SLDDIMSTYLE3
 73
     2
 76
     3
 10
119.9976652105
 20
182.1495201342
 30
0.0
 10
102.5135045872
 20
193.4099293578
 30
0.0
 10
79.667706422
 20
193.4099293578
 30
0.0
340
2BA
  0
INSERT
  5
2C2
102
{ACAD_REACTORS
330
2C3
102
}
330
1F
100
AcDbEntity
  8
0
  6
Continuous
 62
     7
370
     0
100
AcDbBlockReference
  2
SW_NOTE_1
 10
75.9688807339
 20
69.3617091743
 30
0.0
  0
LEADER
  5
2C3
330
1F
100
AcDbEntity
  8
0
  6
Continuous
 62
     7
370
     0
100
AcDbLeader
  3
SLDDIMSTYLE3
 73
     2
 76
     3
 10
117.2328368143
 20
83.4627744035
 30
0.0
 10
98.8146788991
 20
69.3617091743
 30
0.0
 10
75.9688807339
 20
69.3617091743
 30
0.0
340
2C2
  0
INSERT
  5
2C9
102
{ACAD_REACTORS
330
2CA
102
}
330
1F
100
AcDbEntity
  8
0
  6
Continuous
 62
     7
370
     0
100
AcDbBlockReference
  2
SW_NOTE_2
 10
162.1030458716
 20
194.0475073394
 30
0.0
  0
LEADER
  5
2CA
330
1F
100
AcDbEntity
  8
0
  6
Continuous
 62
     7
370
     0
100
AcDbLeader
  3
SLDDIMSTYLE3
 73
     2
 76
     3
 10
128.1871056688
 20
164.5034719576
 30
0.0
 10
146.7073027523
 20
194.0475073394
 30
0.0
 10
162.1030458716
 20
194.0475073394
 30
0.0
340
2C9
  0
INSERT
  5
2D0
102
{ACAD_REACTORS
330
2D1
102
}
330
1F
100
AcDbEntity
  8
0
  6
Continuous
 62
     7
370
     0
100
AcDbBlockReference
  2
SW_NOTE_3
 10
159.2819816514
 20
69.2132321101
 30
0.0
  0
LEADER
  5
2D1
330
1F
100
AcDbEntity
  8
0
  6
Continuous
 62
     7
370
     0
100
AcDbLeader
  3
SLDDIMSTYLE3
 73
     2
 76
     3
 10
125.3680124905
 20
91.2795201342
 30
0.0
 10
143.8818715596
 20
69.2132321101
 30
0.0
 10
159.2819816514
 20
69.2132321101
 30
0.0
340
2D0
  0
INSERT
  5
2D7
102
{ACAD_REACTORS
330
2D8
102
}
330
1F
100
AcDbEntity
  8
0
  6
Continuous
 62
     7
370
     0
100
AcDbBlockReference
  2
SW_NOTE_4
 10
78.5890642202
 20
159.9021495413
 30
0.0
  0
LEADER
  5
2D8
330
1F
100
AcDbEntity
  8
0
  6
Continuous
 62
     7
370
     0
100
AcDbLeader
  3
SLDDIMSTYLE3
 73
     2
 76
     3
 10
113.4924227392
 20
150.9456668679
 30
0.0
 10
97.7098348624
 20
159.9021495413
 30
0.0
 10
78.5890642202
 20
159.9021495413
 30
0.0
340
2D7
  0
INSERT
  5
2E4
330
1F
100
AcDbEntity
  8
0
  6
Continuous
 62
     7
370
     0
100
AcDbBlockReference
  2
SW_CENTERMARKSYMBOL_0
 10
119.5976652105
 20
146.5895201342
 30
0.0
  0
INSERT
  5
2F0
330
1F
100
AcDbEntity
  8
0
  6
Continuous
 62
     7
370
     0
100
AcDbBlockReference
  2
SW_CENTERMARKSYMBOL_1
 10
126.5976652105
 20
163.2895201342
 30
0.0
  0
LINE
  5
2F1
330
1F
100
AcDbEntity
  8
0
  6
CENTERX2
 62
     7
370
     0
100
AcDbLine
 10
122.0976652105
 20
88.9318383836
 30
0.0
 11
122.0976652105
 21
112.2290510162
 31
0.0
  0
LINE
  5
2F2
330
1F
100
AcDbEntity
  8
0
  6
CENTERX2
 62
     7
370
     0
100
AcDbLine
 10
122.1976652105
 20
192.5356588416
 30
0.0
 11
122.1976652105
 21
77.1708171675
 31
0.0
  0
LINE
  5
2F3
330
1F
100
AcDbEntity
  8
0
  6
CENTERX2
 62
     7
370
     0
100
AcDbLine
 10
120.6976652105
 20
178.3495201342
 30
0.0
 11
120.6976652105
 21
184.1495201342
 31
0.0
  0
LINE
  5
2F4
330
1F
100
AcDbEntity
  8
0
  6
CENTERX2
 62
     7
370
     0
100
AcDbLine
 10
120.6976652105
 20
175.8095201342
 30
0.0
 11
120.6976652105
 21
181.6095201342
 31
0.0
  0
LINE
  5
2F5
330
1F
100
AcDbEntity
  8
0
  6
CENTERX2
 62
     7
370
     0
100
AcDbLine
 10
120.6976652105
 20
173.2695201342
 30
0.0
 11
120.6976652105
 21
179.0695201342
 31
0.0
  0
LINE
  5
2F6
330
1F
100
AcDbEntity
  8
0
  6
CENTERX2
 62
     7
370
     0
100
AcDbLine
 10
120.6976652105
 20
170.7295201342
 30
0.0
 11
120.6976652105
 21
176.5295201342
 31
0.0
  0
LINE
  5
2F7
330
1F
100
AcDbEntity
  8
0
  6
CENTERX2
 62
     7
370
     0
100
AcDbLine
 10
124.6976652105
 20
178.3495201342
 30
0.0
 11
124.6976652105
 21
184.1495201342
 31
0.0
  0
LINE
  5
2F8
330
1F
100
AcDbEntity
  8
0
  6
CENTERX2
 62
     7
370
     0
100
AcDbLine
 10
121.9976652105
 20
181.2495201342
 30
0.0
 11
127.3976652105
 21
181.2495201342
 31
0.0
  0
LINE
  5
2F9
330
1F
100
AcDbEntity
  8
0
  6
CENTERX2
 62
     7
370
     0
100
AcDbLine
 10
117.9976652105
 20
181.2495201342
 30
0.0
 11
123.3976652105
 21
181.2495201342
 31
0.0
  0
LINE
  5
2FA
330
1F
100
AcDbEntity
  8
0
  6
CENTERX2
 62
     7
370
     0
100
AcDbLine
 10
117.9976652105
 20
178.7095201342
 30
0.0
 11
123.3976652105
 21
178.7095201342
 31
0.0
  0
LINE
  5
2FB
330
1F
100
AcDbEntity
  8
0
  6
CENTERX2
 62
     7
370
     0
100
AcDbLine
 10
117.9976652105
 20
176.1695201342
 30
0.0
 11
123.3976652105
 21
176.1695201342
 31
0.0
  0
LINE
  5
2FC
330
1F
100
AcDbEntity
  8
0
  6
CENTERX2
 62
     7
370
     0
100
AcDbLine
 10
117.9976652105
 20
173.6295201342
 30
0.0
 11
123.3976652105
 21
173.6295201342
 31
0.0
  0
LINE
  5
2FD
330
1F
100
AcDbEntity
  8
0
  6
CENTERX2
 62
     7
370
     0
100
AcDbLine
 10
119.6476652105
 20
90.4056173544
 30
0.0
 11
119.6476652105
 21
80.2895201342
 31
0.0
  0
LINE
  5
2FE
330
1F
100
AcDbEntity
  8
0
  6
CENTERX2
 62
     7
370
     0
100
AcDbLine
 10
130.0976652105
 20
100.4895201342
 30
0.0
 11
114.0976652105
 21
100.4895201342
 31
0.0
  0
ARC
  5
2FF
330
1F
100
AcDbEntity
  8
0
  6
Continuous
 62
     7
370
    15
100
AcDbCircle
 10
224.9129419278
 20
184.5895201342
 30
0.0
 40
0.7000000000000171
100
AcDbArc
 50
90.0
 51
180.0
  0
LINE
  5
300
330
1F
100
AcDbEntity
  8
0
  6
Continuous
 62
     7
370
    15
100
AcDbLine
 10
224.2129419278
 20
184.5895201342
 30
0.0
 11
224.2129419278
 21
170.2895201342
 31
0.0
  0
ARC
  5
301
330
1F
100
AcDbEntity
  8
0
  6
Continuous
 62
     7
370
    15
100
AcDbCircle
 10
224.9129419278
 20
87.9895201342
 30
0.0
 40
0.7000000000000171
100
AcDbArc
 50
180.0
 51
270.0
  0
LINE
  5
302
330
1F
100
AcDbEntity
  8
0
  6
Continuous
 62
     7
370
    15
100
AcDbLine
 10
224.2129419278
 20
90.5895201342
 30
0.0
 11
224.2129419278
 21
87.9895201342
 31
0.0
  0
LINE
  5
303
330
1F
100
AcDbEntity
  8
0
  6
Continuous
 62
     7
370
    15
100
AcDbLine
 10
224.2129410934
 20
138.4969321685
 30
0.0
 11
224.2129419278
 21
110.3895201342
 31
0.0
  0
LINE
  5
304
330
1F
100
AcDbEntity
  8
0
  6
Continuous
 62
     7
370
    15
100
AcDbLine
 10
224.2129419278
 20
169.7895201342
 30
0.0
 11
224.2129410934
 21
164.2395188706
 31
0.0
  0
LINE
  5
305
330
1F
100
AcDbEntity
  8
0
  6
Continuous
 62
     7
370
    15
100
AcDbLine
 10
224.2129410934
 20
162.3395165102
 30
0.0
 11
224.2129410934
 21
154.6781738894
 31
0.0
  0
LINE
  5
306
330
1F
100
AcDbEntity
  8
0
  6
Continuous
 62
     7
370
    15
100
AcDbLine
 10
208.2129419278
 20
108.9895201342
 30
0.0
 11
208.2129419278
 21
91.9895201342
 31
0.0
  0
LINE
  5
307
330
1F
100
AcDbEntity
  8
0
  6
Continuous
 62
     7
370
    15
100
AcDbLine
 10
217.0129421484
 20
99.1795198666
 30
0.0
 11
216.0129401218
 21
99.1795198666
 31
0.0
  0
LINE
  5
308
330
1F
100
AcDbEntity
  8
0
  6
Continuous
 62
     7
370
    15
100
AcDbLine
 10
216.0129401218
 20
94.1795199783
 30
0.0
 11
217.0129421484
 21
94.1795199783
 31
0.0
  0
ELLIPSE
  5
309
330
1F
100
AcDbEntity
  8
0
  6
Continuous
 62
     7
370
    15
100
AcDbEllipse
 10
216.0129419278
 20
96.6795201342
 30
0.0
 11
0.0
 21
2.5
 31
0.0
210
0.0
220
0.0
230
1.0
 40
0.6
 41
0.0
 42
0.9154706339156247
  0
ELLIPSE
  5
30A
330
1F
100
AcDbEntity
  8
0
  6
Continuous
 62
     7
370
    15
100
AcDbEllipse
 10
216.0129419278
 20
96.6795201342
 30
0.0
 11
0.0
 21
2.5
 31
0.0
210
0.0
220
0.0
230
1.0
 40
0.6
 41
2.22939719674967
 42
3.141592653589793
  0
LINE
  5
30B
330
1F
100
AcDbEntity
  8
0
  6
Continuous
 62
     7
370
    15
100
AcDbLine
 10
217.0129421484
 20
106.7995192157
 30
0.0
 11
216.0129401218
 21
106.7995192157
 31
0.0
  0
LINE
  5
30C
330
1F
100
AcDbEntity
  8
0
  6
Continuous
 62
     7
370
    15
100
AcDbLine
 10
216.0129401218
 20
101.7995202588
 30
0.0
 11
217.0129421484
 21
101.7995202588
 31
0.0
  0
ELLIPSE
  5
30D
330
1F
100
AcDbEntity
  8
0
  6
Continuous
 62
     7
370
    15
100
AcDbEllipse
 10
216.0129419278
 20
104.2995201342
 30
0.0
 11
0.0
 21
2.5
 31
0.0
210
0.0
220
0.0
230
1.0
 40
0.6
 41
0.0
 42
0.9154706339156176
  0
ELLIPSE
  5
30E
330
1F
100
AcDbEntity
  8
0
  6
Continuous
 62
     7
370
    15
100
AcDbEllipse
 10
216.0129419278
 20
104.2995201342
 30
0.0
 11
0.0
 21
2.5
 31
0.0
210
0.0
220
0.0
230
1.0
 40
0.6
 41
2.229397196749682
 42
3.141592653589793
  0
LINE
  5
30F
330
1F
100
AcDbEntity
  8
0
  6
Continuous
 62
     7
370
    15
100
AcDbLine
 10
219.2129419278
 20
139.0895201342
 30
0.0
 11
224.2254953217
 21
139.0895215468
 31
0.0
  0
LINE
  5
310
330
1F
100
AcDbEntity
  8
0
  6
Continuous
 62
     7
370
    15
100
AcDbLine
 10
221.1203578245
 20
154.3395226495
 30
0.0
 11
219.2129419278
 21
154.3395201342
 31
0.0
  0
LINE
  5
311
330
1F
100
AcDbEntity
  8
0
  6
Continuous
 62
     7
370
    15
100
AcDbLine
 10
224.2195870113
 20
154.3395226495
 30
0.0
 11
222.3129424583
 21
154.3395226495
 31
0.0
  0
LINE
  5
312
330
1F
100
AcDbEntity
  8
0
  6
Continuous
 62
     7
370
    15
100
AcDbLine
 10
222.3129424583
 20
154.3395226495
 30
0.0
 11
221.1129407715
 21
154.3395226495
 31
0.0
  0
LINE
  5
313
330
1F
100
AcDbEntity
  8
0
  6
Continuous
 62
     7
370
    15
100
AcDbLine
 10
224.5690304171
 20
164.2395188706
 30
0.0
 11
223.8764979616
 21
164.2395201342
 31
0.0
  0
LINE
  5
314
330
1F
100
AcDbEntity
  8
0
  6
Continuous
 62
     7
370
    15
100
AcDbLine
 10
223.8764979616
 20
162.3395201342
 30
0.0
 11
224.5686318111
 21
162.3395165102
 31
0.0
  0
LINE
  5
315
330
1F
100
AcDbEntity
  8
0
  6
Continuous
 62
     7
370
    15
100
AcDbLine
 10
223.8106134664
 20
164.2047842638
 30
0.0
 11
223.5416424836
 21
163.9157516128
 31
0.0
  0
LINE
  5
316
330
1F
100
AcDbEntity
  8
0
  6
Continuous
 62
     7
370
    15
100
AcDbLine
 10
223.5416424836
 20
162.6632886556
 30
0.0
 11
223.8106134664
 21
162.3742585675
 31
0.0
  0
LINE
  5
317
330
1F
100
AcDbEntity
  8
0
  6
Continuous
 62
     7
370
    15
100
AcDbLine
 10
225.9857727345
 20
185.2895201342
 30
0.0
 11
228.4129419278
 21
185.2895201342
 31
0.0
  0
LINE
  5
318
330
1F
100
AcDbEntity
  8
0
  6
Continuous
 62
     7
370
    15
100
AcDbLine
 10
228.4129419278
 20
185.2895201342
 30
0.0
 11
228.4129419278
 21
184.5895201342
 31
0.0
  0
LINE
  5
319
330
1F
100
AcDbEntity
  8
0
  6
Continuous
 62
     7
370
    15
100
AcDbLine
 10
225.9857727345
 20
170.2895201342
 30
0.0
 11
228.4129414093
 21
170.2895169751
 31
0.0
  0
LINE
  5
31A
330
1F
100
AcDbEntity
  8
0
  6
Continuous
 62
     7
370
    15
100
AcDbLine
 10
228.4129419278
 20
184.5895201342
 30
0.0
 11
228.4129414093
 21
170.2895169751
 31
0.0
  0
LINE
  5
31B
330
1F
100
AcDbEntity
  8
0
  6
Continuous
 62
     7
370
    15
100
AcDbLine
 10
225.9857727345
 20
170.2895201342
 30
0.0
 11
225.2952428677
 21
170.2895201342
 31
0.0
  0
LINE
  5
31C
330
1F
100
AcDbEntity
  8
0
  6
Continuous
 62
     7
370
    15
100
AcDbLine
 10
224.9129419278
 20
185.2895201342
 30
0.0
 11
225.9857727345
 21
185.2895201342
 31
0.0
  0
LINE
  5
31D
330
1F
100
AcDbEntity
  8
0
  6
Continuous
 62
     7
370
    15
100
AcDbLine
 10
224.2129419278
 20
170.2895201342
 30
0.0
 11
225.2952428677
 21
170.2895201342
 31
0.0
  0
LINE
  5
31E
330
1F
100
AcDbEntity
  8
0
  6
Continuous
 62
     7
370
    15
100
AcDbLine
 10
228.4129419278
 20
185.2895201342
 30
0.0
 11
257.7129419278
 21
185.2895201342
 31
0.0
  0
LINE
  5
31F
330
1F
100
AcDbEntity
  8
0
  6
Continuous
 62
     7
370
    15
100
AcDbLine
 10
257.7129419278
 20
185.2895201342
 30
0.0
 11
257.7129419278
 21
184.5895201342
 31
0.0
  0
LINE
  5
320
330
1F
100
AcDbEntity
  8
0
  6
Continuous
 62
     7
370
    15
100
AcDbLine
 10
228.4129419278
 20
184.5895201342
 30
0.0
 11
228.4129419278
 21
185.2895201342
 31
0.0
  0
LINE
  5
321
330
1F
100
AcDbEntity
  8
0
  6
Continuous
 62
     7
370
    15
100
AcDbLine
 10
228.4129414093
 20
169.7895234124
 30
0.0
 11
228.4129419278
 21
184.5895201342
 31
0.0
  0
LINE
  5
322
330
1F
100
AcDbEntity
  8
0
  6
Continuous
 62
     7
370
    15
100
AcDbLine
 10
257.7129419278
 20
184.5895201342
 30
0.0
 11
257.7129419278
 21
87.9895201342
 31
0.0
  0
LINE
  5
323
330
1F
100
AcDbEntity
  8
0
  6
Continuous
 62
     7
370
    15
100
AcDbLine
 10
225.9857727345
 20
169.7895201342
 30
0.0
 11
228.4129414093
 21
169.7895234124
 31
0.0
  0
LINE
  5
324
330
1F
100
AcDbEntity
  8
0
  6
Continuous
 62
     7
370
    15
100
AcDbLine
 10
251.7129418757
 20
180.2895223396
 30
0.0
 11
251.7129418757
 21
170.2895169751
 31
0.0
  0
LINE
  5
325
330
1F
100
AcDbEntity
  8
0
  6
Continuous
 62
     7
370
    15
100
AcDbLine
 10
251.7129418757
 20
170.2895169751
 30
0.0
 11
254.2129418198
 21
170.2895169751
 31
0.0
  0
LINE
  5
326
330
1F
100
AcDbEntity
  8
0
  6
Continuous
 62
     7
370
    15
100
AcDbLine
 10
254.2129418198
 20
170.2895169751
 30
0.0
 11
254.2129418198
 21
170.5395212071
 31
0.0
  0
LINE
  5
327
330
1F
100
AcDbEntity
  8
0
  6
Continuous
 62
     7
370
    15
100
AcDbLine
 10
254.2129418198
 20
180.0395181076
 30
0.0
 11
254.2129418198
 21
180.2895223396
 31
0.0
  0
LINE
  5
328
330
1F
100
AcDbEntity
  8
0
  6
Continuous
 62
     7
370
    15
100
AcDbLine
 10
254.2129418198
 20
180.2895223396
 30
0.0
 11
251.7129418757
 21
180.2895223396
 31
0.0
  0
LINE
  5
329
330
1F
100
AcDbEntity
  8
0
  6
Continuous
 62
     7
370
    15
100
AcDbLine
 10
251.7129418757
 20
105.2895193593
 30
0.0
 11
251.7129418757
 21
95.2895205142
 31
0.0
  0
LINE
  5
32A
330
1F
100
AcDbEntity
  8
0
  6
Continuous
 62
     7
370
    15
100
AcDbLine
 10
251.7129418757
 20
95.2895205142
 30
0.0
 11
254.2129418198
 21
95.2895205142
 31
0.0
  0
LINE
  5
32B
330
1F
100
AcDbEntity
  8
0
  6
Continuous
 62
     7
370
    15
100
AcDbLine
 10
254.2129418198
 20
95.2895205142
 30
0.0
 11
254.2129418198
 21
95.5395200895
 31
0.0
  0
LINE
  5
32C
330
1F
100
AcDbEntity
  8
0
  6
Continuous
 62
     7
370
    15
100
AcDbLine
 10
254.2129418198
 20
105.0395207153
 30
0.0
 11
254.2129418198
 21
105.2895193593
 31
0.0
  0
LINE
  5
32D
330
1F
100
AcDbEntity
  8
0
  6
Continuous
 62
     7
370
    15
100
AcDbLine
 10
254.2129418198
 20
105.2895193593
 30
0.0
 11
251.7129418757
 21
105.2895193593
 31
0.0
  0
LINE
  5
32E
330
1F
100
AcDbEntity
  8
0
  6
Continuous
 62
     7
370
    15
100
AcDbLine
 10
257.7129419278
 20
87.2895201342
 30
0.0
 11
225.9857727345
 21
87.2895201342
 31
0.0
  0
LINE
  5
32F
330
1F
100
AcDbEntity
  8
0
  6
Continuous
 62
     7
370
    15
100
AcDbLine
 10
257.7129419278
 20
87.9895201342
 30
0.0
 11
257.7129419278
 21
87.2895201342
 31
0.0
  0
LINE
  5
330
330
1F
100
AcDbEntity
  8
0
  6
Continuous
 62
     7
370
    15
100
AcDbLine
 10
225.2952428677
 20
169.7895201342
 30
0.0
 11
225.9857727345
 21
169.7895201342
 31
0.0
  0
LINE
  5
331
330
1F
100
AcDbEntity
  8
0
  6
Continuous
 62
     7
370
    15
100
AcDbLine
 10
225.9857727345
 20
87.2895201342
 30
0.0
 11
224.9129419278
 21
87.2895201342
 31
0.0
  0
ARC
  5
332
330
1F
100
AcDbEntity
  8
0
  6
Continuous
 62
     7
370
    15
100
AcDbCircle
 10
50.6382415121
 20
146.5912294306
 30
0.0
 40
173.763327497186
100
AcDbArc
 50
357.3300640308
 51
2.6675088633
  0
LINE
  5
333
330
1F
100
AcDbEntity
  8
0
  6
Continuous
 62
     7
370
    15
100
AcDbLine
 10
224.2489500315
 20
161.7895201342
 30
0.0
 11
224.4693528438
 21
161.7895201342
 31
0.0
  0
ARC
  5
334
330
1F
100
AcDbEntity
  8
0
  6
Continuous
 62
     7
370
    15
100
AcDbCircle
 10
218.6563268831
 20
163.2895214157
 30
0.0
 40
6.003438059953056
100
AcDbArc
 50
345.5309664957
 51
14.4690335043
  0
LINE
  5
335
330
1F
100
AcDbEntity
  8
0
  6
Continuous
 62
     7
370
    15
100
AcDbLine
 10
224.4693528438
 20
164.7895201342
 30
0.0
 11
224.2489500315
 21
164.7895201342
 31
0.0
  0
ARC
  5
336
330
1F
100
AcDbEntity
  8
0
  6
Continuous
 62
     7
370
    15
100
AcDbCircle
 10
227.8170960092
 20
164.3464061395
 30
0.0
 40
3.595555349566146
100
AcDbArc
 50
172.9208971639
 51
181.7035175879
  0
ARC
  5
337
330
1F
100
AcDbEntity
  8
0
  6
Continuous
 62
     7
370
    15
100
AcDbCircle
 10
227.3956906166
 20
162.2136041079
 30
0.0
 40
3.175188755613369
100
AcDbArc
 50
177.7273346868
 51
187.675429036
  0
LINE
  5
338
330
1F
100
AcDbEntity
  8
0
  6
Continuous
 62
     7
370
    15
100
AcDbLine
 10
224.2129419278
 20
90.5895201342
 30
0.0
 11
224.3886974904
 21
90.5895201342
 31
0.0
  0
ARC
  5
339
330
1F
100
AcDbEntity
  8
0
  6
Continuous
 62
     7
370
    15
100
AcDbCircle
 10
221.3817308504
 20
91.3107547858
 30
0.0
 40
3.092251971177962
100
AcDbArc
 50
346.5121420655
 51
5.172217545
  0
LINE
  5
33A
330
1F
100
AcDbEntity
  8
0
  6
Continuous
 62
     7
370
    15
100
AcDbLine
 10
224.4613918792
 20
91.5895202802
 30
0.0
 11
224.4613918792
 21
109.3895198451
 31
0.0
  0
ARC
  5
33B
330
1F
100
AcDbEntity
  8
0
  6
Continuous
 62
     7
370
    15
100
AcDbCircle
 10
220.3315275438
 20
109.5919404919
 30
0.0
 40
4.134822069574299
100
AcDbArc
 50
357.1939575318
 51
11.1216828577
  0
LINE
  5
33C
330
1F
100
AcDbEntity
  8
0
  6
Continuous
 62
     7
370
    15
100
AcDbLine
 10
224.3886974904
 20
110.3895201342
 30
0.0
 11
224.2129419278
 21
110.3895201342
 31
0.0
  0
LINE
  5
33D
330
1F
100
AcDbEntity
  8
0
  6
Continuous
 62
     7
370
    15
100
AcDbLine
 10
224.2129419278
 20
169.7895201342
 30
0.0
 11
225.2952428677
 21
169.7895201342
 31
0.0
  0
LINE
  5
33E
330
1F
100
AcDbEntity
  8
0
  6
Continuous
 62
     7
370
    15
100
AcDbLine
 10
226.4129410814
 20
170.2895169751
 30
0.0
 11
226.4129410814
 21
169.7895234124
 31
0.0
  0
LINE
  5
33F
330
1F
100
AcDbEntity
  8
0
  6
Continuous
 62
     7
370
    15
100
AcDbLine
 10
226.1129434537
 20
169.7895234124
 30
0.0
 11
226.1129434537
 21
170.2895169751
 31
0.0
  0
LINE
  5
340
330
1F
100
AcDbEntity
  8
0
  6
Continuous
 62
     7
370
    15
100
AcDbLine
 10
311.2129423153
 20
82.2895202459
 30
0.0
 11
311.2129423153
 21
86.8565074366
 31
0.0
  0
LINE
  5
341
330
1F
100
AcDbEntity
  8
0
  6
Continuous
 62
     7
370
    15
100
AcDbLine
 10
310.7129419278
 20
82.2895201342
 30
0.0
 11
311.2129423153
 21
82.2895202459
 31
0.0
  0
ARC
  5
342
330
1F
100
AcDbEntity
  8
0
  6
Continuous
 62
     7
370
    15
100
AcDbCircle
 10
310.7129419278
 20
85.2895201342
 30
0.0
 40
3.000000000000014
100
AcDbArc
 50
180.0
 51
270.0
  0
LINE
  5
343
330
1F
100
AcDbEntity
  8
0
  6
Continuous
 62
     7
370
    15
100
AcDbLine
 10
307.7129426729
 20
89.2895202292
 30
0.0
 11
307.7129419278
 21
85.2895201342
 31
0.0
  0
LINE
  5
344
330
1F
100
AcDbEntity
  8
0
  6
Continuous
 62
     7
370
    15
100
AcDbLine
 10
211.8119800335
 20
91.9895201342
 30
0.0
 11
211.8119800335
 21
108.9895201342
 31
0.0
  0
LINE
  5
345
330
1F
100
AcDbEntity
  8
0
  6
Continuous
 62
     7
370
    15
100
AcDbLine
 10
211.8119800335
 20
108.9895201342
 30
0.0
 11
209.0785549137
 21
108.9895201342
 31
0.0
  0
LINE
  5
346
330
1F
100
AcDbEntity
  8
0
  6
Continuous
 62
     7
370
    15
100
AcDbLine
 10
211.8119800335
 20
91.9895201342
 30
0.0
 11
209.0785549137
 21
91.9895201342
 31
0.0
  0
LINE
  5
347
330
1F
100
AcDbEntity
  8
0
  6
Continuous
 62
     7
370
    15
100
AcDbLine
 10
209.0785549137
 20
108.9895201342
 30
0.0
 11
208.2129419278
 21
108.9895201342
 31
0.0
  0
LINE
  5
348
330
1F
100
AcDbEntity
  8
0
  6
Continuous
 62
     7
370
    15
100
AcDbLine
 10
209.0785549137
 20
91.9895201342
 30
0.0
 11
208.2129419278
 21
91.9895201342
 31
0.0
  0
LINE
  5
349
330
1F
100
AcDbEntity
  8
0
  6
Continuous
 62
     7
370
    15
100
AcDbLine
 10
224.4572493564
 20
91.279520248
 30
0.0
 11
223.0129431318
 21
91.279520248
 31
0.0
  0
LINE
  5
34A
330
1F
100
AcDbEntity
  8
0
  6
Continuous
 62
     7
370
    15
100
AcDbLine
 10
223.0129431318
 20
92.2595202597
 30
0.0
 11
223.0129431318
 21
91.279520248
 31
0.0
  0
LINE
  5
34B
330
1F
100
AcDbEntity
  8
0
  6
Continuous
 62
     7
370
    15
100
AcDbLine
 10
223.0129431318
 20
92.2595202597
 30
0.0
 11
212.0129431914
 21
92.2595202597
 31
0.0
  0
LINE
  5
34C
330
1F
100
AcDbEntity
  8
0
  6
Continuous
 62
     7
370
    15
100
AcDbLine
 10
212.0129431914
 20
93.4795202361
 30
0.0
 11
212.0129431914
 21
92.2595202597
 31
0.0
  0
LINE
  5
34D
330
1F
100
AcDbEntity
  8
0
  6
Continuous
 62
     7
370
    15
100
AcDbLine
 10
223.0129431318
 20
93.4795202361
 30
0.0
 11
212.0129431914
 21
93.4795202361
 31
0.0
  0
LINE
  5
34E
330
1F
100
AcDbEntity
  8
0
  6
Continuous
 62
     7
370
    15
100
AcDbLine
 10
223.0129431318
 20
99.8795205401
 30
0.0
 11
223.0129431318
 21
93.4795202361
 31
0.0
  0
LINE
  5
34F
330
1F
100
AcDbEntity
  8
0
  6
Continuous
 62
     7
370
    15
100
AcDbLine
 10
223.0129431318
 20
99.8795205401
 30
0.0
 11
212.0129431914
 21
99.8795205401
 31
0.0
  0
LINE
  5
350
330
1F
100
AcDbEntity
  8
0
  6
Continuous
 62
     7
370
    15
100
AcDbLine
 10
212.0129431914
 20
101.0995205165
 30
0.0
 11
212.0129431914
 21
99.8795205401
 31
0.0
  0
LINE
  5
351
330
1F
100
AcDbEntity
  8
0
  6
Continuous
 62
     7
370
    15
100
AcDbLine
 10
223.0129431318
 20
101.0995205165
 30
0.0
 11
212.0129431914
 21
101.0995205165
 31
0.0
  0
LINE
  5
352
330
1F
100
AcDbEntity
  8
0
  6
Continuous
 62
     7
370
    15
100
AcDbLine
 10
223.0129431318
 20
107.4995198892
 30
0.0
 11
223.0129431318
 21
101.0995205165
 31
0.0
  0
LINE
  5
353
330
1F
100
AcDbEntity
  8
0
  6
Continuous
 62
     7
370
    15
100
AcDbLine
 10
223.0129431318
 20
107.4995198892
 30
0.0
 11
212.0129431914
 21
107.4995198892
 31
0.0
  0
LINE
  5
354
330
1F
100
AcDbEntity
  8
0
  6
Continuous
 62
     7
370
    15
100
AcDbLine
 10
212.0129431914
 20
108.719520797
 30
0.0
 11
212.0129431914
 21
107.4995198892
 31
0.0
  0
LINE
  5
355
330
1F
100
AcDbEntity
  8
0
  6
Continuous
 62
     7
370
    15
100
AcDbLine
 10
223.0129431318
 20
108.719520797
 30
0.0
 11
212.0129431914
 21
108.719520797
 31
0.0
  0
LINE
  5
356
330
1F
100
AcDbEntity
  8
0
  6
Continuous
 62
     7
370
    15
100
AcDbLine
 10
223.0129431318
 20
108.719520797
 30
0.0
 11
223.0129431318
 21
109.6995198773
 31
0.0
  0
LINE
  5
357
330
1F
100
AcDbEntity
  8
0
  6
Continuous
 62
     7
370
    15
100
AcDbLine
 10
224.4565527271
 20
109.6995198773
 30
0.0
 11
223.0129431318
 21
109.6995198773
 31
0.0
  0
LINE
  5
358
330
1F
100
AcDbEntity
  8
0
  6
Continuous
 62
     7
370
    15
100
AcDbLine
 10
221.512940092
 20
92.2595202597
 30
0.0
 11
221.512940092
 21
91.279520248
 31
0.0
  0
LINE
  5
359
330
1F
100
AcDbEntity
  8
0
  6
Continuous
 62
     7
370
    15
100
AcDbLine
 10
221.512940092
 20
91.279520248
 30
0.0
 11
223.0129431318
 21
91.279520248
 31
0.0
  0
LINE
  5
35A
330
1F
100
AcDbEntity
  8
0
  6
Continuous
 62
     7
370
    15
100
AcDbLine
 10
221.512940092
 20
108.719520797
 30
0.0
 11
221.512940092
 21
109.6995198773
 31
0.0
  0
LINE
  5
35B
330
1F
100
AcDbEntity
  8
0
  6
Continuous
 62
     7
370
    15
100
AcDbLine
 10
221.512940092
 20
109.6995198773
 30
0.0
 11
223.0129431318
 21
109.6995198773
 31
0.0
  0
LINE
  5
35C
330
1F
100
AcDbEntity
  8
0
  6
Continuous
 62
     7
370
    15
100
AcDbLine
 10
221.512940092
 20
107.4995198892
 30
0.0
 11
221.512940092
 21
101.0995205165
 31
0.0
  0
LINE
  5
35D
330
1F
100
AcDbEntity
  8
0
  6
Continuous
 62
     7
370
    15
100
AcDbLine
 10
221.512940092
 20
99.8795205401
 30
0.0
 11
221.512940092
 21
93.4795202361
 31
0.0
  0
LINE
  5
35E
330
1F
100
AcDbEntity
  8
0
  6
Continuous
 62
     7
370
    15
100
AcDbLine
 10
212.0129431914
 20
92.2595202597
 30
0.0
 11
211.811978681
 21
92.2595202597
 31
0.0
  0
LINE
  5
35F
330
1F
100
AcDbEntity
  8
0
  6
Continuous
 62
     7
370
    15
100
AcDbLine
 10
211.811978681
 20
93.4795202361
 30
0.0
 11
212.0129431914
 21
93.4795202361
 31
0.0
  0
LINE
  5
360
330
1F
100
AcDbEntity
  8
0
  6
Continuous
 62
     7
370
    15
100
AcDbLine
 10
211.811978681
 20
99.8795205401
 30
0.0
 11
212.0129431914
 21
99.8795205401
 31
0.0
  0
LINE
  5
361
330
1F
100
AcDbEntity
  8
0
  6
Continuous
 62
     7
370
    15
100
AcDbLine
 10
211.811978681
 20
101.0995205165
 30
0.0
 11
212.0129431914
 21
101.0995205165
 31
0.0
  0
LINE
  5
362
330
1F
100
AcDbEntity
  8
0
  6
Continuous
 62
     7
370
    15
100
AcDbLine
 10
211.811978681
 20
107.4995198892
 30
0.0
 11
212.0129431914
 21
107.4995198892
 31
0.0
  0
LINE
  5
363
330
1F
100
AcDbEntity
  8
0
  6
Continuous
 62
     7
370
    15
100
AcDbLine
 10
211.811978681
 20
108.719520797
 30
0.0
 11
212.0129431914
 21
108.719520797
 31
0.0
  0
LINE
  5
364
330
1F
100
AcDbEntity
  8
0
  6
Continuous
 62
     7
370
    15
100
AcDbLine
 10
219.0129424762
 20
92.2595202597
 30
0.0
 11
219.0129424762
 21
91.279520248
 31
0.0
  0
LINE
  5
365
330
1F
100
AcDbEntity
  8
0
  6
Continuous
 62
     7
370
    15
100
AcDbLine
 10
219.0129424762
 20
91.279520248
 30
0.0
 11
221.512940092
 21
91.279520248
 31
0.0
  0
LINE
  5
366
330
1F
100
AcDbEntity
  8
0
  6
Continuous
 62
     7
370
    15
100
AcDbLine
 10
219.0129424762
 20
108.719520797
 30
0.0
 11
219.0129424762
 21
109.6995198773
 31
0.0
  0
LINE
  5
367
330
1F
100
AcDbEntity
  8
0
  6
Continuous
 62
     7
370
    15
100
AcDbLine
 10
219.0129424762
 20
109.6995198773
 30
0.0
 11
221.512940092
 21
109.6995198773
 31
0.0
  0
LINE
  5
368
330
1F
100
AcDbEntity
  8
0
  6
Continuous
 62
     7
370
    15
100
AcDbLine
 10
219.0129424762
 20
99.8795205401
 30
0.0
 11
219.0129424762
 21
93.4795202361
 31
0.0
  0
LINE
  5
369
330
1F
100
AcDbEntity
  8
0
  6
Continuous
 62
     7
370
    15
100
AcDbLine
 10
219.0129424762
 20
107.4995198892
 30
0.0
 11
219.0129424762
 21
101.0995205165
 31
0.0
  0
LINE
  5
36A
330
1F
100
AcDbEntity
  8
0
  6
Continuous
 62
     7
370
    15
100
AcDbLine
 10
217.0129421484
 20
93.679520362
 30
0.0
 11
219.0129424762
 21
93.679520362
 31
0.0
  0
LINE
  5
36B
330
1F
100
AcDbEntity
  8
0
  6
Continuous
 62
     7
370
    15
100
AcDbLine
 10
217.0129421484
 20
93.679520362
 30
0.0
 11
217.0129421484
 21
99.6795199485
 31
0.0
  0
LINE
  5
36C
330
1F
100
AcDbEntity
  8
0
  6
Continuous
 62
     7
370
    15
100
AcDbLine
 10
217.0129421484
 20
99.6795199485
 30
0.0
 11
219.0129424762
 21
99.6795199485
 31
0.0
  0
LINE
  5
36D
330
1F
100
AcDbEntity
  8
0
  6
Continuous
 62
     7
370
    15
100
AcDbLine
 10
216.0129419278
 20
96.3295201342
 30
0.0
 11
216.0129419278
 21
97.0295201342
 31
0.0
  0
LWPOLYLINE
  5
36E
330
1F
100
AcDbEntity
  8
0
  6
Continuous
 62
     7
370
    15
100
AcDbPolyline
 90
        3
 70
   128
 43
0.0
 10
214.5426350962
 20
97.0295197935
 10
214.6952267121
 20
97.8215546952
 10
214.8314605784
 20
98.1795197026
  0
LINE
  5
36F
330
1F
100
AcDbEntity
  8
0
  6
Continuous
 62
     7
370
    15
100
AcDbLine
 10
216.0129419278
 20
97.0295201342
 30
0.0
 11
214.5426350962
 21
97.0295197935
 31
0.0
  0
LWPOLYLINE
  5
370
330
1F
100
AcDbEntity
  8
0
  6
Continuous
 62
     7
370
    15
100
AcDbPolyline
 90
        3
 70
   128
 43
0.0
 10
214.8314605784
 20
95.1795201422
 10
214.5558039974
 20
96.2003828631
 10
214.5426350962
 20
96.3295200513
  0
LINE
  5
371
330
1F
100
AcDbEntity
  8
0
  6
Continuous
 62
     7
370
    15
100
AcDbLine
 10
214.5426350962
 20
96.3295200513
 30
0.0
 11
216.0129419278
 21
96.3295201342
 31
0.0
  0
LINE
  5
372
330
1F
100
AcDbEntity
  8
0
  6
Continuous
 62
     7
370
    15
100
AcDbLine
 10
217.0129421484
 20
101.2995201768
 30
0.0
 11
219.0129424762
 21
101.2995201768
 31
0.0
  0
LINE
  5
373
330
1F
100
AcDbEntity
  8
0
  6
Continuous
 62
     7
370
    15
100
AcDbLine
 10
217.0129421484
 20
101.2995201768
 30
0.0
 11
217.0129421484
 21
107.299520229
 31
0.0
  0
LINE
  5
374
330
1F
100
AcDbEntity
  8
0
  6
Continuous
 62
     7
370
    15
100
AcDbLine
 10
217.0129421484
 20
107.299520229
 30
0.0
 11
219.0129424762
 21
107.299520229
 31
0.0
  0
LINE
  5
375
330
1F
100
AcDbEntity
  8
0
  6
Continuous
 62
     7
370
    15
100
AcDbLine
 10
216.0129419278
 20
103.9495201342
 30
0.0
 11
216.0129419278
 21
104.6495201342
 31
0.0
  0
LWPOLYLINE
  5
376
330
1F
100
AcDbEntity
  8
0
  6
Continuous
 62
     7
370
    15
100
AcDbPolyline
 90
        3
 70
   128
 43
0.0
 10
214.5426350962
 20
104.649520074
 10
214.6952267121
 20
105.4415540443
 10
214.8314605784
 20
105.7995209144
  0
LINE
  5
377
330
1F
100
AcDbEntity
  8
0
  6
Continuous
 62
     7
370
    15
100
AcDbLine
 10
216.0129419278
 20
104.6495201342
 30
0.0
 11
214.5426350962
 21
104.649520074
 31
0.0
  0
LWPOLYLINE
  5
378
330
1F
100
AcDbEntity
  8
0
  6
Continuous
 62
     7
370
    15
100
AcDbPolyline
 90
        3
 70
   128
 43
0.0
 10
214.8314605784
 20
102.7995204227
 10
214.5558039974
 20
103.8203822123
 10
214.5426350962
 20
103.9495194005
  0
LINE
  5
379
330
1F
100
AcDbEntity
  8
0
  6
Continuous
 62
     7
370
    15
100
AcDbLine
 10
214.5426350962
 20
103.9495194005
 30
0.0
 11
216.0129419278
 21
103.9495201342
 31
0.0
  0
LINE
  5
37A
330
1F
100
AcDbEntity
  8
0
  6
Continuous
 62
     7
370
    15
100
AcDbLine
 10
224.4023162257
 20
144.0895205037
 30
0.0
 11
219.2129419278
 21
144.0895201342
 31
0.0
  0
LINE
  5
37B
330
1F
100
AcDbEntity
  8
0
  6
Continuous
 62
     7
370
    15
100
AcDbLine
 10
219.2129419278
 20
144.0895201342
 30
0.0
 11
219.2129419278
 21
149.0895201342
 31
0.0
  0
LINE
  5
37C
330
1F
100
AcDbEntity
  8
0
  6
Continuous
 62
     7
370
    15
100
AcDbLine
 10
224.4024317097
 20
149.0895194607
 30
0.0
 11
219.2129419278
 21
149.0895201342
 31
0.0
  0
LINE
  5
37D
330
1F
100
AcDbEntity
  8
0
  6
Continuous
 62
     7
370
    15
100
AcDbLine
 10
219.2129419278
 20
139.0895201342
 30
0.0
 11
219.2129419278
 21
144.0895201342
 31
0.0
  0
LINE
  5
37E
330
1F
100
AcDbEntity
  8
0
  6
Continuous
 62
     7
370
    15
100
AcDbLine
 10
224.2295633387
 20
153.9846216933
 30
0.0
 11
219.2129419278
 21
153.9846198631
 31
0.0
  0
LINE
  5
37F
330
1F
100
AcDbEntity
  8
0
  6
Continuous
 62
     7
370
    15
100
AcDbLine
 10
219.2129419278
 20
149.0895201342
 30
0.0
 11
219.2129419278
 21
153.9846198631
 31
0.0
  0
LINE
  5
380
330
1F
100
AcDbEntity
  8
0
  6
Continuous
 62
     7
370
    15
100
AcDbLine
 10
224.2214757334
 20
154.2380457418
 30
0.0
 11
219.2129419278
 21
154.2380494046
 31
0.0
  0
LINE
  5
381
330
1F
100
AcDbEntity
  8
0
  6
Continuous
 62
     7
370
    15
100
AcDbLine
 10
219.2129419278
 20
153.9846198631
 30
0.0
 11
219.2129419278
 21
154.2380494046
 31
0.0
  0
LINE
  5
382
330
1F
100
AcDbEntity
  8
0
  6
Continuous
 62
     7
370
    15
100
AcDbLine
 10
219.2129419278
 20
154.2380494046
 30
0.0
 11
219.2129419278
 21
154.3395201342
 31
0.0
  0
ARC
  5
383
330
1F
100
AcDbEntity
  8
0
  6
Continuous
 62
     7
370
    15
100
AcDbCircle
 10
312.7129419278
 20
101.3395201342
 30
0.0
 40
2.799999999999999
100
AcDbArc
 50
315.5846914028
 51
44.4153085972
  0
ARC
  5
384
330
1F
100
AcDbEntity
  8
0
  6
Continuous
 62
     7
370
    15
100
AcDbCircle
 10
312.7129419278
 20
101.3395201342
 30
0.0
 40
2.999999999999993
100
AcDbArc
 50
311.8103148958
 51
48.1896851042
  0
ARC
  5
385
330
1F
100
AcDbEntity
  8
0
  6
Continuous
 62
     7
370
    15
100
AcDbCircle
 10
224.7326615591
 20
163.0679295425
 30
0.0
 40
1.124099620884805
100
AcDbArc
 50
168.6311124864
 51
220.3907439195
  0
ARC
  5
386
330
1F
100
AcDbEntity
  8
0
  6
Continuous
 62
     7
370
    15
100
AcDbCircle
 10
224.7326529307
 20
163.5111080715
 30
0.0
 40
1.124091602090821
100
AcDbArc
 50
139.6090577926
 51
191.3690858015
  0
ARC
  5
387
330
1F
100
AcDbEntity
  8
0
  6
Continuous
 62
     7
370
    15
100
AcDbCircle
 10
224.4491752062
 20
163.4120528089
 30
0.0
 40
1.037944153844322
100
AcDbArc
 50
150.9687049166
 51
186.7798989057
  0
ARC
  5
388
330
1F
100
AcDbEntity
  8
0
  6
Continuous
 62
     7
370
    15
100
AcDbCircle
 10
224.4491358005
 20
163.1669808152
 30
0.0
 40
1.037905231132604
100
AcDbArc
 50
173.2197479834
 51
209.0319063263
  0
LINE
  5
389
330
1F
100
AcDbEntity
  8
0
  6
Continuous
 62
     7
370
    15
100
AcDbLine
 10
253.7629421186
 20
180.0395181076
 30
0.0
 11
253.7629421186
 21
170.5395212071
 31
0.0
  0
LINE
  5
38A
330
1F
100
AcDbEntity
  8
0
  6
Continuous
 62
     7
370
    15
100
AcDbLine
 10
253.7629421186
 20
180.0395181076
 30
0.0
 11
254.2129418198
 21
180.0395181076
 31
0.0
  0
LINE
  5
38B
330
1F
100
AcDbEntity
  8
0
  6
Continuous
 62
     7
370
    15
100
AcDbLine
 10
254.2129418198
 20
180.0395181076
 30
0.0
 11
254.2129418198
 21
170.5395212071
 31
0.0
  0
LINE
  5
38C
330
1F
100
AcDbEntity
  8
0
  6
Continuous
 62
     7
370
    15
100
AcDbLine
 10
254.2129418198
 20
170.5395212071
 30
0.0
 11
253.7629421186
 21
170.5395212071
 31
0.0
  0
LINE
  5
38D
330
1F
100
AcDbEntity
  8
0
  6
Continuous
 62
     7
370
    15
100
AcDbLine
 10
253.7629421186
 20
105.0395207153
 30
0.0
 11
253.7629421186
 21
95.5395200895
 31
0.0
  0
LINE
  5
38E
330
1F
100
AcDbEntity
  8
0
  6
Continuous
 62
     7
370
    15
100
AcDbLine
 10
253.7629421186
 20
105.0395207153
 30
0.0
 11
254.2129418198
 21
105.0395207153
 31
0.0
  0
LINE
  5
38F
330
1F
100
AcDbEntity
  8
0
  6
Continuous
 62
     7
370
    15
100
AcDbLine
 10
254.2129418198
 20
95.5395200895
 30
0.0
 11
253.7629421186
 21
95.5395200895
 31
0.0
  0
LINE
  5
390
330
1F
100
AcDbEntity
  8
0
  6
Continuous
 62
     7
370
    15
100
AcDbLine
 10
254.2129418198
 20
105.0395207153
 30
0.0
 11
254.2129418198
 21
95.5395200895
 31
0.0
  0
LINE
  5
391
330
1F
100
AcDbEntity
  8
0
  6
Continuous
 62
     7
370
    15
100
AcDbLine
 10
251.7129418757
 20
171.5395232336
 30
0.0
 11
253.2129421215
 21
171.5395232336
 31
0.0
  0
LINE
  5
392
330
1F
100
AcDbEntity
  8
0
  6
Continuous
 62
     7
370
    15
100
AcDbLine
 10
253.2129421215
 20
171.5395232336
 30
0.0
 11
253.2129421215
 21
179.0395235317
 31
0.0
  0
LINE
  5
393
330
1F
100
AcDbEntity
  8
0
  6
Continuous
 62
     7
370
    15
100
AcDbLine
 10
253.2129421215
 20
179.0395235317
 30
0.0
 11
251.7129418757
 21
179.0395235317
 31
0.0
  0
LINE
  5
394
330
1F
100
AcDbEntity
  8
0
  6
Continuous
 62
     7
370
    15
100
AcDbLine
 10
253.7629421186
 20
170.5395212071
 30
0.0
 11
251.7129418757
 21
170.5395212071
 31
0.0
  0
LINE
  5
395
330
1F
100
AcDbEntity
  8
0
  6
Continuous
 62
     7
370
    15
100
AcDbLine
 10
251.7129418757
 20
180.0395181076
 30
0.0
 11
253.7629421186
 21
180.0395181076
 31
0.0
  0
LINE
  5
396
330
1F
100
AcDbEntity
  8
0
  6
Continuous
 62
     7
370
    15
100
AcDbLine
 10
251.7129418757
 20
96.5395202534
 30
0.0
 11
253.2129421215
 21
96.5395202534
 31
0.0
  0
LINE
  5
397
330
1F
100
AcDbEntity
  8
0
  6
Continuous
 62
     7
370
    15
100
AcDbLine
 10
253.2129421215
 20
96.5395202534
 30
0.0
 11
253.2129421215
 21
104.0395205514
 31
0.0
  0
LINE
  5
398
330
1F
100
AcDbEntity
  8
0
  6
Continuous
 62
     7
370
    15
100
AcDbLine
 10
253.2129421215
 20
104.0395205514
 30
0.0
 11
251.7129418757
 21
104.0395205514
 31
0.0
  0
LINE
  5
399
330
1F
100
AcDbEntity
  8
0
  6
Continuous
 62
     7
370
    15
100
AcDbLine
 10
251.7129418757
 20
105.0395207153
 30
0.0
 11
253.7629421186
 21
105.0395207153
 31
0.0
  0
LINE
  5
39A
330
1F
100
AcDbEntity
  8
0
  6
Continuous
 62
     7
370
    15
100
AcDbLine
 10
253.7629421186
 20
95.5395200895
 30
0.0
 11
251.7129418757
 21
95.5395200895
 31
0.0
  0
ARC
  5
39B
330
1F
100
AcDbEntity
  8
0
  6
Continuous
 62
     7
370
    15
100
AcDbCircle
 10
314.0129419278
 20
177.3895201342
 30
0.0
 40
0.7000000000000171
100
AcDbArc
 50
0.0
 51
90.0
  0
LINE
  5
39C
330
1F
100
AcDbEntity
  8
0
  6
Continuous
 62
     7
370
    15
100
AcDbLine
 10
314.7129419278
 20
177.3895201342
 30
0.0
 11
314.7129419278
 21
128.8096907264
 31
0.0
  0
LINE
  5
39D
330
1F
100
AcDbEntity
  8
0
  6
Continuous
 62
     7
370
    15
100
AcDbLine
 10
314.7129419278
 20
117.769349542
 30
0.0
 11
314.7129419576
 21
90.7895202422
 31
0.0
  0
LWPOLYLINE
  5
39E
330
1F
100
AcDbEntity
  8
0
  6
Continuous
 62
     7
370
    15
100
AcDbPolyline
 90
       10
 70
   128
 43
0.0
 10
314.7129419576
 20
90.7895202422
 10
314.7023062538
 20
90.7682509301
 10
314.670726968
 20
90.7050897972
 10
314.6191614997
 20
90.601955601
 10
314.5491744708
 20
90.4619822418
 10
314.4628930222
 20
90.2894228371
 10
314.3629434835
 20
90.0895200343
 10
314.2523545157
 20
89.8683483852
 10
314.1344975065
 20
89.6326276147
 10
314.0129412841
 20
89.3895200593
  0
LINE
  5
39F
330
1F
100
AcDbEntity
  8
0
  6
Continuous
 62
     7
370
    15
100
AcDbLine
 10
314.3629419278
 20
128.2034729438
 30
0.0
 11
313.5629419278
 21
127.7415927284
 31
0.0
  0
ARC
  5
3A0
330
1F
100
AcDbEntity
  8
0
  6
Continuous
 62
     7
370
    15
100
AcDbCircle
 10
314.0129419278
 20
128.8096907264
 30
0.0
 40
0.6999999999999901
100
AcDbArc
 50
300.0
 51
0.0
  0
ARC
  5
3A1
330
1F
100
AcDbEntity
  8
0
  6
Continuous
 62
     7
370
    15
100
AcDbCircle
 10
314.0129419278
 20
117.769349542
 30
0.0
 40
0.7000000000000024
100
AcDbArc
 50
0.0
 51
60.0
  0
LINE
  5
3A2
330
1F
100
AcDbEntity
  8
0
  6
Continuous
 62
     7
370
    15
100
AcDbLine
 10
313.5629419278
 20
118.83744754
 30
0.0
 11
314.3629419278
 21
118.3755673246
 31
0.0
  0
ARC
  5
3A3
330
1F
100
AcDbEntity
  8
0
  6
Continuous
 62
     7
370
    15
100
AcDbCircle
 10
313.9129419278
 20
127.1353749458
 30
0.0
 40
0.7000000000000455
100
AcDbArc
 50
120.0
 51
180.0
  0
LINE
  5
3A4
330
1F
100
AcDbEntity
  8
0
  6
Continuous
 62
     7
370
    15
100
AcDbLine
 10
257.7129419278
 20
184.5895201342
 30
0.0
 11
257.7129419278
 21
87.9895201342
 31
0.0
  0
LINE
  5
3A5
330
1F
100
AcDbEntity
  8
0
  6
Continuous
 62
     7
370
    15
100
AcDbLine
 10
313.9629404377
 20
89.2895202292
 30
0.0
 11
306.9046515357
 21
89.2895202292
 31
0.0
  0
ARC
  5
3A6
330
1F
100
AcDbEntity
  8
0
  6
Continuous
 62
     7
370
    15
100
AcDbCircle
 10
267.9129419278
 20
124.4895201342
 30
0.0
 40
0.6999999999999886
100
AcDbArc
 50
180.0
 51
270.0
  0
LINE
  5
3A7
330
1F
100
AcDbEntity
  8
0
  6
Continuous
 62
     7
370
    15
100
AcDbLine
 10
267.9129419278
 20
123.7895201342
 30
0.0
 11
302.5129419278
 21
123.7895201342
 31
0.0
  0
ARC
  5
3A8
330
1F
100
AcDbEntity
  8
0
  6
Continuous
 62
     7
370
    15
100
AcDbCircle
 10
302.5129419278
 20
124.4895201342
 30
0.0
 40
0.7000000000000455
100
AcDbArc
 50
270.0
 51
0.0
  0
LINE
  5
3A9
330
1F
100
AcDbEntity
  8
0
  6
Continuous
 62
     7
370
    15
100
AcDbLine
 10
303.2129419278
 20
124.4895201342
 30
0.0
 11
303.2129419278
 21
148.0895201342
 31
0.0
  0
ARC
  5
3AA
330
1F
100
AcDbEntity
  8
0
  6
Continuous
 62
     7
370
    15
100
AcDbCircle
 10
302.5129419278
 20
148.0895201342
 30
0.0
 40
0.7000000000000171
100
AcDbArc
 50
0.0
 51
90.0
  0
LINE
  5
3AB
330
1F
100
AcDbEntity
  8
0
  6
Continuous
 62
     7
370
    15
100
AcDbLine
 10
302.5129419278
 20
148.7895201342
 30
0.0
 11
267.9129419278
 21
148.7895201342
 31
0.0
  0
ARC
  5
3AC
330
1F
100
AcDbEntity
  8
0
  6
Continuous
 62
     7
370
    15
100
AcDbCircle
 10
267.9129419278
 20
148.0895201342
 30
0.0
 40
0.6999999999999886
100
AcDbArc
 50
90.0
 51
180.0
  0
LINE
  5
3AD
330
1F
100
AcDbEntity
  8
0
  6
Continuous
 62
     7
370
    15
100
AcDbLine
 10
267.2129419278
 20
148.0895201342
 30
0.0
 11
267.2129419278
 21
124.4895201342
 31
0.0
  0
LINE
  5
3AE
330
1F
100
AcDbEntity
  8
0
  6
Continuous
 62
     7
370
    15
100
AcDbLine
 10
314.0129412841
 20
89.3895200593
 30
0.0
 11
313.9629404377
 21
89.2895202292
 31
0.0
  0
LINE
  5
3AF
330
1F
100
AcDbEntity
  8
0
  6
Continuous
 62
     7
370
    15
100
AcDbLine
 10
310.1129423212
 20
178.0895223515
 30
0.0
 11
314.0129419278
 21
178.0895201342
 31
0.0
  0
LWPOLYLINE
  5
3B0
330
1F
100
AcDbEntity
  8
0
  6
Continuous
 62
     7
370
    15
100
AcDbPolyline
 90
       10
 70
   128
 43
0.0
 10
310.1129423212
 20
178.0895223515
 10
310.1023066174
 20
178.0788829224
 10
310.0707273316
 20
178.0473073618
 10
310.019158138
 20
177.9957344429
 10
309.9491748344
 20
177.9257511394
 10
309.8628933858
 20
177.8394734161
 10
309.7629401218
 20
177.7395164268
 10
309.6523548793
 20
177.6289349096
 10
309.5344941448
 20
177.5110741751
 10
309.4129416477
 20
177.3895179527
  0
ARC
  5
3B1
330
1F
100
AcDbEntity
  8
0
  6
Continuous
 62
     7
370
    15
100
AcDbCircle
 10
313.9129419278
 20
119.4436653226
 30
0.0
 40
0.7000000000000455
100
AcDbArc
 50
180.0
 51
240.0
  0
LINE
  5
3B2
330
1F
100
AcDbEntity
  8
0
  6
Continuous
 62
     7
370
    15
100
AcDbLine
 10
313.2129419278
 20
127.1353749458
 30
0.0
 11
313.2129419278
 21
119.4436653226
 31
0.0
  0
LINE
  5
3B3
330
1F
100
AcDbEntity
  8
0
  6
Continuous
 62
     7
370
    15
100
AcDbLine
 10
310.1129419278
 20
184.5895201342
 30
0.0
 11
310.1129423212
 21
178.0895223515
 31
0.0
  0
ARC
  5
3B4
330
1F
100
AcDbEntity
  8
0
  6
Continuous
 62
     7
370
    15
100
AcDbCircle
 10
309.4129419278
 20
184.5895201342
 30
0.0
 40
0.7000000000000455
100
AcDbArc
 50
0.0
 51
90.0
  0
LINE
  5
3B5
330
1F
100
AcDbEntity
  8
0
  6
Continuous
 62
     7
370
    15
100
AcDbLine
 10
257.7129419278
 20
185.2895201342
 30
0.0
 11
309.4129419278
 21
185.2895201342
 31
0.0
  0
LINE
  5
3B6
330
1F
100
AcDbEntity
  8
0
  6
Continuous
 62
     7
370
    15
100
AcDbLine
 10
257.7129419278
 20
184.5895201342
 30
0.0
 11
257.7129419278
 21
185.2895201342
 31
0.0
  0
LINE
  5
3B7
330
1F
100
AcDbEntity
  8
0
  6
Continuous
 62
     7
370
    15
100
AcDbLine
 10
307.7129426729
 20
89.2895202292
 30
0.0
 11
306.846916524
 21
87.7895201342
 31
0.0
  0
ARC
  5
3B8
330
1F
100
AcDbEntity
  8
0
  6
Continuous
 62
     7
370
    15
100
AcDbCircle
 10
305.9808911203
 20
88.2895201342
 30
0.0
 40
1.0
100
AcDbArc
 50
270.0
 51
330.0
  0
LINE
  5
3B9
330
1F
100
AcDbEntity
  8
0
  6
Continuous
 62
     7
370
    15
100
AcDbLine
 10
305.9808911203
 20
87.2895201342
 30
0.0
 11
257.7129419278
 21
87.2895201342
 31
0.0
  0
LINE
  5
3BA
330
1F
100
AcDbEntity
  8
0
  6
Continuous
 62
     7
370
    15
100
AcDbLine
 10
257.7129419278
 20
87.2895201342
 30
0.0
 11
257.7129419278
 21
87.9895201342
 31
0.0
  0
LINE
  5
3BB
330
1F
100
AcDbEntity
  8
0
  6
Continuous
 62
     7
370
    15
100
AcDbLine
 10
306.5629419278
 20
86.2895201342
 30
0.0
 11
306.5629419278
 21
85.7895201342
 31
0.0
  0
ARC
  5
3BC
330
1F
100
AcDbEntity
  8
0
  6
Continuous
 62
     7
370
    15
100
AcDbCircle
 10
306.0629419278
 20
85.7895201342
 30
0.0
 40
0.5
100
AcDbArc
 50
270.0
 51
0.0
  0
LINE
  5
3BD
330
1F
100
AcDbEntity
  8
0
  6
Continuous
 62
     7
370
    15
100
AcDbLine
 10
306.5629418325
 20
87.4763677152
 30
0.0
 11
306.5629419278
 21
86.2895201342
 31
0.0
  0
LINE
  5
3BE
330
1F
100
AcDbEntity
  8
0
  6
Continuous
 62
     7
370
    15
100
AcDbLine
 10
306.0629419278
 20
85.2895201342
 30
0.0
 11
305.5629419278
 21
85.2895201342
 31
0.0
  0
LINE
  5
3BF
330
1F
100
AcDbEntity
  8
0
  6
Continuous
 62
     7
370
    15
100
AcDbLine
 10
305.0629419278
 20
85.7895201342
 30
0.0
 11
305.0629419278
 21
86.2895201342
 31
0.0
  0
ARC
  5
3C0
330
1F
100
AcDbEntity
  8
0
  6
Continuous
 62
     7
370
    15
100
AcDbCircle
 10
305.5629419278
 20
85.7895201342
 30
0.0
 40
0.5
100
AcDbArc
 50
180.0
 51
270.0
  0
LINE
  5
3C1
330
1F
100
AcDbEntity
  8
0
  6
Continuous
 62
     7
370
    15
100
AcDbLine
 10
305.0629419278
 20
86.2895201342
 30
0.0
 11
305.0629425179
 21
87.2895201342
 31
0.0
  0
LINE
  5
3C2
330
1F
100
AcDbEntity
  8
0
  6
Continuous
 62
     7
370
    15
100
AcDbLine
 10
310.9629418086
 20
87.7895201579
 30
0.0
 11
313.2129426431
 21
87.7895201579
 31
0.0
  0
LINE
  5
3C3
330
1F
100
AcDbEntity
  8
0
  6
Continuous
 62
     7
370
    15
100
AcDbLine
 10
310.9629418086
 20
89.2895202292
 30
0.0
 11
310.9629418086
 21
87.7895201579
 31
0.0
  0
LINE
  5
3C4
330
1F
100
AcDbEntity
  8
0
  6
Continuous
 62
     7
370
    15
100
AcDbLine
 10
313.2129426431
 20
87.7895201579
 30
0.0
 11
313.9629404377
 21
89.2895202292
 31
0.0
  0
LINE
  5
3C5
330
1F
100
AcDbEntity
  8
0
  6
Continuous
 62
     7
370
    15
100
AcDbLine
 10
310.9629418086
 20
87.2895201342
 30
0.0
 11
310.9629418086
 21
87.7895201579
 31
0.0
  0
LINE
  5
3C6
330
1F
100
AcDbEntity
  8
0
  6
Continuous
 62
     7
370
    15
100
AcDbLine
 10
312.7129416298
 20
86.7895201104
 30
0.0
 11
311.4629428219
 21
86.7895201104
 31
0.0
  0
ARC
  5
3C7
330
1F
100
AcDbEntity
  8
0
  6
Continuous
 62
     7
370
    15
100
AcDbCircle
 10
311.4629419278
 20
87.2895201342
 30
0.0
 40
0.5
100
AcDbArc
 50
180.0
 51
270.0
  0
LINE
  5
3C8
330
1F
100
AcDbEntity
  8
0
  6
Continuous
 62
     7
370
    15
100
AcDbLine
 10
313.2129426431
 20
87.7895201579
 30
0.0
 11
312.7129416298
 21
86.7895201104
 31
0.0
  0
LINE
  5
3C9
330
1F
100
AcDbEntity
  8
0
  6
Continuous
 62
     7
370
    15
100
AcDbLine
 10
291.4129419278
 20
185.2895201342
 30
0.0
 11
291.9129419278
 21
185.2895201342
 31
0.0
  0
LINE
  5
3CA
330
1F
100
AcDbEntity
  8
0
  6
Continuous
 62
     7
370
    15
100
AcDbLine
 10
299.2129419278
 20
186.7895201342
 30
0.0
 11
299.2129403483
 21
185.2895175712
 31
0.0
  0
ARC
  5
3CB
330
1F
100
AcDbEntity
  8
0
  6
Continuous
 62
     7
370
    15
100
AcDbCircle
 10
299.7129419278
 20
186.7895201342
 30
0.0
 40
0.5
100
AcDbArc
 50
90.0
 51
180.0
  0
LINE
  5
3CC
330
1F
100
AcDbEntity
  8
0
  6
Continuous
 62
     7
370
    15
100
AcDbLine
 10
300.2129419278
 20
187.2895201342
 30
0.0
 11
299.7129419278
 21
187.2895201342
 31
0.0
  0
ARC
  5
3CD
330
1F
100
AcDbEntity
  8
0
  6
Continuous
 62
     7
370
    15
100
AcDbCircle
 10
300.2129419278
 20
186.7895201342
 30
0.0
 40
0.5
100
AcDbArc
 50
0.0
 51
90.0
  0
LINE
  5
3CE
330
1F
100
AcDbEntity
  8
0
  6
Continuous
 62
     7
370
    15
100
AcDbLine
 10
300.7129433881
 20
185.2895175712
 30
0.0
 11
300.7129419278
 21
186.7895201342
 31
0.0
  0
LINE
  5
3CF
330
1F
100
AcDbEntity
  8
0
  6
Continuous
 62
     7
370
    15
100
AcDbLine
 10
301.7129419278
 20
186.7895201342
 30
0.0
 11
301.7129416894
 21
185.2895175712
 31
0.0
  0
ARC
  5
3D0
330
1F
100
AcDbEntity
  8
0
  6
Continuous
 62
     7
370
    15
100
AcDbCircle
 10
302.2129419278
 20
186.7895201342
 30
0.0
 40
0.5
100
AcDbArc
 50
90.0
 51
180.0
  0
LINE
  5
3D1
330
1F
100
AcDbEntity
  8
0
  6
Continuous
 62
     7
370
    15
100
AcDbLine
 10
302.7129419278
 20
187.2895201342
 30
0.0
 11
302.2129419278
 21
187.2895201342
 31
0.0
  0
ARC
  5
3D2
330
1F
100
AcDbEntity
  8
0
  6
Continuous
 62
     7
370
    15
100
AcDbCircle
 10
302.7129419278
 20
186.7895201342
 30
0.0
 40
0.5
100
AcDbArc
 50
0.0
 51
90.0
  0
LINE
  5
3D3
330
1F
100
AcDbEntity
  8
0
  6
Continuous
 62
     7
370
    15
100
AcDbLine
 10
303.212941004
 20
185.2895175712
 30
0.0
 11
303.2129419278
 21
186.7895201342
 31
0.0
  0
LINE
  5
3D4
330
1F
100
AcDbEntity
  8
0
  6
Continuous
 62
     7
370
    15
100
AcDbLine
 10
299.2129403483
 20
185.2895175712
 30
0.0
 11
291.9129419278
 21
185.2895201342
 31
0.0
  0
ARC
  5
3D5
330
1F
100
AcDbEntity
  8
0
  6
Continuous
 62
     7
370
    15
100
AcDbCircle
 10
316.7129419278
 20
92.2895201342
 30
0.0
 40
0.5
100
AcDbArc
 50
270.0
 51
0.0
  0
ARC
  5
3D6
330
1F
100
AcDbEntity
  8
0
  6
Continuous
 62
     7
370
    15
100
AcDbCircle
 10
316.7129419278
 20
95.5574693266
 30
0.0
 40
0.5
100
AcDbArc
 50
0.0
 51
60.0
  0
LINE
  5
3D7
330
1F
100
AcDbEntity
  8
0
  6
Continuous
 62
     7
370
    15
100
AcDbLine
 10
317.2129419278
 20
95.5574693266
 30
0.0
 11
317.2129419278
 21
92.2895201342
 31
0.0
  0
LINE
  5
3D8
330
1F
100
AcDbEntity
  8
0
  6
Continuous
 62
     7
370
    15
100
AcDbLine
 10
314.7129419576
 20
97.2895199107
 30
0.0
 11
316.9629419278
 21
95.9904820285
 31
0.0
  0
LINE
  5
3D9
330
1F
100
AcDbEntity
  8
0
  6
Continuous
 62
     7
370
    15
100
AcDbLine
 10
316.7129419278
 20
91.7895201342
 30
0.0
 11
314.7129419576
 21
91.7895199405
 31
0.0
  0
LINE
  5
3DA
330
1F
100
AcDbEntity
  8
0
  6
Continuous
 62
     7
370
    15
100
AcDbLine
 10
314.7129419576
 20
103.2895208941
 30
0.0
 11
314.7129419278
 21
103.2991119284
 31
0.0
  0
LINE
  5
3DB
330
1F
100
AcDbEntity
  8
0
  6
Continuous
 62
     7
370
    15
100
AcDbLine
 10
314.7129419278
 20
103.5755881117
 30
0.0
 11
314.7129419576
 21
105.7895203726
 31
0.0
  0
LINE
  5
3DC
330
1F
100
AcDbEntity
  8
0
  6
Continuous
 62
     7
370
    15
100
AcDbLine
 10
312.7129416298
 20
178.0895223515
 30
0.0
 11
314.0129419278
 21
178.0895201342
 31
0.0
  0
LINE
  5
3DD
330
1F
100
AcDbEntity
  8
0
  6
Continuous
 62
     7
370
    15
100
AcDbLine
 10
314.7129419576
 20
97.2895199107
 30
0.0
 11
314.7129419278
 21
99.1034521567
 31
0.0
  0
LINE
  5
3DE
330
1F
100
AcDbEntity
  8
0
  6
Continuous
 62
     7
370
    15
100
AcDbLine
 10
314.7129419278
 20
99.37992834
 30
0.0
 11
314.7129419576
 21
103.2895208941
 31
0.0
  0
LINE
  5
3DF
330
1F
100
AcDbEntity
  8
0
  6
Continuous
 62
     7
370
    15
100
AcDbLine
 10
314.7129419278
 20
103.5755881117
 30
0.0
 11
314.7129419278
 21
117.769349542
 31
0.0
  0
LINE
  5
3E0
330
1F
100
AcDbEntity
  8
0
  6
Continuous
 62
     7
370
    15
100
AcDbLine
 10
307.6129409801
 20
89.1163150686
 30
0.0
 11
307.7129426729
 21
89.2895202292
 31
0.0
  0
DIMENSION
  5
3E1
330
1F
100
AcDbEntity
  8
0
  6
Continuous
 62
     7
370
     0
100
AcDbDimension
  2
*D20
 10
314.7129419278
 20
66.8035666664
 30
0.0
 11
269.4629419278
 21
66.8035666664
 31
0.0
 70
   160
 71
     1
 42
90.5
  3
SLDDIMSTYLE0
100
AcDbAlignedDimension
 13
224.2129419278
 23
87.9895201342
 33
0.0
 14
314.7129419278
 24
90.7895201342
 34
0.0
100
AcDbRotatedDimension
1001
ACAD
1000
DSTYLE
1002
{
1070
    77
1070
     3
1070
   143
1040
0.0393700787
1070
    41
1040
2.0
1070
    44
1040
1.0
1070
    42
1040
1.0
1070
   147
1040
1.524
1070
    73
1070
     0
1070
    74
1070
     0
1070
   140
1040
3.2
1070
   284
1070
    12
1070
    78
1070
    12
1002
}
  0
DIMENSION
  5
3F4
330
1F
100
AcDbEntity
  8
0
  6
Continuous
 62
     7
370
     0
100
AcDbDimension
  2
*D21
 10
317.2129419278
 20
66.8035666664
 30
0.0
 11
324.1479842683
 21
66.8035666664
 31
0.0
 70
   160
 71
     1
 42
2.5
  3
SLDDIMSTYLE0
100
AcDbAlignedDimension
 13
314.7129419278
 23
90.7895201342
 33
0.0
 14
317.2129419278
 24
92.2895201342
 34
0.0
100
AcDbRotatedDimension
1001
ACAD
1000
DSTYLE
1002
{
1070
    77
1070
     3
1070
   143
1040
0.0393700787
1070
    41
1040
2.0
1070
    44
1040
1.0
1070
    42
1040
1.0
1070
   147
1040
1.524
1070
    73
1070
     0
1070
    74
1070
     0
1070
   140
1040
3.2
1070
   284
1070
    12
1070
    78
1070
    12
1002
}
  0
DIMENSION
  5
40C
330
1F
100
AcDbEntity
  8
0
  6
Continuous
 62
     7
370
     0
100
AcDbDimension
  2
*D22
 10
208.2129419278
 20
66.8035666664
 30
0.0
 11
216.2129419278
 21
66.8035666664
 31
0.0
 70
   160
  1
(<>)
 71
     1
 42
16.0
  3
SLDDIMSTYLE4
100
AcDbAlignedDimension
 13
224.2129419278
 23
87.9895201342
 33
0.0
 14
208.2129419278
 24
91.9895201342
 34
0.0
100
AcDbRotatedDimension
1001
ACAD
1000
DSTYLE
1002
{
1070
    77
1070
     3
1070
   143
1040
0.0393700787
1070
    41
1040
2.0
1070
    44
1040
1.0
1070
    42
1040
1.0
1070
   147
1040
1.524
1070
    73
1070
     0
1070
    74
1070
     0
1070
   140
1040
3.2
1070
   284
1070
    12
1070
    78
1070
    12
1002
}
  0
DIMENSION
  5
422
330
1F
100
AcDbEntity
  8
0
  6
Continuous
 62
     7
370
     0
100
AcDbDimension
  2
*D23
 10
334.7645856887
 20
82.2895201342
 30
0.0
 11
334.7645856887
 21
76.5630989164
 31
0.0
 70
   160
  1
(<>)
 71
     1
 42
5.0
  3
SLDDIMSTYLE4
100
AcDbAlignedDimension
 13
305.9808911203
 23
87.2895201342
 33
0.0
 14
311.2129419278
 24
82.2895201342
 34
0.0
 50
90.0
100
AcDbRotatedDimension
1001
ACAD
1000
DSTYLE
1002
{
1070
    77
1070
     3
1070
   143
1040
0.0393700787
1070
    41
1040
2.0
1070
    44
1040
1.0
1070
    42
1040
1.0
1070
   147
1040
1.524
1070
    73
1070
     0
1070
    74
1070
     0
1070
   140
1040
3.2
1070
   284
1070
    12
1070
    78
1070
    12
1002
}
  0
DIMENSION
  5
43B
330
1F
100
AcDbEntity
  8
0
  6
Continuous
 62
     7
370
     0
100
AcDbDimension
  2
*D24
 10
219.2129419278
 20
158.1016789583
 30
0.0
 11
215.4281373193
 21
158.1016789583
 31
0.0
 70
   160
 71
     1
 42
5.0
  3
SLDDIMSTYLE0
100
AcDbAlignedDimension
 13
224.2129419278
 23
154.6821093367
 33
0.0
 14
219.2129419278
 24
154.2380494046
 34
0.0
100
AcDbRotatedDimension
1001
ACAD
1000
DSTYLE
1002
{
1070
    77
1070
     3
1070
   143
1040
0.0393700787
1070
    41
1040
2.0
1070
    44
1040
1.0
1070
    42
1040
1.0
1070
   147
1040
1.524
1070
    73
1070
     0
1070
    74
1070
     0
1070
   140
1040
3.2
1070
   284
1070
    12
1070
    78
1070
    12
1002
}
  0
LINE
  5
452
330
1F
100
AcDbEntity
  8
0
  6
Continuous
 62
     7
370
    15
100
AcDbLine
 10
239.4202048079
 20
255.7
 30
0.0
 11
239.4202048079
 21
255.512
 31
0.0
  0
LINE
  5
453
330
1F
100
AcDbEntity
  8
0
  6
Continuous
 62
     7
370
    15
100
AcDbLine
 10
239.4202048079
 20
231.888
 30
0.0
 11
239.4202048079
 21
231.7
 31
0.0
  0
ELLIPSE
  5
454
330
1F
100
AcDbEntity
  8
0
  6
Continuous
 62
     7
370
    15
100
AcDbEllipse
 10
234.3129419278
 20
253.3710678119
 30
0.0
 11
2.842170943040401E-14
 21
2.249999999999972
 31
0.0
210
0.0
220
0.0
230
1.0
 40
0.4888888889
 41
5.742397149406419
 42
5.970546996603754
  0
ELLIPSE
  5
455
330
1F
100
AcDbEntity
  8
0
  6
Continuous
 62
     7
370
    15
100
AcDbEllipse
 10
302.2129419278
 20
233.6
 30
0.0
 11
2.249999999999943
 21
-2.842170943040401E-14
 31
0.0
210
0.0
220
0.0
230
1.0
 40
0.4888888889
 41
5.511615479099383
 42
5.717916123160687
  0
LINE
  5
456
330
1F
100
AcDbEntity
  8
0
  6
Continuous
 62
     7
370
    15
100
AcDbLine
 10
244.6629417445
 20
250.8000000462
 30
0.0
 11
244.6629419278
 21
251.4
 31
0.0
  0
ELLIPSE
  5
457
330
1F
100
AcDbEntity
  8
0
  6
Continuous
 62
     7
370
    15
100
AcDbEllipse
 10
242.2129419278
 20
252.0
 30
0.0
 11
2.25
 21
0.0
 31
0.0
210
0.0
220
0.0
230
1.0
 40
0.4888888889
 41
0.0
 42
0.8254984037130901
  0
LINE
  5
458
330
1F
100
AcDbEntity
  8
0
  6
Continuous
 62
     7
370
    15
100
AcDbLine
 10
244.4629420843
 20
251.3999999583
 30
0.0
 11
244.4629420843
 21
251.9999998704
 31
0.0
  0
ELLIPSE
  5
459
330
1F
100
AcDbEntity
  8
0
  6
Continuous
 62
     7
370
    15
100
AcDbEllipse
 10
240.9129419278
 20
233.6
 30
0.0
 11
2.25
 21
-2.842170943040401E-14
 31
0.0
210
0.0
220
0.0
230
1.0
 40
0.4888888889
 41
3.855887208222423
 42
3.967091057302933
  0
ELLIPSE
  5
45A
330
1F
100
AcDbEntity
  8
0
  6
Continuous
 62
     7
370
    15
100
AcDbEllipse
 10
242.2129419278
 20
233.6
 30
0.0
 11
2.249999999999972
 21
-2.842170943040401E-14
 31
0.0
210
0.0
220
0.0
230
1.0
 40
0.4888888889
 41
5.465084966032403
 42
5.811323469899731
  0
LINE
  5
45B
330
1F
100
AcDbEntity
  8
0
  6
Continuous
 62
     7
370
    15
100
AcDbLine
 10
224.8852814864
 20
254.0500001132
 30
0.0
 11
219.2129419278
 21
254.05
 31
0.0
  0
LINE
  5
45C
330
1F
100
AcDbEntity
  8
0
  6
Continuous
 62
     7
370
    15
100
AcDbLine
 10
219.2129419278
 20
238.55
 30
0.0
 11
224.3788804244
 21
238.5499999009
 31
0.0
  0
LINE
  5
45D
330
1F
100
AcDbEntity
  8
0
  6
Continuous
 62
     7
370
    15
100
AcDbLine
 10
315.7129419278
 20
241.8
 30
0.0
 11
315.7129419278
 21
243.3
 31
0.0
  0
LINE
  5
45E
330
1F
100
AcDbEntity
  8
0
  6
Continuous
 62
     7
370
    15
100
AcDbLine
 10
315.7129419278
 20
238.8
 30
0.0
 11
315.7129419278
 21
240.8
 31
0.0
  0
LINE
  5
45F
330
1F
100
AcDbEntity
  8
0
  6
Continuous
 62
     7
370
    15
100
AcDbLine
 10
315.7129419278
 20
235.8
 30
0.0
 11
315.7129419278
 21
237.8
 31
0.0
  0
LINE
  5
460
330
1F
100
AcDbEntity
  8
0
  6
Continuous
 62
     7
370
    15
100
AcDbLine
 10
224.1223760545
 20
241.4599609515
 30
0.0
 11
223.7549525931
 21
241.2478289171
 31
0.0
  0
LINE
  5
461
330
1F
100
AcDbEntity
  8
0
  6
Continuous
 62
     7
370
    15
100
AcDbLine
 10
223.4184878344
 20
239.9921253429
 30
0.0
 11
223.6306198688
 21
239.6247018815
 31
0.0
  0
LINE
  5
462
330
1F
100
AcDbEntity
  8
0
  6
Continuous
 62
     7
370
    15
100
AcDbLine
 10
224.2452393603
 20
241.4270402014
 30
0.0
 11
224.1223760545
 21
241.4599609515
 31
0.0
  0
LINE
  5
463
330
1F
100
AcDbEntity
  8
0
  6
Continuous
 62
     7
370
    15
100
AcDbLine
 10
223.6306198688
 20
239.6247018815
 30
0.0
 11
224.3265400957
 21
239.4382306457
 31
0.0
  0
LINE
  5
464
330
1F
100
AcDbEntity
  8
0
  6
Continuous
 62
     7
370
    15
100
AcDbLine
 10
225.9857727345
 20
257.4
 30
0.0
 11
228.4129419278
 21
257.4
 31
0.0
  0
LINE
  5
465
330
1F
100
AcDbEntity
  8
0
  6
Continuous
 62
     7
370
    15
100
AcDbLine
 10
228.4129419278
 20
257.4
 30
0.0
 11
228.4129419278
 21
256.7
 31
0.0
  0
LINE
  5
466
330
1F
100
AcDbEntity
  8
0
  6
Continuous
 62
     7
370
    15
100
AcDbLine
 10
228.4129419278
 20
230.7
 30
0.0
 11
228.4129419278
 21
256.7
 31
0.0
  0
ARC
  5
467
330
1F
100
AcDbEntity
  8
0
  6
Continuous
 62
     7
370
    15
100
AcDbCircle
 10
304.2129419278
 20
243.7
 30
0.0
 40
80.0
100
AcDbArc
 50
170.5646612767
 51
189.4353387233
  0
ARC
  5
468
330
1F
100
AcDbEntity
  8
0
  6
Continuous
 62
     7
370
    15
100
AcDbCircle
 10
225.9857727345
 20
256.7
 30
0.0
 40
0.7000000000000455
100
AcDbArc
 50
90.0
 51
170.5646612767
  0
LINE
  5
469
330
1F
100
AcDbEntity
  8
0
  6
Continuous
 62
     7
370
    15
100
AcDbLine
 10
228.4129419278
 20
230.0
 30
0.0
 11
225.9857727345
 21
230.0
 31
0.0
  0
LINE
  5
46A
330
1F
100
AcDbEntity
  8
0
  6
Continuous
 62
     7
370
    15
100
AcDbLine
 10
228.4129419278
 20
230.7
 30
0.0
 11
228.4129419278
 21
230.0
 31
0.0
  0
ARC
  5
46B
330
1F
100
AcDbEntity
  8
0
  6
Continuous
 62
     7
370
    15
100
AcDbCircle
 10
225.9857727345
 20
230.7
 30
0.0
 40
0.7000000000000226
100
AcDbArc
 50
189.4353387233
 51
270.0
  0
LINE
  5
46C
330
1F
100
AcDbEntity
  8
0
  6
Continuous
 62
     7
370
    15
100
AcDbLine
 10
252.7129420396
 20
249.1000001401
 30
0.0
 11
252.7129419278
 21
231.9
 31
0.0
  0
ARC
  5
46D
330
1F
100
AcDbEntity
  8
0
  6
Continuous
 62
     7
370
    15
100
AcDbCircle
 10
253.2129419278
 20
231.9
 30
0.0
 40
0.5
100
AcDbArc
 50
180.0
 51
270.0
  0
LINE
  5
46E
330
1F
100
AcDbEntity
  8
0
  6
Continuous
 62
     7
370
    15
100
AcDbLine
 10
253.2129419278
 20
231.4
 30
0.0
 11
255.2129419278
 21
231.4
 31
0.0
  0
ARC
  5
46F
330
1F
100
AcDbEntity
  8
0
  6
Continuous
 62
     7
370
    15
100
AcDbCircle
 10
255.2129419278
 20
231.9
 30
0.0
 40
0.5
100
AcDbArc
 50
270.0
 51
0.0
  0
LINE
  5
470
330
1F
100
AcDbEntity
  8
0
  6
Continuous
 62
     7
370
    15
100
AcDbLine
 10
255.7129419278
 20
231.9
 30
0.0
 11
255.7129418328
 21
249.1000001401
 31
0.0
  0
LINE
  5
471
330
1F
100
AcDbEntity
  8
0
  6
Continuous
 62
     7
370
    15
100
AcDbLine
 10
255.7129418328
 20
249.1000001401
 30
0.0
 11
252.7129420396
 21
249.1000001401
 31
0.0
  0
LINE
  5
472
330
1F
100
AcDbEntity
  8
0
  6
Continuous
 62
     7
370
    15
100
AcDbLine
 10
248.2129422333
 20
249.1000001401
 30
0.0
 11
248.2129419278
 21
231.9
 31
0.0
  0
ARC
  5
473
330
1F
100
AcDbEntity
  8
0
  6
Continuous
 62
     7
370
    15
100
AcDbCircle
 10
248.7129419278
 20
231.9
 30
0.0
 40
0.5
100
AcDbArc
 50
180.0
 51
270.0
  0
LINE
  5
474
330
1F
100
AcDbEntity
  8
0
  6
Continuous
 62
     7
370
    15
100
AcDbLine
 10
248.7129419278
 20
231.4
 30
0.0
 11
250.7129419278
 21
231.4
 31
0.0
  0
ARC
  5
475
330
1F
100
AcDbEntity
  8
0
  6
Continuous
 62
     7
370
    15
100
AcDbCircle
 10
250.7129419278
 20
231.9
 30
0.0
 40
0.5
100
AcDbArc
 50
270.0
 51
0.0
  0
LINE
  5
476
330
1F
100
AcDbEntity
  8
0
  6
Continuous
 62
     7
370
    15
100
AcDbLine
 10
251.2129419278
 20
231.9
 30
0.0
 11
251.2129417937
 21
249.1000001401
 31
0.0
  0
LINE
  5
477
330
1F
100
AcDbEntity
  8
0
  6
Continuous
 62
     7
370
    15
100
AcDbLine
 10
251.2129417937
 20
249.1000001401
 30
0.0
 11
248.2129422333
 21
249.1000001401
 31
0.0
  0
LINE
  5
478
330
1F
100
AcDbEntity
  8
0
  6
Continuous
 62
     7
370
    15
100
AcDbLine
 10
243.7129414957
 20
249.1000001401
 30
0.0
 11
243.7129419278
 21
231.9
 31
0.0
  0
ARC
  5
479
330
1F
100
AcDbEntity
  8
0
  6
Continuous
 62
     7
370
    15
100
AcDbCircle
 10
244.2129419278
 20
231.9
 30
0.0
 40
0.5
100
AcDbArc
 50
180.0
 51
270.0
  0
LINE
  5
47A
330
1F
100
AcDbEntity
  8
0
  6
Continuous
 62
     7
370
    15
100
AcDbLine
 10
244.2129419278
 20
231.4
 30
0.0
 11
246.2129419278
 21
231.4
 31
0.0
  0
ARC
  5
47B
330
1F
100
AcDbEntity
  8
0
  6
Continuous
 62
     7
370
    15
100
AcDbCircle
 10
246.2129419278
 20
231.9
 30
0.0
 40
0.5
100
AcDbArc
 50
270.0
 51
0.0
  0
LINE
  5
47C
330
1F
100
AcDbEntity
  8
0
  6
Continuous
 62
     7
370
    15
100
AcDbLine
 10
246.7129419278
 20
231.9
 30
0.0
 11
246.7129419874
 21
249.1000001401
 31
0.0
  0
LINE
  5
47D
330
1F
100
AcDbEntity
  8
0
  6
Continuous
 62
     7
370
    15
100
AcDbLine
 10
246.7129419874
 20
249.1000001401
 30
0.0
 11
243.7129414957
 21
249.1000001401
 31
0.0
  0
LINE
  5
47E
330
1F
100
AcDbEntity
  8
0
  6
Continuous
 62
     7
370
    15
100
AcDbLine
 10
246.7129419874
 20
250.5000000902
 30
0.0
 11
246.7129419278
 21
255.5
 31
0.0
  0
ARC
  5
47F
330
1F
100
AcDbEntity
  8
0
  6
Continuous
 62
     7
370
    15
100
AcDbCircle
 10
246.2129419278
 20
255.5
 30
0.0
 40
0.5
100
AcDbArc
 50
0.0
 51
90.0
  0
LINE
  5
480
330
1F
100
AcDbEntity
  8
0
  6
Continuous
 62
     7
370
    15
100
AcDbLine
 10
246.2129419278
 20
256.0
 30
0.0
 11
244.2129419278
 21
256.0
 31
0.0
  0
ARC
  5
481
330
1F
100
AcDbEntity
  8
0
  6
Continuous
 62
     7
370
    15
100
AcDbCircle
 10
244.2129419278
 20
255.5
 30
0.0
 40
0.5
100
AcDbArc
 50
90.0
 51
180.0
  0
LINE
  5
482
330
1F
100
AcDbEntity
  8
0
  6
Continuous
 62
     7
370
    15
100
AcDbLine
 10
243.7129419278
 20
255.5
 30
0.0
 11
243.7129414957
 21
250.5000000902
 31
0.0
  0
LINE
  5
483
330
1F
100
AcDbEntity
  8
0
  6
Continuous
 62
     7
370
    15
100
AcDbLine
 10
243.7129414957
 20
250.5000000902
 30
0.0
 11
246.7129419874
 21
250.5000000902
 31
0.0
  0
LINE
  5
484
330
1F
100
AcDbEntity
  8
0
  6
Continuous
 62
     7
370
    15
100
AcDbLine
 10
239.2129416894
 20
249.1000001401
 30
0.0
 11
239.2129419278
 21
231.9
 31
0.0
  0
ARC
  5
485
330
1F
100
AcDbEntity
  8
0
  6
Continuous
 62
     7
370
    15
100
AcDbCircle
 10
239.7129419278
 20
231.9
 30
0.0
 40
0.5
100
AcDbArc
 50
180.0
 51
270.0
  0
LINE
  5
486
330
1F
100
AcDbEntity
  8
0
  6
Continuous
 62
     7
370
    15
100
AcDbLine
 10
239.7129419278
 20
231.4
 30
0.0
 11
241.7129419278
 21
231.4
 31
0.0
  0
ARC
  5
487
330
1F
100
AcDbEntity
  8
0
  6
Continuous
 62
     7
370
    15
100
AcDbCircle
 10
241.7129419278
 20
231.9
 30
0.0
 40
0.5
100
AcDbArc
 50
270.0
 51
0.0
  0
LINE
  5
488
330
1F
100
AcDbEntity
  8
0
  6
Continuous
 62
     7
370
    15
100
AcDbLine
 10
242.2129419278
 20
231.9
 30
0.0
 11
242.2129421811
 21
249.1000001401
 31
0.0
  0
LINE
  5
489
330
1F
100
AcDbEntity
  8
0
  6
Continuous
 62
     7
370
    15
100
AcDbLine
 10
242.2129421811
 20
249.1000001401
 30
0.0
 11
239.2129416894
 21
249.1000001401
 31
0.0
  0
LINE
  5
48A
330
1F
100
AcDbEntity
  8
0
  6
Continuous
 62
     7
370
    15
100
AcDbLine
 10
242.2129421811
 20
250.5000000902
 30
0.0
 11
242.2129419278
 21
255.5
 31
0.0
  0
ARC
  5
48B
330
1F
100
AcDbEntity
  8
0
  6
Continuous
 62
     7
370
    15
100
AcDbCircle
 10
241.7129419278
 20
255.5
 30
0.0
 40
0.5
100
AcDbArc
 50
0.0
 51
90.0
  0
LINE
  5
48C
330
1F
100
AcDbEntity
  8
0
  6
Continuous
 62
     7
370
    15
100
AcDbLine
 10
241.7129419278
 20
256.0
 30
0.0
 11
239.7129419278
 21
256.0
 31
0.0
  0
LINE
  5
48D
330
1F
100
AcDbEntity
  8
0
  6
Continuous
 62
     7
370
    15
100
AcDbLine
 10
239.2129419278
 20
255.5
 30
0.0
 11
239.2129416894
 21
250.5000000902
 31
0.0
  0
LINE
  5
48E
330
1F
100
AcDbEntity
  8
0
  6
Continuous
 62
     7
370
    15
100
AcDbLine
 10
239.2129416894
 20
250.5000000902
 30
0.0
 11
242.2129421811
 21
250.5000000902
 31
0.0
  0
LINE
  5
48F
330
1F
100
AcDbEntity
  8
0
  6
Continuous
 62
     7
370
    15
100
AcDbLine
 10
234.7129418831
 20
249.1000001401
 30
0.0
 11
234.7129419278
 21
231.9
 31
0.0
  0
ARC
  5
490
330
1F
100
AcDbEntity
  8
0
  6
Continuous
 62
     7
370
    15
100
AcDbCircle
 10
235.2129419278
 20
231.9
 30
0.0
 40
0.5
100
AcDbArc
 50
180.0
 51
270.0
  0
LINE
  5
491
330
1F
100
AcDbEntity
  8
0
  6
Continuous
 62
     7
370
    15
100
AcDbLine
 10
235.2129419278
 20
231.4
 30
0.0
 11
237.2129419278
 21
231.4
 31
0.0
  0
ARC
  5
492
330
1F
100
AcDbEntity
  8
0
  6
Continuous
 62
     7
370
    15
100
AcDbCircle
 10
237.2129419278
 20
231.9
 30
0.0
 40
0.5
100
AcDbArc
 50
270.0
 51
0.0
  0
LINE
  5
493
330
1F
100
AcDbEntity
  8
0
  6
Continuous
 62
     7
370
    15
100
AcDbLine
 10
237.7129419278
 20
231.9
 30
0.0
 11
237.7129423749
 21
249.1000001401
 31
0.0
  0
LINE
  5
494
330
1F
100
AcDbEntity
  8
0
  6
Continuous
 62
     7
370
    15
100
AcDbLine
 10
237.7129423749
 20
249.1000001401
 30
0.0
 11
234.7129418831
 21
249.1000001401
 31
0.0
  0
LINE
  5
495
330
1F
100
AcDbEntity
  8
0
  6
Continuous
 62
     7
370
    15
100
AcDbLine
 10
237.7129423749
 20
250.5000000902
 30
0.0
 11
237.7129419278
 21
255.5
 31
0.0
  0
ARC
  5
496
330
1F
100
AcDbEntity
  8
0
  6
Continuous
 62
     7
370
    15
100
AcDbCircle
 10
237.2129419278
 20
255.5
 30
0.0
 40
0.5
100
AcDbArc
 50
360.0
 51
90.0
  0
LINE
  5
497
330
1F
100
AcDbEntity
  8
0
  6
Continuous
 62
     7
370
    15
100
AcDbLine
 10
237.2129419278
 20
256.0
 30
0.0
 11
235.2129419278
 21
256.0
 31
0.0
  0
ARC
  5
498
330
1F
100
AcDbEntity
  8
0
  6
Continuous
 62
     7
370
    15
100
AcDbCircle
 10
235.2129419278
 20
255.5
 30
0.0
 40
0.5
100
AcDbArc
 50
90.0
 51
180.0
  0
LINE
  5
499
330
1F
100
AcDbEntity
  8
0
  6
Continuous
 62
     7
370
    15
100
AcDbLine
 10
234.7129419278
 20
255.5
 30
0.0
 11
234.7129418831
 21
250.5000000902
 31
0.0
  0
LINE
  5
49A
330
1F
100
AcDbEntity
  8
0
  6
Continuous
 62
     7
370
    15
100
AcDbLine
 10
234.7129418831
 20
250.5000000902
 30
0.0
 11
237.7129423749
 21
250.5000000902
 31
0.0
  0
LINE
  5
49B
330
1F
100
AcDbEntity
  8
0
  6
Continuous
 62
     7
370
    15
100
AcDbLine
 10
230.2129420768
 20
249.1000001401
 30
0.0
 11
230.2129419278
 21
231.9
 31
0.0
  0
ARC
  5
49C
330
1F
100
AcDbEntity
  8
0
  6
Continuous
 62
     7
370
    15
100
AcDbCircle
 10
230.7129419278
 20
231.9
 30
0.0
 40
0.5
100
AcDbArc
 50
180.0
 51
270.0
  0
LINE
  5
49D
330
1F
100
AcDbEntity
  8
0
  6
Continuous
 62
     7
370
    15
100
AcDbLine
 10
230.7129419278
 20
231.4
 30
0.0
 11
232.7129419278
 21
231.4
 31
0.0
  0
ARC
  5
49E
330
1F
100
AcDbEntity
  8
0
  6
Continuous
 62
     7
370
    15
100
AcDbCircle
 10
232.7129419278
 20
231.9
 30
0.0
 40
0.5
100
AcDbArc
 50
270.0
 51
0.0
  0
LINE
  5
49F
330
1F
100
AcDbEntity
  8
0
  6
Continuous
 62
     7
370
    15
100
AcDbLine
 10
233.2129419278
 20
231.9
 30
0.0
 11
233.2129425686
 21
249.1000001401
 31
0.0
  0
LINE
  5
4A0
330
1F
100
AcDbEntity
  8
0
  6
Continuous
 62
     7
370
    15
100
AcDbLine
 10
233.2129425686
 20
249.1000001401
 30
0.0
 11
230.2129420768
 21
249.1000001401
 31
0.0
  0
LINE
  5
4A1
330
1F
100
AcDbEntity
  8
0
  6
Continuous
 62
     7
370
    15
100
AcDbLine
 10
233.2129425686
 20
250.5000000902
 30
0.0
 11
233.2129419278
 21
255.5
 31
0.0
  0
ARC
  5
4A2
330
1F
100
AcDbEntity
  8
0
  6
Continuous
 62
     7
370
    15
100
AcDbCircle
 10
232.7129419278
 20
255.5
 30
0.0
 40
0.5
100
AcDbArc
 50
0.0
 51
90.0
  0
LINE
  5
4A3
330
1F
100
AcDbEntity
  8
0
  6
Continuous
 62
     7
370
    15
100
AcDbLine
 10
232.7129419278
 20
256.0
 30
0.0
 11
230.7129419278
 21
256.0
 31
0.0
  0
ARC
  5
4A4
330
1F
100
AcDbEntity
  8
0
  6
Continuous
 62
     7
370
    15
100
AcDbCircle
 10
230.7129419278
 20
255.5
 30
0.0
 40
0.5
100
AcDbArc
 50
90.0
 51
180.0
  0
LINE
  5
4A5
330
1F
100
AcDbEntity
  8
0
  6
Continuous
 62
     7
370
    15
100
AcDbLine
 10
230.2129419278
 20
255.5
 30
0.0
 11
230.2129420768
 21
250.5000000902
 31
0.0
  0
LINE
  5
4A6
330
1F
100
AcDbEntity
  8
0
  6
Continuous
 62
     7
370
    15
100
AcDbLine
 10
230.2129420768
 20
250.5000000902
 30
0.0
 11
233.2129425686
 21
250.5000000902
 31
0.0
  0
ARC
  5
4A7
330
1F
100
AcDbEntity
  8
0
  6
Continuous
 62
     7
370
    15
100
AcDbCircle
 10
250.7129419278
 20
255.5
 30
0.0
 40
0.5
100
AcDbArc
 50
360.0
 51
90.0
  0
LINE
  5
4A8
330
1F
100
AcDbEntity
  8
0
  6
Continuous
 62
     7
370
    15
100
AcDbLine
 10
250.7129419278
 20
256.0
 30
0.0
 11
248.7129419278
 21
256.0
 31
0.0
  0
ARC
  5
4A9
330
1F
100
AcDbEntity
  8
0
  6
Continuous
 62
     7
370
    15
100
AcDbCircle
 10
248.7129419278
 20
255.5
 30
0.0
 40
0.5
100
AcDbArc
 50
90.0
 51
180.0
  0
LINE
  5
4AA
330
1F
100
AcDbEntity
  8
0
  6
Continuous
 62
     7
370
    15
100
AcDbLine
 10
248.2129419278
 20
255.5
 30
0.0
 11
248.2129422333
 21
250.5000000902
 31
0.0
  0
LINE
  5
4AB
330
1F
100
AcDbEntity
  8
0
  6
Continuous
 62
     7
370
    15
100
AcDbLine
 10
248.2129422333
 20
250.5000000902
 30
0.0
 11
251.2129417937
 21
250.5000000902
 31
0.0
  0
LINE
  5
4AC
330
1F
100
AcDbEntity
  8
0
  6
Continuous
 62
     7
370
    15
100
AcDbLine
 10
251.2129417937
 20
250.5000000902
 30
0.0
 11
257.7129419278
 21
250.5000000902
 31
0.0
  0
LINE
  5
4AD
330
1F
100
AcDbEntity
  8
0
  6
Continuous
 62
     7
370
    15
100
AcDbLine
 10
257.7129419278
 20
230.7
 30
0.0
 11
257.7129419278
 21
250.5000000902
 31
0.0
  0
LINE
  5
4AE
330
1F
100
AcDbEntity
  8
0
  6
Continuous
 62
     7
370
    15
100
AcDbLine
 10
228.4129419278
 20
230.7
 30
0.0
 11
228.4129419278
 21
256.7
 31
0.0
  0
LINE
  5
4AF
330
1F
100
AcDbEntity
  8
0
  6
Continuous
 62
     7
370
    15
100
AcDbLine
 10
251.2129419278
 20
255.5
 30
0.0
 11
251.2129417937
 21
256.7000002682
 31
0.0
  0
ARC
  5
4B0
330
1F
100
AcDbEntity
  8
0
  6
Continuous
 62
     7
370
    15
100
AcDbCircle
 10
239.7129419278
 20
255.5
 30
0.0
 40
0.5
100
AcDbArc
 50
90.0
 51
180.0
  0
LINE
  5
4B1
330
1F
100
AcDbEntity
  8
0
  6
Continuous
 62
     7
370
    15
100
AcDbLine
 10
255.7129418328
 20
250.5000000902
 30
0.0
 11
255.7129418328
 21
255.5000004441
 31
0.0
  0
ARC
  5
4B2
330
1F
100
AcDbEntity
  8
0
  6
Continuous
 62
     7
370
    15
100
AcDbCircle
 10
255.2129419278
 20
255.5
 30
0.0
 40
0.5
100
AcDbArc
 50
0.0
 51
90.0
  0
LINE
  5
4B3
330
1F
100
AcDbEntity
  8
0
  6
Continuous
 62
     7
370
    15
100
AcDbLine
 10
255.2129419837
 20
255.9999995947
 30
0.0
 11
253.2129421215
 21
255.9999995947
 31
0.0
  0
ARC
  5
4B4
330
1F
100
AcDbEntity
  8
0
  6
Continuous
 62
     7
370
    15
100
AcDbCircle
 10
253.2129419278
 20
255.5
 30
0.0
 40
0.5
100
AcDbArc
 50
90.0
 51
180.0
  0
LINE
  5
4B5
330
1F
100
AcDbEntity
  8
0
  6
Continuous
 62
     7
370
    15
100
AcDbLine
 10
252.7129420396
 20
255.5000004441
 30
0.0
 11
252.7129420396
 21
250.5000000902
 31
0.0
  0
LINE
  5
4B6
330
1F
100
AcDbEntity
  8
0
  6
Continuous
 62
     7
370
    15
100
AcDbLine
 10
251.2129417937
 20
250.5000000902
 30
0.0
 11
251.2129419278
 21
255.5
 31
0.0
  0
ELLIPSE
  5
4B7
330
1F
100
AcDbEntity
  8
0
  6
Continuous
 62
     7
370
    15
100
AcDbEllipse
 10
255.7629419278
 20
256.7
 30
0.0
 11
4.549999999999983
 21
-5.684341886080802E-14
 31
0.0
210
0.0
220
0.0
230
1.0
 40
0.1538461538
 41
1.570796326794899
 42
3.141592653589965
  0
LINE
  5
4B8
330
1F
100
AcDbEntity
  8
0
  6
Continuous
 62
     7
370
    15
100
AcDbLine
 10
257.7129419278
 20
257.4000000104
 30
0.0
 11
255.7629419807
 21
257.4000000104
 31
0.0
  0
LINE
  5
4B9
330
1F
100
AcDbEntity
  8
0
  6
Continuous
 62
     7
370
    15
100
AcDbLine
 10
257.7129419278
 20
250.5000000902
 30
0.0
 11
257.7129419278
 21
257.4000000104
 31
0.0
  0
LINE
  5
4BA
330
1F
100
AcDbEntity
  8
0
  6
Continuous
 62
     7
370
    15
100
AcDbLine
 10
228.4129419278
 20
257.4
 30
0.0
 11
255.7629419807
 21
257.4000000104
 31
0.0
  0
LINE
  5
4BB
330
1F
100
AcDbEntity
  8
0
  6
Continuous
 62
     7
370
    15
100
AcDbLine
 10
228.4129419278
 20
256.7
 30
0.0
 11
228.4129419278
 21
257.4
 31
0.0
  0
LINE
  5
4BC
330
1F
100
AcDbEntity
  8
0
  6
Continuous
 62
     7
370
    15
100
AcDbLine
 10
257.7129419278
 20
230.0
 30
0.0
 11
228.4129419278
 21
230.0
 31
0.0
  0
LINE
  5
4BD
330
1F
100
AcDbEntity
  8
0
  6
Continuous
 62
     7
370
    15
100
AcDbLine
 10
228.4129419278
 20
230.0
 30
0.0
 11
228.4129419278
 21
230.7
 31
0.0
  0
LINE
  5
4BE
330
1F
100
AcDbEntity
  8
0
  6
Continuous
 62
     7
370
    15
100
AcDbLine
 10
257.7129419278
 20
230.7
 30
0.0
 11
257.7129419278
 21
230.0
 31
0.0
  0
LINE
  5
4BF
330
1F
100
AcDbEntity
  8
0
  6
Continuous
 62
     7
370
    15
100
AcDbLine
 10
255.7129418328
 20
242.6999999525
 30
0.0
 11
252.7129420396
 21
242.6999999525
 31
0.0
  0
LINE
  5
4C0
330
1F
100
AcDbEntity
  8
0
  6
Continuous
 62
     7
370
    15
100
AcDbLine
 10
249.8379418012
 20
244.7000000475
 30
0.0
 11
251.2129417937
 21
244.7000000475
 31
0.0
  0
LINE
  5
4C1
330
1F
100
AcDbEntity
  8
0
  6
Continuous
 62
     7
370
    15
100
AcDbLine
 10
252.7129420396
 20
244.7000000475
 30
0.0
 11
255.7129418328
 21
244.7000000475
 31
0.0
  0
LINE
  5
4C2
330
1F
100
AcDbEntity
  8
0
  6
Continuous
 62
     7
370
    15
100
AcDbLine
 10
255.6142930728
 20
255.512
 30
0.0
 11
254.7702339125
 21
255.512
 31
0.0
  0
LINE
  5
4C3
330
1F
100
AcDbEntity
  8
0
  6
Continuous
 62
     7
370
    15
100
AcDbLine
 10
254.7702339125
 20
255.7
 30
0.0
 11
255.6142930728
 21
255.7
 31
0.0
  0
LINE
  5
4C4
330
1F
100
AcDbEntity
  8
0
  6
Continuous
 62
     7
370
    15
100
AcDbLine
 10
242.2129419278
 20
255.512
 30
0.0
 11
241.5869167735
 21
255.512
 31
0.0
  0
LINE
  5
4C5
330
1F
100
AcDbEntity
  8
0
  6
Continuous
 62
     7
370
    15
100
AcDbLine
 10
241.5869167735
 20
255.7
 30
0.0
 11
242.1711994973
 21
255.7
 31
0.0
  0
LINE
  5
4C6
330
1F
100
AcDbEntity
  8
0
  6
Continuous
 62
     7
370
    15
100
AcDbLine
 10
254.7702339125
 20
255.7
 30
0.0
 11
252.754684383
 21
255.7000001043
 31
0.0
  0
LINE
  5
4C7
330
1F
100
AcDbEntity
  8
0
  6
Continuous
 62
     7
370
    15
100
AcDbLine
 10
251.1711994503
 20
255.7000001043
 30
0.0
 11
248.2546841111
 21
255.7000001043
 31
0.0
  0
LINE
  5
4C8
330
1F
100
AcDbEntity
  8
0
  6
Continuous
 62
     7
370
    15
100
AcDbLine
 10
246.6711991783
 20
255.7000001043
 30
0.0
 11
243.7546843048
 21
255.7000001043
 31
0.0
  0
LINE
  5
4C9
330
1F
100
AcDbEntity
  8
0
  6
Continuous
 62
     7
370
    15
100
AcDbLine
 10
254.7702339125
 20
255.512
 30
0.0
 11
252.7130859289
 21
255.5119996041
 31
0.0
  0
LINE
  5
4CA
330
1F
100
AcDbEntity
  8
0
  6
Continuous
 62
     7
370
    15
100
AcDbLine
 10
251.2127979044
 20
255.5119996041
 30
0.0
 11
248.213085657
 21
255.5119996041
 31
0.0
  0
LINE
  5
4CB
330
1F
100
AcDbEntity
  8
0
  6
Continuous
 62
     7
370
    15
100
AcDbLine
 10
246.7127976324
 20
255.5119996041
 30
0.0
 11
243.7130858507
 21
255.5119996041
 31
0.0
  0
LINE
  5
4CC
330
1F
100
AcDbEntity
  8
0
  6
Continuous
 62
     7
370
    15
100
AcDbLine
 10
255.6142930728
 20
255.512
 30
0.0
 11
255.7127979435
 21
255.5119996041
 31
0.0
  0
LINE
  5
4CD
330
1F
100
AcDbEntity
  8
0
  6
Continuous
 62
     7
370
    15
100
AcDbLine
 10
260.6130860131
 20
255.5119996041
 30
0.0
 11
263.6127977949
 21
255.5119996041
 31
0.0
  0
LINE
  5
4CE
330
1F
100
AcDbEntity
  8
0
  6
Continuous
 62
     7
370
    15
100
AcDbLine
 10
265.1130858194
 20
255.5119996041
 30
0.0
 11
268.1127976011
 21
255.5119996041
 31
0.0
  0
LINE
  5
4CF
330
1F
100
AcDbEntity
  8
0
  6
Continuous
 62
     7
370
    15
100
AcDbLine
 10
269.6130856257
 20
255.5119996041
 30
0.0
 11
272.6127983387
 21
255.5119996041
 31
0.0
  0
LINE
  5
4D0
330
1F
100
AcDbEntity
  8
0
  6
Continuous
 62
     7
370
    15
100
AcDbLine
 10
274.113085432
 20
255.5119996041
 30
0.0
 11
277.1127972137
 21
255.5119996041
 31
0.0
  0
LINE
  5
4D1
330
1F
100
AcDbEntity
  8
0
  6
Continuous
 62
     7
370
    15
100
AcDbLine
 10
278.6130852383
 20
255.5119996041
 30
0.0
 11
281.61279702
 21
255.5119996041
 31
0.0
  0
LINE
  5
4D2
330
1F
100
AcDbEntity
  8
0
  6
Continuous
 62
     7
370
    15
100
AcDbLine
 10
283.1130850445
 20
255.5119996041
 30
0.0
 11
286.1127986889
 21
255.5119996041
 31
0.0
  0
LINE
  5
4D3
330
1F
100
AcDbEntity
  8
0
  6
Continuous
 62
     7
370
    15
100
AcDbLine
 10
287.6130867135
 20
255.5119996041
 30
0.0
 11
290.6127984952
 21
255.5119996041
 31
0.0
  0
LINE
  5
4D4
330
1F
100
AcDbEntity
  8
0
  6
Continuous
 62
     7
370
    15
100
AcDbLine
 10
292.1130846571
 20
255.5119996041
 30
0.0
 11
295.1127964389
 21
255.5119996041
 31
0.0
  0
LINE
  5
4D5
330
1F
100
AcDbEntity
  8
0
  6
Continuous
 62
     7
370
    15
100
AcDbLine
 10
296.613086326
 20
255.5119996041
 30
0.0
 11
299.6127981078
 21
255.5119996041
 31
0.0
  0
LINE
  5
4D6
330
1F
100
AcDbEntity
  8
0
  6
Continuous
 62
     7
370
    15
100
AcDbLine
 10
301.1130842697
 20
255.5119996041
 30
0.0
 11
303.6127987634
 21
255.5119996041
 31
0.0
  0
LINE
  5
4D7
330
1F
100
AcDbEntity
  8
0
  6
Continuous
 62
     7
370
    15
100
AcDbLine
 10
255.6142930728
 20
255.7
 30
0.0
 11
255.6711994894
 21
255.7000001043
 31
0.0
  0
LINE
  5
4D8
330
1F
100
AcDbEntity
  8
0
  6
Continuous
 62
     7
370
    15
100
AcDbLine
 10
239.4247546113
 20
255.512
 30
0.0
 11
241.5869167735
 21
255.512
 31
0.0
  0
LINE
  5
4D9
330
1F
100
AcDbEntity
  8
0
  6
Continuous
 62
     7
370
    15
100
AcDbLine
 10
239.4247546113
 20
255.7
 30
0.0
 11
241.5869167735
 21
255.7
 31
0.0
  0
LINE
  5
4DA
330
1F
100
AcDbEntity
  8
0
  6
Continuous
 62
     7
370
    15
100
AcDbLine
 10
239.4247546113
 20
255.512
 30
0.0
 11
239.4202048079
 21
255.512
 31
0.0
  0
LINE
  5
4DB
330
1F
100
AcDbEntity
  8
0
  6
Continuous
 62
     7
370
    15
100
AcDbLine
 10
239.4202048079
 20
255.7
 30
0.0
 11
239.4247546113
 21
255.7
 31
0.0
  0
LINE
  5
4DC
330
1F
100
AcDbEntity
  8
0
  6
Continuous
 62
     7
370
    15
100
AcDbLine
 10
237.7129419278
 20
255.512
 30
0.0
 11
236.8526320534
 21
255.512
 31
0.0
  0
LINE
  5
4DD
330
1F
100
AcDbEntity
  8
0
  6
Continuous
 62
     7
370
    15
100
AcDbLine
 10
236.8526320534
 20
255.7
 30
0.0
 11
237.6711994973
 21
255.7
 31
0.0
  0
LINE
  5
4DE
330
1F
100
AcDbEntity
  8
0
  6
Continuous
 62
     7
370
    15
100
AcDbLine
 10
239.2130851131
 20
255.5119996041
 30
0.0
 11
239.4202048079
 21
255.512
 31
0.0
  0
LINE
  5
4DF
330
1F
100
AcDbEntity
  8
0
  6
Continuous
 62
     7
370
    15
100
AcDbLine
 10
239.2546835672
 20
255.7000001043
 30
0.0
 11
239.4202048079
 21
255.7
 31
0.0
  0
LINE
  5
4E0
330
1F
100
AcDbEntity
  8
0
  6
Continuous
 62
     7
370
    15
100
AcDbLine
 10
236.8389670822
 20
255.512
 30
0.0
 11
236.8526320534
 21
255.512
 31
0.0
  0
LINE
  5
4E1
330
1F
100
AcDbEntity
  8
0
  6
Continuous
 62
     7
370
    15
100
AcDbLine
 10
236.8389670822
 20
255.7
 30
0.0
 11
236.8526320534
 21
255.7
 31
0.0
  0
LINE
  5
4E2
330
1F
100
AcDbEntity
  8
0
  6
Continuous
 62
     7
370
    15
100
AcDbLine
 10
236.8389670822
 20
255.512
 30
0.0
 11
234.8435168856
 21
255.512
 31
0.0
  0
LINE
  5
4E3
330
1F
100
AcDbEntity
  8
0
  6
Continuous
 62
     7
370
    15
100
AcDbLine
 10
234.8435168856
 20
255.7
 30
0.0
 11
236.8389670822
 21
255.7
 31
0.0
  0
LINE
  5
4E4
330
1F
100
AcDbEntity
  8
0
  6
Continuous
 62
     7
370
    15
100
AcDbLine
 10
234.7130853068
 20
255.5119996041
 30
0.0
 11
234.8435168856
 21
255.512
 31
0.0
  0
LINE
  5
4E5
330
1F
100
AcDbEntity
  8
0
  6
Continuous
 62
     7
370
    15
100
AcDbLine
 10
234.7546837609
 20
255.7000001043
 30
0.0
 11
234.8435168856
 21
255.7
 31
0.0
  0
LINE
  5
4E6
330
1F
100
AcDbEntity
  8
0
  6
Continuous
 62
     7
370
    15
100
AcDbLine
 10
254.7702339125
 20
231.888
 30
0.0
 11
252.7130859289
 21
231.8880003959
 31
0.0
  0
LINE
  5
4E7
330
1F
100
AcDbEntity
  8
0
  6
Continuous
 62
     7
370
    15
100
AcDbLine
 10
251.2127979044
 20
231.8880003959
 30
0.0
 11
248.213085657
 21
231.8880003959
 31
0.0
  0
LINE
  5
4E8
330
1F
100
AcDbEntity
  8
0
  6
Continuous
 62
     7
370
    15
100
AcDbLine
 10
246.7127976324
 20
231.8880003959
 30
0.0
 11
243.7130858507
 21
231.8880003959
 31
0.0
  0
LINE
  5
4E9
330
1F
100
AcDbEntity
  8
0
  6
Continuous
 62
     7
370
    15
100
AcDbLine
 10
254.7702339125
 20
231.7
 30
0.0
 11
252.754684383
 21
231.6999998957
 31
0.0
  0
LINE
  5
4EA
330
1F
100
AcDbEntity
  8
0
  6
Continuous
 62
     7
370
    15
100
AcDbLine
 10
251.1711994503
 20
231.6999998957
 30
0.0
 11
248.2546841111
 21
231.6999998957
 31
0.0
  0
LINE
  5
4EB
330
1F
100
AcDbEntity
  8
0
  6
Continuous
 62
     7
370
    15
100
AcDbLine
 10
246.6711991783
 20
231.6999998957
 30
0.0
 11
243.7546843048
 21
231.6999998957
 31
0.0
  0
LINE
  5
4EC
330
1F
100
AcDbEntity
  8
0
  6
Continuous
 62
     7
370
    15
100
AcDbLine
 10
242.1711994973
 20
231.7
 30
0.0
 11
241.5869167735
 21
231.7
 31
0.0
  0
LINE
  5
4ED
330
1F
100
AcDbEntity
  8
0
  6
Continuous
 62
     7
370
    15
100
AcDbLine
 10
241.5869167735
 20
231.888
 30
0.0
 11
242.2129419278
 21
231.888
 31
0.0
  0
LINE
  5
4EE
330
1F
100
AcDbEntity
  8
0
  6
Continuous
 62
     7
370
    15
100
AcDbLine
 10
255.6142930728
 20
231.7
 30
0.0
 11
254.7702339125
 21
231.7
 31
0.0
  0
LINE
  5
4EF
330
1F
100
AcDbEntity
  8
0
  6
Continuous
 62
     7
370
    15
100
AcDbLine
 10
254.7702339125
 20
231.888
 30
0.0
 11
255.6142930728
 21
231.888
 31
0.0
  0
LINE
  5
4F0
330
1F
100
AcDbEntity
  8
0
  6
Continuous
 62
     7
370
    15
100
AcDbLine
 10
255.6142930728
 20
231.7
 30
0.0
 11
255.6711994894
 21
231.6999998957
 31
0.0
  0
LINE
  5
4F1
330
1F
100
AcDbEntity
  8
0
  6
Continuous
 62
     7
370
    15
100
AcDbLine
 10
255.6142930728
 20
231.888
 30
0.0
 11
255.7127979435
 21
231.8880003959
 31
0.0
  0
LINE
  5
4F2
330
1F
100
AcDbEntity
  8
0
  6
Continuous
 62
     7
370
    15
100
AcDbLine
 10
260.6130860131
 20
231.8880003959
 30
0.0
 11
263.6127977949
 21
231.8880003959
 31
0.0
  0
LINE
  5
4F3
330
1F
100
AcDbEntity
  8
0
  6
Continuous
 62
     7
370
    15
100
AcDbLine
 10
265.1130858194
 20
231.8880003959
 30
0.0
 11
268.1127976011
 21
231.8880003959
 31
0.0
  0
LINE
  5
4F4
330
1F
100
AcDbEntity
  8
0
  6
Continuous
 62
     7
370
    15
100
AcDbLine
 10
269.6130856257
 20
231.8880003959
 30
0.0
 11
272.6127983387
 21
231.8880003959
 31
0.0
  0
LINE
  5
4F5
330
1F
100
AcDbEntity
  8
0
  6
Continuous
 62
     7
370
    15
100
AcDbLine
 10
274.113085432
 20
231.8880003959
 30
0.0
 11
277.1127972137
 21
231.8880003959
 31
0.0
  0
LINE
  5
4F6
330
1F
100
AcDbEntity
  8
0
  6
Continuous
 62
     7
370
    15
100
AcDbLine
 10
278.6130852383
 20
231.8880003959
 30
0.0
 11
281.61279702
 21
231.8880003959
 31
0.0
  0
LINE
  5
4F7
330
1F
100
AcDbEntity
  8
0
  6
Continuous
 62
     7
370
    15
100
AcDbLine
 10
283.1130850445
 20
231.8880003959
 30
0.0
 11
286.1127986889
 21
231.8880003959
 31
0.0
  0
LINE
  5
4F8
330
1F
100
AcDbEntity
  8
0
  6
Continuous
 62
     7
370
    15
100
AcDbLine
 10
287.6130867135
 20
231.8880003959
 30
0.0
 11
290.6127984952
 21
231.8880003959
 31
0.0
  0
LINE
  5
4F9
330
1F
100
AcDbEntity
  8
0
  6
Continuous
 62
     7
370
    15
100
AcDbLine
 10
292.1130846571
 20
231.8880003959
 30
0.0
 11
295.1127964389
 21
231.8880003959
 31
0.0
  0
LINE
  5
4FA
330
1F
100
AcDbEntity
  8
0
  6
Continuous
 62
     7
370
    15
100
AcDbLine
 10
296.613086326
 20
231.8880003959
 30
0.0
 11
299.6127981078
 21
231.8880003959
 31
0.0
  0
LINE
  5
4FB
330
1F
100
AcDbEntity
  8
0
  6
Continuous
 62
     7
370
    15
100
AcDbLine
 10
301.1130842697
 20
231.8880003959
 30
0.0
 11
304.1127960514
 21
231.8880003959
 31
0.0
  0
LINE
  5
4FC
330
1F
100
AcDbEntity
  8
0
  6
Continuous
 62
     7
370
    15
100
AcDbLine
 10
305.6130859386
 20
231.8880003959
 30
0.0
 11
308.6127977204
 21
231.8880003959
 31
0.0
  0
LINE
  5
4FD
330
1F
100
AcDbEntity
  8
0
  6
Continuous
 62
     7
370
    15
100
AcDbLine
 10
239.4247546113
 20
231.7
 30
0.0
 11
241.5869167735
 21
231.7
 31
0.0
  0
LINE
  5
4FE
330
1F
100
AcDbEntity
  8
0
  6
Continuous
 62
     7
370
    15
100
AcDbLine
 10
239.4247546113
 20
231.888
 30
0.0
 11
241.5869167735
 21
231.888
 31
0.0
  0
LINE
  5
4FF
330
1F
100
AcDbEntity
  8
0
  6
Continuous
 62
     7
370
    15
100
AcDbLine
 10
239.4247546113
 20
231.7
 30
0.0
 11
239.4202048079
 21
231.7
 31
0.0
  0
LINE
  5
500
330
1F
100
AcDbEntity
  8
0
  6
Continuous
 62
     7
370
    15
100
AcDbLine
 10
239.4202048079
 20
231.888
 30
0.0
 11
239.4247546113
 21
231.888
 31
0.0
  0
LINE
  5
501
330
1F
100
AcDbEntity
  8
0
  6
Continuous
 62
     7
370
    15
100
AcDbLine
 10
237.6711994973
 20
231.7
 30
0.0
 11
236.8526320534
 21
231.7
 31
0.0
  0
LINE
  5
502
330
1F
100
AcDbEntity
  8
0
  6
Continuous
 62
     7
370
    15
100
AcDbLine
 10
236.8526320534
 20
231.888
 30
0.0
 11
237.7129419278
 21
231.888
 31
0.0
  0
LINE
  5
503
330
1F
100
AcDbEntity
  8
0
  6
Continuous
 62
     7
370
    15
100
AcDbLine
 10
239.2546835672
 20
231.6999998957
 30
0.0
 11
239.4202048079
 21
231.7
 31
0.0
  0
LINE
  5
504
330
1F
100
AcDbEntity
  8
0
  6
Continuous
 62
     7
370
    15
100
AcDbLine
 10
239.2130851131
 20
231.8880003959
 30
0.0
 11
239.4202048079
 21
231.888
 31
0.0
  0
LINE
  5
505
330
1F
100
AcDbEntity
  8
0
  6
Continuous
 62
     7
370
    15
100
AcDbLine
 10
236.8389670822
 20
231.7
 30
0.0
 11
236.8526320534
 21
231.7
 31
0.0
  0
LINE
  5
506
330
1F
100
AcDbEntity
  8
0
  6
Continuous
 62
     7
370
    15
100
AcDbLine
 10
236.8389670822
 20
231.888
 30
0.0
 11
236.8526320534
 21
231.888
 31
0.0
  0
LINE
  5
507
330
1F
100
AcDbEntity
  8
0
  6
Continuous
 62
     7
370
    15
100
AcDbLine
 10
236.8389670822
 20
231.7
 30
0.0
 11
234.8435168856
 21
231.7
 31
0.0
  0
LINE
  5
508
330
1F
100
AcDbEntity
  8
0
  6
Continuous
 62
     7
370
    15
100
AcDbLine
 10
234.8435168856
 20
231.888
 30
0.0
 11
236.8389670822
 21
231.888
 31
0.0
  0
LINE
  5
509
330
1F
100
AcDbEntity
  8
0
  6
Continuous
 62
     7
370
    15
100
AcDbLine
 10
230.2546839546
 20
231.6999998957
 30
0.0
 11
233.1711988281
 21
231.6999998957
 31
0.0
  0
LINE
  5
50A
330
1F
100
AcDbEntity
  8
0
  6
Continuous
 62
     7
370
    15
100
AcDbLine
 10
234.7546837609
 20
231.6999998957
 30
0.0
 11
234.8435168856
 21
231.7
 31
0.0
  0
LINE
  5
50B
330
1F
100
AcDbEntity
  8
0
  6
Continuous
 62
     7
370
    15
100
AcDbLine
 10
230.2130855005
 20
231.8880003959
 30
0.0
 11
233.2127972823
 21
231.8880003959
 31
0.0
  0
LINE
  5
50C
330
1F
100
AcDbEntity
  8
0
  6
Continuous
 62
     7
370
    15
100
AcDbLine
 10
234.7130853068
 20
231.8880003959
 30
0.0
 11
234.8435168856
 21
231.888
 31
0.0
  0
LINE
  5
50D
330
1F
100
AcDbEntity
  8
0
  6
Continuous
 62
     7
370
    15
100
AcDbLine
 10
312.7129416298
 20
233.2999999717
 30
0.0
 11
313.1129409503
 21
233.2999999717
 31
0.0
  0
LINE
  5
50E
330
1F
100
AcDbEntity
  8
0
  6
Continuous
 62
     7
370
    15
100
AcDbLine
 10
313.1129409503
 20
246.8999999192
 30
0.0
 11
312.7129416298
 21
246.8999999192
 31
0.0
  0
LINE
  5
50F
330
1F
100
AcDbEntity
  8
0
  6
Continuous
 62
     7
370
    15
100
AcDbLine
 10
313.1129409503
 20
233.2999999717
 30
0.0
 11
313.1129409503
 21
246.8999999192
 31
0.0
  0
LINE
  5
510
330
1F
100
AcDbEntity
  8
0
  6
Continuous
 62
     7
370
    15
100
AcDbLine
 10
312.7129416298
 20
248.3999999322
 30
0.0
 11
313.1129409503
 21
248.3999999322
 31
0.0
  0
LINE
  5
511
330
1F
100
AcDbEntity
  8
0
  6
Continuous
 62
     7
370
    15
100
AcDbLine
 10
313.1129409503
 20
248.3999999322
 30
0.0
 11
313.1129409503
 21
246.8999999192
 31
0.0
  0
LINE
  5
512
330
1F
100
AcDbEntity
  8
0
  6
Continuous
 62
     7
370
    15
100
AcDbLine
 10
313.1129409503
 20
231.7999997258
 30
0.0
 11
312.7129416298
 21
231.7999997258
 31
0.0
  0
LINE
  5
513
330
1F
100
AcDbEntity
  8
0
  6
Continuous
 62
     7
370
    15
100
AcDbLine
 10
313.1129409503
 20
233.2999999717
 30
0.0
 11
313.1129409503
 21
231.7999997258
 31
0.0
  0
LINE
  5
514
330
1F
100
AcDbEntity
  8
0
  6
Continuous
 62
     7
370
    15
100
AcDbLine
 10
308.3129416536
 20
248.3500000171
 30
0.0
 11
307.7129426729
 21
248.3500000171
 31
0.0
  0
LINE
  5
515
330
1F
100
AcDbEntity
  8
0
  6
Continuous
 62
     7
370
    15
100
AcDbLine
 10
307.7129426729
 20
248.0999999762
 30
0.0
 11
307.7129426729
 21
248.3500000171
 31
0.0
  0
ARC
  5
516
330
1F
100
AcDbEntity
  8
0
  6
Continuous
 62
     7
370
    15
100
AcDbCircle
 10
228.0020044278
 20
243.8
 30
0.0
 40
18.98906249999992
100
AcDbArc
 50
162.9908415182
 51
197.0091584818
  0
ARC
  5
517
330
1F
100
AcDbEntity
  8
0
  6
Continuous
 62
     7
370
    15
100
AcDbCircle
 10
210.5129419278
 20
238.45
 30
0.0
 40
0.7000000000000146
100
AcDbArc
 50
197.0091584818
 51
330.0
  0
LINE
  5
518
330
1F
100
AcDbEntity
  8
0
  6
Continuous
 62
     7
370
    15
100
AcDbLine
 10
211.1191597105
 20
238.1
 30
0.0
 11
211.8119800335
 21
237.7
 31
0.0
  0
ARC
  5
519
330
1F
100
AcDbEntity
  8
0
  6
Continuous
 62
     7
370
    15
100
AcDbCircle
 10
210.5129419278
 20
238.45
 30
0.0
 40
1.5
100
AcDbArc
 50
197.0091584818
 51
330.0
  0
ARC
  5
51A
330
1F
100
AcDbEntity
  8
0
  6
Continuous
 62
     7
370
    15
100
AcDbCircle
 10
228.0020044278
 20
243.8
 30
0.0
 40
19.78906249999991
100
AcDbArc
 50
162.9908415182
 51
197.0091584818
  0
LINE
  5
51B
330
1F
100
AcDbEntity
  8
0
  6
Continuous
 62
     7
370
    15
100
AcDbLine
 10
211.8119800335
 20
249.9
 30
0.0
 11
211.1191597105
 21
249.5
 31
0.0
  0
ARC
  5
51C
330
1F
100
AcDbEntity
  8
0
  6
Continuous
 62
     7
370
    15
100
AcDbCircle
 10
210.5129419278
 20
249.15
 30
0.0
 40
0.7000000000000004
100
AcDbArc
 50
30.0
 51
162.9908415182
  0
ARC
  5
51D
330
1F
100
AcDbEntity
  8
0
  6
Continuous
 62
     7
370
    15
100
AcDbCircle
 10
210.5129419278
 20
249.15
 30
0.0
 40
1.5
100
AcDbArc
 50
30.0
 51
162.9908415182
  0
ARC
  5
51E
330
1F
100
AcDbEntity
  8
0
  6
Continuous
 62
     7
370
    15
100
AcDbCircle
 10
240.2129419278
 20
253.6806248475
 30
0.0
 40
1.000000000000018
100
AcDbArc
 50
180.0
 51
231.3401917459
  0
LINE
  5
51F
330
1F
100
AcDbEntity
  8
0
  6
Continuous
 62
     7
370
    15
100
AcDbLine
 10
250.9623320229
 20
243.8004879239
 30
0.0
 11
248.2129422333
 21
246.000000051
 31
0.0
  0
LINE
  5
520
330
1F
100
AcDbEntity
  8
0
  6
Continuous
 62
     7
370
    15
100
AcDbLine
 10
246.7129419874
 20
247.200000108
 30
0.0
 11
244.337941831
 21
249.1000001401
 31
0.0
  0
LINE
  5
521
330
1F
100
AcDbEntity
  8
0
  6
Continuous
 62
     7
370
    15
100
AcDbLine
 10
242.2129421811
 20
250.8000000462
 30
0.0
 11
239.5882468803
 21
252.899756038
 31
0.0
  0
ARC
  5
522
330
1F
100
AcDbEntity
  8
0
  6
Continuous
 62
     7
370
    15
100
AcDbCircle
 10
249.7129419278
 20
242.238750305
 30
0.0
 40
2.000000000000004
100
AcDbArc
 50
41.4096221093
 51
51.3401917459
  0
LINE
  5
523
330
1F
100
AcDbEntity
  8
0
  6
Continuous
 62
     7
370
    15
100
AcDbLine
 10
237.7129423749
 20
255.2999998525
 30
0.0
 11
234.7129418831
 21
255.2999998525
 31
0.0
  0
LINE
  5
524
330
1F
100
AcDbEntity
  8
0
  6
Continuous
 62
     7
370
    15
100
AcDbLine
 10
233.2129425686
 20
255.2999998525
 30
0.0
 11
230.2129420768
 21
255.2999998525
 31
0.0
  0
LINE
  5
525
330
1F
100
AcDbEntity
  8
0
  6
Continuous
 62
     7
370
    15
100
AcDbLine
 10
230.2129420768
 20
233.1000003114
 30
0.0
 11
233.2129425686
 21
233.1000003114
 31
0.0
  0
LINE
  5
526
330
1F
100
AcDbEntity
  8
0
  6
Continuous
 62
     7
370
    15
100
AcDbLine
 10
234.7129418831
 20
233.1000003114
 30
0.0
 11
237.7129423749
 21
233.1000003114
 31
0.0
  0
LINE
  5
527
330
1F
100
AcDbEntity
  8
0
  6
Continuous
 62
     7
370
    15
100
AcDbLine
 10
239.2129416894
 20
233.1000003114
 30
0.0
 11
242.2129421811
 21
233.1000003114
 31
0.0
  0
LINE
  5
528
330
1F
100
AcDbEntity
  8
0
  6
Continuous
 62
     7
370
    15
100
AcDbLine
 10
243.7129414957
 20
233.1000003114
 30
0.0
 11
246.7129419874
 21
233.1000003114
 31
0.0
  0
LINE
  5
529
330
1F
100
AcDbEntity
  8
0
  6
Continuous
 62
     7
370
    15
100
AcDbLine
 10
248.2129422333
 20
233.1000003114
 30
0.0
 11
251.2129417937
 21
233.1000003114
 31
0.0
  0
LINE
  5
52A
330
1F
100
AcDbEntity
  8
0
  6
Continuous
 62
     7
370
    15
100
AcDbLine
 10
286.1129421126
 20
240.2999999549
 30
0.0
 11
283.1129416209
 21
240.2999999549
 31
0.0
  0
LINE
  5
52B
330
1F
100
AcDbEntity
  8
0
  6
Continuous
 62
     7
370
    15
100
AcDbLine
 10
296.2629425656
 20
248.0999999762
 30
0.0
 11
296.2629425656
 21
249.1000001401
 31
0.0
  0
LINE
  5
52C
330
1F
100
AcDbEntity
  8
0
  6
Continuous
 62
     7
370
    15
100
AcDbLine
 10
289.2879419278
 20
252.45
 30
0.0
 11
289.287943704
 21
252.0999997005
 31
0.0
  0
LINE
  5
52D
330
1F
100
AcDbEntity
  8
0
  6
Continuous
 62
     7
370
    15
100
AcDbLine
 10
289.5379419278
 20
252.45
 30
0.0
 11
289.5379404854
 21
252.0999997005
 31
0.0
  0
LINE
  5
52E
330
1F
100
AcDbEntity
  8
0
  6
Continuous
 62
     7
370
    15
100
AcDbLine
 10
284.4579419278
 20
252.8
 30
0.0
 11
284.2079419278
 21
252.8
 31
0.0
  0
LINE
  5
52F
330
1F
100
AcDbEntity
  8
0
  6
Continuous
 62
     7
370
    15
100
AcDbLine
 10
284.4579419278
 20
252.8
 30
0.0
 11
284.4579419278
 21
252.45
 31
0.0
  0
LINE
  5
530
330
1F
100
AcDbEntity
  8
0
  6
Continuous
 62
     7
370
    15
100
AcDbLine
 10
284.2079419278
 20
252.45
 30
0.0
 11
284.2079419278
 21
252.8
 31
0.0
  0
LINE
  5
531
330
1F
100
AcDbEntity
  8
0
  6
Continuous
 62
     7
370
    15
100
AcDbLine
 10
284.4579419278
 20
252.45
 30
0.0
 11
284.457942782
 21
252.0999997005
 31
0.0
  0
LINE
  5
532
330
1F
100
AcDbEntity
  8
0
  6
Continuous
 62
     7
370
    15
100
AcDbLine
 10
284.2079419278
 20
252.45
 30
0.0
 11
284.2079422753
 21
252.0999997005
 31
0.0
  0
LINE
  5
533
330
1F
100
AcDbEntity
  8
0
  6
Continuous
 62
     7
370
    15
100
AcDbLine
 10
289.5379419278
 20
252.8
 30
0.0
 11
289.2879419278
 21
252.8
 31
0.0
  0
LINE
  5
534
330
1F
100
AcDbEntity
  8
0
  6
Continuous
 62
     7
370
    15
100
AcDbLine
 10
289.5379419278
 20
252.8
 30
0.0
 11
289.5379419278
 21
252.45
 31
0.0
  0
LINE
  5
535
330
1F
100
AcDbEntity
  8
0
  6
Continuous
 62
     7
370
    15
100
AcDbLine
 10
289.2879419278
 20
252.45
 30
0.0
 11
289.2879419278
 21
252.8
 31
0.0
  0
LINE
  5
536
330
1F
100
AcDbEntity
  8
0
  6
Continuous
 62
     7
370
    15
100
AcDbLine
 10
294.3679419278
 20
252.45
 30
0.0
 11
294.3679419278
 21
252.8
 31
0.0
  0
LINE
  5
537
330
1F
100
AcDbEntity
  8
0
  6
Continuous
 62
     7
370
    15
100
AcDbLine
 10
294.6179419278
 20
252.8
 30
0.0
 11
294.3679419278
 21
252.8
 31
0.0
  0
LINE
  5
538
330
1F
100
AcDbEntity
  8
0
  6
Continuous
 62
     7
370
    15
100
AcDbLine
 10
294.6179419278
 20
252.8
 30
0.0
 11
294.6179419278
 21
252.45
 31
0.0
  0
LINE
  5
539
330
1F
100
AcDbEntity
  8
0
  6
Continuous
 62
     7
370
    15
100
AcDbLine
 10
294.3679419278
 20
252.45
 30
0.0
 11
294.3679432701
 21
252.0999997005
 31
0.0
  0
LINE
  5
53A
330
1F
100
AcDbEntity
  8
0
  6
Continuous
 62
     7
370
    15
100
AcDbLine
 10
294.6179419278
 20
252.45
 30
0.0
 11
294.6179437768
 21
252.0999997005
 31
0.0
  0
LINE
  5
53B
330
1F
100
AcDbEntity
  8
0
  6
Continuous
 62
     7
370
    15
100
AcDbLine
 10
224.4307997953
 20
237.799999778
 30
0.0
 11
223.0129431318
 21
237.799999778
 31
0.0
  0
LINE
  5
53C
330
1F
100
AcDbEntity
  8
0
  6
Continuous
 62
     7
370
    15
100
AcDbLine
 10
222.2629416119
 20
238.5499999009
 30
0.0
 11
223.0129431318
 21
237.799999778
 31
0.0
  0
LINE
  5
53D
330
1F
100
AcDbEntity
  8
0
  6
Continuous
 62
     7
370
    15
100
AcDbLine
 10
219.0129424762
 20
239.3000000238
 30
0.0
 11
219.2129421364
 21
239.3000000238
 31
0.0
  0
LINE
  5
53E
330
1F
100
AcDbEntity
  8
0
  6
Continuous
 62
     7
370
    15
100
AcDbLine
 10
219.0129424762
 20
248.3000001021
 30
0.0
 11
219.0129424762
 21
239.3000000238
 31
0.0
  0
LINE
  5
53F
330
1F
100
AcDbEntity
  8
0
  6
Continuous
 62
     7
370
    15
100
AcDbLine
 10
219.2129421364
 20
248.3000001021
 30
0.0
 11
219.0129424762
 21
248.3000001021
 31
0.0
  0
LINE
  5
540
330
1F
100
AcDbEntity
  8
0
  6
Continuous
 62
     7
370
    15
100
AcDbLine
 10
211.6129401456
 20
238.7999999419
 30
0.0
 11
212.0129431914
 21
237.799999778
 31
0.0
  0
LINE
  5
541
330
1F
100
AcDbEntity
  8
0
  6
Continuous
 62
     7
370
    15
100
AcDbLine
 10
210.836250646
 20
237.829137136
 30
0.0
 11
211.6129401456
 21
238.7999999419
 31
0.0
  0
LINE
  5
542
330
1F
100
AcDbEntity
  8
0
  6
Continuous
 62
     7
370
    15
100
AcDbLine
 10
210.7727493476
 20
237.799999778
 30
0.0
 11
210.2531346809
 21
237.799999778
 31
0.0
  0
LINE
  5
543
330
1F
100
AcDbEntity
  8
0
  6
Continuous
 62
     7
370
    15
100
AcDbLine
 10
210.0129428636
 20
237.9601020448
 30
0.0
 11
210.0129428636
 21
249.6398980811
 31
0.0
  0
LINE
  5
544
330
1F
100
AcDbEntity
  8
0
  6
Continuous
 62
     7
370
    15
100
AcDbLine
 10
212.0129431914
 20
249.7999998823
 30
0.0
 11
211.6129401456
 21
248.800000184
 31
0.0
  0
LINE
  5
545
330
1F
100
AcDbEntity
  8
0
  6
Continuous
 62
     7
370
    15
100
AcDbLine
 10
210.2531346809
 20
249.7999998823
 30
0.0
 11
210.7727493476
 21
249.7999998823
 31
0.0
  0
LINE
  5
546
330
1F
100
AcDbEntity
  8
0
  6
Continuous
 62
     7
370
    15
100
AcDbLine
 10
211.6129401456
 20
248.800000184
 30
0.0
 11
210.836250646
 21
249.7708629899
 31
0.0
  0
LINE
  5
547
330
1F
100
AcDbEntity
  8
0
  6
Continuous
 62
     7
370
    15
100
AcDbLine
 10
223.0129431318
 20
237.799999778
 30
0.0
 11
212.0129431914
 21
237.799999778
 31
0.0
  0
LINE
  5
548
330
1F
100
AcDbEntity
  8
0
  6
Continuous
 62
     7
370
    15
100
AcDbLine
 10
212.0129431914
 20
249.7999998823
 30
0.0
 11
219.2129421364
 21
249.7999998823
 31
0.0
  0
LINE
  5
549
330
1F
100
AcDbEntity
  8
0
  6
Continuous
 62
     7
370
    15
100
AcDbLine
 10
255.7129418328
 20
250.8000000462
 30
0.0
 11
252.7129420396
 21
250.8000000462
 31
0.0
  0
LINE
  5
54A
330
1F
100
AcDbEntity
  8
0
  6
Continuous
 62
     7
370
    15
100
AcDbLine
 10
251.2129417937
 20
250.8000000462
 30
0.0
 11
248.2129422333
 21
250.8000000462
 31
0.0
  0
LINE
  5
54B
330
1F
100
AcDbEntity
  8
0
  6
Continuous
 62
     7
370
    15
100
AcDbLine
 10
246.4129419278
 20
250.8
 30
0.0
 11
246.7129419278
 21
250.8
 31
0.0
  0
LINE
  5
54C
330
1F
100
AcDbEntity
  8
0
  6
Continuous
 62
     7
370
    15
100
AcDbLine
 10
243.7129414957
 20
250.8000000462
 30
0.0
 11
246.4129419278
 21
250.8
 31
0.0
  0
LINE
  5
54D
330
1F
100
AcDbEntity
  8
0
  6
Continuous
 62
     7
370
    15
100
AcDbLine
 10
244.7129416596
 20
249.1000001401
 30
0.0
 11
244.7129416596
 21
248.800000184
 31
0.0
  0
LINE
  5
54E
330
1F
100
AcDbEntity
  8
0
  6
Continuous
 62
     7
370
    15
100
AcDbLine
 10
299.7129413616
 20
249.1000001401
 30
0.0
 11
299.7129419278
 21
248.1
 31
0.0
  0
LINE
  5
54F
330
1F
100
AcDbEntity
  8
0
  6
Continuous
 62
     7
370
    15
100
AcDbLine
 10
299.7129419278
 20
238.1
 30
0.0
 11
299.7129413616
 21
237.1000000358
 31
0.0
  0
LINE
  5
550
330
1F
100
AcDbEntity
  8
0
  6
Continuous
 62
     7
370
    15
100
AcDbLine
 10
302.2129427027
 20
249.1000001401
 30
0.0
 11
302.2129419278
 21
248.1
 31
0.0
  0
LINE
  5
551
330
1F
100
AcDbEntity
  8
0
  6
Continuous
 62
     7
370
    15
100
AcDbLine
 10
304.7129403185
 20
249.1000001401
 30
0.0
 11
304.7129403185
 21
248.0999999762
 31
0.0
  0
LINE
  5
552
330
1F
100
AcDbEntity
  8
0
  6
Continuous
 62
     7
370
    15
100
AcDbLine
 10
241.4629419278
 20
251.4
 30
0.0
 11
242.2129419278
 21
251.4
 31
0.0
  0
LINE
  5
553
330
1F
100
AcDbEntity
  8
0
  6
Continuous
 62
     7
370
    15
100
AcDbLine
 10
240.3129416834
 20
253.0499738723
 30
0.0
 11
239.6198998522
 21
252.8744344682
 31
0.0
  0
ARC
  5
554
330
1F
100
AcDbEntity
  8
0
  6
Continuous
 62
     7
370
    15
100
AcDbCircle
 10
240.4629414286
 20
252.4256245932
 30
0.0
 40
0.6421152123170599
100
AcDbArc
 50
76.4907383398
 51
103.5092616602
  0
LINE
  5
555
330
1F
100
AcDbEntity
  8
0
  6
Continuous
 62
     7
370
    15
100
AcDbLine
 10
240.6129411738
 20
252.806666781
 30
0.0
 11
240.6129411738
 21
253.0499738723
 31
0.0
  0
LINE
  5
556
330
1F
100
AcDbEntity
  8
0
  6
Continuous
 62
     7
370
    15
100
AcDbLine
 10
241.2129420172
 20
252.806666781
 30
0.0
 11
240.6129411738
 21
252.806666781
 31
0.0
  0
LINE
  5
557
330
1F
100
AcDbEntity
  8
0
  6
Continuous
 62
     7
370
    15
100
AcDbLine
 10
241.2129420172
 20
253.0499738723
 30
0.0
 11
241.2129420172
 21
252.806666781
 31
0.0
  0
ARC
  5
558
330
1F
100
AcDbEntity
  8
0
  6
Continuous
 62
     7
370
    15
100
AcDbCircle
 10
241.3629417624
 20
252.5816537197
 30
0.0
 40
0.491755720764549
100
AcDbArc
 50
72.2400926679
 51
107.7599073321
  0
LINE
  5
559
330
1F
100
AcDbEntity
  8
0
  6
Continuous
 62
     7
370
    15
100
AcDbLine
 10
242.2129421811
 20
252.8607347131
 30
0.0
 11
241.5129415076
 21
253.0499738723
 31
0.0
  0
LWPOLYLINE
  5
55A
330
1F
100
AcDbEntity
  8
0
  6
Continuous
 62
     7
370
    15
100
AcDbPolyline
 90
        3
 70
   128
 43
0.0
 10
302.8129416834
 20
232.5500263914
 10
303.6213296782
 20
232.7547804534
 10
303.7129420172
 20
232.7933334827
  0
ARC
  5
55B
330
1F
100
AcDbEntity
  8
0
  6
Continuous
 62
     7
370
    15
100
AcDbCircle
 10
302.6629410069
 20
233.1743835894
 30
0.0
 40
0.6421231296474669
100
AcDbArc
 50
256.4908225995
 51
283.5091774005
  0
LINE
  5
55C
330
1F
100
AcDbEntity
  8
0
  6
Continuous
 62
     7
370
    15
100
AcDbLine
 10
302.5129403304
 20
232.7933334827
 30
0.0
 11
302.5129403304
 21
232.5500263914
 31
0.0
  0
LINE
  5
55D
330
1F
100
AcDbEntity
  8
0
  6
Continuous
 62
     7
370
    15
100
AcDbLine
 10
302.3629415166
 20
232.7933334827
 30
0.0
 11
302.5129403304
 21
232.7933334827
 31
0.0
  0
LINE
  5
55E
330
1F
100
AcDbEntity
  8
0
  6
Continuous
 62
     7
370
    15
100
AcDbLine
 10
301.9129413497
 20
232.5500263914
 30
0.0
 11
301.9129413497
 21
232.7933334827
 31
0.0
  0
ARC
  5
55F
330
1F
100
AcDbEntity
  8
0
  6
Continuous
 62
     7
370
    15
100
AcDbCircle
 10
301.7629425358
 20
233.0183384216
 30
0.0
 40
0.4917477013091619
100
AcDbArc
 50
252.2399073339
 51
287.7600926661
  0
LINE
  5
560
330
1F
100
AcDbEntity
  8
0
  6
Continuous
 62
     7
370
    15
100
AcDbLine
 10
301.1129427086
 20
232.6851966873
 30
0.0
 11
301.6129437219
 21
232.5500263914
 31
0.0
  0
LINE
  5
561
330
1F
100
AcDbEntity
  8
0
  6
Continuous
 62
     7
370
    15
100
AcDbLine
 10
243.7129419278
 20
251.4
 30
0.0
 11
244.6629419278
 21
251.4
 31
0.0
  0
LWPOLYLINE
  5
562
330
1F
100
AcDbEntity
  8
0
  6
Continuous
 62
     7
370
    15
100
AcDbPolyline
 90
        3
 70
   128
 43
0.0
 10
241.2469148021
 20
252.957263504
 10
240.8045552056
 20
252.845218879
 10
240.712941004
 20
252.806666781
  0
ARC
  5
563
330
1F
100
AcDbEntity
  8
0
  6
Continuous
 62
     7
370
    15
100
AcDbCircle
 10
241.7629420143
 20
252.4256183044
 30
0.0
 40
0.6421215446839664
100
AcDbArc
 50
76.4907886225
 51
103.5092113775
  0
LINE
  5
564
330
1F
100
AcDbEntity
  8
0
  6
Continuous
 62
     7
370
    15
100
AcDbLine
 10
301.6129437219
 20
253.0499738723
 30
0.0
 11
301.1129427086
 21
252.9233298346
 31
0.0
  0
ARC
  5
565
330
1F
100
AcDbEntity
  8
0
  6
Continuous
 62
     7
370
    15
100
AcDbCircle
 10
301.7629425358
 20
252.4256441678
 30
0.0
 40
0.6420959617019793
100
AcDbArc
 50
76.4904111125
 51
103.5095888875
  0
LINE
  5
566
330
1F
100
AcDbEntity
  8
0
  6
Continuous
 62
     7
370
    15
100
AcDbLine
 10
301.9129413497
 20
252.806666781
 30
0.0
 11
301.9129413497
 21
253.0499738723
 31
0.0
  0
LINE
  5
567
330
1F
100
AcDbEntity
  8
0
  6
Continuous
 62
     7
370
    15
100
AcDbLine
 10
302.5129403304
 20
252.806666781
 30
0.0
 11
301.9129413497
 21
252.806666781
 31
0.0
  0
LINE
  5
568
330
1F
100
AcDbEntity
  8
0
  6
Continuous
 62
     7
370
    15
100
AcDbLine
 10
302.5129403304
 20
253.0499738723
 30
0.0
 11
302.5129403304
 21
252.806666781
 31
0.0
  0
ARC
  5
569
330
1F
100
AcDbEntity
  8
0
  6
Continuous
 62
     7
370
    15
100
AcDbCircle
 10
302.6629410069
 20
252.5816248129
 30
0.0
 40
0.4917835340632108
100
AcDbArc
 50
72.241016615
 51
107.758983385
  0
LINE
  5
56A
330
1F
100
AcDbEntity
  8
0
  6
Continuous
 62
     7
370
    15
100
AcDbLine
 10
303.6129403245
 20
252.8337012127
 30
0.0
 11
302.8129416834
 21
253.0499738723
 31
0.0
  0
LINE
  5
56B
330
1F
100
AcDbEntity
  8
0
  6
Continuous
 62
     7
370
    15
100
AcDbLine
 10
241.5129415076
 20
232.5500263914
 30
0.0
 11
242.2129421811
 21
232.7273278579
 31
0.0
  0
ARC
  5
56C
330
1F
100
AcDbEntity
  8
0
  6
Continuous
 62
     7
370
    15
100
AcDbCircle
 10
241.3629417624
 20
233.1743698427
 30
0.0
 40
0.6421095456706109
100
AcDbArc
 50
256.4906168604
 51
283.5093831396
  0
LINE
  5
56D
330
1F
100
AcDbEntity
  8
0
  6
Continuous
 62
     7
370
    15
100
AcDbLine
 10
241.2129420172
 20
232.7933334827
 30
0.0
 11
241.2129420172
 21
232.5500263914
 31
0.0
  0
LINE
  5
56E
330
1F
100
AcDbEntity
  8
0
  6
Continuous
 62
     7
370
    15
100
AcDbLine
 10
240.6129411738
 20
232.7933334827
 30
0.0
 11
241.2129420172
 21
232.7933334827
 31
0.0
  0
LINE
  5
56F
330
1F
100
AcDbEntity
  8
0
  6
Continuous
 62
     7
370
    15
100
AcDbLine
 10
240.6129411738
 20
232.5500263914
 30
0.0
 11
240.6129411738
 21
232.7933334827
 31
0.0
  0
ARC
  5
570
330
1F
100
AcDbEntity
  8
0
  6
Continuous
 62
     7
370
    15
100
AcDbCircle
 10
240.4629414286
 20
233.0183424234
 30
0.0
 40
0.4917517964896657
100
AcDbArc
 50
252.2399462197
 51
287.7600537803
  0
LINE
  5
571
330
1F
100
AcDbEntity
  8
0
  6
Continuous
 62
     7
370
    15
100
AcDbLine
 10
239.4129413497
 20
232.7933334827
 30
0.0
 11
240.3129416834
 21
232.5500263914
 31
0.0
  0
ARC
  5
572
330
1F
100
AcDbEntity
  8
0
  6
Continuous
 62
     7
370
    15
100
AcDbCircle
 10
241.7629420143
 20
233.0183609381
 30
0.0
 40
0.491769712947133
100
AcDbArc
 50
252.2405008781
 51
287.7594991219
  0
LINE
  5
573
330
1F
100
AcDbEntity
  8
0
  6
Continuous
 62
     7
370
    15
100
AcDbLine
 10
240.712941004
 20
232.7933334827
 30
0.0
 11
241.1957553904
 21
232.6628086239
 31
0.0
  0
LINE
  5
574
330
1F
100
AcDbEntity
  8
0
  6
Continuous
 62
     7
370
    15
100
AcDbLine
 10
224.2243330311
 20
245.050000035
 30
0.0
 11
219.2129419278
 21
245.05
 31
0.0
  0
LINE
  5
575
330
1F
100
AcDbEntity
  8
0
  6
Continuous
 62
     7
370
    15
100
AcDbLine
 10
224.3056374919
 20
247.5499999791
 30
0.0
 11
219.2129419278
 21
247.55
 31
0.0
  0
LINE
  5
576
330
1F
100
AcDbEntity
  8
0
  6
Continuous
 62
     7
370
    15
100
AcDbLine
 10
219.2129419278
 20
245.05
 30
0.0
 11
219.2129419278
 21
247.55
 31
0.0
  0
LINE
  5
577
330
1F
100
AcDbEntity
  8
0
  6
Continuous
 62
     7
370
    15
100
AcDbLine
 10
224.7996519636
 20
253.371067819
 30
0.0
 11
219.2129419278
 21
253.3710678119
 31
0.0
  0
LINE
  5
578
330
1F
100
AcDbEntity
  8
0
  6
Continuous
 62
     7
370
    15
100
AcDbLine
 10
219.2129419278
 20
247.55
 30
0.0
 11
219.2129419278
 21
253.3710678119
 31
0.0
  0
LINE
  5
579
330
1F
100
AcDbEntity
  8
0
  6
Continuous
 62
     7
370
    15
100
AcDbLine
 10
224.3379804622
 20
239.2289321952
 30
0.0
 11
219.2129419278
 21
239.2289321881
 31
0.0
  0
LINE
  5
57A
330
1F
100
AcDbEntity
  8
0
  6
Continuous
 62
     7
370
    15
100
AcDbLine
 10
219.2129419278
 20
239.2289321881
 30
0.0
 11
219.2129419278
 21
245.05
 31
0.0
  0
LINE
  5
57B
330
1F
100
AcDbEntity
  8
0
  6
Continuous
 62
     7
370
    15
100
AcDbLine
 10
224.8323264848
 20
253.6357003346
 30
0.0
 11
219.2129419278
 21
253.6357003756
 31
0.0
  0
LINE
  5
57C
330
1F
100
AcDbEntity
  8
0
  6
Continuous
 62
     7
370
    15
100
AcDbLine
 10
219.2129419278
 20
253.3710678119
 30
0.0
 11
219.2129419278
 21
253.6357003756
 31
0.0
  0
LINE
  5
57D
330
1F
100
AcDbEntity
  8
0
  6
Continuous
 62
     7
370
    15
100
AcDbLine
 10
219.2129419278
 20
253.6357003756
 30
0.0
 11
219.2129419278
 21
254.05
 31
0.0
  0
LINE
  5
57E
330
1F
100
AcDbEntity
  8
0
  6
Continuous
 62
     7
370
    15
100
AcDbLine
 10
224.3532318007
 20
238.9642996795
 30
0.0
 11
219.2129419278
 21
238.9642996244
 31
0.0
  0
LINE
  5
57F
330
1F
100
AcDbEntity
  8
0
  6
Continuous
 62
     7
370
    15
100
AcDbLine
 10
219.2129419278
 20
238.55
 30
0.0
 11
219.2129419278
 21
238.9642996244
 31
0.0
  0
LINE
  5
580
330
1F
100
AcDbEntity
  8
0
  6
Continuous
 62
     7
370
    15
100
AcDbLine
 10
219.2129419278
 20
238.9642996244
 30
0.0
 11
219.2129419278
 21
239.2289321881
 31
0.0
  0
LINE
  5
581
330
1F
100
AcDbEntity
  8
0
  6
Continuous
 62
     7
370
    15
100
AcDbLine
 10
231.7129419278
 20
255.8
 30
0.0
 11
233.1129427385
 21
255.7999999344
 31
0.0
  0
LINE
  5
582
330
1F
100
AcDbEntity
  8
0
  6
Continuous
 62
     7
370
    15
100
AcDbLine
 10
230.3129419278
 20
255.8
 30
0.0
 11
231.7129419278
 21
255.8
 31
0.0
  0
LINE
  5
583
330
1F
100
AcDbEntity
  8
0
  6
Continuous
 62
     7
370
    15
100
AcDbLine
 10
296.2629425656
 20
238.1000001997
 30
0.0
 11
296.2629425656
 21
237.1000000358
 31
0.0
  0
LINE
  5
584
330
1F
100
AcDbEntity
  8
0
  6
Continuous
 62
     7
370
    15
100
AcDbLine
 10
283.1129416209
 20
240.2999999549
 30
0.0
 11
286.1129421126
 21
240.2999999549
 31
0.0
  0
LINE
  5
585
330
1F
100
AcDbEntity
  8
0
  6
Continuous
 62
     7
370
    15
100
AcDbLine
 10
294.8129403721
 20
232.99999955
 30
0.0
 11
294.8129403721
 21
233.4999996319
 31
0.0
  0
LINE
  5
586
330
1F
100
AcDbEntity
  8
0
  6
Continuous
 62
     7
370
    15
100
AcDbLine
 10
294.1729429495
 20
232.99999955
 30
0.0
 11
294.8129403721
 21
232.99999955
 31
0.0
  0
LINE
  5
587
330
1F
100
AcDbEntity
  8
0
  6
Continuous
 62
     7
370
    15
100
AcDbLine
 10
294.1729429495
 20
232.99999955
 30
0.0
 11
294.1729429495
 21
233.4999996319
 31
0.0
  0
LINE
  5
588
330
1F
100
AcDbEntity
  8
0
  6
Continuous
 62
     7
370
    15
100
AcDbLine
 10
289.7329408061
 20
232.99999955
 30
0.0
 11
289.7329408061
 21
233.4999996319
 31
0.0
  0
LINE
  5
589
330
1F
100
AcDbEntity
  8
0
  6
Continuous
 62
     7
370
    15
100
AcDbLine
 10
289.0929433834
 20
232.99999955
 30
0.0
 11
289.7329408061
 21
232.99999955
 31
0.0
  0
LINE
  5
58A
330
1F
100
AcDbEntity
  8
0
  6
Continuous
 62
     7
370
    15
100
AcDbLine
 10
289.0929433834
 20
232.99999955
 30
0.0
 11
289.0929433834
 21
233.4999996319
 31
0.0
  0
LINE
  5
58B
330
1F
100
AcDbEntity
  8
0
  6
Continuous
 62
     7
370
    15
100
AcDbLine
 10
292.2729405891
 20
232.99999955
 30
0.0
 11
292.2729405891
 21
233.4999996319
 31
0.0
  0
LINE
  5
58C
330
1F
100
AcDbEntity
  8
0
  6
Continuous
 62
     7
370
    15
100
AcDbLine
 10
292.1129430961
 20
232.99999955
 30
0.0
 11
292.2729405891
 21
232.99999955
 31
0.0
  0
LINE
  5
58D
330
1F
100
AcDbEntity
  8
0
  6
Continuous
 62
     7
370
    15
100
AcDbLine
 10
284.65294124
 20
232.99999955
 30
0.0
 11
284.65294124
 21
233.4999996319
 31
0.0
  0
LINE
  5
58E
330
1F
100
AcDbEntity
  8
0
  6
Continuous
 62
     7
370
    15
100
AcDbLine
 10
284.65294124
 20
234.7000003874
 30
0.0
 11
284.65294124
 21
234.8000002176
 31
0.0
  0
LINE
  5
58F
330
1F
100
AcDbEntity
  8
0
  6
Continuous
 62
     7
370
    15
100
AcDbLine
 10
284.0129419546
 20
232.99999955
 30
0.0
 11
284.65294124
 21
232.99999955
 31
0.0
  0
LINE
  5
590
330
1F
100
AcDbEntity
  8
0
  6
Continuous
 62
     7
370
    15
100
AcDbLine
 10
284.0129419546
 20
232.99999955
 30
0.0
 11
284.0129419546
 21
233.4999996319
 31
0.0
  0
LINE
  5
591
330
1F
100
AcDbEntity
  8
0
  6
Continuous
 62
     7
370
    15
100
AcDbLine
 10
284.0129419546
 20
234.7000003874
 30
0.0
 11
284.0129419546
 21
234.8000002176
 31
0.0
  0
LINE
  5
592
330
1F
100
AcDbEntity
  8
0
  6
Continuous
 62
     7
370
    15
100
AcDbLine
 10
284.4653765988
 20
232.2999998078
 30
0.0
 11
284.2005065959
 21
232.2999998078
 31
0.0
  0
LINE
  5
593
330
1F
100
AcDbEntity
  8
0
  6
Continuous
 62
     7
370
    15
100
AcDbLine
 10
284.2005065959
 20
232.2999998078
 30
0.0
 11
284.0129419546
 21
232.99999955
 31
0.0
  0
LINE
  5
594
330
1F
100
AcDbEntity
  8
0
  6
Continuous
 62
     7
370
    15
100
AcDbLine
 10
284.4653765988
 20
232.2999998078
 30
0.0
 11
284.65294124
 21
232.99999955
 31
0.0
  0
LINE
  5
595
330
1F
100
AcDbEntity
  8
0
  6
Continuous
 62
     7
370
    15
100
AcDbLine
 10
294.6253757309
 20
232.2999998078
 30
0.0
 11
294.3605075907
 21
232.2999998078
 31
0.0
  0
LINE
  5
596
330
1F
100
AcDbEntity
  8
0
  6
Continuous
 62
     7
370
    15
100
AcDbLine
 10
294.3605075907
 20
232.2999998078
 30
0.0
 11
294.1729429495
 21
232.99999955
 31
0.0
  0
LINE
  5
597
330
1F
100
AcDbEntity
  8
0
  6
Continuous
 62
     7
370
    15
100
AcDbLine
 10
294.6253757309
 20
232.2999998078
 30
0.0
 11
294.8129403721
 21
232.99999955
 31
0.0
  0
LINE
  5
598
330
1F
100
AcDbEntity
  8
0
  6
Continuous
 62
     7
370
    15
100
AcDbLine
 10
292.1129430961
 20
232.4028718367
 30
0.0
 11
292.2729405891
 21
232.99999955
 31
0.0
  0
LINE
  5
599
330
1F
100
AcDbEntity
  8
0
  6
Continuous
 62
     7
370
    15
100
AcDbLine
 10
289.5453761648
 20
232.2999998078
 30
0.0
 11
289.2805080246
 21
232.2999998078
 31
0.0
  0
LINE
  5
59A
330
1F
100
AcDbEntity
  8
0
  6
Continuous
 62
     7
370
    15
100
AcDbLine
 10
289.2805080246
 20
232.2999998078
 30
0.0
 11
289.0929433834
 21
232.99999955
 31
0.0
  0
LINE
  5
59B
330
1F
100
AcDbEntity
  8
0
  6
Continuous
 62
     7
370
    15
100
AcDbLine
 10
289.5453761648
 20
232.2999998078
 30
0.0
 11
289.7329408061
 21
232.99999955
 31
0.0
  0
LINE
  5
59C
330
1F
100
AcDbEntity
  8
0
  6
Continuous
 62
     7
370
    15
100
AcDbLine
 10
314.7129419278
 20
243.3
 30
0.0
 11
315.7129419278
 21
243.3
 31
0.0
  0
LINE
  5
59D
330
1F
100
AcDbEntity
  8
0
  6
Continuous
 62
     7
370
    15
100
AcDbLine
 10
314.7129419278
 20
241.8
 30
0.0
 11
315.7129419278
 21
241.8
 31
0.0
  0
LINE
  5
59E
330
1F
100
AcDbEntity
  8
0
  6
Continuous
 62
     7
370
    15
100
AcDbLine
 10
314.7129419278
 20
238.8
 30
0.0
 11
315.7129419278
 21
238.8
 31
0.0
  0
LINE
  5
59F
330
1F
100
AcDbEntity
  8
0
  6
Continuous
 62
     7
370
    15
100
AcDbLine
 10
315.7129419278
 20
240.8
 30
0.0
 11
314.7129419278
 21
240.8
 31
0.0
  0
LINE
  5
5A0
330
1F
100
AcDbEntity
  8
0
  6
Continuous
 62
     7
370
    15
100
AcDbLine
 10
315.7129419278
 20
237.8
 30
0.0
 11
314.7129419278
 21
237.8
 31
0.0
  0
LINE
  5
5A1
330
1F
100
AcDbEntity
  8
0
  6
Continuous
 62
     7
370
    15
100
AcDbLine
 10
314.7129419278
 20
235.8
 30
0.0
 11
315.7129419278
 21
235.8
 31
0.0
  0
LINE
  5
5A2
330
1F
100
AcDbEntity
  8
0
  6
Continuous
 62
     7
370
    15
100
AcDbLine
 10
300.062943561
 20
237.1000000358
 30
0.0
 11
300.062943561
 21
238.1000001997
 31
0.0
  0
LINE
  5
5A3
330
1F
100
AcDbEntity
  8
0
  6
Continuous
 62
     7
370
    15
100
AcDbLine
 10
304.0851655733
 20
233.4999996319
 30
0.0
 11
303.81294371
 21
232.7999998897
 31
0.0
  0
LINE
  5
5A4
330
1F
100
AcDbEntity
  8
0
  6
Continuous
 62
     7
370
    15
100
AcDbLine
 10
303.81294371
 20
232.7999998897
 30
0.0
 11
303.4629415106
 21
232.7999998897
 31
0.0
  0
LINE
  5
5A5
330
1F
100
AcDbEntity
  8
0
  6
Continuous
 62
     7
370
    15
100
AcDbLine
 10
303.4629415106
 20
232.7999998897
 30
0.0
 11
303.4629415106
 21
233.4999996319
 31
0.0
  0
LINE
  5
5A6
330
1F
100
AcDbEntity
  8
0
  6
Continuous
 62
     7
370
    15
100
AcDbLine
 10
302.3629415166
 20
233.4999996319
 30
0.0
 11
302.3629415166
 21
232.7999998897
 31
0.0
  0
LINE
  5
5A7
330
1F
100
AcDbEntity
  8
0
  6
Continuous
 62
     7
370
    15
100
AcDbLine
 10
302.3629415166
 20
232.7999998897
 30
0.0
 11
302.0129430424
 21
232.7999998897
 31
0.0
  0
LINE
  5
5A8
330
1F
100
AcDbEntity
  8
0
  6
Continuous
 62
     7
370
    15
100
AcDbLine
 10
302.0129430424
 20
232.7999998897
 30
0.0
 11
301.7407211792
 21
233.4999996319
 31
0.0
  0
LINE
  5
5A9
330
1F
100
AcDbEntity
  8
0
  6
Continuous
 62
     7
370
    15
100
AcDbLine
 10
240.122942565
 20
232.7999998897
 30
0.0
 11
240.122942565
 21
233.1000003114
 31
0.0
  0
LINE
  5
5AA
330
1F
100
AcDbEntity
  8
0
  6
Continuous
 62
     7
370
    15
100
AcDbLine
 10
239.6229415517
 20
232.7999998897
 30
0.0
 11
240.122942565
 21
232.7999998897
 31
0.0
  0
LINE
  5
5AB
330
1F
100
AcDbEntity
  8
0
  6
Continuous
 62
     7
370
    15
100
AcDbLine
 10
239.6229415517
 20
233.1000003114
 30
0.0
 11
239.6229415517
 21
232.7999998897
 31
0.0
  0
LINE
  5
5AC
330
1F
100
AcDbEntity
  8
0
  6
Continuous
 62
     7
370
    15
100
AcDbLine
 10
237.582942782
 20
232.7999998897
 30
0.0
 11
237.582942782
 21
233.1000003114
 31
0.0
  0
LINE
  5
5AD
330
1F
100
AcDbEntity
  8
0
  6
Continuous
 62
     7
370
    15
100
AcDbLine
 10
237.0829417687
 20
232.7999998897
 30
0.0
 11
237.582942782
 21
232.7999998897
 31
0.0
  0
LINE
  5
5AE
330
1F
100
AcDbEntity
  8
0
  6
Continuous
 62
     7
370
    15
100
AcDbLine
 10
237.0829417687
 20
233.1000003114
 30
0.0
 11
237.0829417687
 21
232.7999998897
 31
0.0
  0
LINE
  5
5AF
330
1F
100
AcDbEntity
  8
0
  6
Continuous
 62
     7
370
    15
100
AcDbLine
 10
234.7129418831
 20
232.7999998897
 30
0.0
 11
235.0429411363
 21
232.7999998897
 31
0.0
  0
LINE
  5
5B0
330
1F
100
AcDbEntity
  8
0
  6
Continuous
 62
     7
370
    15
100
AcDbLine
 10
235.0429411363
 20
232.7999998897
 30
0.0
 11
235.0429411363
 21
233.1000003114
 31
0.0
  0
LWPOLYLINE
  5
5B1
330
1F
100
AcDbEntity
  8
0
  6
Continuous
 62
     7
370
    15
100
AcDbPolyline
 90
       10
 70
   128
 43
0.0
 10
223.4184894096
 20
239.9921254337
 10
223.4312932324
 20
240.0399176486
 10
223.4677600991
 20
240.1760188013
 10
223.5223393273
 20
240.3797085945
 10
223.5867197942
 20
240.6199772459
 10
223.6511002611
 20
240.8602456644
 10
223.7056794893
 20
241.0639354575
 10
223.742146356
 20
241.2000366103
 10
223.7549539041
 20
241.2478288252
 10
223.7549539041
 20
241.2478288252
  0
LWPOLYLINE
  5
5B2
330
1F
100
AcDbEntity
  8
0
  6
Continuous
 62
     7
370
    15
100
AcDbPolyline
 90
       10
 70
   128
 43
0.0
 10
224.1223755609
 20
241.4599610575
 10
224.1036597025
 20
241.3901104674
 10
224.0503582489
 20
241.1911934696
 10
223.970592333
 20
240.893492949
 10
223.8764989506
 20
240.5423314858
 10
223.7824055683
 20
240.1911697898
 10
223.7026359271
 20
239.8934692692
 10
223.6493344735
 20
239.6945520386
 10
223.6306186151
 20
239.6247019142
 10
223.6306186151
 20
239.6247019142
  0
LINE
  5
5B3
330
1F
100
AcDbEntity
  8
0
  6
Continuous
 62
     7
370
    15
100
AcDbLine
 10
267.7129419278
 20
234.8
 30
0.0
 11
268.1129419278
 21
234.8
 31
0.0
  0
LINE
  5
5B4
330
1F
100
AcDbEntity
  8
0
  6
Continuous
 62
     7
370
    15
100
AcDbLine
 10
268.1129419278
 20
235.8
 30
0.0
 11
267.7129419278
 21
235.8
 31
0.0
  0
LINE
  5
5B5
330
1F
100
AcDbEntity
  8
0
  6
Continuous
 62
     7
370
    15
100
AcDbLine
 10
269.612942202
 20
234.8000002176
 30
0.0
 11
272.6129417624
 21
234.8000002176
 31
0.0
  0
LINE
  5
5B6
330
1F
100
AcDbEntity
  8
0
  6
Continuous
 62
     7
370
    15
100
AcDbLine
 10
274.1129420083
 20
234.8000002176
 30
0.0
 11
277.1129425
 21
234.8000002176
 31
0.0
  0
LINE
  5
5B7
330
1F
100
AcDbEntity
  8
0
  6
Continuous
 62
     7
370
    15
100
AcDbLine
 10
278.6129418146
 20
234.8000002176
 30
0.0
 11
281.6129423063
 21
234.8000002176
 31
0.0
  0
LINE
  5
5B8
330
1F
100
AcDbEntity
  8
0
  6
Continuous
 62
     7
370
    15
100
AcDbLine
 10
283.1129416209
 20
234.8000002176
 30
0.0
 11
286.1129421126
 21
234.8000002176
 31
0.0
  0
LINE
  5
5B9
330
1F
100
AcDbEntity
  8
0
  6
Continuous
 62
     7
370
    15
100
AcDbLine
 10
269.612942202
 20
235.8000003815
 30
0.0
 11
272.6129417624
 21
235.8000003815
 31
0.0
  0
LINE
  5
5BA
330
1F
100
AcDbEntity
  8
0
  6
Continuous
 62
     7
370
    15
100
AcDbLine
 10
274.1129420083
 20
235.8000003815
 30
0.0
 11
277.1129425
 21
235.8000003815
 31
0.0
  0
LINE
  5
5BB
330
1F
100
AcDbEntity
  8
0
  6
Continuous
 62
     7
370
    15
100
AcDbLine
 10
278.6129418146
 20
235.8000003815
 30
0.0
 11
281.6129423063
 21
235.8000003815
 31
0.0
  0
LINE
  5
5BC
330
1F
100
AcDbEntity
  8
0
  6
Continuous
 62
     7
370
    15
100
AcDbLine
 10
283.1129416209
 20
235.8000003815
 30
0.0
 11
286.1129421126
 21
235.8000003815
 31
0.0
  0
LINE
  5
5BD
330
1F
100
AcDbEntity
  8
0
  6
Continuous
 62
     7
370
    15
100
AcDbLine
 10
267.7129419278
 20
234.8
 30
0.0
 11
265.1129419301
 21
234.8000002176
 31
0.0
  0
LINE
  5
5BE
330
1F
100
AcDbEntity
  8
0
  6
Continuous
 62
     7
370
    15
100
AcDbLine
 10
263.6129421499
 20
234.8000002176
 30
0.0
 11
260.6129418909
 21
234.8000002176
 31
0.0
  0
LINE
  5
5BF
330
1F
100
AcDbEntity
  8
0
  6
Continuous
 62
     7
370
    15
100
AcDbLine
 10
255.7129418328
 20
234.8000002176
 30
0.0
 11
252.7129420396
 21
234.8000002176
 31
0.0
  0
LINE
  5
5C0
330
1F
100
AcDbEntity
  8
0
  6
Continuous
 62
     7
370
    15
100
AcDbLine
 10
267.7129419278
 20
235.8
 30
0.0
 11
265.1129419301
 21
235.8000003815
 31
0.0
  0
LINE
  5
5C1
330
1F
100
AcDbEntity
  8
0
  6
Continuous
 62
     7
370
    15
100
AcDbLine
 10
263.6129421499
 20
235.8000003815
 30
0.0
 11
260.6129418909
 21
235.8000003815
 31
0.0
  0
LINE
  5
5C2
330
1F
100
AcDbEntity
  8
0
  6
Continuous
 62
     7
370
    15
100
AcDbLine
 10
255.7129418328
 20
235.8000003815
 30
0.0
 11
252.7129420396
 21
235.8000003815
 31
0.0
  0
LINE
  5
5C3
330
1F
100
AcDbEntity
  8
0
  6
Continuous
 62
     7
370
    15
100
AcDbLine
 10
302.7129419278
 20
248.1
 30
0.0
 11
302.2129419278
 21
248.1
 31
0.0
  0
LINE
  5
5C4
330
1F
100
AcDbEntity
  8
0
  6
Continuous
 62
     7
370
    15
100
AcDbLine
 10
302.7129419278
 20
238.1
 30
0.0
 11
302.2129419278
 21
238.1
 31
0.0
  0
LINE
  5
5C5
330
1F
100
AcDbEntity
  8
0
  6
Continuous
 62
     7
370
    15
100
AcDbLine
 10
300.2129419278
 20
248.1
 30
0.0
 11
300.7129419278
 21
248.1
 31
0.0
  0
LINE
  5
5C6
330
1F
100
AcDbEntity
  8
0
  6
Continuous
 62
     7
370
    15
100
AcDbLine
 10
300.7129419278
 20
248.1
 30
0.0
 11
300.7129419278
 21
238.1
 31
0.0
  0
LINE
  5
5C7
330
1F
100
AcDbEntity
  8
0
  6
Continuous
 62
     7
370
    15
100
AcDbLine
 10
300.7129419278
 20
238.1
 30
0.0
 11
300.2129419278
 21
238.1
 31
0.0
  0
LINE
  5
5C8
330
1F
100
AcDbEntity
  8
0
  6
Continuous
 62
     7
370
    15
100
AcDbLine
 10
302.7129419278
 20
248.1
 30
0.0
 11
303.2129419278
 21
248.1
 31
0.0
  0
LINE
  5
5C9
330
1F
100
AcDbEntity
  8
0
  6
Continuous
 62
     7
370
    15
100
AcDbLine
 10
303.2129419278
 20
248.1
 30
0.0
 11
303.2129419278
 21
238.1
 31
0.0
  0
LINE
  5
5CA
330
1F
100
AcDbEntity
  8
0
  6
Continuous
 62
     7
370
    15
100
AcDbLine
 10
303.2129419278
 20
238.1
 30
0.0
 11
302.7129419278
 21
238.1
 31
0.0
  0
LINE
  5
5CB
330
1F
100
AcDbEntity
  8
0
  6
Continuous
 62
     7
370
    15
100
AcDbLine
 10
300.2129419278
 20
238.1
 30
0.0
 11
299.7129419278
 21
238.1
 31
0.0
  0
LINE
  5
5CC
330
1F
100
AcDbEntity
  8
0
  6
Continuous
 62
     7
370
    15
100
AcDbLine
 10
300.2129419278
 20
248.1
 30
0.0
 11
299.7129419278
 21
248.1
 31
0.0
  0
LINE
  5
5CD
330
1F
100
AcDbEntity
  8
0
  6
Continuous
 62
     7
370
    15
100
AcDbLine
 10
299.2129419278
 20
238.1
 30
0.0
 11
299.2129419278
 21
248.1
 31
0.0
  0
LINE
  5
5CE
330
1F
100
AcDbEntity
  8
0
  6
Continuous
 62
     7
370
    15
100
AcDbLine
 10
299.2129419278
 20
248.1
 30
0.0
 11
299.7129419278
 21
248.1
 31
0.0
  0
LINE
  5
5CF
330
1F
100
AcDbEntity
  8
0
  6
Continuous
 62
     7
370
    15
100
AcDbLine
 10
299.7129419278
 20
238.1
 30
0.0
 11
299.2129419278
 21
238.1
 31
0.0
  0
LINE
  5
5D0
330
1F
100
AcDbEntity
  8
0
  6
Continuous
 62
     7
370
    15
100
AcDbLine
 10
301.7129419278
 20
238.1
 30
0.0
 11
301.7129419278
 21
248.1
 31
0.0
  0
LINE
  5
5D1
330
1F
100
AcDbEntity
  8
0
  6
Continuous
 62
     7
370
    15
100
AcDbLine
 10
302.2129419278
 20
238.1
 30
0.0
 11
301.7129419278
 21
238.1
 31
0.0
  0
LINE
  5
5D2
330
1F
100
AcDbEntity
  8
0
  6
Continuous
 62
     7
370
    15
100
AcDbLine
 10
301.7129419278
 20
248.1
 30
0.0
 11
302.2129419278
 21
248.1
 31
0.0
  0
LINE
  5
5D3
330
1F
100
AcDbEntity
  8
0
  6
Continuous
 62
     7
370
    15
100
AcDbLine
 10
304.312940998
 20
257.4000000104
 30
0.0
 11
309.4129419278
 21
257.4
 31
0.0
  0
ARC
  5
5D4
330
1F
100
AcDbEntity
  8
0
  6
Continuous
 62
     7
370
    15
100
AcDbCircle
 10
304.3129419278
 20
256.7
 30
0.0
 40
0.7000000000000455
100
AcDbArc
 50
90.0
 51
180.0
  0
ARC
  5
5D5
330
1F
100
AcDbEntity
  8
0
  6
Continuous
 62
     7
370
    15
100
AcDbCircle
 10
309.4129419278
 20
256.7
 30
0.0
 40
0.7000000000000455
100
AcDbArc
 50
0.0
 51
90.0
  0
LINE
  5
5D6
330
1F
100
AcDbEntity
  8
0
  6
Continuous
 62
     7
370
    15
100
AcDbLine
 10
309.6129419278
 20
249.1
 30
0.0
 11
309.4129419278
 21
249.1
 31
0.0
  0
LINE
  5
5D7
330
1F
100
AcDbEntity
  8
0
  6
Continuous
 62
     7
370
    15
100
AcDbLine
 10
310.1129419278
 20
256.7
 30
0.0
 11
310.1129423212
 21
249.600000222
 31
0.0
  0
LWPOLYLINE
  5
5D8
330
1F
100
AcDbEntity
  8
0
  6
Continuous
 62
     7
370
    15
100
AcDbPolyline
 90
        8
 70
   128
 43
0.0
 10
310.1129423212
 20
249.600000222
 10
310.1012523603
 20
249.5883107267
 10
310.0665736329
 20
249.5536333963
 10
310.0100684296
 20
249.4971258648
 10
309.9336180221
 20
249.4206754573
 10
309.8397779595
 20
249.3268358603
 10
309.7316812109
 20
249.2187405087
 10
309.6129413079
 20
249.1000001401
  0
ARC
  5
5D9
330
1F
100
AcDbEntity
  8
0
  6
Continuous
 62
     7
370
    15
100
AcDbCircle
 10
291.9129419278
 20
248.6
 30
0.0
 40
0.5000000000000284
100
AcDbArc
 50
90.0
 51
180.0
  0
ARC
  5
5DA
330
1F
100
AcDbEntity
  8
0
  6
Continuous
 62
     7
370
    15
100
AcDbCircle
 10
291.9129419278
 20
248.6
 30
0.0
 40
0.5
100
AcDbArc
 50
180.0
 51
270.0
  0
ARC
  5
5DB
330
1F
100
AcDbEntity
  8
0
  6
Continuous
 62
     7
370
    15
100
AcDbCircle
 10
291.9129419278
 20
237.6
 30
0.0
 40
0.5
100
AcDbArc
 50
90.0
 51
180.0
  0
ARC
  5
5DC
330
1F
100
AcDbEntity
  8
0
  6
Continuous
 62
     7
370
    15
100
AcDbCircle
 10
291.9129419278
 20
237.6
 30
0.0
 40
0.5
100
AcDbArc
 50
180.0
 51
270.0
  0
LINE
  5
5DD
330
1F
100
AcDbEntity
  8
0
  6
Continuous
 62
     7
370
    15
100
AcDbLine
 10
291.9129419278
 20
237.1
 30
0.0
 11
309.4129419278
 21
237.1
 31
0.0
  0
LINE
  5
5DE
330
1F
100
AcDbEntity
  8
0
  6
Continuous
 62
     7
370
    15
100
AcDbLine
 10
257.7129419278
 20
250.5000000902
 30
0.0
 11
303.6129403245
 21
250.5000000902
 31
0.0
  0
LINE
  5
5DF
330
1F
100
AcDbEntity
  8
0
  6
Continuous
 62
     7
370
    15
100
AcDbLine
 10
309.4129419278
 20
249.1
 30
0.0
 11
291.9129419278
 21
249.1
 31
0.0
  0
LINE
  5
5E0
330
1F
100
AcDbEntity
  8
0
  6
Continuous
 62
     7
370
    15
100
AcDbLine
 10
260.6129418909
 20
249.1000001401
 30
0.0
 11
260.6129419278
 21
231.9
 31
0.0
  0
ARC
  5
5E1
330
1F
100
AcDbEntity
  8
0
  6
Continuous
 62
     7
370
    15
100
AcDbCircle
 10
261.1129419278
 20
231.9
 30
0.0
 40
0.5
100
AcDbArc
 50
180.0
 51
270.0
  0
LINE
  5
5E2
330
1F
100
AcDbEntity
  8
0
  6
Continuous
 62
     7
370
    15
100
AcDbLine
 10
261.1129419278
 20
231.4
 30
0.0
 11
263.1129419278
 21
231.4
 31
0.0
  0
ARC
  5
5E3
330
1F
100
AcDbEntity
  8
0
  6
Continuous
 62
     7
370
    15
100
AcDbCircle
 10
263.1129419278
 20
231.9
 30
0.0
 40
0.5
100
AcDbArc
 50
270.0
 51
0.0
  0
LINE
  5
5E4
330
1F
100
AcDbEntity
  8
0
  6
Continuous
 62
     7
370
    15
100
AcDbLine
 10
263.6129419278
 20
231.9
 30
0.0
 11
263.6129421499
 21
249.1000001401
 31
0.0
  0
LINE
  5
5E5
330
1F
100
AcDbEntity
  8
0
  6
Continuous
 62
     7
370
    15
100
AcDbLine
 10
263.6129421499
 20
249.1000001401
 30
0.0
 11
260.6129418909
 21
249.1000001401
 31
0.0
  0
LINE
  5
5E6
330
1F
100
AcDbEntity
  8
0
  6
Continuous
 62
     7
370
    15
100
AcDbLine
 10
265.1129419301
 20
249.1000001401
 30
0.0
 11
265.1129419278
 21
231.9
 31
0.0
  0
ARC
  5
5E7
330
1F
100
AcDbEntity
  8
0
  6
Continuous
 62
     7
370
    15
100
AcDbCircle
 10
265.6129419278
 20
231.9
 30
0.0
 40
0.5
100
AcDbArc
 50
180.0
 51
270.0
  0
LINE
  5
5E8
330
1F
100
AcDbEntity
  8
0
  6
Continuous
 62
     7
370
    15
100
AcDbLine
 10
265.6129419278
 20
231.4
 30
0.0
 11
267.6129419278
 21
231.4
 31
0.0
  0
ARC
  5
5E9
330
1F
100
AcDbEntity
  8
0
  6
Continuous
 62
     7
370
    15
100
AcDbCircle
 10
267.6129419278
 20
231.9
 30
0.0
 40
0.5
100
AcDbArc
 50
270.0
 51
0.0
  0
LINE
  5
5EA
330
1F
100
AcDbEntity
  8
0
  6
Continuous
 62
     7
370
    15
100
AcDbLine
 10
268.1129419278
 20
231.9
 30
0.0
 11
268.1129419561
 21
249.1000001401
 31
0.0
  0
LINE
  5
5EB
330
1F
100
AcDbEntity
  8
0
  6
Continuous
 62
     7
370
    15
100
AcDbLine
 10
268.1129419561
 20
249.1000001401
 30
0.0
 11
265.1129419301
 21
249.1000001401
 31
0.0
  0
LINE
  5
5EC
330
1F
100
AcDbEntity
  8
0
  6
Continuous
 62
     7
370
    15
100
AcDbLine
 10
269.612942202
 20
249.1000001401
 30
0.0
 11
269.6129419278
 21
231.9
 31
0.0
  0
ARC
  5
5ED
330
1F
100
AcDbEntity
  8
0
  6
Continuous
 62
     7
370
    15
100
AcDbCircle
 10
270.1129419278
 20
231.9
 30
0.0
 40
0.5
100
AcDbArc
 50
180.0
 51
270.0
  0
LINE
  5
5EE
330
1F
100
AcDbEntity
  8
0
  6
Continuous
 62
     7
370
    15
100
AcDbLine
 10
270.1129419278
 20
231.4
 30
0.0
 11
272.1129419278
 21
231.4
 31
0.0
  0
ARC
  5
5EF
330
1F
100
AcDbEntity
  8
0
  6
Continuous
 62
     7
370
    15
100
AcDbCircle
 10
272.1129419278
 20
231.9
 30
0.0
 40
0.5
100
AcDbArc
 50
270.0
 51
0.0
  0
LINE
  5
5F0
330
1F
100
AcDbEntity
  8
0
  6
Continuous
 62
     7
370
    15
100
AcDbLine
 10
272.6129419278
 20
231.9
 30
0.0
 11
272.6129417624
 21
249.1000001401
 31
0.0
  0
LINE
  5
5F1
330
1F
100
AcDbEntity
  8
0
  6
Continuous
 62
     7
370
    15
100
AcDbLine
 10
272.6129417624
 20
249.1000001401
 30
0.0
 11
269.612942202
 21
249.1000001401
 31
0.0
  0
LINE
  5
5F2
330
1F
100
AcDbEntity
  8
0
  6
Continuous
 62
     7
370
    15
100
AcDbLine
 10
274.1129420083
 20
249.1000001401
 30
0.0
 11
274.1129419278
 21
231.9
 31
0.0
  0
ARC
  5
5F3
330
1F
100
AcDbEntity
  8
0
  6
Continuous
 62
     7
370
    15
100
AcDbCircle
 10
274.6129419278
 20
231.9
 30
0.0
 40
0.5
100
AcDbArc
 50
180.0
 51
270.0
  0
LINE
  5
5F4
330
1F
100
AcDbEntity
  8
0
  6
Continuous
 62
     7
370
    15
100
AcDbLine
 10
274.6129419278
 20
231.4
 30
0.0
 11
276.6129419278
 21
231.4
 31
0.0
  0
ARC
  5
5F5
330
1F
100
AcDbEntity
  8
0
  6
Continuous
 62
     7
370
    15
100
AcDbCircle
 10
276.6129419278
 20
231.9
 30
0.0
 40
0.5
100
AcDbArc
 50
270.0
 51
0.0
  0
LINE
  5
5F6
330
1F
100
AcDbEntity
  8
0
  6
Continuous
 62
     7
370
    15
100
AcDbLine
 10
277.1129419278
 20
231.9
 30
0.0
 11
277.1129425
 21
249.1000001401
 31
0.0
  0
LINE
  5
5F7
330
1F
100
AcDbEntity
  8
0
  6
Continuous
 62
     7
370
    15
100
AcDbLine
 10
277.1129425
 20
249.1000001401
 30
0.0
 11
274.1129420083
 21
249.1000001401
 31
0.0
  0
LINE
  5
5F8
330
1F
100
AcDbEntity
  8
0
  6
Continuous
 62
     7
370
    15
100
AcDbLine
 10
278.6129418146
 20
249.1000001401
 30
0.0
 11
278.6129419278
 21
231.9
 31
0.0
  0
ARC
  5
5F9
330
1F
100
AcDbEntity
  8
0
  6
Continuous
 62
     7
370
    15
100
AcDbCircle
 10
279.1129419278
 20
231.9
 30
0.0
 40
0.5
100
AcDbArc
 50
180.0
 51
270.0
  0
LINE
  5
5FA
330
1F
100
AcDbEntity
  8
0
  6
Continuous
 62
     7
370
    15
100
AcDbLine
 10
279.1129419278
 20
231.4
 30
0.0
 11
281.1129419278
 21
231.4
 31
0.0
  0
ARC
  5
5FB
330
1F
100
AcDbEntity
  8
0
  6
Continuous
 62
     7
370
    15
100
AcDbCircle
 10
281.1129419278
 20
231.9
 30
0.0
 40
0.5
100
AcDbArc
 50
270.0
 51
0.0
  0
LINE
  5
5FC
330
1F
100
AcDbEntity
  8
0
  6
Continuous
 62
     7
370
    15
100
AcDbLine
 10
281.6129419278
 20
231.9
 30
0.0
 11
281.6129423063
 21
249.1000001401
 31
0.0
  0
LINE
  5
5FD
330
1F
100
AcDbEntity
  8
0
  6
Continuous
 62
     7
370
    15
100
AcDbLine
 10
281.6129423063
 20
249.1000001401
 30
0.0
 11
278.6129418146
 21
249.1000001401
 31
0.0
  0
LINE
  5
5FE
330
1F
100
AcDbEntity
  8
0
  6
Continuous
 62
     7
370
    15
100
AcDbLine
 10
283.1129416209
 20
249.1000001401
 30
0.0
 11
283.1129419278
 21
231.9
 31
0.0
  0
ARC
  5
5FF
330
1F
100
AcDbEntity
  8
0
  6
Continuous
 62
     7
370
    15
100
AcDbCircle
 10
283.6129419278
 20
231.9
 30
0.0
 40
0.5
100
AcDbArc
 50
180.0
 51
270.0
  0
LINE
  5
600
330
1F
100
AcDbEntity
  8
0
  6
Continuous
 62
     7
370
    15
100
AcDbLine
 10
283.6129419278
 20
231.4
 30
0.0
 11
285.6129419278
 21
231.4
 31
0.0
  0
ARC
  5
601
330
1F
100
AcDbEntity
  8
0
  6
Continuous
 62
     7
370
    15
100
AcDbCircle
 10
285.6129419278
 20
231.9
 30
0.0
 40
0.5
100
AcDbArc
 50
270.0
 51
0.0
  0
LINE
  5
602
330
1F
100
AcDbEntity
  8
0
  6
Continuous
 62
     7
370
    15
100
AcDbLine
 10
286.1129419278
 20
231.9
 30
0.0
 11
286.1129421126
 21
249.1000001401
 31
0.0
  0
LINE
  5
603
330
1F
100
AcDbEntity
  8
0
  6
Continuous
 62
     7
370
    15
100
AcDbLine
 10
286.1129421126
 20
249.1000001401
 30
0.0
 11
283.1129416209
 21
249.1000001401
 31
0.0
  0
LINE
  5
604
330
1F
100
AcDbEntity
  8
0
  6
Continuous
 62
     7
370
    15
100
AcDbLine
 10
287.6129414271
 20
233.4999996319
 30
0.0
 11
287.6129419278
 21
231.9
 31
0.0
  0
ARC
  5
605
330
1F
100
AcDbEntity
  8
0
  6
Continuous
 62
     7
370
    15
100
AcDbCircle
 10
288.1129419278
 20
231.9
 30
0.0
 40
0.5
100
AcDbArc
 50
180.0
 51
270.0
  0
LINE
  5
606
330
1F
100
AcDbEntity
  8
0
  6
Continuous
 62
     7
370
    15
100
AcDbLine
 10
288.1129419278
 20
231.4
 30
0.0
 11
290.1129419278
 21
231.4
 31
0.0
  0
ARC
  5
607
330
1F
100
AcDbEntity
  8
0
  6
Continuous
 62
     7
370
    15
100
AcDbCircle
 10
290.1129419278
 20
231.9
 30
0.0
 40
0.5
100
AcDbArc
 50
270.0
 51
360.0
  0
LINE
  5
608
330
1F
100
AcDbEntity
  8
0
  6
Continuous
 62
     7
370
    15
100
AcDbLine
 10
290.6129419278
 20
231.9
 30
0.0
 11
290.6129437815
 21
233.4999996319
 31
0.0
  0
LINE
  5
609
330
1F
100
AcDbEntity
  8
0
  6
Continuous
 62
     7
370
    15
100
AcDbLine
 10
290.6129437815
 20
233.4999996319
 30
0.0
 11
287.6129414271
 21
233.4999996319
 31
0.0
  0
LINE
  5
60A
330
1F
100
AcDbEntity
  8
0
  6
Continuous
 62
     7
370
    15
100
AcDbLine
 10
292.1129430961
 20
233.4999996319
 30
0.0
 11
292.1129419278
 21
231.9
 31
0.0
  0
ARC
  5
60B
330
1F
100
AcDbEntity
  8
0
  6
Continuous
 62
     7
370
    15
100
AcDbCircle
 10
292.6129419278
 20
231.9
 30
0.0
 40
0.5
100
AcDbArc
 50
180.0
 51
270.0
  0
LINE
  5
60C
330
1F
100
AcDbEntity
  8
0
  6
Continuous
 62
     7
370
    15
100
AcDbLine
 10
292.6129419278
 20
231.4
 30
0.0
 11
294.6129419278
 21
231.4
 31
0.0
  0
ARC
  5
60D
330
1F
100
AcDbEntity
  8
0
  6
Continuous
 62
     7
370
    15
100
AcDbCircle
 10
294.6129419278
 20
231.9
 30
0.0
 40
0.5
100
AcDbArc
 50
270.0
 51
0.0
  0
LINE
  5
60E
330
1F
100
AcDbEntity
  8
0
  6
Continuous
 62
     7
370
    15
100
AcDbLine
 10
295.1129419278
 20
231.9
 30
0.0
 11
295.1129417252
 21
233.4999996319
 31
0.0
  0
LINE
  5
60F
330
1F
100
AcDbEntity
  8
0
  6
Continuous
 62
     7
370
    15
100
AcDbLine
 10
295.1129417252
 20
233.4999996319
 30
0.0
 11
292.1129430961
 21
233.4999996319
 31
0.0
  0
LINE
  5
610
330
1F
100
AcDbEntity
  8
0
  6
Continuous
 62
     7
370
    15
100
AcDbLine
 10
296.6129410397
 20
233.4999996319
 30
0.0
 11
296.6129419278
 21
231.9
 31
0.0
  0
ARC
  5
611
330
1F
100
AcDbEntity
  8
0
  6
Continuous
 62
     7
370
    15
100
AcDbCircle
 10
297.1129419278
 20
231.9
 30
0.0
 40
0.5
100
AcDbArc
 50
180.0
 51
270.0
  0
LINE
  5
612
330
1F
100
AcDbEntity
  8
0
  6
Continuous
 62
     7
370
    15
100
AcDbLine
 10
297.1129419278
 20
231.4
 30
0.0
 11
299.1129419278
 21
231.4
 31
0.0
  0
ARC
  5
613
330
1F
100
AcDbEntity
  8
0
  6
Continuous
 62
     7
370
    15
100
AcDbCircle
 10
299.1129419278
 20
231.9
 30
0.0
 40
0.5
100
AcDbArc
 50
270.0
 51
0.0
  0
LINE
  5
614
330
1F
100
AcDbEntity
  8
0
  6
Continuous
 62
     7
370
    15
100
AcDbLine
 10
299.6129419278
 20
231.9
 30
0.0
 11
299.6129433941
 21
233.4999996319
 31
0.0
  0
LINE
  5
615
330
1F
100
AcDbEntity
  8
0
  6
Continuous
 62
     7
370
    15
100
AcDbLine
 10
299.6129433941
 20
233.4999996319
 30
0.0
 11
296.6129410397
 21
233.4999996319
 31
0.0
  0
LINE
  5
616
330
1F
100
AcDbEntity
  8
0
  6
Continuous
 62
     7
370
    15
100
AcDbLine
 10
301.1129427086
 20
233.4999996319
 30
0.0
 11
301.1129419278
 21
231.9
 31
0.0
  0
ARC
  5
617
330
1F
100
AcDbEntity
  8
0
  6
Continuous
 62
     7
370
    15
100
AcDbCircle
 10
301.6129419278
 20
231.9
 30
0.0
 40
0.5
100
AcDbArc
 50
180.0
 51
270.0
  0
LINE
  5
618
330
1F
100
AcDbEntity
  8
0
  6
Continuous
 62
     7
370
    15
100
AcDbLine
 10
301.6129419278
 20
231.4
 30
0.0
 11
303.6129419278
 21
231.4
 31
0.0
  0
ARC
  5
619
330
1F
100
AcDbEntity
  8
0
  6
Continuous
 62
     7
370
    15
100
AcDbCircle
 10
303.6129419278
 20
231.9
 30
0.0
 40
0.5000000000000568
100
AcDbArc
 50
270.0
 51
0.0
  0
LINE
  5
61A
330
1F
100
AcDbEntity
  8
0
  6
Continuous
 62
     7
370
    15
100
AcDbLine
 10
304.1129419278
 20
231.9
 30
0.0
 11
304.1129413377
 21
233.4999996319
 31
0.0
  0
LINE
  5
61B
330
1F
100
AcDbEntity
  8
0
  6
Continuous
 62
     7
370
    15
100
AcDbLine
 10
304.1129413377
 20
233.4999996319
 30
0.0
 11
301.1129427086
 21
233.4999996319
 31
0.0
  0
LINE
  5
61C
330
1F
100
AcDbEntity
  8
0
  6
Continuous
 62
     7
370
    15
100
AcDbLine
 10
305.6129406523
 20
233.4999996319
 30
0.0
 11
305.6129419278
 21
231.9
 31
0.0
  0
ARC
  5
61D
330
1F
100
AcDbEntity
  8
0
  6
Continuous
 62
     7
370
    15
100
AcDbCircle
 10
306.1129419278
 20
231.9
 30
0.0
 40
0.5
100
AcDbArc
 50
180.0
 51
270.0
  0
LINE
  5
61E
330
1F
100
AcDbEntity
  8
0
  6
Continuous
 62
     7
370
    15
100
AcDbLine
 10
306.1129419278
 20
231.4
 30
0.0
 11
308.1129419278
 21
231.4
 31
0.0
  0
ARC
  5
61F
330
1F
100
AcDbEntity
  8
0
  6
Continuous
 62
     7
370
    15
100
AcDbCircle
 10
308.1129419278
 20
231.9
 30
0.0
 40
0.5
100
AcDbArc
 50
270.0
 51
0.0
  0
LINE
  5
620
330
1F
100
AcDbEntity
  8
0
  6
Continuous
 62
     7
370
    15
100
AcDbLine
 10
308.6129419278
 20
231.9
 30
0.0
 11
308.6129430067
 21
233.4999996319
 31
0.0
  0
LINE
  5
621
330
1F
100
AcDbEntity
  8
0
  6
Continuous
 62
     7
370
    15
100
AcDbLine
 10
308.6129430067
 20
233.4999996319
 30
0.0
 11
305.6129406523
 21
233.4999996319
 31
0.0
  0
LINE
  5
622
330
1F
100
AcDbEntity
  8
0
  6
Continuous
 62
     7
370
    15
100
AcDbLine
 10
303.6129403245
 20
250.5000000902
 30
0.0
 11
303.6129403245
 21
256.7000002682
 31
0.0
  0
LINE
  5
623
330
1F
100
AcDbEntity
  8
0
  6
Continuous
 62
     7
370
    15
100
AcDbLine
 10
257.7129419278
 20
230.7
 30
0.0
 11
257.7129419278
 21
250.5000000902
 31
0.0
  0
LINE
  5
624
330
1F
100
AcDbEntity
  8
0
  6
Continuous
 62
     7
370
    15
100
AcDbLine
 10
299.2129419278
 20
238.1
 30
0.0
 11
291.9129419278
 21
238.1
 31
0.0
  0
LINE
  5
625
330
1F
100
AcDbEntity
  8
0
  6
Continuous
 62
     7
370
    15
100
AcDbLine
 10
299.2129419278
 20
248.1
 30
0.0
 11
291.9129419278
 21
248.1
 31
0.0
  0
LINE
  5
626
330
1F
100
AcDbEntity
  8
0
  6
Continuous
 62
     7
370
    15
100
AcDbLine
 10
301.7129419278
 20
238.1
 30
0.0
 11
300.7129419278
 21
238.1
 31
0.0
  0
LINE
  5
627
330
1F
100
AcDbEntity
  8
0
  6
Continuous
 62
     7
370
    15
100
AcDbLine
 10
301.7129419278
 20
248.1
 30
0.0
 11
300.7129419278
 21
248.1
 31
0.0
  0
LWPOLYLINE
  5
628
330
1F
100
AcDbEntity
  8
0
  6
Continuous
 62
     7
370
    15
100
AcDbPolyline
 90
        8
 70
   128
 43
0.0
 10
309.6129413079
 20
237.1000000358
 10
309.7316812109
 20
236.9812596671
 10
309.8397779595
 20
236.8731643155
 10
309.9336180221
 20
236.7793247186
 10
310.0100684296
 20
236.7028743111
 10
310.0665736329
 20
236.6463667795
 10
310.1012523603
 20
236.6116894491
 10
310.1129423212
 20
236.5999999538
  0
LINE
  5
629
330
1F
100
AcDbEntity
  8
0
  6
Continuous
 62
     7
370
    15
100
AcDbLine
 10
310.1129423212
 20
236.5999999538
 30
0.0
 11
310.1129419278
 21
230.7
 31
0.0
  0
LINE
  5
62A
330
1F
100
AcDbEntity
  8
0
  6
Continuous
 62
     7
370
    15
100
AcDbLine
 10
309.4129419278
 20
237.1
 30
0.0
 11
309.6129419278
 21
237.1
 31
0.0
  0
LINE
  5
62B
330
1F
100
AcDbEntity
  8
0
  6
Continuous
 62
     7
370
    15
100
AcDbLine
 10
309.4129419278
 20
230.0
 30
0.0
 11
257.7129419278
 21
230.0
 31
0.0
  0
LINE
  5
62C
330
1F
100
AcDbEntity
  8
0
  6
Continuous
 62
     7
370
    15
100
AcDbLine
 10
257.7129419278
 20
230.0
 30
0.0
 11
257.7129419278
 21
230.7
 31
0.0
  0
ARC
  5
62D
330
1F
100
AcDbEntity
  8
0
  6
Continuous
 62
     7
370
    15
100
AcDbCircle
 10
309.4129419278
 20
230.7
 30
0.0
 40
0.6999999999999886
100
AcDbArc
 50
270.0
 51
0.0
  0
LINE
  5
62E
330
1F
100
AcDbEntity
  8
0
  6
Continuous
 62
     7
370
    15
100
AcDbLine
 10
286.1129421126
 20
234.7000003874
 30
0.0
 11
283.1129416209
 21
234.7000003874
 31
0.0
  0
LINE
  5
62F
330
1F
100
AcDbEntity
  8
0
  6
Continuous
 62
     7
370
    15
100
AcDbLine
 10
286.1129421126
 20
233.4999996319
 30
0.0
 11
283.1129416209
 21
233.4999996319
 31
0.0
  0
LINE
  5
630
330
1F
100
AcDbEntity
  8
0
  6
Continuous
 62
     7
370
    15
100
AcDbLine
 10
268.1129419561
 20
234.7000003874
 30
0.0
 11
265.1129419301
 21
234.7000003874
 31
0.0
  0
LINE
  5
631
330
1F
100
AcDbEntity
  8
0
  6
Continuous
 62
     7
370
    15
100
AcDbLine
 10
268.1129419561
 20
233.4999996319
 30
0.0
 11
265.1129419301
 21
233.4999996319
 31
0.0
  0
LINE
  5
632
330
1F
100
AcDbEntity
  8
0
  6
Continuous
 62
     7
370
    15
100
AcDbLine
 10
277.1129425
 20
235.9000002116
 30
0.0
 11
274.1129420083
 21
235.9000002116
 31
0.0
  0
LINE
  5
633
330
1F
100
AcDbEntity
  8
0
  6
Continuous
 62
     7
370
    15
100
AcDbLine
 10
277.1129425
 20
237.1000000358
 30
0.0
 11
274.1129420083
 21
237.1000000358
 31
0.0
  0
LINE
  5
634
330
1F
100
AcDbEntity
  8
0
  6
Continuous
 62
     7
370
    15
100
AcDbLine
 10
286.1129421126
 20
235.9000002116
 30
0.0
 11
283.1129416209
 21
235.9000002116
 31
0.0
  0
LINE
  5
635
330
1F
100
AcDbEntity
  8
0
  6
Continuous
 62
     7
370
    15
100
AcDbLine
 10
286.1129421126
 20
237.1000000358
 30
0.0
 11
283.1129416209
 21
237.1000000358
 31
0.0
  0
LINE
  5
636
330
1F
100
AcDbEntity
  8
0
  6
Continuous
 62
     7
370
    15
100
AcDbLine
 10
277.1129425
 20
234.7000003874
 30
0.0
 11
274.1129420083
 21
234.7000003874
 31
0.0
  0
LINE
  5
637
330
1F
100
AcDbEntity
  8
0
  6
Continuous
 62
     7
370
    15
100
AcDbLine
 10
277.1129425
 20
233.4999996319
 30
0.0
 11
274.1129420083
 21
233.4999996319
 31
0.0
  0
LINE
  5
638
330
1F
100
AcDbEntity
  8
0
  6
Continuous
 62
     7
370
    15
100
AcDbLine
 10
268.1129419561
 20
235.9000002116
 30
0.0
 11
265.1129419301
 21
235.9000002116
 31
0.0
  0
LINE
  5
639
330
1F
100
AcDbEntity
  8
0
  6
Continuous
 62
     7
370
    15
100
AcDbLine
 10
268.1129419561
 20
237.1000000358
 30
0.0
 11
265.1129419301
 21
237.1000000358
 31
0.0
  0
LINE
  5
63A
330
1F
100
AcDbEntity
  8
0
  6
Continuous
 62
     7
370
    15
100
AcDbLine
 10
272.6129417624
 20
235.9000002116
 30
0.0
 11
269.612942202
 21
235.9000002116
 31
0.0
  0
LINE
  5
63B
330
1F
100
AcDbEntity
  8
0
  6
Continuous
 62
     7
370
    15
100
AcDbLine
 10
272.6129417624
 20
237.1000000358
 30
0.0
 11
269.612942202
 21
237.1000000358
 31
0.0
  0
LINE
  5
63C
330
1F
100
AcDbEntity
  8
0
  6
Continuous
 62
     7
370
    15
100
AcDbLine
 10
272.6129417624
 20
234.7000003874
 30
0.0
 11
269.612942202
 21
234.7000003874
 31
0.0
  0
LINE
  5
63D
330
1F
100
AcDbEntity
  8
0
  6
Continuous
 62
     7
370
    15
100
AcDbLine
 10
272.6129417624
 20
233.4999996319
 30
0.0
 11
269.612942202
 21
233.4999996319
 31
0.0
  0
LINE
  5
63E
330
1F
100
AcDbEntity
  8
0
  6
Continuous
 62
     7
370
    15
100
AcDbLine
 10
281.6129423063
 20
235.9000002116
 30
0.0
 11
278.6129418146
 21
235.9000002116
 31
0.0
  0
LINE
  5
63F
330
1F
100
AcDbEntity
  8
0
  6
Continuous
 62
     7
370
    15
100
AcDbLine
 10
281.6129423063
 20
237.1000000358
 30
0.0
 11
278.6129418146
 21
237.1000000358
 31
0.0
  0
LINE
  5
640
330
1F
100
AcDbEntity
  8
0
  6
Continuous
 62
     7
370
    15
100
AcDbLine
 10
263.6129421499
 20
234.7000003874
 30
0.0
 11
260.6129418909
 21
234.7000003874
 31
0.0
  0
LINE
  5
641
330
1F
100
AcDbEntity
  8
0
  6
Continuous
 62
     7
370
    15
100
AcDbLine
 10
263.6129421499
 20
233.4999996319
 30
0.0
 11
260.6129418909
 21
233.4999996319
 31
0.0
  0
LINE
  5
642
330
1F
100
AcDbEntity
  8
0
  6
Continuous
 62
     7
370
    15
100
AcDbLine
 10
263.6129421499
 20
235.9000002116
 30
0.0
 11
260.6129418909
 21
235.9000002116
 31
0.0
  0
LINE
  5
643
330
1F
100
AcDbEntity
  8
0
  6
Continuous
 62
     7
370
    15
100
AcDbLine
 10
263.6129421499
 20
237.1000000358
 30
0.0
 11
260.6129418909
 21
237.1000000358
 31
0.0
  0
LINE
  5
644
330
1F
100
AcDbEntity
  8
0
  6
Continuous
 62
     7
370
    15
100
AcDbLine
 10
281.6129423063
 20
234.7000003874
 30
0.0
 11
278.6129418146
 21
234.7000003874
 31
0.0
  0
LINE
  5
645
330
1F
100
AcDbEntity
  8
0
  6
Continuous
 62
     7
370
    15
100
AcDbLine
 10
281.6129423063
 20
233.4999996319
 30
0.0
 11
278.6129418146
 21
233.4999996319
 31
0.0
  0
ELLIPSE
  5
646
330
1F
100
AcDbEntity
  8
0
  6
Continuous
 62
     7
370
    15
100
AcDbEllipse
 10
297.4604745366
 20
256.7
 30
0.0
 11
0.0
 21
0.7000000000000455
 31
0.0
210
0.0
220
0.0
230
1.0
 40
0.074953416
 41
4.712388980384691
 42
6.283185307179586
  0
LINE
  5
647
330
1F
100
AcDbEntity
  8
0
  6
Continuous
 62
     7
370
    15
100
AcDbLine
 10
257.7129419278
 20
257.4000000104
 30
0.0
 11
297.4604743849
 21
257.4000000104
 31
0.0
  0
LINE
  5
648
330
1F
100
AcDbEntity
  8
0
  6
Continuous
 62
     7
370
    15
100
AcDbLine
 10
297.112942053
 20
255.9999995947
 30
0.0
 11
297.5129413735
 21
255.9999995947
 31
0.0
  0
ARC
  5
649
330
1F
100
AcDbEntity
  8
0
  6
Continuous
 62
     7
370
    15
100
AcDbCircle
 10
297.1129419278
 20
255.5
 30
0.0
 40
0.5
100
AcDbArc
 50
90.0
 51
180.0
  0
LINE
  5
64A
330
1F
100
AcDbEntity
  8
0
  6
Continuous
 62
     7
370
    15
100
AcDbLine
 10
296.6129410397
 20
250.8999998763
 30
0.0
 11
296.6129410397
 21
255.5000004441
 31
0.0
  0
LINE
  5
64B
330
1F
100
AcDbEntity
  8
0
  6
Continuous
 62
     7
370
    15
100
AcDbLine
 10
297.5129413735
 20
250.8999998763
 30
0.0
 11
296.6129410397
 21
250.8999998763
 31
0.0
  0
LINE
  5
64C
330
1F
100
AcDbEntity
  8
0
  6
Continuous
 62
     7
370
    15
100
AcDbLine
 10
297.5129413735
 20
250.5000000902
 30
0.0
 11
297.5129413735
 21
250.8999998763
 31
0.0
  0
LINE
  5
64D
330
1F
100
AcDbEntity
  8
0
  6
Continuous
 62
     7
370
    15
100
AcDbLine
 10
297.5129413735
 20
255.9999995947
 30
0.0
 11
297.5129413735
 21
256.7000002682
 31
0.0
  0
LINE
  5
64E
330
1F
100
AcDbEntity
  8
0
  6
Continuous
 62
     7
370
    15
100
AcDbLine
 10
263.6129421499
 20
250.8999998763
 30
0.0
 11
260.6129418909
 21
250.8999998763
 31
0.0
  0
LINE
  5
64F
330
1F
100
AcDbEntity
  8
0
  6
Continuous
 62
     7
370
    15
100
AcDbLine
 10
263.6129421499
 20
255.5000004441
 30
0.0
 11
263.6129421499
 21
250.8999998763
 31
0.0
  0
ARC
  5
650
330
1F
100
AcDbEntity
  8
0
  6
Continuous
 62
     7
370
    15
100
AcDbCircle
 10
263.1129419278
 20
255.5
 30
0.0
 40
0.5
100
AcDbArc
 50
0.0
 51
90.0
  0
LINE
  5
651
330
1F
100
AcDbEntity
  8
0
  6
Continuous
 62
     7
370
    15
100
AcDbLine
 10
261.1129419729
 20
255.9999995947
 30
0.0
 11
263.1129420679
 21
255.9999995947
 31
0.0
  0
ARC
  5
652
330
1F
100
AcDbEntity
  8
0
  6
Continuous
 62
     7
370
    15
100
AcDbCircle
 10
261.1129419278
 20
255.5
 30
0.0
 40
0.5
100
AcDbArc
 50
90.0
 51
180.0
  0
LINE
  5
653
330
1F
100
AcDbEntity
  8
0
  6
Continuous
 62
     7
370
    15
100
AcDbLine
 10
260.6129418909
 20
250.8999998763
 30
0.0
 11
260.6129418909
 21
255.5000004441
 31
0.0
  0
LINE
  5
654
330
1F
100
AcDbEntity
  8
0
  6
Continuous
 62
     7
370
    15
100
AcDbLine
 10
268.1129419561
 20
250.8999998763
 30
0.0
 11
265.1129419301
 21
250.8999998763
 31
0.0
  0
LINE
  5
655
330
1F
100
AcDbEntity
  8
0
  6
Continuous
 62
     7
370
    15
100
AcDbLine
 10
268.1129419561
 20
255.5000004441
 30
0.0
 11
268.1129419561
 21
250.8999998763
 31
0.0
  0
ARC
  5
656
330
1F
100
AcDbEntity
  8
0
  6
Continuous
 62
     7
370
    15
100
AcDbCircle
 10
267.6129419278
 20
255.5
 30
0.0
 40
0.5000000000000568
100
AcDbArc
 50
0.0
 51
90.0
  0
LINE
  5
657
330
1F
100
AcDbEntity
  8
0
  6
Continuous
 62
     7
370
    15
100
AcDbLine
 10
265.6129415464
 20
255.9999995947
 30
0.0
 11
267.6129418742
 21
255.9999995947
 31
0.0
  0
ARC
  5
658
330
1F
100
AcDbEntity
  8
0
  6
Continuous
 62
     7
370
    15
100
AcDbCircle
 10
265.6129419278
 20
255.5
 30
0.0
 40
0.5000000000000568
100
AcDbArc
 50
90.0
 51
180.0
  0
LINE
  5
659
330
1F
100
AcDbEntity
  8
0
  6
Continuous
 62
     7
370
    15
100
AcDbLine
 10
265.1129419301
 20
250.8999998763
 30
0.0
 11
265.1129419301
 21
255.5000004441
 31
0.0
  0
LINE
  5
65A
330
1F
100
AcDbEntity
  8
0
  6
Continuous
 62
     7
370
    15
100
AcDbLine
 10
272.6129417624
 20
250.8999998763
 30
0.0
 11
269.612942202
 21
250.8999998763
 31
0.0
  0
LINE
  5
65B
330
1F
100
AcDbEntity
  8
0
  6
Continuous
 62
     7
370
    15
100
AcDbLine
 10
272.6129417624
 20
255.5000004441
 30
0.0
 11
272.6129417624
 21
250.8999998763
 31
0.0
  0
ARC
  5
65C
330
1F
100
AcDbEntity
  8
0
  6
Continuous
 62
     7
370
    15
100
AcDbCircle
 10
272.1129419278
 20
255.5
 30
0.0
 40
0.5
100
AcDbArc
 50
0.0
 51
90.0
  0
LINE
  5
65D
330
1F
100
AcDbEntity
  8
0
  6
Continuous
 62
     7
370
    15
100
AcDbLine
 10
270.112942284
 20
255.9999995947
 30
0.0
 11
272.1129416805
 21
255.9999995947
 31
0.0
  0
ARC
  5
65E
330
1F
100
AcDbEntity
  8
0
  6
Continuous
 62
     7
370
    15
100
AcDbCircle
 10
270.1129419278
 20
255.5
 30
0.0
 40
0.5
100
AcDbArc
 50
90.0
 51
180.0
  0
LINE
  5
65F
330
1F
100
AcDbEntity
  8
0
  6
Continuous
 62
     7
370
    15
100
AcDbLine
 10
269.612942202
 20
250.8999998763
 30
0.0
 11
269.612942202
 21
255.5000004441
 31
0.0
  0
LINE
  5
660
330
1F
100
AcDbEntity
  8
0
  6
Continuous
 62
     7
370
    15
100
AcDbLine
 10
277.1129425
 20
250.8999998763
 30
0.0
 11
274.1129420083
 21
250.8999998763
 31
0.0
  0
LINE
  5
661
330
1F
100
AcDbEntity
  8
0
  6
Continuous
 62
     7
370
    15
100
AcDbLine
 10
277.1129425
 20
255.5000004441
 30
0.0
 11
277.1129425
 21
250.8999998763
 31
0.0
  0
ARC
  5
662
330
1F
100
AcDbEntity
  8
0
  6
Continuous
 62
     7
370
    15
100
AcDbCircle
 10
276.6129419278
 20
255.5
 30
0.0
 40
0.5
100
AcDbArc
 50
0.0
 51
90.0
  0
LINE
  5
663
330
1F
100
AcDbEntity
  8
0
  6
Continuous
 62
     7
370
    15
100
AcDbLine
 10
274.6129411589
 20
255.9999995947
 30
0.0
 11
276.6129414868
 21
255.9999995947
 31
0.0
  0
ARC
  5
664
330
1F
100
AcDbEntity
  8
0
  6
Continuous
 62
     7
370
    15
100
AcDbCircle
 10
274.6129419278
 20
255.5
 30
0.0
 40
0.5
100
AcDbArc
 50
90.0
 51
180.0
  0
LINE
  5
665
330
1F
100
AcDbEntity
  8
0
  6
Continuous
 62
     7
370
    15
100
AcDbLine
 10
274.1129420083
 20
250.8999998763
 30
0.0
 11
274.1129420083
 21
255.5000004441
 31
0.0
  0
LINE
  5
666
330
1F
100
AcDbEntity
  8
0
  6
Continuous
 62
     7
370
    15
100
AcDbLine
 10
281.6129423063
 20
250.8999998763
 30
0.0
 11
278.6129418146
 21
250.8999998763
 31
0.0
  0
LINE
  5
667
330
1F
100
AcDbEntity
  8
0
  6
Continuous
 62
     7
370
    15
100
AcDbLine
 10
281.6129423063
 20
255.5000004441
 30
0.0
 11
281.6129423063
 21
250.8999998763
 31
0.0
  0
ARC
  5
668
330
1F
100
AcDbEntity
  8
0
  6
Continuous
 62
     7
370
    15
100
AcDbCircle
 10
281.1129419278
 20
255.5
 30
0.0
 40
0.5
100
AcDbArc
 50
0.0
 51
90.0
  0
LINE
  5
669
330
1F
100
AcDbEntity
  8
0
  6
Continuous
 62
     7
370
    15
100
AcDbLine
 10
279.1129428279
 20
255.9999995947
 30
0.0
 11
281.112941293
 21
255.9999995947
 31
0.0
  0
ARC
  5
66A
330
1F
100
AcDbEntity
  8
0
  6
Continuous
 62
     7
370
    15
100
AcDbCircle
 10
279.1129419278
 20
255.5
 30
0.0
 40
0.5
100
AcDbArc
 50
90.0
 51
180.0
  0
LINE
  5
66B
330
1F
100
AcDbEntity
  8
0
  6
Continuous
 62
     7
370
    15
100
AcDbLine
 10
278.6129418146
 20
250.8999998763
 30
0.0
 11
278.6129418146
 21
255.5000004441
 31
0.0
  0
LINE
  5
66C
330
1F
100
AcDbEntity
  8
0
  6
Continuous
 62
     7
370
    15
100
AcDbLine
 10
286.1129421126
 20
250.8999998763
 30
0.0
 11
283.1129416209
 21
250.8999998763
 31
0.0
  0
LINE
  5
66D
330
1F
100
AcDbEntity
  8
0
  6
Continuous
 62
     7
370
    15
100
AcDbLine
 10
286.1129421126
 20
255.5000004441
 30
0.0
 11
286.1129421126
 21
250.8999998763
 31
0.0
  0
ARC
  5
66E
330
1F
100
AcDbEntity
  8
0
  6
Continuous
 62
     7
370
    15
100
AcDbCircle
 10
285.6129419278
 20
255.5
 30
0.0
 40
0.5
100
AcDbArc
 50
0.0
 51
90.0
  0
LINE
  5
66F
330
1F
100
AcDbEntity
  8
0
  6
Continuous
 62
     7
370
    15
100
AcDbLine
 10
283.6129426341
 20
255.9999995947
 30
0.0
 11
285.6129410993
 21
255.9999995947
 31
0.0
  0
ARC
  5
670
330
1F
100
AcDbEntity
  8
0
  6
Continuous
 62
     7
370
    15
100
AcDbCircle
 10
283.6129419278
 20
255.5
 30
0.0
 40
0.5
100
AcDbArc
 50
90.0
 51
180.0
  0
LINE
  5
671
330
1F
100
AcDbEntity
  8
0
  6
Continuous
 62
     7
370
    15
100
AcDbLine
 10
283.1129416209
 20
250.8999998763
 30
0.0
 11
283.1129416209
 21
255.5000004441
 31
0.0
  0
LINE
  5
672
330
1F
100
AcDbEntity
  8
0
  6
Continuous
 62
     7
370
    15
100
AcDbLine
 10
290.6129437815
 20
250.8999998763
 30
0.0
 11
287.6129414271
 21
250.8999998763
 31
0.0
  0
LINE
  5
673
330
1F
100
AcDbEntity
  8
0
  6
Continuous
 62
     7
370
    15
100
AcDbLine
 10
290.6129437815
 20
255.5000004441
 30
0.0
 11
290.6129437815
 21
250.8999998763
 31
0.0
  0
ARC
  5
674
330
1F
100
AcDbEntity
  8
0
  6
Continuous
 62
     7
370
    15
100
AcDbCircle
 10
290.1129419278
 20
255.5
 30
0.0
 40
0.5
100
AcDbArc
 50
0.0
 51
90.0
  0
LINE
  5
675
330
1F
100
AcDbEntity
  8
0
  6
Continuous
 62
     7
370
    15
100
AcDbLine
 10
288.1129424404
 20
255.9999995947
 30
0.0
 11
290.1129427683
 21
255.9999995947
 31
0.0
  0
ARC
  5
676
330
1F
100
AcDbEntity
  8
0
  6
Continuous
 62
     7
370
    15
100
AcDbCircle
 10
288.1129419278
 20
255.5
 30
0.0
 40
0.5000000000000568
100
AcDbArc
 50
90.0
 51
180.0
  0
LINE
  5
677
330
1F
100
AcDbEntity
  8
0
  6
Continuous
 62
     7
370
    15
100
AcDbLine
 10
287.6129414271
 20
250.8999998763
 30
0.0
 11
287.6129414271
 21
255.5000004441
 31
0.0
  0
LINE
  5
678
330
1F
100
AcDbEntity
  8
0
  6
Continuous
 62
     7
370
    15
100
AcDbLine
 10
295.1129417252
 20
250.8999998763
 30
0.0
 11
292.1129430961
 21
250.8999998763
 31
0.0
  0
LINE
  5
679
330
1F
100
AcDbEntity
  8
0
  6
Continuous
 62
     7
370
    15
100
AcDbLine
 10
295.1129417252
 20
255.5000004441
 30
0.0
 11
295.1129417252
 21
250.8999998763
 31
0.0
  0
ARC
  5
67A
330
1F
100
AcDbEntity
  8
0
  6
Continuous
 62
     7
370
    15
100
AcDbCircle
 10
294.6129419278
 20
255.5
 30
0.0
 40
0.5
100
AcDbArc
 50
0.0
 51
90.0
  0
LINE
  5
67B
330
1F
100
AcDbEntity
  8
0
  6
Continuous
 62
     7
370
    15
100
AcDbLine
 10
292.6129403841
 20
255.9999995947
 30
0.0
 11
294.6129407119
 21
255.9999995947
 31
0.0
  0
ARC
  5
67C
330
1F
100
AcDbEntity
  8
0
  6
Continuous
 62
     7
370
    15
100
AcDbCircle
 10
292.6129419278
 20
255.5
 30
0.0
 40
0.5
100
AcDbArc
 50
90.0
 51
180.0
  0
LINE
  5
67D
330
1F
100
AcDbEntity
  8
0
  6
Continuous
 62
     7
370
    15
100
AcDbLine
 10
292.1129430961
 20
250.8999998763
 30
0.0
 11
292.1129430961
 21
255.5000004441
 31
0.0
  0
LINE
  5
67E
330
1F
100
AcDbEntity
  8
0
  6
Continuous
 62
     7
370
    15
100
AcDbLine
 10
257.7129419278
 20
250.5000000902
 30
0.0
 11
257.7129419278
 21
256.7000002682
 31
0.0
  0
LINE
  5
67F
330
1F
100
AcDbEntity
  8
0
  6
Continuous
 62
     7
370
    15
100
AcDbLine
 10
309.7129430007
 20
238.1000001997
 30
0.0
 11
309.7129430007
 21
248.0999999762
 31
0.0
  0
LINE
  5
680
330
1F
100
AcDbEntity
  8
0
  6
Continuous
 62
     7
370
    15
100
AcDbLine
 10
307.5129430126
 20
238.1000001997
 30
0.0
 11
307.5129430126
 21
248.0999999762
 31
0.0
  0
LINE
  5
681
330
1F
100
AcDbEntity
  8
0
  6
Continuous
 62
     7
370
    15
100
AcDbLine
 10
309.7129430007
 20
238.1000001997
 30
0.0
 11
307.5129430126
 21
238.1000001997
 31
0.0
  0
LINE
  5
682
330
1F
100
AcDbEntity
  8
0
  6
Continuous
 62
     7
370
    15
100
AcDbLine
 10
309.7129430007
 20
248.0999999762
 30
0.0
 11
307.5129430126
 21
248.0999999762
 31
0.0
  0
LINE
  5
683
330
1F
100
AcDbEntity
  8
0
  6
Continuous
 62
     7
370
    15
100
AcDbLine
 10
306.7629414927
 20
248.0999999762
 30
0.0
 11
306.7629414927
 21
238.1000001997
 31
0.0
  0
LINE
  5
684
330
1F
100
AcDbEntity
  8
0
  6
Continuous
 62
     7
370
    15
100
AcDbLine
 10
307.5129430126
 20
238.1000001997
 30
0.0
 11
306.7629414927
 21
238.1000001997
 31
0.0
  0
LINE
  5
685
330
1F
100
AcDbEntity
  8
0
  6
Continuous
 62
     7
370
    15
100
AcDbLine
 10
307.5129430126
 20
248.0999999762
 30
0.0
 11
306.7629414927
 21
248.0999999762
 31
0.0
  0
LINE
  5
686
330
1F
100
AcDbEntity
  8
0
  6
Continuous
 62
     7
370
    15
100
AcDbLine
 10
306.5629419278
 20
238.1
 30
0.0
 11
306.5629419278
 21
248.1
 31
0.0
  0
LINE
  5
687
330
1F
100
AcDbEntity
  8
0
  6
Continuous
 62
     7
370
    15
100
AcDbLine
 10
306.7629414927
 20
238.1000001997
 30
0.0
 11
306.5629419278
 21
238.1
 31
0.0
  0
LINE
  5
688
330
1F
100
AcDbEntity
  8
0
  6
Continuous
 62
     7
370
    15
100
AcDbLine
 10
306.5629419278
 20
248.1
 30
0.0
 11
306.7629414927
 21
248.0999999762
 31
0.0
  0
LINE
  5
689
330
1F
100
AcDbEntity
  8
0
  6
Continuous
 62
     7
370
    15
100
AcDbLine
 10
263.6129421499
 20
252.0999997005
 30
0.0
 11
260.6129418909
 21
252.0999997005
 31
0.0
  0
LINE
  5
68A
330
1F
100
AcDbEntity
  8
0
  6
Continuous
 62
     7
370
    15
100
AcDbLine
 10
304.2129430305
 20
238.1000001997
 30
0.0
 11
304.2129430305
 21
248.0999999762
 31
0.0
  0
LINE
  5
68B
330
1F
100
AcDbEntity
  8
0
  6
Continuous
 62
     7
370
    15
100
AcDbLine
 10
304.2129430305
 20
238.1000001997
 30
0.0
 11
303.2129419278
 21
238.1
 31
0.0
  0
LINE
  5
68C
330
1F
100
AcDbEntity
  8
0
  6
Continuous
 62
     7
370
    15
100
AcDbLine
 10
304.2129430305
 20
248.0999999762
 30
0.0
 11
303.2129419278
 21
248.1
 31
0.0
  0
LINE
  5
68D
330
1F
100
AcDbEntity
  8
0
  6
Continuous
 62
     7
370
    15
100
AcDbLine
 10
268.1129419561
 20
252.0999997005
 30
0.0
 11
265.1129419301
 21
252.0999997005
 31
0.0
  0
LINE
  5
68E
330
1F
100
AcDbEntity
  8
0
  6
Continuous
 62
     7
370
    15
100
AcDbLine
 10
306.5629419278
 20
238.1
 30
0.0
 11
306.2629419278
 21
238.1
 31
0.0
  0
LINE
  5
68F
330
1F
100
AcDbEntity
  8
0
  6
Continuous
 62
     7
370
    15
100
AcDbLine
 10
306.2629419278
 20
248.1
 30
0.0
 11
306.5629419278
 21
248.1
 31
0.0
  0
LINE
  5
690
330
1F
100
AcDbEntity
  8
0
  6
Continuous
 62
     7
370
    15
100
AcDbLine
 10
306.2629419278
 20
238.1
 30
0.0
 11
304.2129430305
 21
238.1000001997
 31
0.0
  0
LINE
  5
691
330
1F
100
AcDbEntity
  8
0
  6
Continuous
 62
     7
370
    15
100
AcDbLine
 10
306.2629419278
 20
248.1
 30
0.0
 11
304.2129430305
 21
248.0999999762
 31
0.0
  0
LINE
  5
692
330
1F
100
AcDbEntity
  8
0
  6
Continuous
 62
     7
370
    15
100
AcDbLine
 10
272.6129417624
 20
252.0999997005
 30
0.0
 11
269.612942202
 21
252.0999997005
 31
0.0
  0
LINE
  5
693
330
1F
100
AcDbEntity
  8
0
  6
Continuous
 62
     7
370
    15
100
AcDbLine
 10
277.1129425
 20
252.0999997005
 30
0.0
 11
274.1129420083
 21
252.0999997005
 31
0.0
  0
LINE
  5
694
330
1F
100
AcDbEntity
  8
0
  6
Continuous
 62
     7
370
    15
100
AcDbLine
 10
260.6546844672
 20
255.7000001043
 30
0.0
 11
263.5711993407
 21
255.7000001043
 31
0.0
  0
LINE
  5
695
330
1F
100
AcDbEntity
  8
0
  6
Continuous
 62
     7
370
    15
100
AcDbLine
 10
265.1546842735
 20
255.7000001043
 30
0.0
 11
268.071199147
 21
255.7000001043
 31
0.0
  0
LINE
  5
696
330
1F
100
AcDbEntity
  8
0
  6
Continuous
 62
     7
370
    15
100
AcDbLine
 10
308.5712011289
 20
231.6999998957
 30
0.0
 11
305.6546825301
 21
231.6999998957
 31
0.0
  0
LINE
  5
697
330
1F
100
AcDbEntity
  8
0
  6
Continuous
 62
     7
370
    15
100
AcDbLine
 10
304.0711994599
 20
231.6999998957
 30
0.0
 11
301.1546845864
 21
231.6999998957
 31
0.0
  0
LINE
  5
698
330
1F
100
AcDbEntity
  8
0
  6
Continuous
 62
     7
370
    15
100
AcDbLine
 10
299.571197791
 20
231.6999998957
 30
0.0
 11
296.6546829175
 21
231.6999998957
 31
0.0
  0
LINE
  5
699
330
1F
100
AcDbEntity
  8
0
  6
Continuous
 62
     7
370
    15
100
AcDbLine
 10
295.0711998474
 20
231.6999998957
 30
0.0
 11
292.1546849739
 21
231.6999998957
 31
0.0
  0
LINE
  5
69A
330
1F
100
AcDbEntity
  8
0
  6
Continuous
 62
     7
370
    15
100
AcDbLine
 10
290.5711981784
 20
231.6999998957
 30
0.0
 11
287.6546851676
 21
231.6999998957
 31
0.0
  0
LINE
  5
69B
330
1F
100
AcDbEntity
  8
0
  6
Continuous
 62
     7
370
    15
100
AcDbLine
 10
286.0712002348
 20
231.6999998957
 30
0.0
 11
283.1546834987
 21
231.6999998957
 31
0.0
  0
LINE
  5
69C
330
1F
100
AcDbEntity
  8
0
  6
Continuous
 62
     7
370
    15
100
AcDbLine
 10
281.5712004285
 20
231.6999998957
 30
0.0
 11
278.6546836924
 21
231.6999998957
 31
0.0
  0
LINE
  5
69D
330
1F
100
AcDbEntity
  8
0
  6
Continuous
 62
     7
370
    15
100
AcDbLine
 10
277.0711987596
 20
231.6999998957
 30
0.0
 11
274.1546838861
 21
231.6999998957
 31
0.0
  0
LINE
  5
69E
330
1F
100
AcDbEntity
  8
0
  6
Continuous
 62
     7
370
    15
100
AcDbLine
 10
272.5711998846
 20
231.6999998957
 30
0.0
 11
269.6546840798
 21
231.6999998957
 31
0.0
  0
LINE
  5
69F
330
1F
100
AcDbEntity
  8
0
  6
Continuous
 62
     7
370
    15
100
AcDbLine
 10
268.071199147
 20
231.6999998957
 30
0.0
 11
265.1546842735
 21
231.6999998957
 31
0.0
  0
LINE
  5
6A0
330
1F
100
AcDbEntity
  8
0
  6
Continuous
 62
     7
370
    15
100
AcDbLine
 10
263.5711993407
 20
231.6999998957
 30
0.0
 11
260.6546844672
 21
231.6999998957
 31
0.0
  0
LINE
  5
6A1
330
1F
100
AcDbEntity
  8
0
  6
Continuous
 62
     7
370
    15
100
AcDbLine
 10
269.6546840798
 20
255.7000001043
 30
0.0
 11
272.5711998846
 21
255.7000001043
 31
0.0
  0
LINE
  5
6A2
330
1F
100
AcDbEntity
  8
0
  6
Continuous
 62
     7
370
    15
100
AcDbLine
 10
281.6129423063
 20
252.0999997005
 30
0.0
 11
278.6129418146
 21
252.0999997005
 31
0.0
  0
LINE
  5
6A3
330
1F
100
AcDbEntity
  8
0
  6
Continuous
 62
     7
370
    15
100
AcDbLine
 10
274.1546838861
 20
255.7000001043
 30
0.0
 11
277.0711987596
 21
255.7000001043
 31
0.0
  0
LINE
  5
6A4
330
1F
100
AcDbEntity
  8
0
  6
Continuous
 62
     7
370
    15
100
AcDbLine
 10
254.2129418198
 20
257.5999996707
 30
0.0
 11
253.7629421186
 21
257.5999996707
 31
0.0
  0
LINE
  5
6A5
330
1F
100
AcDbEntity
  8
0
  6
Continuous
 62
     7
370
    15
100
AcDbLine
 10
254.2129418198
 20
257.5999996707
 30
0.0
 11
254.2129418198
 21
257.4000000104
 31
0.0
  0
LINE
  5
6A6
330
1F
100
AcDbEntity
  8
0
  6
Continuous
 62
     7
370
    15
100
AcDbLine
 10
253.7629421186
 20
257.5999996707
 30
0.0
 11
253.4087750446
 21
257.4000000104
 31
0.0
  0
LINE
  5
6A7
330
1F
100
AcDbEntity
  8
0
  6
Continuous
 62
     7
370
    15
100
AcDbLine
 10
253.7629421186
 20
229.8000003293
 30
0.0
 11
254.2129418198
 21
229.8000003293
 31
0.0
  0
LINE
  5
6A8
330
1F
100
AcDbEntity
  8
0
  6
Continuous
 62
     7
370
    15
100
AcDbLine
 10
254.2129418198
 20
229.8000003293
 30
0.0
 11
254.2129418198
 21
229.9999999896
 31
0.0
  0
LINE
  5
6A9
330
1F
100
AcDbEntity
  8
0
  6
Continuous
 62
     7
370
    15
100
AcDbLine
 10
253.4087750446
 20
229.9999999896
 30
0.0
 11
253.7629421186
 21
229.8000003293
 31
0.0
  0
LINE
  5
6AA
330
1F
100
AcDbEntity
  8
0
  6
Continuous
 62
     7
370
    15
100
AcDbLine
 10
286.1129421126
 20
252.0999997005
 30
0.0
 11
283.1129416209
 21
252.0999997005
 31
0.0
  0
LINE
  5
6AB
330
1F
100
AcDbEntity
  8
0
  6
Continuous
 62
     7
370
    15
100
AcDbLine
 10
278.6546836924
 20
255.7000001043
 30
0.0
 11
281.5712004285
 21
255.7000001043
 31
0.0
  0
LINE
  5
6AC
330
1F
100
AcDbEntity
  8
0
  6
Continuous
 62
     7
370
    15
100
AcDbLine
 10
290.6129437815
 20
252.0999997005
 30
0.0
 11
287.6129414271
 21
252.0999997005
 31
0.0
  0
LINE
  5
6AD
330
1F
100
AcDbEntity
  8
0
  6
Continuous
 62
     7
370
    15
100
AcDbLine
 10
283.1546834987
 20
255.7000001043
 30
0.0
 11
286.0712002348
 21
255.7000001043
 31
0.0
  0
LINE
  5
6AE
330
1F
100
AcDbEntity
  8
0
  6
Continuous
 62
     7
370
    15
100
AcDbLine
 10
295.1129417252
 20
252.0999997005
 30
0.0
 11
292.1129430961
 21
252.0999997005
 31
0.0
  0
LINE
  5
6AF
330
1F
100
AcDbEntity
  8
0
  6
Continuous
 62
     7
370
    15
100
AcDbLine
 10
297.4604743849
 20
257.4000000104
 30
0.0
 11
304.312940998
 21
257.4000000104
 31
0.0
  0
ARC
  5
6B0
330
1F
100
AcDbEntity
  8
0
  6
Continuous
 62
     7
370
    15
100
AcDbCircle
 10
303.1129419278
 20
255.5
 30
0.0
 40
0.5
100
AcDbArc
 50
0.0
 51
90.0
  0
LINE
  5
6B1
330
1F
100
AcDbEntity
  8
0
  6
Continuous
 62
     7
370
    15
100
AcDbLine
 10
301.6129419278
 20
256.0
 30
0.0
 11
303.1129419278
 21
256.0
 31
0.0
  0
ARC
  5
6B2
330
1F
100
AcDbEntity
  8
0
  6
Continuous
 62
     7
370
    15
100
AcDbCircle
 10
301.6129419278
 20
255.5
 30
0.0
 40
0.5
100
AcDbArc
 50
90.0
 51
180.0
  0
LINE
  5
6B3
330
1F
100
AcDbEntity
  8
0
  6
Continuous
 62
     7
370
    15
100
AcDbLine
 10
301.1129427086
 20
250.8999998763
 30
0.0
 11
301.1129419278
 21
255.5
 31
0.0
  0
LINE
  5
6B4
330
1F
100
AcDbEntity
  8
0
  6
Continuous
 62
     7
370
    15
100
AcDbLine
 10
303.6129403245
 20
250.8999998763
 30
0.0
 11
301.1129427086
 21
250.8999998763
 31
0.0
  0
LINE
  5
6B5
330
1F
100
AcDbEntity
  8
0
  6
Continuous
 62
     7
370
    15
100
AcDbLine
 10
299.6129419278
 20
255.5
 30
0.0
 11
299.6129433941
 21
250.8999998763
 31
0.0
  0
ARC
  5
6B6
330
1F
100
AcDbEntity
  8
0
  6
Continuous
 62
     7
370
    15
100
AcDbCircle
 10
299.1129419278
 20
255.5
 30
0.0
 40
0.5
100
AcDbArc
 50
0.0
 51
90.0
  0
LINE
  5
6B7
330
1F
100
AcDbEntity
  8
0
  6
Continuous
 62
     7
370
    15
100
AcDbLine
 10
297.5129413735
 20
255.9999995947
 30
0.0
 11
299.1129419278
 21
256.0
 31
0.0
  0
LINE
  5
6B8
330
1F
100
AcDbEntity
  8
0
  6
Continuous
 62
     7
370
    15
100
AcDbLine
 10
299.6129433941
 20
250.8999998763
 30
0.0
 11
297.5129413735
 21
250.8999998763
 31
0.0
  0
LINE
  5
6B9
330
1F
100
AcDbEntity
  8
0
  6
Continuous
 62
     7
370
    15
100
AcDbLine
 10
287.6546851676
 20
255.7000001043
 30
0.0
 11
290.5711981784
 21
255.7000001043
 31
0.0
  0
LINE
  5
6BA
330
1F
100
AcDbEntity
  8
0
  6
Continuous
 62
     7
370
    15
100
AcDbLine
 10
312.7129416298
 20
248.500000228
 30
0.0
 11
314.0129419278
 21
248.5
 31
0.0
  0
LINE
  5
6BB
330
1F
100
AcDbEntity
  8
0
  6
Continuous
 62
     7
370
    15
100
AcDbLine
 10
312.7129416298
 20
248.500000228
 30
0.0
 11
312.7129416298
 21
231.6999998957
 31
0.0
  0
LINE
  5
6BC
330
1F
100
AcDbEntity
  8
0
  6
Continuous
 62
     7
370
    15
100
AcDbLine
 10
312.7129416298
 20
231.6999998957
 30
0.0
 11
314.0129419278
 21
231.7
 31
0.0
  0
LINE
  5
6BD
330
1F
100
AcDbEntity
  8
0
  6
Continuous
 62
     7
370
    15
100
AcDbLine
 10
308.6129430067
 20
249.1000001401
 30
0.0
 11
308.6129430067
 21
248.0999999762
 31
0.0
  0
LINE
  5
6BE
330
1F
100
AcDbEntity
  8
0
  6
Continuous
 62
     7
370
    15
100
AcDbLine
 10
308.6129430067
 20
238.1000001997
 30
0.0
 11
308.6129430067
 21
237.1000000358
 31
0.0
  0
LINE
  5
6BF
330
1F
100
AcDbEntity
  8
0
  6
Continuous
 62
     7
370
    15
100
AcDbLine
 10
314.7129419278
 20
256.7
 30
0.0
 11
314.7129419278
 21
248.5
 31
0.0
  0
LINE
  5
6C0
330
1F
100
AcDbEntity
  8
0
  6
Continuous
 62
     7
370
    15
100
AcDbLine
 10
314.7129419278
 20
248.5
 30
0.0
 11
314.0129419278
 21
248.5
 31
0.0
  0
LINE
  5
6C1
330
1F
100
AcDbEntity
  8
0
  6
Continuous
 62
     7
370
    15
100
AcDbLine
 10
309.4129419278
 20
257.4
 30
0.0
 11
314.0129419278
 21
257.4
 31
0.0
  0
ARC
  5
6C2
330
1F
100
AcDbEntity
  8
0
  6
Continuous
 62
     7
370
    15
100
AcDbCircle
 10
314.0129419278
 20
256.7
 30
0.0
 40
0.7000000000000455
100
AcDbArc
 50
0.0
 51
90.0
  0
LINE
  5
6C3
330
1F
100
AcDbEntity
  8
0
  6
Continuous
 62
     7
370
    15
100
AcDbLine
 10
314.0129419278
 20
230.0
 30
0.0
 11
309.4129419278
 21
230.0
 31
0.0
  0
ARC
  5
6C4
330
1F
100
AcDbEntity
  8
0
  6
Continuous
 62
     7
370
    15
100
AcDbCircle
 10
314.0129419278
 20
230.7
 30
0.0
 40
0.6999999999999886
100
AcDbArc
 50
270.0
 51
0.0
  0
LINE
  5
6C5
330
1F
100
AcDbEntity
  8
0
  6
Continuous
 62
     7
370
    15
100
AcDbLine
 10
314.7129419278
 20
231.7
 30
0.0
 11
314.7129419278
 21
230.7
 31
0.0
  0
LINE
  5
6C6
330
1F
100
AcDbEntity
  8
0
  6
Continuous
 62
     7
370
    15
100
AcDbLine
 10
314.0129419278
 20
231.7
 30
0.0
 11
314.7129419278
 21
231.7
 31
0.0
  0
LINE
  5
6C7
330
1F
100
AcDbEntity
  8
0
  6
Continuous
 62
     7
370
    15
100
AcDbLine
 10
297.4758821856
 20
250.8999998763
 30
0.0
 11
297.4758821856
 21
252.0999997005
 31
0.0
  0
LINE
  5
6C8
330
1F
100
AcDbEntity
  8
0
  6
Continuous
 62
     7
370
    15
100
AcDbLine
 10
297.4758821856
 20
252.0999997005
 30
0.0
 11
296.6129410397
 21
252.0999997005
 31
0.0
  0
LINE
  5
6C9
330
1F
100
AcDbEntity
  8
0
  6
Continuous
 62
     7
370
    15
100
AcDbLine
 10
297.4758821856
 20
252.0999997005
 30
0.0
 11
299.6129433941
 21
252.0999997005
 31
0.0
  0
LINE
  5
6CA
330
1F
100
AcDbEntity
  8
0
  6
Continuous
 62
     7
370
    15
100
AcDbLine
 10
301.1129427086
 20
252.0999997005
 30
0.0
 11
303.6129403245
 21
252.0999997005
 31
0.0
  0
LINE
  5
6CB
330
1F
100
AcDbEntity
  8
0
  6
Continuous
 62
     7
370
    15
100
AcDbLine
 10
292.1546849739
 20
255.7000001043
 30
0.0
 11
295.0711998474
 21
255.7000001043
 31
0.0
  0
LINE
  5
6CC
330
1F
100
AcDbEntity
  8
0
  6
Continuous
 62
     7
370
    15
100
AcDbLine
 10
301.1546845864
 20
255.7000001043
 30
0.0
 11
303.5711984467
 21
255.7000001043
 31
0.0
  0
LINE
  5
6CD
330
1F
100
AcDbEntity
  8
0
  6
Continuous
 62
     7
370
    15
100
AcDbLine
 10
296.6546829175
 20
255.7000001043
 30
0.0
 11
299.571197791
 21
255.7000001043
 31
0.0
  0
LINE
  5
6CE
330
1F
100
AcDbEntity
  8
0
  6
Continuous
 62
     7
370
    15
100
AcDbLine
 10
313.5129402708
 20
246.9999999821
 30
0.0
 11
314.7129419576
 21
246.9999999821
 31
0.0
  0
LINE
  5
6CF
330
1F
100
AcDbEntity
  8
0
  6
Continuous
 62
     7
370
    15
100
AcDbLine
 10
313.5129402708
 20
246.9999999821
 30
0.0
 11
313.5129402708
 21
248.500000228
 31
0.0
  0
LINE
  5
6D0
330
1F
100
AcDbEntity
  8
0
  6
Continuous
 62
     7
370
    15
100
AcDbLine
 10
314.7129419278
 20
248.5
 30
0.0
 11
314.7129419576
 21
246.9999999821
 31
0.0
  0
LINE
  5
6D1
330
1F
100
AcDbEntity
  8
0
  6
Continuous
 62
     7
370
    15
100
AcDbLine
 10
313.5129402708
 20
232.8999997199
 30
0.0
 11
314.7129419576
 21
232.8999997199
 31
0.0
  0
LINE
  5
6D2
330
1F
100
AcDbEntity
  8
0
  6
Continuous
 62
     7
370
    15
100
AcDbLine
 10
313.5129402708
 20
231.6999998957
 30
0.0
 11
313.5129402708
 21
232.8999997199
 31
0.0
  0
LINE
  5
6D3
330
1F
100
AcDbEntity
  8
0
  6
Continuous
 62
     7
370
    15
100
AcDbLine
 10
314.7129419576
 20
232.8999997199
 30
0.0
 11
314.7129419278
 21
231.7
 31
0.0
  0
LINE
  5
6D4
330
1F
100
AcDbEntity
  8
0
  6
Continuous
 62
     7
370
    15
100
AcDbLine
 10
314.2129409444
 20
235.4000001296
 30
0.0
 11
313.1129409503
 21
235.4000001296
 31
0.0
  0
LINE
  5
6D5
330
1F
100
AcDbEntity
  8
0
  6
Continuous
 62
     7
370
    15
100
AcDbLine
 10
312.9129412901
 20
231.6999998957
 30
0.0
 11
312.9129412901
 21
231.7999997258
 31
0.0
  0
LINE
  5
6D6
330
1F
100
AcDbEntity
  8
0
  6
Continuous
 62
     7
370
    15
100
AcDbLine
 10
314.2129409444
 20
234.9999998778
 30
0.0
 11
314.7129419576
 21
234.9999998778
 31
0.0
  0
LINE
  5
6D7
330
1F
100
AcDbEntity
  8
0
  6
Continuous
 62
     7
370
    15
100
AcDbLine
 10
314.2129409444
 20
235.4000001296
 30
0.0
 11
314.2129409444
 21
234.9999998778
 31
0.0
  0
LINE
  5
6D8
330
1F
100
AcDbEntity
  8
0
  6
Continuous
 62
     7
370
    15
100
AcDbLine
 10
314.7129419576
 20
232.8999997199
 30
0.0
 11
314.7129419576
 21
234.9999998778
 31
0.0
  0
LINE
  5
6D9
330
1F
100
AcDbEntity
  8
0
  6
Continuous
 62
     7
370
    15
100
AcDbLine
 10
313.1129409503
 20
236.3999998279
 30
0.0
 11
314.2129409444
 21
236.3999998279
 31
0.0
  0
LINE
  5
6DA
330
1F
100
AcDbEntity
  8
0
  6
Continuous
 62
     7
370
    15
100
AcDbLine
 10
314.2129409444
 20
236.3999998279
 30
0.0
 11
314.2129409444
 21
235.4000001296
 31
0.0
  0
LINE
  5
6DB
330
1F
100
AcDbEntity
  8
0
  6
Continuous
 62
     7
370
    15
100
AcDbLine
 10
313.7129436564
 20
245.4000000225
 30
0.0
 11
313.1129409503
 21
245.4000000225
 31
0.0
  0
LINE
  5
6DC
330
1F
100
AcDbEntity
  8
0
  6
Continuous
 62
     7
370
    15
100
AcDbLine
 10
313.7129436564
 20
245.4000000225
 30
0.0
 11
313.7129436564
 21
244.399999975
 31
0.0
  0
LINE
  5
6DD
330
1F
100
AcDbEntity
  8
0
  6
Continuous
 62
     7
370
    15
100
AcDbLine
 10
313.7129436564
 20
244.399999975
 30
0.0
 11
313.1129409503
 21
244.399999975
 31
0.0
  0
LINE
  5
6DE
330
1F
100
AcDbEntity
  8
0
  6
Continuous
 62
     7
370
    15
100
AcDbLine
 10
313.7129436564
 20
245.2999999596
 30
0.0
 11
314.7129419576
 21
245.2999999596
 31
0.0
  0
LINE
  5
6DF
330
1F
100
AcDbEntity
  8
0
  6
Continuous
 62
     7
370
    15
100
AcDbLine
 10
313.2129426431
 20
244.399999975
 30
0.0
 11
313.2129426431
 21
236.3999998279
 31
0.0
  0
LINE
  5
6E0
330
1F
100
AcDbEntity
  8
0
  6
Continuous
 62
     7
370
    15
100
AcDbLine
 10
314.7129419576
 20
234.9999998778
 30
0.0
 11
314.7129419576
 21
245.2999999596
 31
0.0
  0
LINE
  5
6E1
330
1F
100
AcDbEntity
  8
0
  6
Continuous
 62
     7
370
    15
100
AcDbLine
 10
312.5129419278
 20
257.4
 30
0.0
 11
313.2129419278
 21
257.4
 31
0.0
  0
LINE
  5
6E2
330
1F
100
AcDbEntity
  8
0
  6
Continuous
 62
     7
370
    15
100
AcDbLine
 10
313.2129419278
 20
230.0
 30
0.0
 11
312.5129419278
 21
230.0
 31
0.0
  0
LINE
  5
6E3
330
1F
100
AcDbEntity
  8
0
  6
Continuous
 62
     7
370
    15
100
AcDbLine
 10
313.2129419278
 20
257.4
 30
0.0
 11
314.0129419278
 21
257.4
 31
0.0
  0
LINE
  5
6E4
330
1F
100
AcDbEntity
  8
0
  6
Continuous
 62
     7
370
    15
100
AcDbLine
 10
314.0129419278
 20
230.0
 30
0.0
 11
313.2129419278
 21
230.0
 31
0.0
  0
LINE
  5
6E5
330
1F
100
AcDbEntity
  8
0
  6
Continuous
 62
     7
370
    15
100
AcDbLine
 10
308.3129416536
 20
248.0999999762
 30
0.0
 11
308.3129419278
 21
248.6
 31
0.0
  0
ARC
  5
6E6
330
1F
100
AcDbEntity
  8
0
  6
Continuous
 62
     7
370
    15
100
AcDbCircle
 10
308.8129419278
 20
248.6
 30
0.0
 40
0.5
100
AcDbArc
 50
113.5781784782
 51
180.0
  0
LINE
  5
6E7
330
1F
100
AcDbEntity
  8
0
  6
Continuous
 62
     7
370
    15
100
AcDbLine
 10
314.7129419576
 20
252.4500000373
 30
0.0
 11
316.7129419278
 21
252.45
 31
0.0
  0
LINE
  5
6E8
330
1F
100
AcDbEntity
  8
0
  6
Continuous
 62
     7
370
    15
100
AcDbLine
 10
316.7129419278
 20
249.95
 30
0.0
 11
314.7129419576
 21
249.9500000931
 31
0.0
  0
LINE
  5
6E9
330
1F
100
AcDbEntity
  8
0
  6
Continuous
 62
     7
370
    15
100
AcDbLine
 10
315.7129402589
 20
240.6999999739
 30
0.0
 11
316.7129419278
 21
240.7
 31
0.0
  0
LINE
  5
6EA
330
1F
100
AcDbEntity
  8
0
  6
Continuous
 62
     7
370
    15
100
AcDbLine
 10
316.7129419278
 20
238.2
 30
0.0
 11
314.7129419576
 21
238.2000000298
 31
0.0
  0
ARC
  5
6EB
330
1F
100
AcDbEntity
  8
0
  6
Continuous
 62
     7
370
    15
100
AcDbCircle
 10
316.7129419278
 20
251.95
 30
0.0
 40
0.5
100
AcDbArc
 50
0.0
 51
90.0
  0
LINE
  5
6EC
330
1F
100
AcDbEntity
  8
0
  6
Continuous
 62
     7
370
    15
100
AcDbLine
 10
317.2129419278
 20
251.95
 30
0.0
 11
317.2129419278
 21
250.45
 31
0.0
  0
ARC
  5
6ED
330
1F
100
AcDbEntity
  8
0
  6
Continuous
 62
     7
370
    15
100
AcDbCircle
 10
316.7129419278
 20
250.45
 30
0.0
 40
0.5
100
AcDbArc
 50
270.0
 51
0.0
  0
ARC
  5
6EE
330
1F
100
AcDbEntity
  8
0
  6
Continuous
 62
     7
370
    15
100
AcDbCircle
 10
316.7129419278
 20
240.2
 30
0.0
 40
0.5
100
AcDbArc
 50
0.0
 51
90.0
  0
LINE
  5
6EF
330
1F
100
AcDbEntity
  8
0
  6
Continuous
 62
     7
370
    15
100
AcDbLine
 10
317.2129419278
 20
240.2
 30
0.0
 11
317.2129419278
 21
238.7
 31
0.0
  0
ARC
  5
6F0
330
1F
100
AcDbEntity
  8
0
  6
Continuous
 62
     7
370
    15
100
AcDbCircle
 10
316.7129419278
 20
238.7
 30
0.0
 40
0.5
100
AcDbArc
 50
270.0
 51
0.0
  0
LINE
  5
6F1
330
1F
100
AcDbEntity
  8
0
  6
Continuous
 62
     7
370
    15
100
AcDbLine
 10
313.2129426431
 20
248.500000228
 30
0.0
 11
313.2129426431
 21
245.4000000225
 31
0.0
  0
LINE
  5
6F2
330
1F
100
AcDbEntity
  8
0
  6
Continuous
 62
     7
370
    15
100
AcDbLine
 10
314.7129419576
 20
245.2999999596
 30
0.0
 11
314.7129419576
 21
246.9999999821
 31
0.0
  0
LINE
  5
6F3
330
1F
100
AcDbEntity
  8
0
  6
Continuous
 62
     7
370
    15
100
AcDbLine
 10
307.6129409801
 20
248.6000000581
 30
0.0
 11
308.3129419278
 21
248.6
 31
0.0
  0
LINE
  5
6F4
330
1F
100
AcDbEntity
  8
0
  6
Continuous
 62
     7
370
    15
100
AcDbLine
 10
307.6129409801
 20
248.0999999762
 30
0.0
 11
307.6129409801
 21
248.6000000581
 31
0.0
  0
LINE
  5
6F5
330
1F
100
AcDbEntity
  8
0
  6
Continuous
 62
     7
370
    15
100
AcDbLine
 10
306.8469169866
 20
249.1000001401
 30
0.0
 11
306.8469169866
 21
248.0999999762
 31
0.0
  0
LINE
  5
6F6
330
1F
100
AcDbEntity
  8
0
  6
Continuous
 62
     7
370
    15
100
AcDbLine
 10
306.8469169866
 20
233.4999996319
 30
0.0
 11
306.8469169866
 21
231.8880003959
 31
0.0
  0
LINE
  5
6F7
330
1F
100
AcDbEntity
  8
0
  6
Continuous
 62
     7
370
    15
100
AcDbLine
 10
306.7314478885
 20
249.1000001401
 30
0.0
 11
306.7314478885
 21
248.500000228
 31
0.0
  0
LINE
  5
6F8
330
1F
100
AcDbEntity
  8
0
  6
Continuous
 62
     7
370
    15
100
AcDbLine
 10
305.8654222023
 20
233.4999996319
 30
0.0
 11
305.8654222023
 21
231.8880003959
 31
0.0
  0
LINE
  5
6F9
330
1F
100
AcDbEntity
  8
0
  6
Continuous
 62
     7
370
    15
100
AcDbLine
 10
305.8654222023
 20
248.500000228
 30
0.0
 11
305.8654222023
 21
248.0999999762
 31
0.0
  0
LINE
  5
6FA
330
1F
100
AcDbEntity
  8
0
  6
Continuous
 62
     7
370
    15
100
AcDbLine
 10
306.7314478885
 20
248.500000228
 30
0.0
 11
304.7129403185
 21
248.500000228
 31
0.0
  0
LINE
  5
6FB
330
1F
100
AcDbEntity
  8
0
  6
Continuous
 62
     7
370
    15
100
AcDbLine
 10
299.7129413616
 20
248.500000228
 30
0.0
 11
296.2629425656
 21
248.500000228
 31
0.0
  0
LINE
  5
6FC
330
1F
100
AcDbEntity
  8
0
  6
Continuous
 62
     7
370
    15
100
AcDbLine
 10
281.6129423063
 20
248.500000228
 30
0.0
 11
278.6129418146
 21
248.500000228
 31
0.0
  0
LINE
  5
6FD
330
1F
100
AcDbEntity
  8
0
  6
Continuous
 62
     7
370
    15
100
AcDbLine
 10
277.1129425
 20
248.500000228
 30
0.0
 11
274.1129420083
 21
248.500000228
 31
0.0
  0
LINE
  5
6FE
330
1F
100
AcDbEntity
  8
0
  6
Continuous
 62
     7
370
    15
100
AcDbLine
 10
272.6129417624
 20
248.500000228
 30
0.0
 11
269.612942202
 21
248.500000228
 31
0.0
  0
LINE
  5
6FF
330
1F
100
AcDbEntity
  8
0
  6
Continuous
 62
     7
370
    15
100
AcDbLine
 10
268.1129419561
 20
248.500000228
 30
0.0
 11
265.1129419301
 21
248.500000228
 31
0.0
  0
LINE
  5
700
330
1F
100
AcDbEntity
  8
0
  6
Continuous
 62
     7
370
    15
100
AcDbLine
 10
263.6129421499
 20
248.500000228
 30
0.0
 11
260.6129418909
 21
248.500000228
 31
0.0
  0
LINE
  5
701
330
1F
100
AcDbEntity
  8
0
  6
Continuous
 62
     7
370
    15
100
AcDbLine
 10
299.6129433941
 20
248.500000228
 30
0.0
 11
299.6129433941
 21
248.0999999762
 31
0.0
  0
LINE
  5
702
330
1F
100
AcDbEntity
  8
0
  6
Continuous
 62
     7
370
    15
100
AcDbLine
 10
299.6129433941
 20
238.1000001997
 30
0.0
 11
299.6129433941
 21
237.1000000358
 31
0.0
  0
LINE
  5
703
330
1F
100
AcDbEntity
  8
0
  6
Continuous
 62
     7
370
    15
100
AcDbLine
 10
296.6129410397
 20
237.1000000358
 30
0.0
 11
296.6129410397
 21
238.1000001997
 31
0.0
  0
LINE
  5
704
330
1F
100
AcDbEntity
  8
0
  6
Continuous
 62
     7
370
    15
100
AcDbLine
 10
296.6129410397
 20
248.0999999762
 30
0.0
 11
296.6129410397
 21
248.500000228
 31
0.0
  0
ENDSEC
  0
SECTION
  2
OBJECTS
  0
DICTIONARY
  5
C
330
0
100
AcDbDictionary
281
     1
  3
ACAD_GROUP
350
D
  3
ACAD_LAYOUT
350
1A
  3
ACAD_MLINESTYLE
350
17
  3
ACAD_PLOTSETTINGS
350
19
  3
ACAD_PLOTSTYLENAME
350
E
  0
DICTIONARY
  5
D
102
{ACAD_REACTORS
330
C
102
}
330
C
100
AcDbDictionary
281
     1
  0
DICTIONARY
  5
1A
102
{ACAD_REACTORS
330
C
102
}
330
C
100
AcDbDictionary
281
     1
  3
Layout1
350
1E
  3
Layout2
350
26
  3
Model
350
22
  0
DICTIONARY
  5
17
102
{ACAD_REACTORS
330
C
102
}
330
C
100
AcDbDictionary
281
     1
  3
Standard
350
18
  0
DICTIONARY
  5
19
102
{ACAD_REACTORS
330
C
102
}
330
C
100
AcDbDictionary
281
     1
  0
ACDBDICTIONARYWDFLT
  5
E
102
{ACAD_REACTORS
330
C
102
}
330
C
100
AcDbDictionary
281
     1
  3
Normal
350
F
100
AcDbDictionaryWithDefault
340
F
  0
LAYOUT
  5
1E
102
{ACAD_REACTORS
330
1A
102
}
330
1A
100
AcDbPlotSettings
  1

  2

  4

  6

 40
0.0
 41
0.0
 42
0.0
 43
0.0
 44
0.0
 45
0.0
 46
0.0
 47
0.0
 48
0.0
 49
0.0
140
0.0
141
0.0
142
1.0
143
1.0
 70
   688
 72
     0
 73
     0
 74
     5
  7

 75
    16
147
1.0
148
0.0
149
0.0
100
AcDbLayout
  1
Layout1
 70
     1
 71
     1
 10
0.0
 20
0.0
 11
0.0
 21
0.0
 12
0.0
 22
0.0
 32
0.0
 14
0.0
 24
0.0
 34
0.0
 15
0.0
 25
0.0
 35
0.0
146
0.0
 13
0.0
 23
0.0
 33
0.0
 16
1.0
 26
0.0
 36
0.0
 17
0.0
 27
1.0
 37
0.0
 76
     0
330
1B
  0
LAYOUT
  5
26
102
{ACAD_REACTORS
330
1A
102
}
330
1A
100
AcDbPlotSettings
  1

  2

  4

  6

 40
0.0
 41
0.0
 42
0.0
 43
0.0
 44
0.0
 45
0.0
 46
0.0
 47
0.0
 48
0.0
 49
0.0
140
0.0
141
0.0
142
1.0
143
1.0
 70
   688
 72
     0
 73
     0
 74
     5
  7

 75
    16
147
1.0
148
0.0
149
0.0
100
AcDbLayout
  1
Layout2
 70
     1
 71
     2
 10
0.0
 20
0.0
 11
0.0
 21
0.0
 12
0.0
 22
0.0
 32
0.0
 14
0.0
 24
0.0
 34
0.0
 15
0.0
 25
0.0
 35
0.0
146
0.0
 13
0.0
 23
0.0
 33
0.0
 16
1.0
 26
0.0
 36
0.0
 17
0.0
 27
1.0
 37
0.0
 76
     0
330
23
  0
LAYOUT
  5
22
102
{ACAD_REACTORS
330
1A
102
}
330
1A
100
AcDbPlotSettings
  1

  2

  4

  6

 40
0.0
 41
0.0
 42
0.0
 43
0.0
 44
0.0
 45
0.0
 46
0.0
 47
0.0
 48
0.0
 49
0.0
140
0.0
141
0.0
142
1.0
143
1.0
 70
  1712
 72
     0
 73
     0
 74
     0
  7

 75
     0
147
1.0
148
0.0
149
0.0
100
AcDbLayout
  1
Model
 70
     1
 71
     0
 10
0.0
 20
0.0
 11
0.0
 21
0.0
 12
0.0
 22
0.0
 32
0.0
 14
0.0
 24
0.0
 34
0.0
 15
420.0
 25
297.0
 35
0.0
146
0.0
 13
0.0
 23
0.0
 33
0.0
 16
1.0
 26
0.0
 36
0.0
 17
0.0
 27
1.0
 37
0.0
 76
     0
330
1F
  0
MLINESTYLE
  5
18
102
{ACAD_REACTORS
330
17
102
}
330
17
100
AcDbMlineStyle
  2
Standard
 70
     0
  3

 62
   256
 51
90.0
 52
90.0
 71
     2
 49
0.5
 62
   256
  6
BYLAYER
 49
-0.5
 62
   256
  6
BYLAYER
  0
ACDBPLACEHOLDER
  5
F
102
{ACAD_REACTORS
330
E
102
}
330
E
  0
ENDSEC
  0
EOF
