  0
SECTION
  2
HEADER
  9
$ACADVER
  1
AC1015
  9
$ACADMAINTVER
 70
     6
  9
$DWGCODEPAGE
  3
ANSI_932
  9
$INSBASE
 10
0.0
 20
0.0
 30
0.0
  9
$EXTMIN
 10
0.0
 20
0.0
 30
0.0
  9
$EXTMAX
 10
420.0
 20
297.0
 30
0.0
  9
$LIMMIN
 10
0.0
 20
0.0
  9
$LIMMAX
 10
420.0
 20
297.0
  9
$ORTHOMODE
 70
     0
  9
$REGENMODE
 70
     1
  9
$FILLMODE
 70
     1
  9
$QTEXTMODE
 70
     0
  9
$MIRRTEXT
 70
     1
  9
$LTSCALE
 40
1.0
  9
$ATTMODE
 70
     1
  9
$TEXTSIZE
 40
2.5
  9
$TRACEWID
 40
1.0
  9
$TEXTSTYLE
  7
ＭＳ ゴシック
  9
$CLAYER
  8
0
  9
$CELTYPE
  6
ByLayer
  9
$CECOLOR
 62
   256
  9
$CELTSCALE
 40
1.0
  9
$DISPSILH
 70
     0
  9
$DIMSCALE
 40
1.0
  9
$DIMASZ
 40
2.5
  9
$DIMEXO
 40
1.0
  9
$DIMDLI
 40
8.0
  9
$DIMRND
 40
0.0
  9
$DIMDLE
 40
4.0
  9
$DIMEXE
 40
1.0
  9
$DIMTP
 40
0.0
  9
$DIMTM
 40
0.0
  9
$DIMTXT
 40
3.5
  9
$DIMCEN
 40
2.5
  9
$DIMTSZ
 40
0.0
  9
$DIMTOL
 70
     0
  9
$DIMLIM
 70
     0
  9
$DIMTIH
 70
     0
  9
$DIMTOH
 70
     0
  9
$DIMSE1
 70
     0
  9
$DIMSE2
 70
     0
  9
$DIMTAD
 70
     1
  9
$DIMZIN
 70
     8
  9
$DIMBLK
  1

  9
$DIMASO
 70
     1
  9
$DIMSHO
 70
     1
  9
$DIMPOST
  1

  9
$DIMAPOST
  1

  9
$DIMALT
 70
     0
  9
$DIMALTD
 70
     3
  9
$DIMALTF
 40
0.03937
  9
$DIMLFAC
 40
1.0
  9
$DIMTOFL
 70
     1
  9
$DIMTVP
 40
0.0
  9
$DIMTIX
 70
     0
  9
$DIMSOXD
 70
     0
  9
$DIMSAH
 70
     1
  9
$DIMBLK1
  1
FXTIP_ARROW_S
  9
$DIMBLK2
  1
FXTIP_ARROW_E
  9
$DIMSTYLE
  2
FX_DIMINFO
  9
$DIMCLRD
 70
     5
  9
$DIMCLRE
 70
     5
  9
$DIMCLRT
 70
    94
  9
$DIMTFAC
 40
1.0
  9
$DIMGAP
 40
1.0
  9
$DIMJUST
 70
     0
  9
$DIMSD1
 70
     0
  9
$DIMSD2
 70
     0
  9
$DIMTOLJ
 70
     1
  9
$DIMTZIN
 70
     8
  9
$DIMALTZ
 70
     0
  9
$DIMALTTZ
 70
     0
  9
$DIMUPT
 70
     0
  9
$DIMDEC
 70
     2
  9
$DIMTDEC
 70
     2
  9
$DIMALTU
 70
     2
  9
$DIMALTTD
 70
     3
  9
$DIMTXSTY
  7
ＭＳ ゴシック
  9
$DIMAUNIT
 70
     0
  9
$DIMADEC
 70
     2
  9
$DIMALTRND
 40
0.0
  9
$DIMAZIN
 70
     2
  9
$DIMDSEP
 70
    46
  9
$DIMATFIT
 70
     3
  9
$DIMFRAC
 70
     0
  9
$DIMLDRBLK
  1
FXTIP_ARROW_S
  9
$DIMLUNIT
 70
     2
  9
$DIMLWD
 70
    -2
  9
$DIMLWE
 70
    -2
  9
$DIMTMOVE
 70
     0
  9
$LUNITS
 70
     2
  9
$LUPREC
 70
     4
  9
$SKETCHINC
 40
1.0
  9
$FILLETRAD
 40
10.0
  9
$AUNITS
 70
     0
  9
$AUPREC
 70
     0
  9
$MENU
  1
.
  9
$ELEVATION
 40
0.0
  9
$PELEVATION
 40
0.0
  9
$THICKNESS
 40
0.0
  9
$LIMCHECK
 70
     0
  9
$CHAMFERA
 40
0.0
  9
$CHAMFERB
 40
0.0
  9
$CHAMFERC
 40
0.0
  9
$CHAMFERD
 40
0.0
  9
$SKPOLY
 70
     0
  9
$TDCREATE
 40
2457232.487594375
  9
$TDUCREATE
 40
2457232.112594375
  9
$TDUPDATE
 40
2457232.487595636
  9
$TDUUPDATE
 40
2457232.112595636
  9
$TDINDWG
 40
0.0000000116
  9
$TDUSRTIMER
 40
0.0000000116
  9
$USRTIMER
 70
     1
  9
$ANGBASE
 50
0.0
  9
$ANGDIR
 70
     0
  9
$PDMODE
 70
     0
  9
$PDSIZE
 40
0.0
  9
$PLINEWID
 40
0.0
  9
$SPLFRAME
 70
     0
  9
$SPLINETYPE
 70
     6
  9
$SPLINESEGS
 70
     8
  9
$HANDSEED
  5
4CF
  9
$SURFTAB1
 70
     6
  9
$SURFTAB2
 70
     6
  9
$SURFTYPE
 70
     6
  9
$SURFU
 70
     6
  9
$SURFV
 70
     6
  9
$UCSBASE
  2

  9
$UCSNAME
  2

  9
$UCSORG
 10
0.0
 20
0.0
 30
0.0
  9
$UCSXDIR
 10
1.0
 20
0.0
 30
0.0
  9
$UCSYDIR
 10
0.0
 20
1.0
 30
0.0
  9
$UCSORTHOREF
  2

  9
$UCSORTHOVIEW
 70
     0
  9
$UCSORGTOP
 10
0.0
 20
0.0
 30
0.0
  9
$UCSORGBOTTOM
 10
0.0
 20
0.0
 30
0.0
  9
$UCSORGLEFT
 10
0.0
 20
0.0
 30
0.0
  9
$UCSORGRIGHT
 10
0.0
 20
0.0
 30
0.0
  9
$UCSORGFRONT
 10
0.0
 20
0.0
 30
0.0
  9
$UCSORGBACK
 10
0.0
 20
0.0
 30
0.0
  9
$PUCSBASE
  2

  9
$PUCSNAME
  2

  9
$PUCSORG
 10
0.0
 20
0.0
 30
0.0
  9
$PUCSXDIR
 10
1.0
 20
0.0
 30
0.0
  9
$PUCSYDIR
 10
0.0
 20
1.0
 30
0.0
  9
$PUCSORTHOREF
  2

  9
$PUCSORTHOVIEW
 70
     0
  9
$PUCSORGTOP
 10
0.0
 20
0.0
 30
0.0
  9
$PUCSORGBOTTOM
 10
0.0
 20
0.0
 30
0.0
  9
$PUCSORGLEFT
 10
0.0
 20
0.0
 30
0.0
  9
$PUCSORGRIGHT
 10
0.0
 20
0.0
 30
0.0
  9
$PUCSORGFRONT
 10
0.0
 20
0.0
 30
0.0
  9
$PUCSORGBACK
 10
0.0
 20
0.0
 30
0.0
  9
$USERI1
 70
     0
  9
$USERI2
 70
     0
  9
$USERI3
 70
     0
  9
$USERI4
 70
     0
  9
$USERI5
 70
     0
  9
$USERR1
 40
0.0
  9
$USERR2
 40
0.0
  9
$USERR3
 40
0.0
  9
$USERR4
 40
0.0
  9
$USERR5
 40
0.0
  9
$WORLDVIEW
 70
     1
  9
$SHADEDGE
 70
     3
  9
$SHADEDIF
 70
    70
  9
$TILEMODE
 70
     1
  9
$MAXACTVP
 70
    64
  9
$PINSBASE
 10
0.0
 20
0.0
 30
0.0
  9
$PLIMCHECK
 70
     0
  9
$PEXTMIN
 10
1.000000000000000E+20
 20
1.000000000000000E+20
 30
1.000000000000000E+20
  9
$PEXTMAX
 10
-1.000000000000000E+20
 20
-1.000000000000000E+20
 30
-1.000000000000000E+20
  9
$PLIMMIN
 10
0.0
 20
0.0
  9
$PLIMMAX
 10
420.0
 20
297.0
  9
$UNITMODE
 70
     0
  9
$VISRETAIN
 70
     1
  9
$PLINEGEN
 70
     0
  9
$PSLTSCALE
 70
     1
  9
$TREEDEPTH
 70
  3020
  9
$CMLSTYLE
  2
Standard
  9
$CMLJUST
 70
     0
  9
$CMLSCALE
 40
20.0
  9
$PROXYGRAPHICS
 70
     1
  9
$MEASUREMENT
 70
     1
  9
$CELWEIGHT
370
    -1
  9
$ENDCAPS
280
     0
  9
$JOINSTYLE
280
     0
  9
$LWDISPLAY
290
     0
  9
$INSUNITS
 70
     4
  9
$HYPERLINKBASE
  1

  9
$STYLESHEET
  1

  9
$XEDIT
290
     1
  9
$CEPSNTYPE
380
     0
  9
$PSTYLEMODE
290
     1
  9
$FINGERPRINTGUID
  2
{1DAB9E04-EB3A-4E56-B2E5-DBB9A69C2A5D}
  9
$VERSIONGUID
  2
{FAEB1C32-E019-11D5-929B-00C0DF256EC4}
  9
$EXTNAMES
290
     1
  9
$PSVPSCALE
 40
0.0
  9
$OLESTARTUP
290
     0
  0
ENDSEC
  0
SECTION
  2
CLASSES
  0
CLASS
  1
ACDBDICTIONARYWDFLT
  2
AcDbDictionaryWithDefault
  3
ObjectDBX Classes
 90
        0
280
     0
281
     0
  0
CLASS
  1
VISUALSTYLE
  2
AcDbVisualStyle
  3
ObjectDBX Classes
 90
     4095
280
     0
281
     0
  0
CLASS
  1
MATERIAL
  2
AcDbMaterial
  3
ObjectDBX Classes
 90
     1153
280
     0
281
     0
  0
CLASS
  1
SCALE
  2
AcDbScale
  3
ObjectDBX Classes
 90
     1153
280
     0
281
     0
  0
CLASS
  1
SUN
  2
AcDbSun
  3
SCENEOE
 90
     1153
280
     0
281
     0
  0
CLASS
  1
DICTIONARYVAR
  2
AcDbDictionaryVar
  3
ObjectDBX Classes
 90
        0
280
     0
281
     0
  0
CLASS
  1
ACDBPLACEHOLDER
  2
AcDbPlaceHolder
  3
ObjectDBX Classes
 90
        0
280
     0
281
     0
  0
CLASS
  1
LAYOUT
  2
AcDbLayout
  3
ObjectDBX Classes
 90
        0
280
     0
281
     0
  0
ENDSEC
  0
SECTION
  2
TABLES
  0
TABLE
  2
VPORT
  5
8
102
{ACAD_XDICTIONARY
360
495
102
}
330
0
100
AcDbSymbolTable
 70
     1
  0
VPORT
  5
29
330
8
100
AcDbSymbolTableRecord
100
AcDbViewportTableRecord
  2
*Active
 70
     0
 10
0.0
 20
0.0
 11
1.0
 21
1.0
 12
210.0
 22
148.5
 13
0.0
 23
0.0
 14
10.0
 24
10.0
 15
10.0
 25
10.0
 16
0.0
 26
0.0
 36
1.0
 17
0.0
 27
0.0
 37
0.0
 40
297.0
 41
1.414141414141414
 42
50.0
 43
0.0
 44
0.0
 50
0.0
 51
0.0
 71
     0
 72
   100
 73
     1
 74
     3
 75
     0
 76
     0
 77
     0
 78
     0
281
     0
 65
     1
110
0.0
120
0.0
130
0.0
111
1.0
121
0.0
131
0.0
112
0.0
122
1.0
132
0.0
 79
     0
146
0.0
  0
ENDTAB
  0
TABLE
  2
LTYPE
  5
5
330
0
100
AcDbSymbolTable
 70
     3
  0
LTYPE
  5
14
330
5
100
AcDbSymbolTableRecord
100
AcDbLinetypeTableRecord
  2
ByBlock
 70
     0
  3

 72
    65
 73
     0
 40
0.0
  0
LTYPE
  5
15
330
5
100
AcDbSymbolTableRecord
100
AcDbLinetypeTableRecord
  2
ByLayer
 70
     0
  3

 72
    65
 73
     0
 40
0.0
  0
LTYPE
  5
16
330
5
100
AcDbSymbolTableRecord
100
AcDbLinetypeTableRecord
  2
Continuous
 70
     0
  3
Solid line
 72
    65
 73
     0
 40
0.0
  0
LTYPE
  5
D9
330
5
100
AcDbSymbolTableRecord
100
AcDbLinetypeTableRecord
  2
0.5実線
 70
     0
  3

 72
    65
 73
     0
 40
0.0
  0
LTYPE
  5
3A8
330
5
100
AcDbSymbolTableRecord
100
AcDbLinetypeTableRecord
  2
0.35点線
 70
     0
  3

 72
    65
 73
     2
 40
2.0
 49
1.0
 74
     0
 49
-1.0
 74
     0
  0
ENDTAB
  0
TABLE
  2
LAYER
  5
2
330
0
100
AcDbSymbolTable
 70
     4
  0
LAYER
  5
10
330
2
100
AcDbSymbolTableRecord
100
AcDbLayerTableRecord
  2
0
 70
     0
 62
     7
  6
Continuous
370
    -3
390
F
  0
LAYER
  5
D6
330
2
100
AcDbSymbolTableRecord
100
AcDbLayerTableRecord
  2
Defpoints
 70
     0
 62
     7
  6
Continuous
290
     0
370
    -3
390
F
  0
LAYER
  5
D8
330
2
100
AcDbSymbolTableRecord
100
AcDbLayerTableRecord
  2
GR2_01
 70
     0
 62
     1
  6
0.5実線
370
    30
390
F
  0
LAYER
  5
2E8
330
2
100
AcDbSymbolTableRecord
100
AcDbLayerTableRecord
  2
GR1_01
 70
     0
 62
     1
  6
0.5実線
370
    30
390
F
  0
ENDTAB
  0
TABLE
  2
STYLE
  5
3
330
0
100
AcDbSymbolTable
 70
     4
  0
STYLE
  5
11
330
3
100
AcDbSymbolTableRecord
100
AcDbTextStyleTableRecord
  2
Standard
 70
     0
 40
0.0
 41
1.0
 50
0.0
 71
     0
 42
2.5
  3
txt
  4

  0
STYLE
  5
6A
330
3
100
AcDbSymbolTableRecord
100
AcDbTextStyleTableRecord
  2
FX_VECTOR
 70
     0
 40
0.0
 41
1.0
 50
0.0
 71
     0
 42
2.5
  3
MONOTXT.SHX
  4
BigFont.shx
  0
STYLE
  5
D5
330
3
100
AcDbSymbolTableRecord
100
AcDbTextStyleTableRecord
  2
ＭＳ ゴシック
 70
     0
 40
0.0
 41
1.0
 50
0.0
 71
     0
 42
2.5
  3

  4

1001
ACAD
1000
ＭＳ ゴシック
1071
    32817
  0
STYLE
  5
D7
330
3
100
AcDbSymbolTableRecord
100
AcDbTextStyleTableRecord
  2
DEFAULT
 70
     0
 40
0.0
 41
1.0
 50
0.0
 71
     0
 42
2.5
  3

  4

1001
ACAD
1000
ＭＳ ゴシック
1071
    32817
  0
ENDTAB
  0
TABLE
  2
VIEW
  5
6
330
0
100
AcDbSymbolTable
 70
     0
  0
ENDTAB
  0
TABLE
  2
UCS
  5
7
330
0
100
AcDbSymbolTable
 70
     0
  0
ENDTAB
  0
TABLE
  2
APPID
  5
9
330
0
100
AcDbSymbolTable
 70
     1
  0
APPID
  5
12
330
9
100
AcDbSymbolTableRecord
100
AcDbRegAppTableRecord
  2
ACAD
 70
     0
  0
ENDTAB
  0
TABLE
  2
DIMSTYLE
  5
A
330
0
100
AcDbSymbolTable
 70
     2
100
AcDbDimStyleTable
  0
DIMSTYLE
105
27
330
A
100
AcDbSymbolTableRecord
100
AcDbDimStyleTableRecord
  2
ISO-25
 70
     0
 41
2.5
 42
0.625
 43
3.75
 44
1.25
 73
     0
 74
     0
 77
     1
 78
     8
140
2.5
141
2.5
143
0.03937007874016
147
0.625
171
     3
172
     1
178
     0
271
     2
272
     2
274
     3
278
    44
283
     0
284
     8
340
11
  0
DIMSTYLE
105
D4
102
{ACAD_REACTORS
330
F1
330
134
330
324
330
32E
330
464
330
46E
330
478
330
482
102
}
330
A
100
AcDbSymbolTableRecord
100
AcDbDimStyleTableRecord
  2
FX_DIMINFO
 70
     0
 41
2.5
 42
1.0
 43
8.0
 44
1.0
 46
4.0
 73
     0
 74
     0
 77
     1
 78
     8
 79
     2
140
3.5
141
2.5
143
0.03937
147
1.0
171
     3
172
     1
173
     1
176
     5
177
     5
271
     2
178
    94
179
     2
271
     2
272
     2
274
     3
284
     8
340
D5
341
6E
343
6E
344
74
  0
ENDTAB
  0
TABLE
  2
BLOCK_RECORD
  5
1
330
0
100
AcDbSymbolTable
 70
    37
  0
BLOCK_RECORD
  5
1F
330
1
100
AcDbSymbolTableRecord
100
AcDbBlockTableRecord
  2
*Model_Space
340
22
  0
BLOCK_RECORD
  5
1B
330
1
100
AcDbSymbolTableRecord
100
AcDbBlockTableRecord
  2
*Paper_Space
340
1E
  0
BLOCK_RECORD
  5
23
330
1
100
AcDbSymbolTableRecord
100
AcDbBlockTableRecord
  2
*Paper_Space0
340
26
  0
BLOCK_RECORD
  5
6B
330
1
100
AcDbSymbolTableRecord
100
AcDbBlockTableRecord
  2
FXTIP_NONE
340
0
  0
BLOCK_RECORD
  5
6E
330
1
100
AcDbSymbolTableRecord
100
AcDbBlockTableRecord
  2
FXTIP_ARROW_S
340
0
102
{BLKREFS
331
F7
331
13A
331
32A
331
334
331
46A
331
474
331
47E
331
488
102
}
  0
BLOCK_RECORD
  5
74
330
1
100
AcDbSymbolTableRecord
100
AcDbBlockTableRecord
  2
FXTIP_ARROW_E
340
0
102
{BLKREFS
331
F8
331
13B
331
32B
331
335
331
46B
331
475
331
47F
331
489
102
}
  0
BLOCK_RECORD
  5
7A
330
1
100
AcDbSymbolTableRecord
100
AcDbBlockTableRecord
  2
FXTIP_BLACKDOT_S
340
0
  0
BLOCK_RECORD
  5
80
330
1
100
AcDbSymbolTableRecord
100
AcDbBlockTableRecord
  2
FXTIP_BLACKDOT_E
340
0
  0
BLOCK_RECORD
  5
86
330
1
100
AcDbSymbolTableRecord
100
AcDbBlockTableRecord
  2
FXTIP_TRIANGLE_S
340
0
  0
BLOCK_RECORD
  5
8D
330
1
100
AcDbSymbolTableRecord
100
AcDbBlockTableRecord
  2
FXTIP_TRIANGLE_E
340
0
  0
BLOCK_RECORD
  5
94
330
1
100
AcDbSymbolTableRecord
100
AcDbBlockTableRecord
  2
FXTIP_ARCHITECT_S
340
0
  0
BLOCK_RECORD
  5
9A
330
1
100
AcDbSymbolTableRecord
100
AcDbBlockTableRecord
  2
FXTIP_ARCHITECT_E
340
0
  0
BLOCK_RECORD
  5
A0
330
1
100
AcDbSymbolTableRecord
100
AcDbBlockTableRecord
  2
FXTIP_CIVIL_S
340
0
  0
BLOCK_RECORD
  5
A6
330
1
100
AcDbSymbolTableRecord
100
AcDbBlockTableRecord
  2
FXTIP_CIVIL_E
340
0
  0
BLOCK_RECORD
  5
AC
330
1
100
AcDbSymbolTableRecord
100
AcDbBlockTableRecord
  2
FXTIP_WHITEDOT_S
340
0
  0
BLOCK_RECORD
  5
B1
330
1
100
AcDbSymbolTableRecord
100
AcDbBlockTableRecord
  2
FXTIP_WHITEDOT_E
340
0
  0
BLOCK_RECORD
  5
B6
330
1
100
AcDbSymbolTableRecord
100
AcDbBlockTableRecord
  2
FXTIP_UPARROW_S
340
0
  0
BLOCK_RECORD
  5
BB
330
1
100
AcDbSymbolTableRecord
100
AcDbBlockTableRecord
  2
FXTIP_UPARROW_E
340
0
  0
BLOCK_RECORD
  5
C0
330
1
100
AcDbSymbolTableRecord
100
AcDbBlockTableRecord
  2
FXTIP_DOWNARROW_S
340
0
  0
BLOCK_RECORD
  5
C5
330
1
100
AcDbSymbolTableRecord
100
AcDbBlockTableRecord
  2
FXTIP_DOWNARROW_E
340
0
  0
BLOCK_RECORD
  5
CA
330
1
100
AcDbSymbolTableRecord
100
AcDbBlockTableRecord
  2
FXTIP_BLACKTRIANGLE_S
340
0
  0
BLOCK_RECORD
  5
CF
330
1
100
AcDbSymbolTableRecord
100
AcDbBlockTableRecord
  2
FXTIP_BLACKTRIANGLE_E
340
0
  0
BLOCK_RECORD
  5
F2
330
1
100
AcDbSymbolTableRecord
100
AcDbBlockTableRecord
  2
*D20
340
0
  0
BLOCK_RECORD
  5
135
330
1
100
AcDbSymbolTableRecord
100
AcDbBlockTableRecord
  2
*D21
340
0
  0
BLOCK_RECORD
  5
171
330
1
100
AcDbSymbolTableRecord
100
AcDbBlockTableRecord
  2
BLKF025
340
0
102
{BLKREFS
331
174
102
}
  0
BLOCK_RECORD
  5
178
330
1
100
AcDbSymbolTableRecord
100
AcDbBlockTableRecord
  2
BLKF026
340
0
102
{BLKREFS
331
17B
102
}
  0
BLOCK_RECORD
  5
183
330
1
100
AcDbSymbolTableRecord
100
AcDbBlockTableRecord
  2
BLKF027
340
0
102
{BLKREFS
331
186
102
}
  0
BLOCK_RECORD
  5
190
330
1
100
AcDbSymbolTableRecord
100
AcDbBlockTableRecord
  2
BLKF028
340
0
102
{BLKREFS
331
193
102
}
  0
BLOCK_RECORD
  5
19D
330
1
100
AcDbSymbolTableRecord
100
AcDbBlockTableRecord
  2
BLKF029
340
0
102
{BLKREFS
331
1A0
102
}
  0
BLOCK_RECORD
  5
325
330
1
100
AcDbSymbolTableRecord
100
AcDbBlockTableRecord
  2
*D27
340
0
  0
BLOCK_RECORD
  5
32F
330
1
100
AcDbSymbolTableRecord
100
AcDbBlockTableRecord
  2
*D28
340
0
  0
BLOCK_RECORD
  5
3AA
330
1
100
AcDbSymbolTableRecord
100
AcDbBlockTableRecord
  2
BLKF032
340
0
102
{BLKREFS
331
3AD
102
}
  0
BLOCK_RECORD
  5
3BC
330
1
100
AcDbSymbolTableRecord
100
AcDbBlockTableRecord
  2
BLKF033
340
0
102
{BLKREFS
331
3BF
102
}
  0
BLOCK_RECORD
  5
3F7
330
1
100
AcDbSymbolTableRecord
100
AcDbBlockTableRecord
  2
BLKF034
340
0
102
{BLKREFS
331
3FA
102
}
  0
BLOCK_RECORD
  5
44F
330
1
100
AcDbSymbolTableRecord
100
AcDbBlockTableRecord
  2
BLKF035
340
0
102
{BLKREFS
331
452
102
}
  0
BLOCK_RECORD
  5
465
330
1
100
AcDbSymbolTableRecord
100
AcDbBlockTableRecord
  2
*D33
340
0
  0
BLOCK_RECORD
  5
46F
330
1
100
AcDbSymbolTableRecord
100
AcDbBlockTableRecord
  2
*D34
340
0
  0
BLOCK_RECORD
  5
479
330
1
100
AcDbSymbolTableRecord
100
AcDbBlockTableRecord
  2
*D35
340
0
  0
BLOCK_RECORD
  5
483
330
1
100
AcDbSymbolTableRecord
100
AcDbBlockTableRecord
  2
*D36
340
0
  0
ENDTAB
  0
ENDSEC
  0
SECTION
  2
BLOCKS
  0
BLOCK
  5
20
330
1F
100
AcDbEntity
  8
0
100
AcDbBlockBegin
  2
*Model_Space
 70
     0
 10
0.0
 20
0.0
 30
0.0
  3
*Model_Space
  1
*Model_Space
  0
ENDBLK
  5
21
330
1F
100
AcDbEntity
  8
0
100
AcDbBlockEnd
  0
BLOCK
  5
1C
330
1B
100
AcDbEntity
 67
     1
  8
0
100
AcDbBlockBegin
  2
*Paper_Space
 70
     0
 10
0.0
 20
0.0
 30
0.0
  3
*Paper_Space
  1
*Paper_Space
  0
ENDBLK
  5
1D
330
1B
100
AcDbEntity
 67
     1
  8
0
100
AcDbBlockEnd
  0
BLOCK
  5
24
330
23
100
AcDbEntity
  8
0
100
AcDbBlockBegin
  2
*Paper_Space0
 70
     0
 10
0.0
 20
0.0
 30
0.0
  3
*Paper_Space0
  1
*Paper_Space0
  0
ENDBLK
  5
25
330
23
100
AcDbEntity
  8
0
100
AcDbBlockEnd
  0
BLOCK
  5
6C
330
6B
100
AcDbEntity
  8
0
100
AcDbBlockBegin
  2
FXTIP_NONE
 70
     0
 10
0.0
 20
0.0
 30
0.0
  3
FXTIP_NONE
  1
FXTIP_NONE
  0
ENDBLK
  5
6D
330
6B
100
AcDbEntity
  8
0
100
AcDbBlockEnd
  0
BLOCK
  5
6F
330
6E
100
AcDbEntity
  8
0
100
AcDbBlockBegin
  2
FXTIP_ARROW_S
 70
     0
 10
0.0
 20
0.0
 30
0.0
  3
FXTIP_ARROW_S
  1
FXTIP_ARROW_S
  0
LINE
  5
71
330
6E
100
AcDbEntity
  8
0
  6
Continuous
 62
     0
370
    -2
100
AcDbLine
 10
0.0
 20
0.0
 30
0.0
 11
-1.0
 21
0.0000000000000001
 31
0.0
  0
LINE
  5
72
330
6E
100
AcDbEntity
  8
0
  6
Continuous
 62
     0
370
    -2
100
AcDbLine
 10
0.0
 20
0.0
 30
0.0
 11
-0.9659258262890683
 21
-0.2588190451025206
 31
0.0
  0
LINE
  5
73
330
6E
100
AcDbEntity
  8
0
  6
Continuous
 62
     0
370
    -2
100
AcDbLine
 10
0.0
 20
0.0
 30
0.0
 11
-0.9659258262890683
 21
0.2588190451025209
 31
0.0
  0
ENDBLK
  5
70
330
6E
100
AcDbEntity
  8
0
100
AcDbBlockEnd
  0
BLOCK
  5
75
330
74
100
AcDbEntity
  8
0
100
AcDbBlockBegin
  2
FXTIP_ARROW_E
 70
     0
 10
0.0
 20
0.0
 30
0.0
  3
FXTIP_ARROW_E
  1
FXTIP_ARROW_E
  0
LINE
  5
77
330
74
100
AcDbEntity
  8
0
  6
Continuous
 62
     0
370
    -2
100
AcDbLine
 10
0.0
 20
0.0
 30
0.0
 11
-1.0
 21
0.0
 31
0.0
  0
LINE
  5
78
330
74
100
AcDbEntity
  8
0
  6
Continuous
 62
     0
370
    -2
100
AcDbLine
 10
0.0
 20
0.0
 30
0.0
 11
-0.9659258262890683
 21
0.2588190451025207
 31
0.0
  0
LINE
  5
79
330
74
100
AcDbEntity
  8
0
  6
Continuous
 62
     0
370
    -2
100
AcDbLine
 10
0.0
 20
0.0
 30
0.0
 11
-0.9659258262890683
 21
-0.2588190451025207
 31
0.0
  0
ENDBLK
  5
76
330
74
100
AcDbEntity
  8
0
100
AcDbBlockEnd
  0
BLOCK
  5
7B
330
7A
100
AcDbEntity
  8
0
100
AcDbBlockBegin
  2
FXTIP_BLACKDOT_S
 70
     0
 10
0.0
 20
0.0
 30
0.0
  3
FXTIP_BLACKDOT_S
  1
FXTIP_BLACKDOT_S
  0
LINE
  5
7D
330
7A
100
AcDbEntity
  8
0
  6
Continuous
 62
     0
370
    -2
100
AcDbLine
 10
0.0
 20
0.0
 30
0.0
 11
-1.0
 21
0.0000000000000001
 31
0.0
  0
LWPOLYLINE
  5
7E
330
7A
100
AcDbEntity
  8
0
  6
Continuous
 62
     0
370
    -2
100
AcDbPolyline
 90
        2
 70
     1
 43
0.2
 10
-0.1
 20
0.0
 42
1.0
 10
0.1
 20
0.0
 42
1.0
  0
CIRCLE
  5
7F
330
7A
100
AcDbEntity
  8
0
  6
Continuous
 62
     0
370
    -2
100
AcDbCircle
 10
0.0
 20
0.0
 30
0.0
 40
0.2
  0
ENDBLK
  5
7C
330
7A
100
AcDbEntity
  8
0
100
AcDbBlockEnd
  0
BLOCK
  5
81
330
80
100
AcDbEntity
  8
0
100
AcDbBlockBegin
  2
FXTIP_BLACKDOT_E
 70
     0
 10
0.0
 20
0.0
 30
0.0
  3
FXTIP_BLACKDOT_E
  1
FXTIP_BLACKDOT_E
  0
LINE
  5
83
330
80
100
AcDbEntity
  8
0
  6
Continuous
 62
     0
370
    -2
100
AcDbLine
 10
0.0
 20
0.0
 30
0.0
 11
-1.0
 21
0.0
 31
0.0
  0
LWPOLYLINE
  5
84
330
80
100
AcDbEntity
  8
0
  6
Continuous
 62
     0
370
    -2
100
AcDbPolyline
 90
        2
 70
     1
 43
0.2
 10
-0.1
 20
0.0
 42
1.0
 10
0.1
 20
0.0
 42
1.0
  0
CIRCLE
  5
85
330
80
100
AcDbEntity
  8
0
  6
Continuous
 62
     0
370
    -2
100
AcDbCircle
 10
0.0
 20
0.0
 30
0.0
 40
0.2
  0
ENDBLK
  5
82
330
80
100
AcDbEntity
  8
0
100
AcDbBlockEnd
  0
BLOCK
  5
87
330
86
100
AcDbEntity
  8
0
100
AcDbBlockBegin
  2
FXTIP_TRIANGLE_S
 70
     0
 10
0.0
 20
0.0
 30
0.0
  3
FXTIP_TRIANGLE_S
  1
FXTIP_TRIANGLE_S
  0
LINE
  5
89
330
86
100
AcDbEntity
  8
0
  6
Continuous
 62
     0
370
    -2
100
AcDbLine
 10
0.0
 20
0.0
 30
0.0
 11
-1.0
 21
0.0000000000000001
 31
0.0
  0
LINE
  5
8A
330
86
100
AcDbEntity
  8
0
  6
Continuous
 62
     0
370
    -2
100
AcDbLine
 10
0.0
 20
0.0
 30
0.0
 11
-0.9659258262890683
 21
-0.2588190451025206
 31
0.0
  0
LINE
  5
8B
330
86
100
AcDbEntity
  8
0
  6
Continuous
 62
     0
370
    -2
100
AcDbLine
 10
0.0
 20
0.0
 30
0.0
 11
-0.9659258262890683
 21
0.2588190451025209
 31
0.0
  0
LINE
  5
8C
330
86
100
AcDbEntity
  8
0
  6
Continuous
 62
     0
370
    -2
100
AcDbLine
 10
-0.9659258262890683
 20
-0.2588190451025206
 30
0.0
 11
-0.9659258262890683
 21
0.2588190451025209
 31
0.0
  0
ENDBLK
  5
88
330
86
100
AcDbEntity
  8
0
100
AcDbBlockEnd
  0
BLOCK
  5
8E
330
8D
100
AcDbEntity
  8
0
100
AcDbBlockBegin
  2
FXTIP_TRIANGLE_E
 70
     0
 10
0.0
 20
0.0
 30
0.0
  3
FXTIP_TRIANGLE_E
  1
FXTIP_TRIANGLE_E
  0
LINE
  5
90
330
8D
100
AcDbEntity
  8
0
  6
Continuous
 62
     0
370
    -2
100
AcDbLine
 10
0.0
 20
0.0
 30
0.0
 11
-1.0
 21
0.0
 31
0.0
  0
LINE
  5
91
330
8D
100
AcDbEntity
  8
0
  6
Continuous
 62
     0
370
    -2
100
AcDbLine
 10
0.0
 20
0.0
 30
0.0
 11
-0.9659258262890683
 21
0.2588190451025207
 31
0.0
  0
LINE
  5
92
330
8D
100
AcDbEntity
  8
0
  6
Continuous
 62
     0
370
    -2
100
AcDbLine
 10
0.0
 20
0.0
 30
0.0
 11
-0.9659258262890683
 21
-0.2588190451025207
 31
0.0
  0
LINE
  5
93
330
8D
100
AcDbEntity
  8
0
  6
Continuous
 62
     0
370
    -2
100
AcDbLine
 10
-0.9659258262890683
 20
0.2588190451025207
 30
0.0
 11
-0.9659258262890683
 21
-0.2588190451025207
 31
0.0
  0
ENDBLK
  5
8F
330
8D
100
AcDbEntity
  8
0
100
AcDbBlockEnd
  0
BLOCK
  5
95
330
94
100
AcDbEntity
  8
0
100
AcDbBlockBegin
  2
FXTIP_ARCHITECT_S
 70
     0
 10
0.0
 20
0.0
 30
0.0
  3
FXTIP_ARCHITECT_S
  1
FXTIP_ARCHITECT_S
  0
LINE
  5
97
330
94
100
AcDbEntity
  8
0
  6
Continuous
 62
     0
370
    -2
100
AcDbLine
 10
0.0
 20
0.0
 30
0.0
 11
-1.0
 21
0.0000000000000001
 31
0.0
  0
LINE
  5
98
330
94
100
AcDbEntity
  8
0
  6
Continuous
 62
     0
370
    -2
100
AcDbLine
 10
0.0
 20
0.0
 30
0.0
 11
-0.7071067811865476
 21
-0.7071067811865474
 31
0.0
  0
LINE
  5
99
330
94
100
AcDbEntity
  8
0
  6
Continuous
 62
     0
370
    -2
100
AcDbLine
 10
0.0
 20
0.0
 30
0.0
 11
0.7071067811865476
 21
0.7071067811865474
 31
0.0
  0
ENDBLK
  5
96
330
94
100
AcDbEntity
  8
0
100
AcDbBlockEnd
  0
BLOCK
  5
9B
330
9A
100
AcDbEntity
  8
0
100
AcDbBlockBegin
  2
FXTIP_ARCHITECT_E
 70
     0
 10
0.0
 20
0.0
 30
0.0
  3
FXTIP_ARCHITECT_E
  1
FXTIP_ARCHITECT_E
  0
LINE
  5
9D
330
9A
100
AcDbEntity
  8
0
  6
Continuous
 62
     0
370
    -2
100
AcDbLine
 10
0.0
 20
0.0
 30
0.0
 11
-1.0
 21
0.0
 31
0.0
  0
LINE
  5
9E
330
9A
100
AcDbEntity
  8
0
  6
Continuous
 62
     0
370
    -2
100
AcDbLine
 10
0.0
 20
0.0
 30
0.0
 11
0.7071067811865475
 21
0.7071067811865475
 31
0.0
  0
LINE
  5
9F
330
9A
100
AcDbEntity
  8
0
  6
Continuous
 62
     0
370
    -2
100
AcDbLine
 10
0.0
 20
0.0
 30
0.0
 11
-0.7071067811865475
 21
-0.7071067811865475
 31
0.0
  0
ENDBLK
  5
9C
330
9A
100
AcDbEntity
  8
0
100
AcDbBlockEnd
  0
BLOCK
  5
A1
330
A0
100
AcDbEntity
  8
0
100
AcDbBlockBegin
  2
FXTIP_CIVIL_S
 70
     0
 10
0.0
 20
0.0
 30
0.0
  3
FXTIP_CIVIL_S
  1
FXTIP_CIVIL_S
  0
LINE
  5
A3
330
A0
100
AcDbEntity
  8
0
  6
Continuous
 62
     0
370
    -2
100
AcDbLine
 10
0.0
 20
0.0
 30
0.0
 11
-1.0
 21
0.0000000000000001
 31
0.0
  0
LINE
  5
A4
330
A0
100
AcDbEntity
  8
0
  6
Continuous
 62
     0
370
    -2
100
AcDbLine
 10
0.0
 20
-0.1
 30
0.0
 11
-1.0
 21
-0.0999999999999999
 31
0.0
  0
LINE
  5
A5
330
A0
100
AcDbEntity
  8
0
  6
Continuous
 62
     0
370
    -2
100
AcDbLine
 10
0.0
 20
-0.2
 30
0.0
 11
-1.0
 21
-0.1999999999999999
 31
0.0
  0
ENDBLK
  5
A2
330
A0
100
AcDbEntity
  8
0
100
AcDbBlockEnd
  0
BLOCK
  5
A7
330
A6
100
AcDbEntity
  8
0
100
AcDbBlockBegin
  2
FXTIP_CIVIL_E
 70
     0
 10
0.0
 20
0.0
 30
0.0
  3
FXTIP_CIVIL_E
  1
FXTIP_CIVIL_E
  0
LINE
  5
A9
330
A6
100
AcDbEntity
  8
0
  6
Continuous
 62
     0
370
    -2
100
AcDbLine
 10
0.0
 20
0.0
 30
0.0
 11
-1.0
 21
0.0
 31
0.0
  0
LINE
  5
AA
330
A6
100
AcDbEntity
  8
0
  6
Continuous
 62
     0
370
    -2
100
AcDbLine
 10
0.0
 20
0.1
 30
0.0
 11
-1.0
 21
0.1
 31
0.0
  0
LINE
  5
AB
330
A6
100
AcDbEntity
  8
0
  6
Continuous
 62
     0
370
    -2
100
AcDbLine
 10
0.0
 20
0.2
 30
0.0
 11
-1.0
 21
0.2
 31
0.0
  0
ENDBLK
  5
A8
330
A6
100
AcDbEntity
  8
0
100
AcDbBlockEnd
  0
BLOCK
  5
AD
330
AC
100
AcDbEntity
  8
0
100
AcDbBlockBegin
  2
FXTIP_WHITEDOT_S
 70
     0
 10
0.0
 20
0.0
 30
0.0
  3
FXTIP_WHITEDOT_S
  1
FXTIP_WHITEDOT_S
  0
LINE
  5
AF
330
AC
100
AcDbEntity
  8
0
  6
Continuous
 62
     0
370
    -2
100
AcDbLine
 10
0.0
 20
0.0
 30
0.0
 11
-1.0
 21
0.0000000000000001
 31
0.0
  0
CIRCLE
  5
B0
330
AC
100
AcDbEntity
  8
0
  6
Continuous
 62
     0
370
    -2
100
AcDbCircle
 10
0.0
 20
0.0
 30
0.0
 40
0.2
  0
ENDBLK
  5
AE
330
AC
100
AcDbEntity
  8
0
100
AcDbBlockEnd
  0
BLOCK
  5
B2
330
B1
100
AcDbEntity
  8
0
100
AcDbBlockBegin
  2
FXTIP_WHITEDOT_E
 70
     0
 10
0.0
 20
0.0
 30
0.0
  3
FXTIP_WHITEDOT_E
  1
FXTIP_WHITEDOT_E
  0
LINE
  5
B4
330
B1
100
AcDbEntity
  8
0
  6
Continuous
 62
     0
370
    -2
100
AcDbLine
 10
0.0
 20
0.0
 30
0.0
 11
-1.0
 21
0.0
 31
0.0
  0
CIRCLE
  5
B5
330
B1
100
AcDbEntity
  8
0
  6
Continuous
 62
     0
370
    -2
100
AcDbCircle
 10
0.0
 20
0.0
 30
0.0
 40
0.2
  0
ENDBLK
  5
B3
330
B1
100
AcDbEntity
  8
0
100
AcDbBlockEnd
  0
BLOCK
  5
B7
330
B6
100
AcDbEntity
  8
0
100
AcDbBlockBegin
  2
FXTIP_UPARROW_S
 70
     0
 10
0.0
 20
0.0
 30
0.0
  3
FXTIP_UPARROW_S
  1
FXTIP_UPARROW_S
  0
LINE
  5
B9
330
B6
100
AcDbEntity
  8
0
  6
Continuous
 62
     0
370
    -2
100
AcDbLine
 10
0.0
 20
0.0
 30
0.0
 11
-1.0
 21
0.0000000000000001
 31
0.0
  0
LINE
  5
BA
330
B6
100
AcDbEntity
  8
0
  6
Continuous
 62
     0
370
    -2
100
AcDbLine
 10
0.0
 20
0.0
 30
0.0
 11
-0.9659258262890683
 21
-0.2588190451025206
 31
0.0
  0
ENDBLK
  5
B8
330
B6
100
AcDbEntity
  8
0
100
AcDbBlockEnd
  0
BLOCK
  5
BC
330
BB
100
AcDbEntity
  8
0
100
AcDbBlockBegin
  2
FXTIP_UPARROW_E
 70
     0
 10
0.0
 20
0.0
 30
0.0
  3
FXTIP_UPARROW_E
  1
FXTIP_UPARROW_E
  0
LINE
  5
BE
330
BB
100
AcDbEntity
  8
0
  6
Continuous
 62
     0
370
    -2
100
AcDbLine
 10
0.0
 20
0.0
 30
0.0
 11
-1.0
 21
0.0
 31
0.0
  0
LINE
  5
BF
330
BB
100
AcDbEntity
  8
0
  6
Continuous
 62
     0
370
    -2
100
AcDbLine
 10
0.0
 20
0.0
 30
0.0
 11
-0.9659258262890683
 21
0.2588190451025207
 31
0.0
  0
ENDBLK
  5
BD
330
BB
100
AcDbEntity
  8
0
100
AcDbBlockEnd
  0
BLOCK
  5
C1
330
C0
100
AcDbEntity
  8
0
100
AcDbBlockBegin
  2
FXTIP_DOWNARROW_S
 70
     0
 10
0.0
 20
0.0
 30
0.0
  3
FXTIP_DOWNARROW_S
  1
FXTIP_DOWNARROW_S
  0
LINE
  5
C3
330
C0
100
AcDbEntity
  8
0
  6
Continuous
 62
     0
370
    -2
100
AcDbLine
 10
0.0
 20
0.0
 30
0.0
 11
-1.0
 21
0.0000000000000001
 31
0.0
  0
LINE
  5
C4
330
C0
100
AcDbEntity
  8
0
  6
Continuous
 62
     0
370
    -2
100
AcDbLine
 10
0.0
 20
0.0
 30
0.0
 11
-0.9659258262890683
 21
0.2588190451025209
 31
0.0
  0
ENDBLK
  5
C2
330
C0
100
AcDbEntity
  8
0
100
AcDbBlockEnd
  0
BLOCK
  5
C6
330
C5
100
AcDbEntity
  8
0
100
AcDbBlockBegin
  2
FXTIP_DOWNARROW_E
 70
     0
 10
0.0
 20
0.0
 30
0.0
  3
FXTIP_DOWNARROW_E
  1
FXTIP_DOWNARROW_E
  0
LINE
  5
C8
330
C5
100
AcDbEntity
  8
0
  6
Continuous
 62
     0
370
    -2
100
AcDbLine
 10
0.0
 20
0.0
 30
0.0
 11
-1.0
 21
0.0
 31
0.0
  0
LINE
  5
C9
330
C5
100
AcDbEntity
  8
0
  6
Continuous
 62
     0
370
    -2
100
AcDbLine
 10
0.0
 20
0.0
 30
0.0
 11
-0.9659258262890683
 21
-0.2588190451025207
 31
0.0
  0
ENDBLK
  5
C7
330
C5
100
AcDbEntity
  8
0
100
AcDbBlockEnd
  0
BLOCK
  5
CB
330
CA
100
AcDbEntity
  8
0
100
AcDbBlockBegin
  2
FXTIP_BLACKTRIANGLE_S
 70
     0
 10
0.0
 20
0.0
 30
0.0
  3
FXTIP_BLACKTRIANGLE_S
  1
FXTIP_BLACKTRIANGLE_S
  0
LINE
  5
CD
330
CA
100
AcDbEntity
  8
0
  6
Continuous
 62
     0
370
    -2
100
AcDbLine
 10
0.0
 20
0.0
 30
0.0
 11
-1.0
 21
0.0000000000000001
 31
0.0
  0
SOLID
  5
CE
330
CA
100
AcDbEntity
  8
0
  6
Continuous
 62
     0
370
    -2
100
AcDbTrace
 10
0.0
 20
0.0
 30
0.0
 11
-0.9659258262890683
 21
-0.2588190451025206
 31
0.0
 12
-0.9659258262890683
 22
0.2588190451025209
 32
0.0
 13
-0.9659258262890683
 23
0.2588190451025209
 33
0.0
  0
ENDBLK
  5
CC
330
CA
100
AcDbEntity
  8
0
100
AcDbBlockEnd
  0
BLOCK
  5
D0
330
CF
100
AcDbEntity
  8
0
100
AcDbBlockBegin
  2
FXTIP_BLACKTRIANGLE_E
 70
     0
 10
0.0
 20
0.0
 30
0.0
  3
FXTIP_BLACKTRIANGLE_E
  1
FXTIP_BLACKTRIANGLE_E
  0
LINE
  5
D2
330
CF
100
AcDbEntity
  8
0
  6
Continuous
 62
     0
370
    -2
100
AcDbLine
 10
0.0
 20
0.0
 30
0.0
 11
-1.0
 21
0.0
 31
0.0
  0
SOLID
  5
D3
330
CF
100
AcDbEntity
  8
0
  6
Continuous
 62
     0
370
    -2
100
AcDbTrace
 10
0.0
 20
0.0
 30
0.0
 11
-0.9659258262890683
 21
0.2588190451025207
 31
0.0
 12
-0.9659258262890683
 22
-0.2588190451025207
 32
0.0
 13
-0.9659258262890683
 23
-0.2588190451025207
 33
0.0
  0
ENDBLK
  5
D1
330
CF
100
AcDbEntity
  8
0
100
AcDbBlockEnd
  0
BLOCK
  5
F3
330
F2
100
AcDbEntity
  8
0
100
AcDbBlockBegin
  2
*D20
 70
     1
 10
0.0
 20
0.0
 30
0.0
  3
*D20
  1
*D20
  0
TEXT
  5
F5
330
F2
100
AcDbEntity
  8
0
  6
ByBlock
 62
    94
370
    -2
100
AcDbText
 10
102.5807214910334
 20
40.98517608642578
 30
0.0
 40
2.651515151515151
  1
４１．９
 50
90.0
 41
0.8703296703296703
  7
ＭＳ ゴシック
 72
     1
 11
103.0650787353516
 21
46.98517608642578
 31
0.0
100
AcDbText
 73
     1
  0
LINE
  5
F6
330
F2
100
AcDbEntity
  8
0
  6
ByBlock
 62
     0
370
    -2
100
AcDbLine
 10
104.0650769849935
 20
25.43516834722941
 30
0.0
 11
104.0650769849936
 21
67.33516834722938
 31
0.0
  0
INSERT
  5
F7
330
F2
100
AcDbEntity
  8
0
  6
ByBlock
 62
     0
370
    -2
100
AcDbBlockReference
  2
FXTIP_ARROW_S
 10
104.0650769849935
 20
25.43516834722941
 30
0.0
 41
2.5
 42
2.5
 50
270.0
  0
INSERT
  5
F8
330
F2
100
AcDbEntity
  8
0
  6
ByBlock
 62
     0
370
    -2
100
AcDbBlockReference
  2
FXTIP_ARROW_E
 10
104.0650769849936
 20
67.33516834722938
 30
0.0
 41
2.5
 42
2.5
 50
90.0
  0
LINE
  5
F9
330
F2
100
AcDbEntity
  8
0
  6
ByBlock
 62
     0
370
    -2
100
AcDbLine
 10
87.34578167542887
 20
25.43516834722939
 30
0.0
 11
105.0650769849935
 21
25.43516834722939
 31
0.0
  0
LINE
  5
FA
330
F2
100
AcDbEntity
  8
0
  6
ByBlock
 62
     0
370
    -2
100
AcDbLine
 10
85.95755158977173
 20
67.33516834722937
 30
0.0
 11
105.0650769849935
 21
67.33516834722937
 31
0.0
  0
ENDBLK
  5
F4
330
F2
100
AcDbEntity
  8
0
100
AcDbBlockEnd
  0
BLOCK
  5
136
330
135
100
AcDbEntity
  8
0
100
AcDbBlockBegin
  2
*D21
 70
     1
 10
0.0
 20
0.0
 30
0.0
  3
*D21
  1
*D21
  0
TEXT
  5
138
330
135
100
AcDbEntity
  8
0
  6
ByBlock
 62
    94
370
    -2
100
AcDbText
 10
102.5807214910334
 20
175.7691040039062
 30
0.0
 40
2.651515151515151
  1
２０４
 50
90.0
 41
0.8703296703296705
  7
ＭＳ ゴシック
 72
     1
 11
103.0650787353516
 21
180.2691040039062
 31
0.0
100
AcDbText
 73
     1
  0
LINE
  5
139
330
135
100
AcDbEntity
  8
0
  6
ByBlock
 62
     0
370
    -2
100
AcDbLine
 10
104.0650769849936
 20
78.26910824944386
 30
0.0
 11
104.0650769849936
 21
282.2691082494437
 31
0.0
  0
INSERT
  5
13A
330
135
100
AcDbEntity
  8
0
  6
ByBlock
 62
     0
370
    -2
100
AcDbBlockReference
  2
FXTIP_ARROW_S
 10
104.0650769849936
 20
78.26910824944386
 30
0.0
 41
2.5
 42
2.5
 50
270.0
  0
INSERT
  5
13B
330
135
100
AcDbEntity
  8
0
  6
ByBlock
 62
     0
370
    -2
100
AcDbBlockReference
  2
FXTIP_ARROW_E
 10
104.0650769849936
 20
282.2691082494437
 30
0.0
 41
2.5
 42
2.5
 50
90.0
  0
LINE
  5
13C
330
135
100
AcDbEntity
  8
0
  6
ByBlock
 62
     0
370
    -2
100
AcDbLine
 10
86.34578167542887
 20
78.26910824944383
 30
0.0
 11
105.0650769849936
 21
78.26910824944386
 31
0.0
  0
LINE
  5
13D
330
135
100
AcDbEntity
  8
0
  6
ByBlock
 62
     0
370
    -2
100
AcDbLine
 10
86.34578167542887
 20
282.2691082494438
 30
0.0
 11
105.0650769849936
 21
282.2691082494437
 31
0.0
  0
ENDBLK
  5
137
330
135
100
AcDbEntity
  8
0
100
AcDbBlockEnd
  0
BLOCK
  5
172
330
171
100
AcDbEntity
  8
0
100
AcDbBlockBegin
  2
BLKF025
 70
     0
 10
0.0
 20
0.0
 30
0.0
  3
BLKF025
  1
BLKF025
  0
LINE
  5
175
330
171
100
AcDbEntity
  8
0
  6
ByBlock
 62
     0
370
    -2
100
AcDbLine
 10
221.1836526478108
 20
92.45958596855289
 30
0.0
 11
218.8026972095928
 21
90.07863053033483
 31
0.0
  0
LINE
  5
176
330
171
100
AcDbEntity
  8
0
  6
ByBlock
 62
     0
370
    -2
100
AcDbLine
 10
221.1836526478108
 20
90.07863053033483
 30
0.0
 11
218.8026972095928
 21
92.45958596855289
 31
0.0
  0
CIRCLE
  5
177
330
171
100
AcDbEntity
  8
0
  6
ByBlock
 62
     0
370
    -2
100
AcDbCircle
 10
219.9931749287018
 20
91.2691082494438
 30
0.0
 40
2.75
  0
ENDBLK
  5
173
330
171
100
AcDbEntity
  8
0
100
AcDbBlockEnd
  0
BLOCK
  5
179
330
178
100
AcDbEntity
  8
0
100
AcDbBlockBegin
  2
BLKF026
 70
     0
 10
0.0
 20
0.0
 30
0.0
  3
BLKF026
  1
BLKF026
  0
LINE
  5
17C
330
178
100
AcDbEntity
  8
0
  6
ByBlock
 62
     0
370
    -2
100
AcDbLine
 10
203.1836526478108
 20
92.45958596855287
 30
0.0
 11
200.8026972095928
 21
90.07863053033482
 31
0.0
  0
LINE
  5
17D
330
178
100
AcDbEntity
  8
0
  6
ByBlock
 62
     0
370
    -2
100
AcDbLine
 10
203.1836526478108
 20
90.07863053033482
 30
0.0
 11
200.8026972095928
 21
92.45958596855287
 31
0.0
  0
CIRCLE
  5
17E
330
178
100
AcDbEntity
  8
0
  6
ByBlock
 62
     0
370
    -2
100
AcDbCircle
 10
201.9931749287018
 20
91.26910824944379
 30
0.0
 40
2.75
  0
ENDBLK
  5
17A
330
178
100
AcDbEntity
  8
0
100
AcDbBlockEnd
  0
BLOCK
  5
184
330
183
100
AcDbEntity
  8
0
100
AcDbBlockBegin
  2
BLKF027
 70
     0
 10
0.0
 20
0.0
 30
0.0
  3
BLKF027
  1
BLKF027
  0
CIRCLE
  5
187
330
183
100
AcDbEntity
  8
0
  6
ByBlock
 62
     0
370
    -2
100
AcDbCircle
 10
72.64578167542888
 20
88.26910824944383
 30
0.0
 40
2.75
  0
LINE
  5
188
330
183
100
AcDbEntity
  8
0
  6
ByBlock
 62
     0
370
    -2
100
AcDbLine
 10
70.84578167542887
 20
87.86910824944383
 30
0.0
 11
70.84578167542887
 21
88.66910824944384
 31
0.0
  0
LINE
  5
189
330
183
100
AcDbEntity
  8
0
  6
ByBlock
 62
     0
370
    -2
100
AcDbLine
 10
72.24578167542884
 20
90.06910824944383
 30
0.0
 11
73.04578167542886
 21
90.06910824944383
 31
0.0
  0
LINE
  5
18A
330
183
100
AcDbEntity
  8
0
  6
ByBlock
 62
     0
370
    -2
100
AcDbLine
 10
74.44578167542883
 20
87.86910824944383
 30
0.0
 11
74.44578167542883
 21
88.66910824944384
 31
0.0
  0
LINE
  5
18B
330
183
100
AcDbEntity
  8
0
  6
ByBlock
 62
     0
370
    -2
100
AcDbLine
 10
72.24578167542884
 20
86.46910824944383
 30
0.0
 11
73.04578167542886
 21
86.46910824944383
 31
0.0
  0
ARC
  5
18C
330
183
100
AcDbEntity
  8
0
  6
ByBlock
 62
     0
370
    -2
100
AcDbCircle
 10
70.84578167542887
 20
90.06910824944383
 30
0.0
 40
1.399999999999991
100
AcDbArc
 50
270.0
 51
0.0
  0
ARC
  5
18D
330
183
100
AcDbEntity
  8
0
  6
ByBlock
 62
     0
370
    -2
100
AcDbCircle
 10
70.84578167542887
 20
86.46910824944383
 30
0.0
 40
1.399999999999991
100
AcDbArc
 50
0.0
 51
90.0
  0
ARC
  5
18E
330
183
100
AcDbEntity
  8
0
  6
ByBlock
 62
     0
370
    -2
100
AcDbCircle
 10
74.44578167542883
 20
86.46910824944383
 30
0.0
 40
1.399999999999991
100
AcDbArc
 50
90.0
 51
180.0
  0
ARC
  5
18F
330
183
100
AcDbEntity
  8
0
  6
ByBlock
 62
     0
370
    -2
100
AcDbCircle
 10
74.44578167542883
 20
90.06910824944383
 30
0.0
 40
1.399999999999991
100
AcDbArc
 50
180.0
 51
270.0
  0
ENDBLK
  5
185
330
183
100
AcDbEntity
  8
0
100
AcDbBlockEnd
  0
BLOCK
  5
191
330
190
100
AcDbEntity
  8
0
100
AcDbBlockBegin
  2
BLKF028
 70
     0
 10
0.0
 20
0.0
 30
0.0
  3
BLKF028
  1
BLKF028
  0
CIRCLE
  5
194
330
190
100
AcDbEntity
  8
0
  6
ByBlock
 62
     0
370
    -2
100
AcDbCircle
 10
63.64578167542884
 20
197.2691082494437
 30
0.0
 40
2.75
  0
LINE
  5
195
330
190
100
AcDbEntity
  8
0
  6
ByBlock
 62
     0
370
    -2
100
AcDbLine
 10
61.84578167542882
 20
196.8691082494437
 30
0.0
 11
61.84578167542882
 21
197.6691082494438
 31
0.0
  0
LINE
  5
196
330
190
100
AcDbEntity
  8
0
  6
ByBlock
 62
     0
370
    -2
100
AcDbLine
 10
63.24578167542883
 20
199.0691082494437
 30
0.0
 11
64.04578167542884
 21
199.0691082494437
 31
0.0
  0
LINE
  5
197
330
190
100
AcDbEntity
  8
0
  6
ByBlock
 62
     0
370
    -2
100
AcDbLine
 10
65.44578167542885
 20
196.8691082494437
 30
0.0
 11
65.44578167542885
 21
197.6691082494438
 31
0.0
  0
LINE
  5
198
330
190
100
AcDbEntity
  8
0
  6
ByBlock
 62
     0
370
    -2
100
AcDbLine
 10
63.24578167542883
 20
195.4691082494438
 30
0.0
 11
64.04578167542884
 21
195.4691082494438
 31
0.0
  0
ARC
  5
199
330
190
100
AcDbEntity
  8
0
  6
ByBlock
 62
     0
370
    -2
100
AcDbCircle
 10
61.84578167542882
 20
199.0691082494437
 30
0.0
 40
1.399999999999999
100
AcDbArc
 50
270.0
 51
0.0
  0
ARC
  5
19A
330
190
100
AcDbEntity
  8
0
  6
ByBlock
 62
     0
370
    -2
100
AcDbCircle
 10
61.84578167542882
 20
195.4691082494438
 30
0.0
 40
1.399999999999999
100
AcDbArc
 50
0.0
 51
90.0
  0
ARC
  5
19B
330
190
100
AcDbEntity
  8
0
  6
ByBlock
 62
     0
370
    -2
100
AcDbCircle
 10
65.44578167542885
 20
195.4691082494438
 30
0.0
 40
1.399999999999999
100
AcDbArc
 50
90.0
 51
180.0
  0
ARC
  5
19C
330
190
100
AcDbEntity
  8
0
  6
ByBlock
 62
     0
370
    -2
100
AcDbCircle
 10
65.44578167542885
 20
199.0691082494437
 30
0.0
 40
1.399999999999999
100
AcDbArc
 50
180.0
 51
270.0
  0
ENDBLK
  5
192
330
190
100
AcDbEntity
  8
0
100
AcDbBlockEnd
  0
BLOCK
  5
19E
330
19D
100
AcDbEntity
  8
0
100
AcDbBlockBegin
  2
BLKF029
 70
     0
 10
0.0
 20
0.0
 30
0.0
  3
BLKF029
  1
BLKF029
  0
CIRCLE
  5
1A1
330
19D
100
AcDbEntity
  8
0
  6
ByBlock
 62
     0
370
    -2
100
AcDbCircle
 10
63.64578167542884
 20
267.2691082494438
 30
0.0
 40
2.75
  0
LINE
  5
1A2
330
19D
100
AcDbEntity
  8
0
  6
ByBlock
 62
     0
370
    -2
100
AcDbLine
 10
61.84578167542882
 20
266.8691082494439
 30
0.0
 11
61.84578167542882
 21
267.6691082494438
 31
0.0
  0
LINE
  5
1A3
330
19D
100
AcDbEntity
  8
0
  6
ByBlock
 62
     0
370
    -2
100
AcDbLine
 10
63.24578167542886
 20
269.0691082494438
 30
0.0
 11
64.04578167542881
 21
269.0691082494438
 31
0.0
  0
LINE
  5
1A4
330
19D
100
AcDbEntity
  8
0
  6
ByBlock
 62
     0
370
    -2
100
AcDbLine
 10
65.44578167542885
 20
266.8691082494439
 30
0.0
 11
65.44578167542885
 21
267.6691082494438
 31
0.0
  0
LINE
  5
1A5
330
19D
100
AcDbEntity
  8
0
  6
ByBlock
 62
     0
370
    -2
100
AcDbLine
 10
63.24578167542886
 20
265.4691082494438
 30
0.0
 11
64.04578167542881
 21
265.4691082494438
 31
0.0
  0
ARC
  5
1A6
330
19D
100
AcDbEntity
  8
0
  6
ByBlock
 62
     0
370
    -2
100
AcDbCircle
 10
61.84578167542882
 20
269.0691082494438
 30
0.0
 40
1.399999999999999
100
AcDbArc
 50
270.0
 51
0.0
  0
ARC
  5
1A7
330
19D
100
AcDbEntity
  8
0
  6
ByBlock
 62
     0
370
    -2
100
AcDbCircle
 10
61.84578167542882
 20
265.4691082494438
 30
0.0
 40
1.399999999999999
100
AcDbArc
 50
0.0
 51
90.0
  0
ARC
  5
1A8
330
19D
100
AcDbEntity
  8
0
  6
ByBlock
 62
     0
370
    -2
100
AcDbCircle
 10
65.44578167542885
 20
265.4691082494438
 30
0.0
 40
1.399999999999999
100
AcDbArc
 50
90.0
 51
180.0
  0
ARC
  5
1A9
330
19D
100
AcDbEntity
  8
0
  6
ByBlock
 62
     0
370
    -2
100
AcDbCircle
 10
65.44578167542885
 20
269.0691082494438
 30
0.0
 40
1.399999999999999
100
AcDbArc
 50
180.0
 51
270.0
  0
ENDBLK
  5
19F
330
19D
100
AcDbEntity
  8
0
100
AcDbBlockEnd
  0
BLOCK
  5
326
330
325
100
AcDbEntity
  8
0
100
AcDbBlockBegin
  2
*D27
 70
     1
 10
0.0
 20
0.0
 30
0.0
  3
*D27
  1
*D27
  0
TEXT
  5
328
330
325
100
AcDbEntity
  8
0
  6
ByBlock
 62
    94
370
    -2
100
AcDbText
 10
66.64578247061858
 20
10.82946527549755
 30
0.0
 40
2.651515151515151
  1
２７．４
 50
0.0000000099999511
 41
0.8703296703296703
  7
ＭＳ ゴシック
 72
     1
 11
72.64578247070312
 21
10.34510803222656
 31
0.0
100
AcDbText
 73
     1
  0
LINE
  5
329
330
325
100
AcDbEntity
  8
0
  6
ByBlock
 62
     0
370
    -2
100
AcDbLine
 10
58.94578167542888
 20
9.345107786414232
 30
0.0
 11
86.34578167542887
 21
9.345107786414218
 31
0.0
  0
INSERT
  5
32A
330
325
100
AcDbEntity
  8
0
  6
ByBlock
 62
     0
370
    -2
100
AcDbBlockReference
  2
FXTIP_ARROW_S
 10
58.94578167542888
 20
9.345107786414232
 30
0.0
 41
2.5
 42
2.5
 50
180.0
  0
INSERT
  5
32B
330
325
100
AcDbEntity
  8
0
  6
ByBlock
 62
     0
370
    -2
100
AcDbBlockReference
  2
FXTIP_ARROW_E
 10
86.34578167542887
 20
9.345107786414218
 30
0.0
 41
2.5
 42
2.5
 50
360.0
  0
LINE
  5
32C
330
325
100
AcDbEntity
  8
0
  6
ByBlock
 62
     0
370
    -2
100
AcDbLine
 10
58.94578167542888
 20
24.43516834722938
 30
0.0
 11
58.94578167542888
 21
8.345107786414232
 31
0.0
  0
LINE
  5
32D
330
325
100
AcDbEntity
  8
0
  6
ByBlock
 62
     0
370
    -2
100
AcDbLine
 10
86.34578167542887
 20
24.43516834722939
 30
0.0
 11
86.34578167542887
 21
8.345107786414218
 31
0.0
  0
ENDBLK
  5
327
330
325
100
AcDbEntity
  8
0
100
AcDbBlockEnd
  0
BLOCK
  5
330
330
32F
100
AcDbEntity
  8
0
100
AcDbBlockBegin
  2
*D28
 70
     1
 10
0.0
 20
0.0
 30
0.0
  3
*D28
  1
*D28
  0
TEXT
  5
332
330
32F
100
AcDbEntity
  8
0
  6
ByBlock
 62
    94
370
    -2
100
AcDbText
 10
129.1852264403452
 20
67.8018163497163
 30
0.0
 40
2.651515151515151
  1
１８．９
 50
0.0000000099999511
 41
0.8703296703296703
  7
ＭＳ ゴシック
 72
     1
 11
135.1852264404297
 21
67.31745910644531
 31
0.0
100
AcDbText
 73
     1
  0
LINE
  5
333
330
32F
100
AcDbEntity
  8
0
  6
ByBlock
 62
     0
370
    -2
100
AcDbLine
 10
125.73521158453
 20
66.31746096267116
 30
0.0
 11
144.6352115845301
 21
66.31746096267115
 31
0.0
  0
INSERT
  5
334
330
32F
100
AcDbEntity
  8
0
  6
ByBlock
 62
     0
370
    -2
100
AcDbBlockReference
  2
FXTIP_ARROW_S
 10
125.73521158453
 20
66.31746096267116
 30
0.0
 41
2.5
 42
2.5
 50
180.0
  0
INSERT
  5
335
330
32F
100
AcDbEntity
  8
0
  6
ByBlock
 62
     0
370
    -2
100
AcDbBlockReference
  2
FXTIP_ARROW_E
 10
144.6352115845301
 20
66.31746096267115
 30
0.0
 41
2.5
 42
2.5
 50
360.0
  0
LINE
  5
336
330
32F
100
AcDbEntity
  8
0
  6
ByBlock
 62
     0
370
    -2
100
AcDbLine
 10
125.73521158453
 20
78.26910824944386
 30
0.0
 11
125.73521158453
 21
65.31746096267116
 31
0.0
  0
LINE
  5
337
330
32F
100
AcDbEntity
  8
0
  6
ByBlock
 62
     0
370
    -2
100
AcDbLine
 10
144.6352115845301
 20
77.26910824944386
 30
0.0
 11
144.6352115845301
 21
65.31746096267115
 31
0.0
  0
ENDBLK
  5
331
330
32F
100
AcDbEntity
  8
0
100
AcDbBlockEnd
  0
BLOCK
  5
3AB
330
3AA
100
AcDbEntity
  8
0
100
AcDbBlockBegin
  2
BLKF032
 70
     0
 10
0.0
 20
0.0
 30
0.0
  3
BLKF032
  1
BLKF032
  0
LINE
  5
3AE
330
3AA
100
AcDbEntity
  8
0
  6
ByBlock
 62
     0
370
    -2
100
AcDbLine
 10
360.201863266958
 20
281.3691082494435
 30
0.0
 11
359.1389392839944
 21
281.3134027639496
 31
0.0
  0
LINE
  5
3AF
330
3AA
100
AcDbEntity
  8
0
  6
ByBlock
 62
     0
370
    -2
100
AcDbLine
 10
360.201863266958
 20
281.2172080961487
 30
0.0
 11
360.201863266958
 21
281.3691082494435
 31
0.0
  0
ARC
  5
3B0
330
3AA
100
AcDbEntity
  8
0
  6
ByBlock
 62
     0
370
    -2
100
AcDbCircle
 10
359.2069760271104
 20
280.0151843687687
 30
0.0
 40
1.3
100
AcDbArc
 50
93.00000000000065
 51
163.8167007802413
  0
ARC
  5
3B1
330
3AA
100
AcDbEntity
  8
0
  6
ByBlock
 62
     0
370
    -2
100
AcDbCircle
 10
366.6018632669579
 20
277.8691082494434
 30
0.0
 40
9.0
100
AcDbArc
 50
163.8167007802417
 51
173.4729158423858
  0
ENDBLK
  5
3AC
330
3AA
100
AcDbEntity
  8
0
100
AcDbBlockEnd
  0
BLOCK
  5
3BD
330
3BC
100
AcDbEntity
  8
0
100
AcDbBlockBegin
  2
BLKF033
 70
     0
 10
0.0
 20
0.0
 30
0.0
  3
BLKF033
  1
BLKF033
  0
LINE
  5
3C0
330
3BC
100
AcDbEntity
  8
0
  6
ByBlock
 62
     0
370
    -2
100
AcDbLine
 10
299.8517680321639
 20
50.41316939867505
 30
0.0
 11
299.7960625466701
 21
51.47609338163858
 31
0.0
  0
LINE
  5
3C1
330
3BC
100
AcDbEntity
  8
0
  6
ByBlock
 62
     0
370
    -2
100
AcDbLine
 10
292.8517680321639
 20
50.41316939867506
 30
0.0
 11
292.9074735176578
 21
51.47609338163858
 31
0.0
  0
LINE
  5
3C2
330
3BC
100
AcDbEntity
  8
0
  6
ByBlock
 62
     0
370
    -2
100
AcDbLine
 10
299.8517680321639
 20
50.41316939867505
 30
0.0
 11
292.8517680321639
 21
50.41316939867506
 31
0.0
  0
ARC
  5
3C3
330
3BC
100
AcDbEntity
  8
0
  6
ByBlock
 62
     0
370
    -2
100
AcDbCircle
 10
298.4978441514892
 20
51.40805663852262
 30
0.0
 40
1.3
100
AcDbArc
 50
3.000000000000682
 51
73.81670078024217
  0
ARC
  5
3C4
330
3BC
100
AcDbEntity
  8
0
  6
ByBlock
 62
     0
370
    -2
100
AcDbCircle
 10
294.2056919128387
 20
51.40805663852263
 30
0.0
 40
1.3
100
AcDbArc
 50
106.1832992197581
 51
176.9999999999995
  0
ARC
  5
3C5
330
3BC
100
AcDbEntity
  8
0
  6
ByBlock
 62
     0
370
    -2
100
AcDbCircle
 10
296.3517680321639
 20
44.01316939867508
 30
0.0
 40
9.0
100
AcDbArc
 50
73.81670078024226
 51
106.1832992197582
  0
ENDBLK
  5
3BE
330
3BC
100
AcDbEntity
  8
0
100
AcDbBlockEnd
  0
BLOCK
  5
3F8
330
3F7
100
AcDbEntity
  8
0
100
AcDbBlockBegin
  2
BLKF034
 70
     0
 10
0.0
 20
0.0
 30
0.0
  3
BLKF034
  1
BLKF034
  0
LINE
  5
3FB
330
3F7
100
AcDbEntity
  8
0
  6
ByBlock
 62
     0
370
    -2
100
AcDbLine
 10
286.9371807739479
 20
269.4691082494438
 30
0.0
 11
300.9371807739479
 21
269.4691082494439
 31
0.0
  0
LINE
  5
3FC
330
3F7
100
AcDbEntity
  8
0
  6
ByBlock
 62
     0
370
    -2
100
AcDbLine
 10
300.9371807739479
 20
269.4691082494439
 30
0.0
 11
300.9371807739486
 21
106.2691082494438
 31
0.0
  0
LINE
  5
3FD
330
3F7
100
AcDbEntity
  8
0
  6
ByBlock
 62
     0
370
    -2
100
AcDbLine
 10
300.9371807739486
 20
106.2691082494438
 30
0.0
 11
286.9371807739486
 21
106.2691082494437
 31
0.0
  0
LINE
  5
3FE
330
3F7
100
AcDbEntity
  8
0
  6
ByBlock
 62
     0
370
    -2
100
AcDbLine
 10
286.9371807739486
 20
106.2691082494437
 30
0.0
 11
286.9371807739479
 21
269.4691082494438
 31
0.0
  0
LINE
  5
3FF
330
3F7
100
AcDbEntity
  8
0
  6
ByBlock
 62
     0
370
    -2
100
AcDbLine
 10
293.9371807739479
 20
269.4691082494438
 30
0.0
 11
293.9371807739486
 21
106.2691082494437
 31
0.0
  0
LINE
  5
400
330
3F7
100
AcDbEntity
  8
0
  6
ByBlock
 62
     0
370
    -2
100
AcDbLine
 10
293.9371807739479
 20
263.1691082494438
 30
0.0
 11
300.9371807739479
 21
263.1691082494438
 31
0.0
  0
LINE
  5
401
330
3F7
100
AcDbEntity
  8
0
  6
ByBlock
 62
     0
370
    -2
100
AcDbLine
 10
293.9371807739479
 20
258.8691082494438
 30
0.0
 11
286.9371807739479
 21
258.8691082494438
 31
0.0
  0
LINE
  5
402
330
3F7
100
AcDbEntity
  8
0
  6
ByBlock
 62
     0
370
    -2
100
AcDbLine
 10
293.9371807739479
 20
267.4691082494438
 30
0.0
 11
286.9371807739479
 21
267.4691082494437
 31
0.0
  0
LINE
  5
403
330
3F7
100
AcDbEntity
  8
0
  6
ByBlock
 62
     0
370
    -2
100
AcDbLine
 10
293.9371807739479
 20
254.5691082494438
 30
0.0
 11
300.9371807739479
 21
254.5691082494439
 31
0.0
  0
LINE
  5
404
330
3F7
100
AcDbEntity
  8
0
  6
ByBlock
 62
     0
370
    -2
100
AcDbLine
 10
293.9371807739479
 20
245.9691082494438
 30
0.0
 11
300.9371807739479
 21
245.9691082494439
 31
0.0
  0
LINE
  5
405
330
3F7
100
AcDbEntity
  8
0
  6
ByBlock
 62
     0
370
    -2
100
AcDbLine
 10
293.9371807739482
 20
237.3691082494438
 30
0.0
 11
300.9371807739482
 21
237.3691082494439
 31
0.0
  0
LINE
  5
406
330
3F7
100
AcDbEntity
  8
0
  6
ByBlock
 62
     0
370
    -2
100
AcDbLine
 10
293.9371807739482
 20
228.7691082494438
 30
0.0
 11
300.9371807739482
 21
228.7691082494438
 31
0.0
  0
LINE
  5
407
330
3F7
100
AcDbEntity
  8
0
  6
ByBlock
 62
     0
370
    -2
100
AcDbLine
 10
293.9371807739482
 20
220.1691082494438
 30
0.0
 11
300.9371807739482
 21
220.1691082494439
 31
0.0
  0
LINE
  5
408
330
3F7
100
AcDbEntity
  8
0
  6
ByBlock
 62
     0
370
    -2
100
AcDbLine
 10
293.9371807739482
 20
211.5691082494438
 30
0.0
 11
300.9371807739482
 21
211.5691082494439
 31
0.0
  0
LINE
  5
409
330
3F7
100
AcDbEntity
  8
0
  6
ByBlock
 62
     0
370
    -2
100
AcDbLine
 10
293.9371807739484
 20
202.9691082494438
 30
0.0
 11
300.9371807739484
 21
202.9691082494438
 31
0.0
  0
LINE
  5
40A
330
3F7
100
AcDbEntity
  8
0
  6
ByBlock
 62
     0
370
    -2
100
AcDbLine
 10
293.9371807739484
 20
194.3691082494438
 30
0.0
 11
300.9371807739484
 21
194.3691082494438
 31
0.0
  0
LINE
  5
40B
330
3F7
100
AcDbEntity
  8
0
  6
ByBlock
 62
     0
370
    -2
100
AcDbLine
 10
293.9371807739484
 20
185.7691082494437
 30
0.0
 11
300.9371807739484
 21
185.7691082494438
 31
0.0
  0
LINE
  5
40C
330
3F7
100
AcDbEntity
  8
0
  6
ByBlock
 62
     0
370
    -2
100
AcDbLine
 10
293.9371807739484
 20
177.1691082494437
 30
0.0
 11
300.9371807739484
 21
177.1691082494439
 31
0.0
  0
LINE
  5
40D
330
3F7
100
AcDbEntity
  8
0
  6
ByBlock
 62
     0
370
    -2
100
AcDbLine
 10
293.9371807739484
 20
168.5691082494438
 30
0.0
 11
300.9371807739484
 21
168.5691082494438
 31
0.0
  0
LINE
  5
40E
330
3F7
100
AcDbEntity
  8
0
  6
ByBlock
 62
     0
370
    -2
100
AcDbLine
 10
293.9371807739486
 20
159.9691082494438
 30
0.0
 11
300.9371807739486
 21
159.9691082494438
 31
0.0
  0
LINE
  5
40F
330
3F7
100
AcDbEntity
  8
0
  6
ByBlock
 62
     0
370
    -2
100
AcDbLine
 10
293.9371807739486
 20
151.3691082494438
 30
0.0
 11
300.9371807739486
 21
151.3691082494438
 31
0.0
  0
LINE
  5
410
330
3F7
100
AcDbEntity
  8
0
  6
ByBlock
 62
     0
370
    -2
100
AcDbLine
 10
293.9371807739486
 20
142.7691082494437
 30
0.0
 11
300.9371807739486
 21
142.7691082494438
 31
0.0
  0
LINE
  5
411
330
3F7
100
AcDbEntity
  8
0
  6
ByBlock
 62
     0
370
    -2
100
AcDbLine
 10
293.9371807739486
 20
134.1691082494437
 30
0.0
 11
300.9371807739486
 21
134.1691082494439
 31
0.0
  0
LINE
  5
412
330
3F7
100
AcDbEntity
  8
0
  6
ByBlock
 62
     0
370
    -2
100
AcDbLine
 10
293.9371807739486
 20
125.5691082494438
 30
0.0
 11
300.9371807739486
 21
125.5691082494438
 31
0.0
  0
LINE
  5
413
330
3F7
100
AcDbEntity
  8
0
  6
ByBlock
 62
     0
370
    -2
100
AcDbLine
 10
293.9371807739479
 20
250.2691082494438
 30
0.0
 11
286.9371807739479
 21
250.2691082494438
 31
0.0
  0
LINE
  5
414
330
3F7
100
AcDbEntity
  8
0
  6
ByBlock
 62
     0
370
    -2
100
AcDbLine
 10
293.9371807739482
 20
241.6691082494438
 30
0.0
 11
286.9371807739482
 21
241.6691082494438
 31
0.0
  0
LINE
  5
415
330
3F7
100
AcDbEntity
  8
0
  6
ByBlock
 62
     0
370
    -2
100
AcDbLine
 10
293.9371807739482
 20
233.0691082494438
 30
0.0
 11
286.9371807739482
 21
233.0691082494438
 31
0.0
  0
LINE
  5
416
330
3F7
100
AcDbEntity
  8
0
  6
ByBlock
 62
     0
370
    -2
100
AcDbLine
 10
293.9371807739482
 20
224.4691082494438
 30
0.0
 11
286.9371807739482
 21
224.4691082494438
 31
0.0
  0
LINE
  5
417
330
3F7
100
AcDbEntity
  8
0
  6
ByBlock
 62
     0
370
    -2
100
AcDbLine
 10
293.9371807739482
 20
215.8691082494438
 30
0.0
 11
286.9371807739482
 21
215.8691082494438
 31
0.0
  0
LINE
  5
418
330
3F7
100
AcDbEntity
  8
0
  6
ByBlock
 62
     0
370
    -2
100
AcDbLine
 10
293.9371807739482
 20
207.2691082494438
 30
0.0
 11
286.9371807739482
 21
207.2691082494438
 31
0.0
  0
LINE
  5
419
330
3F7
100
AcDbEntity
  8
0
  6
ByBlock
 62
     0
370
    -2
100
AcDbLine
 10
293.9371807739482
 20
198.6691082494437
 30
0.0
 11
286.9371807739482
 21
198.6691082494437
 31
0.0
  0
LINE
  5
41A
330
3F7
100
AcDbEntity
  8
0
  6
ByBlock
 62
     0
370
    -2
100
AcDbLine
 10
293.9371807739482
 20
190.0691082494438
 30
0.0
 11
286.9371807739482
 21
190.0691082494438
 31
0.0
  0
LINE
  5
41B
330
3F7
100
AcDbEntity
  8
0
  6
ByBlock
 62
     0
370
    -2
100
AcDbLine
 10
293.9371807739482
 20
181.4691082494438
 30
0.0
 11
286.9371807739482
 21
181.4691082494438
 31
0.0
  0
LINE
  5
41C
330
3F7
100
AcDbEntity
  8
0
  6
ByBlock
 62
     0
370
    -2
100
AcDbLine
 10
293.9371807739484
 20
172.8691082494438
 30
0.0
 11
286.9371807739484
 21
172.8691082494437
 31
0.0
  0
LINE
  5
41D
330
3F7
100
AcDbEntity
  8
0
  6
ByBlock
 62
     0
370
    -2
100
AcDbLine
 10
293.9371807739484
 20
164.2691082494437
 30
0.0
 11
286.9371807739484
 21
164.2691082494437
 31
0.0
  0
LINE
  5
41E
330
3F7
100
AcDbEntity
  8
0
  6
ByBlock
 62
     0
370
    -2
100
AcDbLine
 10
293.9371807739484
 20
155.6691082494437
 30
0.0
 11
286.9371807739484
 21
155.6691082494437
 31
0.0
  0
LINE
  5
41F
330
3F7
100
AcDbEntity
  8
0
  6
ByBlock
 62
     0
370
    -2
100
AcDbLine
 10
293.9371807739484
 20
147.0691082494438
 30
0.0
 11
286.9371807739484
 21
147.0691082494438
 31
0.0
  0
LINE
  5
420
330
3F7
100
AcDbEntity
  8
0
  6
ByBlock
 62
     0
370
    -2
100
AcDbLine
 10
293.9371807739484
 20
138.4691082494438
 30
0.0
 11
286.9371807739484
 21
138.4691082494438
 31
0.0
  0
LINE
  5
421
330
3F7
100
AcDbEntity
  8
0
  6
ByBlock
 62
     0
370
    -2
100
AcDbLine
 10
293.9371807739484
 20
129.8691082494438
 30
0.0
 11
286.9371807739484
 21
129.8691082494437
 31
0.0
  0
LINE
  5
422
330
3F7
100
AcDbEntity
  8
0
  6
ByBlock
 62
     0
370
    -2
100
AcDbLine
 10
293.9371807739484
 20
121.2691082494437
 30
0.0
 11
286.9371807739484
 21
121.2691082494437
 31
0.0
  0
LINE
  5
423
330
3F7
100
AcDbEntity
  8
0
  6
ByBlock
 62
     0
370
    -2
100
AcDbLine
 10
293.9371807739486
 20
116.9691082494438
 30
0.0
 11
300.9371807739486
 21
116.9691082494438
 31
0.0
  0
LINE
  5
424
330
3F7
100
AcDbEntity
  8
0
  6
ByBlock
 62
     0
370
    -2
100
AcDbLine
 10
293.9371807739489
 20
108.3691082494438
 30
0.0
 11
300.9371807739489
 21
108.3691082494438
 31
0.0
  0
LINE
  5
425
330
3F7
100
AcDbEntity
  8
0
  6
ByBlock
 62
     0
370
    -2
100
AcDbLine
 10
293.9371807739484
 20
112.6691082494438
 30
0.0
 11
286.9371807739484
 21
112.6691082494438
 31
0.0
  0
TEXT
  5
426
330
3F7
100
AcDbEntity
  8
0
  6
ByBlock
 62
     0
370
    -2
100
AcDbText
 10
290.4371948242188
 20
113.4458505803888
 30
0.0
 40
1.515151515151515
  1
３６
 41
0.7615384615384615
  7
ＭＳ ゴシック
 72
     1
 11
291.9371948242188
 21
113.169075012207
 31
0.0
100
AcDbText
 73
     1
  0
TEXT
  5
427
330
3F7
100
AcDbEntity
  8
0
  6
ByBlock
 62
     0
370
    -2
100
AcDbText
 10
290.4371948242188
 20
122.0458872014826
 30
0.0
 40
1.515151515151515
  1
３４
 41
0.7615384615384615
  7
ＭＳ ゴシック
 72
     1
 11
291.9371948242188
 21
121.7691116333008
 31
0.0
100
AcDbText
 73
     1
  0
TEXT
  5
428
330
3F7
100
AcDbEntity
  8
0
  6
ByBlock
 62
     0
370
    -2
100
AcDbText
 10
290.4371948242188
 20
130.6458704168146
 30
0.0
 40
1.515151515151515
  1
３２
 41
0.7615384615384615
  7
ＭＳ ゴシック
 72
     1
 11
291.9371948242188
 21
130.3690948486328
 31
0.0
100
AcDbText
 73
     1
  0
TEXT
  5
429
330
3F7
100
AcDbEntity
  8
0
  6
ByBlock
 62
     0
370
    -2
100
AcDbText
 10
290.4371948242188
 20
139.2458460027521
 30
0.0
 40
1.515151515151515
  1
３０
 41
0.7615384615384615
  7
ＭＳ ゴシック
 72
     1
 11
291.9371948242188
 21
138.9690704345703
 31
0.0
100
AcDbText
 73
     1
  0
TEXT
  5
42A
330
3F7
100
AcDbEntity
  8
0
  6
ByBlock
 62
     0
370
    -2
100
AcDbText
 10
291.1871948242188
 20
259.6458551580255
 30
0.0
 40
1.515151515151515
  1
２
 41
0.7615384615384615
  7
ＭＳ ゴシック
 72
     1
 11
291.9371948242188
 21
259.3690795898438
 31
0.0
100
AcDbText
 73
     1
  0
TEXT
  5
42B
330
3F7
100
AcDbEntity
  8
0
  6
ByBlock
 62
     0
370
    -2
100
AcDbText
 10
291.1871948242188
 20
251.0458948308771
 30
0.0
 40
1.515151515151515
  1
４
 41
0.7615384615384615
  7
ＭＳ ゴシック
 72
     1
 11
291.9371948242188
 21
250.7691192626953
 31
0.0
100
AcDbText
 73
     1
  0
TEXT
  5
42C
330
3F7
100
AcDbEntity
  8
0
  6
ByBlock
 62
     0
370
    -2
100
AcDbText
 10
291.1871948242188
 20
242.4458582097834
 30
0.0
 40
1.515151515151515
  1
６
 41
0.7615384615384615
  7
ＭＳ ゴシック
 72
     1
 11
291.9371948242188
 21
242.1690826416016
 31
0.0
100
AcDbText
 73
     1
  0
TEXT
  5
42D
330
3F7
100
AcDbEntity
  8
0
  6
ByBlock
 62
     0
370
    -2
100
AcDbText
 10
291.1871948242188
 20
233.8458826238459
 30
0.0
 40
1.515151515151515
  1
８
 41
0.7615384615384615
  7
ＭＳ ゴシック
 72
     1
 11
291.9371948242188
 21
233.5691070556641
 31
0.0
100
AcDbText
 73
     1
  0
TEXT
  5
42E
330
3F7
100
AcDbEntity
  8
0
  6
ByBlock
 62
     0
370
    -2
100
AcDbText
 10
290.4371948242188
 20
225.2458460027521
 30
0.0
 40
1.515151515151515
  1
１０
 41
0.7615384615384615
  7
ＭＳ ゴシック
 72
     1
 11
291.9371948242188
 21
224.9690704345703
 31
0.0
100
AcDbText
 73
     1
  0
TEXT
  5
42F
330
3F7
100
AcDbEntity
  8
0
  6
ByBlock
 62
     0
370
    -2
100
AcDbText
 10
290.4371948242188
 20
216.6458704168146
 30
0.0
 40
1.515151515151515
  1
１２
 41
0.7615384615384615
  7
ＭＳ ゴシック
 72
     1
 11
291.9371948242188
 21
216.3690948486328
 31
0.0
100
AcDbText
 73
     1
  0
TEXT
  5
430
330
3F7
100
AcDbEntity
  8
0
  6
ByBlock
 62
     0
370
    -2
100
AcDbText
 10
290.4371948242188
 20
208.0458337957209
 30
0.0
 40
1.515151515151515
  1
１４
 41
0.7615384615384615
  7
ＭＳ ゴシック
 72
     1
 11
291.9371948242188
 21
207.7690582275391
 31
0.0
100
AcDbText
 73
     1
  0
TEXT
  5
431
330
3F7
100
AcDbEntity
  8
0
  6
ByBlock
 62
     0
370
    -2
100
AcDbText
 10
290.4371948242188
 20
199.4458582097834
 30
0.0
 40
1.515151515151515
  1
１６
 41
0.7615384615384615
  7
ＭＳ ゴシック
 72
     1
 11
291.9371948242188
 21
199.1690826416016
 31
0.0
100
AcDbText
 73
     1
  0
TEXT
  5
432
330
3F7
100
AcDbEntity
  8
0
  6
ByBlock
 62
     0
370
    -2
100
AcDbText
 10
290.4371948242188
 20
190.8458826238459
 30
0.0
 40
1.515151515151515
  1
１８
 41
0.7615384615384615
  7
ＭＳ ゴシック
 72
     1
 11
291.9371948242188
 21
190.5691070556641
 31
0.0
100
AcDbText
 73
     1
  0
TEXT
  5
433
330
3F7
100
AcDbEntity
  8
0
  6
ByBlock
 62
     0
370
    -2
100
AcDbText
 10
290.4371948242188
 20
182.2458460027521
 30
0.0
 40
1.515151515151515
  1
２０
 41
0.7615384615384615
  7
ＭＳ ゴシック
 72
     1
 11
291.9371948242188
 21
181.9690704345703
 31
0.0
100
AcDbText
 73
     1
  0
TEXT
  5
434
330
3F7
100
AcDbEntity
  8
0
  6
ByBlock
 62
     0
370
    -2
100
AcDbText
 10
290.4371948242188
 20
173.6458704168146
 30
0.0
 40
1.515151515151515
  1
２２
 41
0.7615384615384615
  7
ＭＳ ゴシック
 72
     1
 11
291.9371948242188
 21
173.3690948486328
 31
0.0
100
AcDbText
 73
     1
  0
TEXT
  5
435
330
3F7
100
AcDbEntity
  8
0
  6
ByBlock
 62
     0
370
    -2
100
AcDbText
 10
290.4371948242188
 20
165.0458948308771
 30
0.0
 40
1.515151515151515
  1
２４
 41
0.7615384615384615
  7
ＭＳ ゴシック
 72
     1
 11
291.9371948242188
 21
164.7691192626953
 31
0.0
100
AcDbText
 73
     1
  0
TEXT
  5
436
330
3F7
100
AcDbEntity
  8
0
  6
ByBlock
 62
     0
370
    -2
100
AcDbText
 10
290.4371948242188
 20
156.4458582097834
 30
0.0
 40
1.515151515151515
  1
２６
 41
0.7615384615384615
  7
ＭＳ ゴシック
 72
     1
 11
291.9371948242188
 21
156.1690826416016
 31
0.0
100
AcDbText
 73
     1
  0
TEXT
  5
437
330
3F7
100
AcDbEntity
  8
0
  6
ByBlock
 62
     0
370
    -2
100
AcDbText
 10
290.4371948242188
 20
147.8458826238459
 30
0.0
 40
1.515151515151515
  1
２８
 41
0.7615384615384615
  7
ＭＳ ゴシック
 72
     1
 11
291.9371948242188
 21
147.5691070556641
 31
0.0
100
AcDbText
 73
     1
  0
TEXT
  5
438
330
3F7
100
AcDbEntity
  8
0
  6
ByBlock
 62
     0
370
    -2
100
AcDbText
 10
297.4371337890625
 20
117.7458383733576
 30
0.0
 40
1.515151515151515
  1
３５
 41
0.7615384615384615
  7
ＭＳ ゴシック
 72
     1
 11
298.9371337890625
 21
117.4690628051758
 31
0.0
100
AcDbText
 73
     1
  0
TEXT
  5
439
330
3F7
100
AcDbEntity
  8
0
  6
ByBlock
 62
     0
370
    -2
100
AcDbText
 10
297.4371337890625
 20
126.3458749944513
 30
0.0
 40
1.515151515151515
  1
３３
 41
0.7615384615384615
  7
ＭＳ ゴシック
 72
     1
 11
298.9371337890625
 21
126.0690994262695
 31
0.0
100
AcDbText
 73
     1
  0
TEXT
  5
43A
330
3F7
100
AcDbEntity
  8
0
  6
ByBlock
 62
     0
370
    -2
100
AcDbText
 10
297.4371337890625
 20
134.9458582097834
 30
0.0
 40
1.515151515151515
  1
３１
 41
0.7615384615384615
  7
ＭＳ ゴシック
 72
     1
 11
298.9371337890625
 21
134.6690826416016
 31
0.0
100
AcDbText
 73
     1
  0
TEXT
  5
43B
330
3F7
100
AcDbEntity
  8
0
  6
ByBlock
 62
     0
370
    -2
100
AcDbText
 10
297.4371337890625
 20
143.5458948308771
 30
0.0
 40
1.515151515151515
  1
２９
 41
0.7615384615384615
  7
ＭＳ ゴシック
 72
     1
 11
298.9371337890625
 21
143.2691192626953
 31
0.0
100
AcDbText
 73
     1
  0
TEXT
  5
43C
330
3F7
100
AcDbEntity
  8
0
  6
ByBlock
 62
     0
370
    -2
100
AcDbText
 10
298.1871337890625
 20
263.9458429509943
 30
0.0
 40
1.515151515151515
  1
１
 41
0.7615384615384615
  7
ＭＳ ゴシック
 72
     1
 11
298.9371337890625
 21
263.6690673828125
 31
0.0
100
AcDbText
 73
     1
  0
TEXT
  5
43D
330
3F7
100
AcDbEntity
  8
0
  6
ByBlock
 62
     0
370
    -2
100
AcDbText
 10
298.1871337890625
 20
255.3458826238459
 30
0.0
 40
1.515151515151515
  1
３
 41
0.7615384615384615
  7
ＭＳ ゴシック
 72
     1
 11
298.9371337890625
 21
255.0691070556641
 31
0.0
100
AcDbText
 73
     1
  0
TEXT
  5
43E
330
3F7
100
AcDbEntity
  8
0
  6
ByBlock
 62
     0
370
    -2
100
AcDbText
 10
298.1871337890625
 20
246.7459070379084
 30
0.0
 40
1.515151515151515
  1
５
 41
0.7615384615384615
  7
ＭＳ ゴシック
 72
     1
 11
298.9371337890625
 21
246.4691314697266
 31
0.0
100
AcDbText
 73
     1
  0
TEXT
  5
43F
330
3F7
100
AcDbEntity
  8
0
  6
ByBlock
 62
     0
370
    -2
100
AcDbText
 10
298.1871337890625
 20
238.1458704168146
 30
0.0
 40
1.515151515151515
  1
７
 41
0.7615384615384615
  7
ＭＳ ゴシック
 72
     1
 11
298.9371337890625
 21
237.8690948486328
 31
0.0
100
AcDbText
 73
     1
  0
TEXT
  5
440
330
3F7
100
AcDbEntity
  8
0
  6
ByBlock
 62
     0
370
    -2
100
AcDbText
 10
298.1871337890625
 20
229.5458948308771
 30
0.0
 40
1.515151515151515
  1
９
 41
0.7615384615384615
  7
ＭＳ ゴシック
 72
     1
 11
298.9371337890625
 21
229.2691192626953
 31
0.0
100
AcDbText
 73
     1
  0
TEXT
  5
441
330
3F7
100
AcDbEntity
  8
0
  6
ByBlock
 62
     0
370
    -2
100
AcDbText
 10
297.4371337890625
 20
220.9458582097834
 30
0.0
 40
1.515151515151515
  1
１１
 41
0.7615384615384615
  7
ＭＳ ゴシック
 72
     1
 11
298.9371337890625
 21
220.6690826416016
 31
0.0
100
AcDbText
 73
     1
  0
TEXT
  5
442
330
3F7
100
AcDbEntity
  8
0
  6
ByBlock
 62
     0
370
    -2
100
AcDbText
 10
297.4371337890625
 20
212.3458826238459
 30
0.0
 40
1.515151515151515
  1
１３
 41
0.7615384615384615
  7
ＭＳ ゴシック
 72
     1
 11
298.9371337890625
 21
212.0691070556641
 31
0.0
100
AcDbText
 73
     1
  0
TEXT
  5
443
330
3F7
100
AcDbEntity
  8
0
  6
ByBlock
 62
     0
370
    -2
100
AcDbText
 10
297.4371337890625
 20
203.7458460027521
 30
0.0
 40
1.515151515151515
  1
１５
 41
0.7615384615384615
  7
ＭＳ ゴシック
 72
     1
 11
298.9371337890625
 21
203.4690704345703
 31
0.0
100
AcDbText
 73
     1
  0
TEXT
  5
444
330
3F7
100
AcDbEntity
  8
0
  6
ByBlock
 62
     0
370
    -2
100
AcDbText
 10
297.4371337890625
 20
195.1458704168146
 30
0.0
 40
1.515151515151515
  1
１７
 41
0.7615384615384615
  7
ＭＳ ゴシック
 72
     1
 11
298.9371337890625
 21
194.8690948486328
 31
0.0
100
AcDbText
 73
     1
  0
TEXT
  5
445
330
3F7
100
AcDbEntity
  8
0
  6
ByBlock
 62
     0
370
    -2
100
AcDbText
 10
297.4371337890625
 20
186.5458948308771
 30
0.0
 40
1.515151515151515
  1
１９
 41
0.7615384615384615
  7
ＭＳ ゴシック
 72
     1
 11
298.9371337890625
 21
186.2691192626953
 31
0.0
100
AcDbText
 73
     1
  0
TEXT
  5
446
330
3F7
100
AcDbEntity
  8
0
  6
ByBlock
 62
     0
370
    -2
100
AcDbText
 10
297.4371337890625
 20
177.9458582097834
 30
0.0
 40
1.515151515151515
  1
２１
 41
0.7615384615384615
  7
ＭＳ ゴシック
 72
     1
 11
298.9371337890625
 21
177.6690826416016
 31
0.0
100
AcDbText
 73
     1
  0
TEXT
  5
447
330
3F7
100
AcDbEntity
  8
0
  6
ByBlock
 62
     0
370
    -2
100
AcDbText
 10
297.4371337890625
 20
169.3458826238459
 30
0.0
 40
1.515151515151515
  1
２３
 41
0.7615384615384615
  7
ＭＳ ゴシック
 72
     1
 11
298.9371337890625
 21
169.0691070556641
 31
0.0
100
AcDbText
 73
     1
  0
TEXT
  5
448
330
3F7
100
AcDbEntity
  8
0
  6
ByBlock
 62
     0
370
    -2
100
AcDbText
 10
297.4371337890625
 20
160.7458460027521
 30
0.0
 40
1.515151515151515
  1
２５
 41
0.7615384615384615
  7
ＭＳ ゴシック
 72
     1
 11
298.9371337890625
 21
160.4690704345703
 31
0.0
100
AcDbText
 73
     1
  0
TEXT
  5
449
330
3F7
100
AcDbEntity
  8
0
  6
ByBlock
 62
     0
370
    -2
100
AcDbText
 10
297.4371337890625
 20
152.1458704168146
 30
0.0
 40
1.515151515151515
  1
２７
 41
0.7615384615384615
  7
ＭＳ ゴシック
 72
     1
 11
298.9371337890625
 21
151.8690948486328
 31
0.0
100
AcDbText
 73
     1
  0
TEXT
  5
44A
330
3F7
100
AcDbEntity
  8
0
  6
ByBlock
 62
     0
370
    -2
100
AcDbText
 10
297.4371337890625
 20
109.1458627874201
 30
0.0
 40
1.515151515151515
  1
３７
 41
0.7615384615384615
  7
ＭＳ ゴシック
 72
     1
 11
298.9371337890625
 21
108.8690872192383
 31
0.0
100
AcDbText
 73
     1
  0
TEXT
  5
44B
330
3F7
100
AcDbEntity
  8
0
  6
ByBlock
 62
     0
370
    -2
100
AcDbText
 10
290.4371948242188
 20
107.0458872014826
 30
0.0
 40
1.515151515151515
  1
３８
 41
0.7615384615384615
  7
ＭＳ ゴシック
 72
     1
 11
291.9371948242188
 21
106.7691116333008
 31
0.0
100
AcDbText
 73
     1
  0
ENDBLK
  5
3F9
330
3F7
100
AcDbEntity
  8
0
100
AcDbBlockEnd
  0
BLOCK
  5
450
330
44F
100
AcDbEntity
  8
0
100
AcDbBlockBegin
  2
BLKF035
 70
     0
 10
0.0
 20
0.0
 30
0.0
  3
BLKF035
  1
BLKF035
  0
LINE
  5
453
330
44F
100
AcDbEntity
  8
0
  6
ByBlock
 62
     0
370
    -2
100
AcDbLine
 10
360.2018632669573
 20
94.36910824944343
 30
0.0
 11
359.1389392839937
 21
94.42481373493726
 31
0.0
  0
LINE
  5
454
330
44F
100
AcDbEntity
  8
0
  6
ByBlock
 62
     0
370
    -2
100
AcDbLine
 10
360.2018632669573
 20
94.52100840273803
 30
0.0
 11
360.2018632669573
 21
94.36910824944343
 31
0.0
  0
ARC
  5
455
330
44F
100
AcDbEntity
  8
0
  6
ByBlock
 62
     0
370
    -2
100
AcDbCircle
 10
359.2069760271097
 20
95.72303213011818
 30
0.0
 40
1.3
100
AcDbArc
 50
196.1832992197586
 51
266.9999999999994
  0
ARC
  5
456
330
44F
100
AcDbEntity
  8
0
  6
ByBlock
 62
     0
370
    -2
100
AcDbCircle
 10
366.6018632669573
 20
97.8691082494434
 30
0.0
 40
9.0
100
AcDbArc
 50
186.527084157614
 51
196.1832992197585
  0
ENDBLK
  5
451
330
44F
100
AcDbEntity
  8
0
100
AcDbBlockEnd
  0
BLOCK
  5
466
330
465
100
AcDbEntity
  8
0
100
AcDbBlockBegin
  2
*D33
 70
     1
 10
0.0
 20
0.0
 30
0.0
  3
*D33
  1
*D33
  0
TEXT
  5
468
330
465
100
AcDbEntity
  8
0
  6
ByBlock
 62
    94
370
    -2
100
AcDbText
 10
291.1517944335092
 20
26.42133653761783
 30
0.0
 40
2.651515151515151
  1
１８
 50
0.0000000099999999
 41
0.8703296703296703
  7
ＭＳ ゴシック
 72
     1
 11
294.1517944335938
 21
25.93697929382324
 31
0.0
100
AcDbText
 73
     1
  0
LINE
  5
469
330
465
100
AcDbEntity
  8
0
  6
ByBlock
 62
     0
370
    -2
100
AcDbLine
 10
285.151768032164
 20
24.93697929876138
 30
0.0
 11
303.151768032164
 21
24.93697929876138
 31
0.0
  0
INSERT
  5
46A
330
465
100
AcDbEntity
  8
0
  6
ByBlock
 62
     0
370
    -2
100
AcDbBlockReference
  2
FXTIP_ARROW_S
 10
285.151768032164
 20
24.93697929876138
 30
0.0
 41
2.5
 42
2.5
 50
180.0
  0
INSERT
  5
46B
330
465
100
AcDbEntity
  8
0
  6
ByBlock
 62
     0
370
    -2
100
AcDbBlockReference
  2
FXTIP_ARROW_E
 10
303.151768032164
 20
24.93697929876138
 30
0.0
 41
2.5
 42
2.5
 50
360.0
  0
LINE
  5
46C
330
465
100
AcDbEntity
  8
0
  6
ByBlock
 62
     0
370
    -2
100
AcDbLine
 10
285.151768032164
 20
42.91316939867497
 30
0.0
 11
285.151768032164
 21
23.93697929876138
 31
0.0
  0
LINE
  5
46D
330
465
100
AcDbEntity
  8
0
  6
ByBlock
 62
     0
370
    -2
100
AcDbLine
 10
303.151768032164
 20
42.91316939867504
 30
0.0
 11
303.151768032164
 21
23.93697929876138
 31
0.0
  0
ENDBLK
  5
467
330
465
100
AcDbEntity
  8
0
100
AcDbBlockEnd
  0
BLOCK
  5
470
330
46F
100
AcDbEntity
  8
0
100
AcDbBlockBegin
  2
*D34
 70
     1
 10
0.0
 20
0.0
 30
0.0
  3
*D34
  1
*D34
  0
TEXT
  5
472
330
46F
100
AcDbEntity
  8
0
  6
ByBlock
 62
    94
370
    -2
100
AcDbText
 10
316.1280084783381
 20
48.91316604614258
 30
0.0
 40
2.651515151515151
  1
３３
 50
90.0
 41
0.8703296703296703
  7
ＭＳ ゴシック
 72
     1
 11
316.6123657226562
 21
51.91316604614258
 31
0.0
100
AcDbText
 73
     1
  0
LINE
  5
473
330
46F
100
AcDbEntity
  8
0
  6
ByBlock
 62
     0
370
    -2
100
AcDbLine
 10
317.6123299764154
 20
35.41316939867505
 30
0.0
 11
317.6123299764154
 21
68.41316939867504
 31
0.0
  0
INSERT
  5
474
330
46F
100
AcDbEntity
  8
0
  6
ByBlock
 62
     0
370
    -2
100
AcDbBlockReference
  2
FXTIP_ARROW_S
 10
317.6123299764154
 20
35.41316939867505
 30
0.0
 41
2.5
 42
2.5
 50
270.0
  0
INSERT
  5
475
330
46F
100
AcDbEntity
  8
0
  6
ByBlock
 62
     0
370
    -2
100
AcDbBlockReference
  2
FXTIP_ARROW_E
 10
317.6123299764154
 20
68.41316939867504
 30
0.0
 41
2.5
 42
2.5
 50
90.0
  0
LINE
  5
476
330
46F
100
AcDbEntity
  8
0
  6
ByBlock
 62
     0
370
    -2
100
AcDbLine
 10
301.3517680321639
 20
35.41316939867505
 30
0.0
 11
318.6123299764154
 21
35.41316939867505
 31
0.0
  0
LINE
  5
477
330
46F
100
AcDbEntity
  8
0
  6
ByBlock
 62
     0
370
    -2
100
AcDbLine
 10
303.151768032164
 20
68.41316939867505
 30
0.0
 11
318.6123299764154
 21
68.41316939867504
 31
0.0
  0
ENDBLK
  5
471
330
46F
100
AcDbEntity
  8
0
100
AcDbBlockEnd
  0
BLOCK
  5
47A
330
479
100
AcDbEntity
  8
0
100
AcDbBlockBegin
  2
*D35
 70
     1
 10
0.0
 20
0.0
 30
0.0
  3
*D35
  1
*D35
  0
TEXT
  5
47C
330
479
100
AcDbEntity
  8
0
  6
ByBlock
 62
    94
370
    -2
100
AcDbText
 10
316.1280084783381
 20
183.3691101074219
 30
0.0
 40
2.651515151515151
  1
１９０
 50
90.0
 41
0.8703296703296705
  7
ＭＳ ゴシック
 72
     1
 11
316.6123657226562
 21
187.8691101074219
 31
0.0
100
AcDbText
 73
     1
  0
LINE
  5
47D
330
479
100
AcDbEntity
  8
0
  6
ByBlock
 62
     0
370
    -2
100
AcDbLine
 10
317.6123299764154
 20
92.8691082494438
 30
0.0
 11
317.6123299764154
 21
282.8691082494437
 31
0.0
  0
INSERT
  5
47E
330
479
100
AcDbEntity
  8
0
  6
ByBlock
 62
     0
370
    -2
100
AcDbBlockReference
  2
FXTIP_ARROW_S
 10
317.6123299764154
 20
92.8691082494438
 30
0.0
 41
2.5
 42
2.5
 50
270.0
  0
INSERT
  5
47F
330
479
100
AcDbEntity
  8
0
  6
ByBlock
 62
     0
370
    -2
100
AcDbBlockReference
  2
FXTIP_ARROW_E
 10
317.6123299764154
 20
282.8691082494437
 30
0.0
 41
2.5
 42
2.5
 50
90.0
  0
LINE
  5
480
330
479
100
AcDbEntity
  8
0
  6
ByBlock
 62
     0
370
    -2
100
AcDbLine
 10
303.651768032164
 20
92.8691082494438
 30
0.0
 11
318.6123299764154
 21
92.8691082494438
 31
0.0
  0
LINE
  5
481
330
479
100
AcDbEntity
  8
0
  6
ByBlock
 62
     0
370
    -2
100
AcDbLine
 10
303.6517680321633
 20
282.8691082494437
 30
0.0
 11
318.6123299764154
 21
282.8691082494437
 31
0.0
  0
ENDBLK
  5
47B
330
479
100
AcDbEntity
  8
0
100
AcDbBlockEnd
  0
BLOCK
  5
484
330
483
100
AcDbEntity
  8
0
100
AcDbBlockBegin
  2
*D36
 70
     1
 10
0.0
 20
0.0
 30
0.0
  3
*D36
  1
*D36
  0
TEXT
  5
486
330
483
100
AcDbEntity
  8
0
  6
ByBlock
 62
    94
370
    -2
100
AcDbText
 10
348.4518432616342
 20
83.01221216270459
 30
0.0
 40
2.651515151515151
  1
２４．５
 50
0.0000000099999511
 41
0.8703296703296703
  7
ＭＳ ゴシック
 72
     1
 11
354.4518432617188
 21
82.5278549194336
 31
0.0
100
AcDbText
 73
     1
  0
LINE
  5
487
330
483
100
AcDbEntity
  8
0
  6
ByBlock
 62
     0
370
    -2
100
AcDbLine
 10
342.2018632669574
 20
81.52785409125597
 30
0.0
 11
366.7018632669573
 21
81.52785409125596
 31
0.0
  0
INSERT
  5
488
330
483
100
AcDbEntity
  8
0
  6
ByBlock
 62
     0
370
    -2
100
AcDbBlockReference
  2
FXTIP_ARROW_S
 10
342.2018632669574
 20
81.52785409125597
 30
0.0
 41
2.5
 42
2.5
 50
180.0
  0
INSERT
  5
489
330
483
100
AcDbEntity
  8
0
  6
ByBlock
 62
     0
370
    -2
100
AcDbBlockReference
  2
FXTIP_ARROW_E
 10
366.7018632669573
 20
81.52785409125596
 30
0.0
 41
2.5
 42
2.5
 50
360.0
  0
LINE
  5
48A
330
483
100
AcDbEntity
  8
0
  6
ByBlock
 62
     0
370
    -2
100
AcDbLine
 10
342.2018632669574
 20
102.6696556649372
 30
0.0
 11
342.2018632669574
 21
80.52785409125597
 31
0.0
  0
LINE
  5
48B
330
483
100
AcDbEntity
  8
0
  6
ByBlock
 62
     0
370
    -2
100
AcDbLine
 10
366.7018632669573
 20
91.8691082494434
 30
0.0
 11
366.7018632669573
 21
80.52785409125596
 31
0.0
  0
ENDBLK
  5
485
330
483
100
AcDbEntity
  8
0
100
AcDbBlockEnd
  0
ENDSEC
  0
SECTION
  2
ENTITIES
  0
LINE
  5
DA
330
1F
100
AcDbEntity
  8
GR2_01
 62
   234
370
    20
100
AcDbLine
 10
69.39578167542894
 20
20.68516834722939
 30
0.0
 11
71.14578167542882
 21
20.68516834722939
 31
0.0
  0
LINE
  5
DB
330
1F
100
AcDbEntity
  8
GR2_01
 62
   234
370
    20
100
AcDbLine
 10
69.09578167542887
 20
20.9851683472294
 30
0.0
 11
69.39578167542894
 21
20.68516834722939
 31
0.0
  0
LINE
  5
DC
330
1F
100
AcDbEntity
  8
GR2_01
 62
   234
370
    20
100
AcDbLine
 10
75.14578167542899
 20
23.93516834722942
 30
0.0
 11
75.14578167542905
 21
20.68516834722939
 31
0.0
  0
LINE
  5
DD
330
1F
100
AcDbEntity
  8
GR2_01
 62
   234
370
    20
100
AcDbLine
 10
78.39578167542871
 20
20.98516834722943
 30
0.0
 11
78.09578167542864
 21
20.68516834722939
 31
0.0
  0
LINE
  5
DE
330
1F
100
AcDbEntity
  8
GR2_01
 62
   234
370
    20
100
AcDbLine
 10
75.14578167542905
 20
20.68516834722942
 30
0.0
 11
78.09578167542864
 21
20.68516834722942
 31
0.0
  0
LINE
  5
DF
330
1F
100
AcDbEntity
  8
GR2_01
 62
   234
370
    20
100
AcDbLine
 10
78.39578167542882
 20
25.43516834722939
 30
0.0
 11
78.39578167542871
 21
20.98516834722943
 31
0.0
  0
LINE
  5
E0
330
1F
100
AcDbEntity
  8
GR2_01
 62
    94
370
    20
100
AcDbLine
 10
69.09578167542887
 20
20.98516834722935
 30
0.0
 11
70.59578167542887
 21
20.98516834722938
 31
0.0
  0
LINE
  5
E1
330
1F
100
AcDbEntity
  8
GR2_01
 62
    94
370
    20
100
AcDbLine
 10
75.14578167542905
 20
20.98516834722938
 30
0.0
 11
76.39578167542882
 21
20.9851683472294
 31
0.0
  0
LINE
  5
E2
330
1F
100
AcDbEntity
  8
GR2_01
 62
    94
370
    20
100
AcDbLine
 10
69.39578167542882
 20
25.43516834722939
 30
0.0
 11
69.39578167542894
 21
20.68516834722936
 31
0.0
  0
LINE
  5
E3
330
1F
100
AcDbEntity
  8
GR2_01
 62
   234
370
    20
100
AcDbLine
 10
76.39578167542882
 20
25.43516834722939
 30
0.0
 11
76.39578167542882
 21
20.68516834722945
 31
0.0
  0
LINE
  5
E4
330
1F
100
AcDbEntity
  8
GR2_01
 62
   234
370
    20
100
AcDbLine
 10
69.09578167542887
 20
25.43516834722939
 30
0.0
 11
69.09578167542887
 21
20.9851683472294
 31
0.0
  0
LINE
  5
E5
330
1F
100
AcDbEntity
  8
GR2_01
 62
   234
370
    20
100
AcDbLine
 10
70.59578167542887
 20
25.43516834722939
 30
0.0
 11
70.59578167542887
 21
20.68516834722939
 31
0.0
  0
LINE
  5
E6
330
1F
100
AcDbEntity
  8
GR2_01
 62
   234
370
    20
100
AcDbLine
 10
77.52582167542877
 20
25.43516834722939
 30
0.0
 11
77.52582167542883
 21
20.68516834722942
 31
0.0
  0
LINE
  5
E7
330
1F
100
AcDbEntity
  8
GR2_01
 62
   234
370
    20
100
AcDbLine
 10
76.7957816754288
 20
25.43516834722939
 30
0.0
 11
76.79578167542886
 21
20.68516834722945
 31
0.0
  0
LINE
  5
E8
330
1F
100
AcDbEntity
  8
GR2_01
 62
    94
370
    20
100
AcDbLine
 10
60.33401176108607
 20
67.33516834722937
 30
0.0
 11
84.95755158977173
 21
67.33516834722937
 31
0.0
  0
LINE
  5
E9
330
1F
100
AcDbEntity
  8
GR2_01
 62
    94
370
    20
100
AcDbLine
 10
58.94578167542888
 20
25.43516834722939
 30
0.0
 11
71.14578167542882
 21
25.43516834722939
 31
0.0
  0
LINE
  5
EA
330
1F
100
AcDbEntity
  8
GR2_01
 62
    94
370
    20
100
AcDbLine
 10
86.34578167542887
 20
48.93516834722942
 30
0.0
 11
86.34578167542887
 21
25.43516834722939
 31
0.0
  0
LINE
  5
EB
330
1F
100
AcDbEntity
  8
GR2_01
 62
    94
370
    20
100
AcDbLine
 10
58.94578167542888
 20
48.93516834722939
 30
0.0
 11
58.94578167542888
 21
25.43516834722939
 31
0.0
  0
LINE
  5
EC
330
1F
100
AcDbEntity
  8
GR2_01
 62
    94
370
    20
100
AcDbLine
 10
86.34578167542887
 20
48.93516834722942
 30
0.0
 11
85.95694241679084
 21
66.37006784393193
 31
0.0
  0
LINE
  5
ED
330
1F
100
AcDbEntity
  8
GR2_01
 62
    94
370
    20
100
AcDbLine
 10
58.94578167542888
 20
48.93516834722939
 30
0.0
 11
59.33462093406702
 21
66.37006784393193
 31
0.0
  0
ARC
  5
EE
330
1F
100
AcDbEntity
  8
GR2_01
 62
    94
370
    20
100
AcDbCircle
 10
84.95755158977173
 20
66.33516834722937
 30
0.0
 40
1.0
100
AcDbArc
 50
1.999999999999574
 51
90.0
  0
ARC
  5
EF
330
1F
100
AcDbEntity
  8
GR2_01
 62
    94
370
    20
100
AcDbCircle
 10
60.33401176108607
 20
66.33516834722937
 30
0.0
 40
1.0
100
AcDbArc
 50
90.0
 51
178.0000000000005
  0
LINE
  5
F0
330
1F
100
AcDbEntity
  8
GR2_01
 62
     5
370
    20
100
AcDbLine
 10
86.34578167542887
 20
48.43516834722942
 30
0.0
 11
58.94578167542888
 21
48.43516834722939
 31
0.0
  0
DIMENSION
  5
F1
330
1F
100
AcDbEntity
  8
GR2_01
 62
     5
370
    20
100
AcDbDimension
  2
*D20
 10
104.0650769849936
 20
67.33516834722938
 30
0.0
 11
103.0650787353516
 21
46.98517608642578
 31
0.0
 70
    32
 71
     5
 42
-1.0
  3
FX_DIMINFO
100
AcDbAlignedDimension
 13
86.34578167542887
 23
25.43516834722939
 33
0.0
 14
84.95755158977173
 24
67.33516834722937
 34
0.0
 50
90.0
100
AcDbRotatedDimension
1001
ACAD
1000
DSTYLE
1002
{
1070
   173
1070
     1
1070
   344
1005
74
1070
   343
1005
6E
1070
   178
1070
    94
1002
}
  0
LINE
  5
FB
330
1F
100
AcDbEntity
  8
GR2_01
 62
    94
370
    20
100
AcDbLine
 10
125.73521158453
 20
281.2691082494439
 30
0.0
 11
125.73521158453
 21
79.26910824944386
 31
0.0
  0
LINE
  5
FC
330
1F
100
AcDbEntity
  8
GR2_01
 62
    94
370
    20
100
AcDbLine
 10
167.63521158453
 20
282.2691082494435
 30
0.0
 11
167.63521158453
 21
103.2691082494438
 31
0.0
  0
LINE
  5
FD
330
1F
100
AcDbEntity
  8
GR2_01
 62
    94
370
    20
100
AcDbLine
 10
126.73521158453
 20
282.2691082494438
 30
0.0
 11
167.63521158453
 21
282.2691082494439
 31
0.0
  0
LINE
  5
FE
330
1F
100
AcDbEntity
  8
GR2_01
 62
    94
370
    20
100
AcDbLine
 10
126.73521158453
 20
78.26910824944386
 30
0.0
 11
144.6352115845301
 21
78.26910824944386
 31
0.0
  0
LINE
  5
FF
330
1F
100
AcDbEntity
  8
GR2_01
 62
    94
370
    20
100
AcDbLine
 10
171.88521158453
 20
277.2691082494436
 30
0.0
 11
171.88521158453
 21
202.7691082494436
 31
0.0
  0
LINE
  5
100
330
1F
100
AcDbEntity
  8
GR2_01
 62
     5
370
    20
100
AcDbLine
 10
145.1352115845301
 20
282.2691082494438
 30
0.0
 11
145.1352115845301
 21
103.2691082494439
 31
0.0
  0
LINE
  5
101
330
1F
100
AcDbEntity
  8
GR2_01
 62
    94
370
    20
100
AcDbLine
 10
144.6352115845301
 20
282.2691082494438
 30
0.0
 11
144.6352115845301
 21
78.26910824944386
 31
0.0
  0
LINE
  5
102
330
1F
100
AcDbEntity
  8
GR2_01
 62
    94
370
    20
100
AcDbLine
 10
167.63521158453
 20
277.2691082494435
 30
0.0
 11
171.88521158453
 21
277.2691082494436
 31
0.0
  0
LINE
  5
103
330
1F
100
AcDbEntity
  8
GR2_01
 62
    94
370
    20
100
AcDbLine
 10
167.63521158453
 20
202.7691082494436
 30
0.0
 11
171.88521158453
 21
202.7691082494436
 31
0.0
  0
LINE
  5
104
330
1F
100
AcDbEntity
  8
GR2_01
 62
    94
370
    20
100
AcDbLine
 10
162.2352115845301
 20
282.2691082494438
 30
0.0
 11
162.2352115845301
 21
276.2691082494438
 31
0.0
  0
LINE
  5
105
330
1F
100
AcDbEntity
  8
GR2_01
 62
    94
370
    20
100
AcDbLine
 10
167.63521158453
 20
276.2691082494438
 30
0.0
 11
162.2352115845301
 21
276.2691082494438
 31
0.0
  0
LINE
  5
106
330
1F
100
AcDbEntity
  8
GR2_01
 62
    94
370
    20
100
AcDbLine
 10
162.2352115845301
 20
282.0191082494438
 30
0.0
 11
162.7352115845301
 21
282.0191082494438
 31
0.0
  0
LINE
  5
107
330
1F
100
AcDbEntity
  8
GR2_01
 62
    94
370
    20
100
AcDbLine
 10
162.2352115845301
 20
276.5191082494438
 30
0.0
 11
162.7352115845301
 21
276.5191082494438
 31
0.0
  0
LINE
  5
108
330
1F
100
AcDbEntity
  8
GR2_01
 62
    94
370
    20
100
AcDbLine
 10
162.7352115845301
 20
282.0191082494438
 30
0.0
 11
162.7352115845301
 21
276.5191082494438
 31
0.0
  0
ARC
  5
109
330
1F
100
AcDbEntity
  8
GR2_01
 62
    94
370
    20
100
AcDbCircle
 10
159.8477115845301
 20
279.2691082494438
 30
0.0
 40
3.987499999999997
100
AcDbArc
 50
316.3971810272964
 51
43.60281897270368
  0
LINE
  5
10A
330
1F
100
AcDbEntity
  8
GR2_01
 62
    94
370
    20
100
AcDbLine
 10
163.8352115845301
 20
279.2691082494438
 30
0.0
 11
163.0759351967559
 21
280.5842135300562
 31
0.0
  0
LINE
  5
10B
330
1F
100
AcDbEntity
  8
GR2_01
 62
    94
370
    20
100
AcDbLine
 10
163.8352115845301
 20
279.2691082494438
 30
0.0
 11
163.0759351967559
 21
277.9540029688316
 31
0.0
  0
LINE
  5
10C
330
1F
100
AcDbEntity
  8
GR2_01
 62
    94
370
    20
100
AcDbLine
 10
163.0352115845301
 20
183.2691082494438
 30
0.0
 11
163.0352115845301
 21
177.2691082494438
 31
0.0
  0
LINE
  5
10D
330
1F
100
AcDbEntity
  8
GR2_01
 62
    94
370
    20
100
AcDbLine
 10
163.0352115845301
 20
183.2691082494438
 30
0.0
 11
167.63521158453
 21
183.2691082494438
 31
0.0
  0
LINE
  5
10E
330
1F
100
AcDbEntity
  8
GR2_01
 62
    94
370
    20
100
AcDbLine
 10
163.0352115845301
 20
177.2691082494438
 30
0.0
 11
167.63521158453
 21
177.2691082494438
 31
0.0
  0
LINE
  5
10F
330
1F
100
AcDbEntity
  8
GR2_01
 62
    94
370
    20
100
AcDbLine
 10
163.0352115845301
 20
183.0191082494439
 30
0.0
 11
163.5352115845301
 21
183.0191082494439
 31
0.0
  0
LINE
  5
110
330
1F
100
AcDbEntity
  8
GR2_01
 62
    94
370
    20
100
AcDbLine
 10
163.0352115845301
 20
177.5191082494439
 30
0.0
 11
163.5352115845301
 21
177.5191082494439
 31
0.0
  0
LINE
  5
111
330
1F
100
AcDbEntity
  8
GR2_01
 62
    94
370
    20
100
AcDbLine
 10
163.5352115845301
 20
183.0191082494439
 30
0.0
 11
163.5352115845301
 21
177.5191082494439
 31
0.0
  0
ARC
  5
112
330
1F
100
AcDbEntity
  8
GR2_01
 62
    94
370
    20
100
AcDbCircle
 10
160.6477115845301
 20
180.2691082494439
 30
0.0
 40
3.987499999999997
100
AcDbArc
 50
316.3971810272964
 51
43.60281897270368
  0
LINE
  5
113
330
1F
100
AcDbEntity
  8
GR2_01
 62
    94
370
    20
100
AcDbLine
 10
164.6352115845301
 20
180.2691082494439
 30
0.0
 11
163.8759351967559
 21
181.5842135300562
 31
0.0
  0
LINE
  5
114
330
1F
100
AcDbEntity
  8
GR2_01
 62
    94
370
    20
100
AcDbLine
 10
164.6352115845301
 20
180.2691082494439
 30
0.0
 11
163.8759351967559
 21
178.9540029688316
 31
0.0
  0
ARC
  5
115
330
1F
100
AcDbEntity
  8
GR2_01
 62
    94
370
    20
100
AcDbCircle
 10
126.73521158453
 20
281.2691082494439
 30
0.0
 40
1.0
100
AcDbArc
 50
90.0
 51
180.0
  0
ARC
  5
116
330
1F
100
AcDbEntity
  8
GR2_01
 62
    94
370
    20
100
AcDbCircle
 10
126.73521158453
 20
79.26910824944386
 30
0.0
 40
1.0
100
AcDbArc
 50
180.0
 51
270.0
  0
LINE
  5
117
330
1F
100
AcDbEntity
  8
GR2_01
 62
    94
370
    20
100
AcDbLine
 10
224.6931749287019
 20
281.2691082494438
 30
0.0
 11
224.6931749287018
 21
79.26910824944389
 31
0.0
  0
LINE
  5
118
330
1F
100
AcDbEntity
  8
GR2_01
 62
    94
370
    20
100
AcDbLine
 10
197.2931749287018
 20
281.2691082494439
 30
0.0
 11
197.2931749287018
 21
79.26910824944386
 31
0.0
  0
LINE
  5
119
330
1F
100
AcDbEntity
  8
GR2_01
 62
    94
370
    20
100
AcDbLine
 10
197.4931749287019
 20
82.26910824944385
 30
0.0
 11
224.4931749287019
 21
82.26910824944387
 31
0.0
  0
ARC
  5
11A
330
1F
100
AcDbEntity
  8
GR2_01
 62
    94
370
    20
100
AcDbCircle
 10
198.2931749287018
 20
79.26910824944386
 30
0.0
 40
1.0
100
AcDbArc
 50
180.0
 51
270.0
  0
LINE
  5
11B
330
1F
100
AcDbEntity
  8
GR2_01
 62
    94
370
    20
100
AcDbLine
 10
134.1352115845301
 20
209.0191082494439
 30
0.0
 11
134.1352115845301
 21
151.5191082494439
 31
0.0
  0
LINE
  5
11C
330
1F
100
AcDbEntity
  8
GR2_01
 62
    94
370
    20
100
AcDbLine
 10
134.1352115845301
 20
151.5191082494439
 30
0.0
 11
144.6352115845301
 21
151.5191082494439
 31
0.0
  0
CIRCLE
  5
11D
330
1F
100
AcDbEntity
  8
GR2_01
 62
    94
370
    20
100
AcDbCircle
 10
210.9931749287018
 20
88.26910824944392
 30
0.0
 40
2.15
  0
LINE
  5
11E
330
1F
100
AcDbEntity
  8
GR2_01
 62
    94
370
    20
100
AcDbLine
 10
86.34578167542887
 20
281.2691082494438
 30
0.0
 11
86.34578167542887
 21
79.26910824944383
 31
0.0
  0
LINE
  5
11F
330
1F
100
AcDbEntity
  8
GR2_01
 62
    94
370
    20
100
AcDbLine
 10
58.94578167542882
 20
281.2691082494439
 30
0.0
 11
58.94578167542882
 21
79.2691082494438
 31
0.0
  0
LINE
  5
120
330
1F
100
AcDbEntity
  8
GR2_01
 62
    94
370
    20
100
AcDbLine
 10
59.94578167542882
 20
78.2691082494438
 30
0.0
 11
85.34578167542887
 21
78.26910824944383
 31
0.0
  0
LINE
  5
121
330
1F
100
AcDbEntity
  8
GR2_01
 62
    94
370
    20
100
AcDbLine
 10
59.94578167542888
 20
282.2691082494439
 30
0.0
 11
85.34578167542887
 21
282.2691082494438
 31
0.0
  0
LINE
  5
122
330
1F
100
AcDbEntity
  8
GR2_01
 62
    94
370
    20
100
AcDbLine
 10
75.19578167542883
 20
101.3691082494438
 30
0.0
 11
83.69578167542883
 21
101.3691082494438
 31
0.0
  0
LINE
  5
123
330
1F
100
AcDbEntity
  8
GR2_01
 62
    94
370
    20
100
AcDbLine
 10
83.69578167542889
 20
274.3691082494438
 30
0.0
 11
83.69578167542883
 21
101.3691082494439
 31
0.0
  0
LINE
  5
124
330
1F
100
AcDbEntity
  8
GR2_01
 62
    94
370
    20
100
AcDbLine
 10
75.19578167542878
 20
269.569108249444
 30
0.0
 11
75.19578167542889
 21
106.1691082494438
 31
0.0
  0
ARC
  5
125
330
1F
100
AcDbEntity
  8
GR2_01
 62
    94
370
    20
100
AcDbCircle
 10
75.19578167542889
 20
103.7691082494438
 30
0.0
 40
2.4
100
AcDbArc
 50
90.00000000000034
 51
270.0
  0
LINE
  5
126
330
1F
100
AcDbEntity
  8
GR2_01
 62
    94
370
    20
100
AcDbLine
 10
75.19578167542883
 20
274.3691082494439
 30
0.0
 11
83.69578167542883
 21
274.3691082494439
 31
0.0
  0
ARC
  5
127
330
1F
100
AcDbEntity
  8
GR2_01
 62
    94
370
    20
100
AcDbCircle
 10
75.19578167542889
 20
271.9691082494439
 30
0.0
 40
2.4
100
AcDbArc
 50
90.0
 51
269.9999999999997
  0
CIRCLE
  5
128
330
1F
100
AcDbEntity
  8
GR2_01
 62
     5
370
    20
100
AcDbCircle
 10
79.44578167542883
 20
97.86910824944383
 30
0.0
 40
2.0
  0
CIRCLE
  5
129
330
1F
100
AcDbEntity
  8
GR2_01
 62
     5
370
    20
100
AcDbCircle
 10
79.44578167542883
 20
97.86910824944383
 30
0.0
 40
1.6
  0
CIRCLE
  5
12A
330
1F
100
AcDbEntity
  8
GR2_01
 62
     5
370
    20
100
AcDbCircle
 10
79.44578167542883
 20
277.8691082494439
 30
0.0
 40
2.0
  0
CIRCLE
  5
12B
330
1F
100
AcDbEntity
  8
GR2_01
 62
     5
370
    20
100
AcDbCircle
 10
79.44578167542883
 20
277.8691082494439
 30
0.0
 40
1.6
  0
LINE
  5
12C
330
1F
100
AcDbEntity
  8
GR2_01
 62
    94
370
    20
100
AcDbLine
 10
80.24578167542884
 20
271.3691082494438
 30
0.0
 11
80.24578167542884
 21
104.3691082494438
 31
0.0
  0
LINE
  5
12D
330
1F
100
AcDbEntity
  8
GR2_01
 62
    94
370
    20
100
AcDbLine
 10
78.64578167542888
 20
271.3691082494439
 30
0.0
 11
78.64578167542882
 21
104.3691082494438
 31
0.0
  0
LINE
  5
12E
330
1F
100
AcDbEntity
  8
GR2_01
 62
    94
370
    20
100
AcDbLine
 10
80.24578167542884
 20
104.3691082494438
 30
0.0
 11
78.64578167542888
 21
104.3691082494438
 31
0.0
  0
LINE
  5
12F
330
1F
100
AcDbEntity
  8
GR2_01
 62
    94
370
    20
100
AcDbLine
 10
80.24578167542884
 20
271.3691082494438
 30
0.0
 11
78.64578167542882
 21
271.3691082494438
 31
0.0
  0
ARC
  5
130
330
1F
100
AcDbEntity
  8
GR2_01
 62
    94
370
    20
100
AcDbCircle
 10
85.34578167542887
 20
79.26910824944383
 30
0.0
 40
1.0
100
AcDbArc
 50
270.0
 51
0.0
  0
ARC
  5
131
330
1F
100
AcDbEntity
  8
GR2_01
 62
    94
370
    20
100
AcDbCircle
 10
59.94578167542882
 20
79.2691082494438
 30
0.0
 40
1.0
100
AcDbArc
 50
180.0
 51
270.0
  0
ARC
  5
132
330
1F
100
AcDbEntity
  8
GR2_01
 62
    94
370
    20
100
AcDbCircle
 10
85.34578167542887
 20
281.2691082494438
 30
0.0
 40
1.0
100
AcDbArc
 50
0.0
 51
90.0
  0
ARC
  5
133
330
1F
100
AcDbEntity
  8
GR2_01
 62
    94
370
    20
100
AcDbCircle
 10
59.94578167542882
 20
281.2691082494439
 30
0.0
 40
1.0
100
AcDbArc
 50
89.99999999999962
 51
180.0
  0
DIMENSION
  5
134
330
1F
100
AcDbEntity
  8
GR2_01
 62
     5
370
    20
100
AcDbDimension
  2
*D21
 10
104.0650769849936
 20
282.2691082494437
 30
0.0
 11
103.0650787353516
 21
180.2691040039062
 31
0.0
 70
    33
 71
     5
 42
-1.0
  3
FX_DIMINFO
100
AcDbAlignedDimension
 13
85.34578167542887
 23
78.26910824944383
 33
0.0
 14
85.34578167542887
 24
282.2691082494438
 34
0.0
1001
ACAD
1000
DSTYLE
1002
{
1070
   173
1070
     1
1070
   344
1005
74
1070
   343
1005
6E
1070
   178
1070
    94
1002
}
  0
ARC
  5
13E
330
1F
100
AcDbEntity
  8
GR2_01
 62
    94
370
    20
100
AcDbCircle
 10
72.6457816754291
 20
88.26910824944383
 30
0.0
 40
3.5
100
AcDbArc
 50
0.0
 51
180.0
  0
LINE
  5
13F
330
1F
100
AcDbEntity
  8
GR2_01
 62
    94
370
    20
100
AcDbLine
 10
69.1457816754291
 20
88.26910824944383
 30
0.0
 11
69.1457816754291
 21
78.26910824944383
 31
0.0
  0
LINE
  5
140
330
1F
100
AcDbEntity
  8
GR2_01
 62
    94
370
    20
100
AcDbLine
 10
76.1457816754291
 20
88.33579827981956
 30
0.0
 11
76.1457816754291
 21
78.26910824944383
 31
0.0
  0
CIRCLE
  5
141
330
1F
100
AcDbEntity
  8
GR2_01
 62
    94
370
    20
100
AcDbCircle
 10
79.44578167542883
 20
97.86910824944383
 30
0.0
 40
2.75
  0
CIRCLE
  5
142
330
1F
100
AcDbEntity
  8
GR2_01
 62
    94
370
    20
100
AcDbCircle
 10
79.44578167542883
 20
277.8691082494439
 30
0.0
 40
2.75
  0
CIRCLE
  5
143
330
1F
100
AcDbEntity
  8
GR2_01
 62
    94
370
    20
100
AcDbCircle
 10
63.64578167542884
 20
267.2691082494438
 30
0.0
 40
3.6
  0
CIRCLE
  5
144
330
1F
100
AcDbEntity
  8
GR2_01
 62
    94
370
    20
100
AcDbCircle
 10
63.64578167542884
 20
197.2691082494437
 30
0.0
 40
3.6
  0
LINE
  5
145
330
1F
100
AcDbEntity
  8
GR2_01
 62
    94
370
    20
100
AcDbLine
 10
134.1352115845301
 20
209.0191082494439
 30
0.0
 11
144.6352115845301
 21
209.0191082494439
 31
0.0
  0
LINE
  5
146
330
1F
100
AcDbEntity
  8
GR2_01
 62
    94
370
    20
100
AcDbLine
 10
144.6352115845301
 20
103.2691082494439
 30
0.0
 11
167.63521158453
 21
103.2691082494439
 31
0.0
  0
LINE
  5
147
330
1F
100
AcDbEntity
  8
GR2_01
 62
    94
370
    20
100
AcDbLine
 10
163.0352115845301
 20
103.2691082494438
 30
0.0
 11
163.0352115845301
 21
109.2691082494439
 31
0.0
  0
LINE
  5
148
330
1F
100
AcDbEntity
  8
GR2_01
 62
    94
370
    20
100
AcDbLine
 10
167.63521158453
 20
109.2691082494439
 30
0.0
 11
163.0352115845301
 21
109.2691082494439
 31
0.0
  0
LINE
  5
149
330
1F
100
AcDbEntity
  8
GR2_01
 62
    94
370
    20
100
AcDbLine
 10
163.0352115845301
 20
103.5191082494438
 30
0.0
 11
163.5352115845301
 21
103.5191082494438
 31
0.0
  0
LINE
  5
14A
330
1F
100
AcDbEntity
  8
GR2_01
 62
    94
370
    20
100
AcDbLine
 10
163.0352115845301
 20
109.0191082494439
 30
0.0
 11
163.5352115845301
 21
109.0191082494439
 31
0.0
  0
LINE
  5
14B
330
1F
100
AcDbEntity
  8
GR2_01
 62
    94
370
    20
100
AcDbLine
 10
163.5352115845301
 20
103.5191082494438
 30
0.0
 11
163.5352115845301
 21
109.0191082494439
 31
0.0
  0
ARC
  5
14C
330
1F
100
AcDbEntity
  8
GR2_01
 62
    94
370
    20
100
AcDbCircle
 10
160.6477115845301
 20
106.2691082494439
 30
0.0
 40
3.987499999999997
100
AcDbArc
 50
316.3971810272957
 51
43.60281897270434
  0
LINE
  5
14D
330
1F
100
AcDbEntity
  8
GR2_01
 62
    94
370
    20
100
AcDbLine
 10
164.6352115845301
 20
106.2691082494439
 30
0.0
 11
163.8759351967559
 21
104.9540029688316
 31
0.0
  0
LINE
  5
14E
330
1F
100
AcDbEntity
  8
GR2_01
 62
    94
370
    20
100
AcDbLine
 10
164.6352115845301
 20
106.2691082494439
 30
0.0
 11
163.8759351967559
 21
107.5842135300561
 31
0.0
  0
LINE
  5
14F
330
1F
100
AcDbEntity
  8
GR2_01
 62
    94
370
    20
100
AcDbLine
 10
198.2931749287018
 20
103.2691082494439
 30
0.0
 11
223.6931749287018
 21
103.2691082494439
 31
0.0
  0
ARC
  5
150
330
1F
100
AcDbEntity
  8
GR2_01
 62
    94
370
    20
100
AcDbCircle
 10
223.6931749287018
 20
104.2691082494439
 30
0.0
 40
1.0
100
AcDbArc
 50
270.0
 51
0.0
  0
ARC
  5
151
330
1F
100
AcDbEntity
  8
GR2_01
 62
    94
370
    20
100
AcDbCircle
 10
198.2931749287018
 20
104.2691082494439
 30
0.0
 40
1.0
100
AcDbArc
 50
180.0
 51
270.0
  0
ARC
  5
152
330
1F
100
AcDbEntity
  8
GR2_01
 62
    94
370
    20
100
AcDbCircle
 10
221.6931749287018
 20
106.2691082494437
 30
0.0
 40
3.0
100
AcDbArc
 50
90.0
 51
180.0
  0
LINE
  5
153
330
1F
100
AcDbEntity
  8
GR2_01
 62
    94
370
    20
100
AcDbLine
 10
222.8836526478107
 20
107.4595859685528
 30
0.0
 11
220.5026972095928
 21
105.0786305303347
 31
0.0
  0
LINE
  5
154
330
1F
100
AcDbEntity
  8
GR2_01
 62
    94
370
    20
100
AcDbLine
 10
222.8836526478107
 20
105.0786305303347
 30
0.0
 11
220.5026972095928
 21
107.4595859685528
 31
0.0
  0
LINE
  5
155
330
1F
100
AcDbEntity
  8
GR2_01
 62
    94
370
    20
100
AcDbLine
 10
221.6931749287018
 20
109.2691082494437
 30
0.0
 11
224.6931749287018
 21
109.2691082494437
 31
0.0
  0
CIRCLE
  5
156
330
1F
100
AcDbEntity
  8
GR2_01
 62
    94
370
    20
100
AcDbCircle
 10
221.6931749287018
 20
106.2691082494437
 30
0.0
 40
2.75
  0
LINE
  5
157
330
1F
100
AcDbEntity
  8
GR2_01
 62
    94
370
    20
100
AcDbLine
 10
218.6931749287017
 20
103.2691082494438
 30
0.0
 11
218.6931749287017
 21
106.2691082494437
 31
0.0
  0
ARC
  5
158
330
1F
100
AcDbEntity
  8
GR2_01
 62
    94
370
    20
100
AcDbCircle
 10
200.2931749287019
 20
106.2691082494437
 30
0.0
 40
3.0
100
AcDbArc
 50
0.0
 51
90.0
  0
LINE
  5
159
330
1F
100
AcDbEntity
  8
GR2_01
 62
    94
370
    20
100
AcDbLine
 10
199.102697209593
 20
107.4595859685528
 30
0.0
 11
201.4836526478109
 21
105.0786305303347
 31
0.0
  0
LINE
  5
15A
330
1F
100
AcDbEntity
  8
GR2_01
 62
    94
370
    20
100
AcDbLine
 10
199.102697209593
 20
105.0786305303347
 30
0.0
 11
201.4836526478109
 21
107.4595859685528
 31
0.0
  0
LINE
  5
15B
330
1F
100
AcDbEntity
  8
GR2_01
 62
    94
370
    20
100
AcDbLine
 10
200.2931749287019
 20
109.2691082494437
 30
0.0
 11
197.2931749287019
 21
109.2691082494437
 31
0.0
  0
CIRCLE
  5
15C
330
1F
100
AcDbEntity
  8
GR2_01
 62
    94
370
    20
100
AcDbCircle
 10
200.2931749287019
 20
106.2691082494437
 30
0.0
 40
2.75
  0
LINE
  5
15D
330
1F
100
AcDbEntity
  8
GR2_01
 62
    94
370
    20
100
AcDbLine
 10
203.293174928702
 20
103.2691082494438
 30
0.0
 11
203.293174928702
 21
106.2691082494437
 31
0.0
  0
ARC
  5
15E
330
1F
100
AcDbEntity
  8
GR2_01
 62
    94
370
    20
100
AcDbCircle
 10
223.6931749287019
 20
79.26910824944386
 30
0.0
 40
1.0
100
AcDbArc
 50
270.0
 51
0.0
  0
LINE
  5
15F
330
1F
100
AcDbEntity
  8
GR2_01
 62
    94
370
    20
100
AcDbLine
 10
206.493174928702
 20
92.26910824944385
 30
0.0
 11
215.4931749287019
 21
92.26910824944385
 31
0.0
  0
LINE
  5
160
330
1F
100
AcDbEntity
  8
GR2_01
 62
    94
370
    20
100
AcDbLine
 10
222.8931749287018
 20
103.2691082494439
 30
0.0
 11
222.8931749287018
 21
101.2691082494438
 31
0.0
  0
LINE
  5
161
330
1F
100
AcDbEntity
  8
GR2_01
 62
    94
370
    20
100
AcDbLine
 10
199.0931749287019
 20
103.2691082494439
 30
0.0
 11
199.0931749287019
 21
101.2691082494438
 31
0.0
  0
LINE
  5
162
330
1F
100
AcDbEntity
  8
GR2_01
 62
    94
370
    20
100
AcDbLine
 10
198.4931749287019
 20
101.2691082494438
 30
0.0
 11
223.493174928702
 21
101.2691082494438
 31
0.0
  0
LINE
  5
163
330
1F
100
AcDbEntity
  8
GR2_01
 62
    94
370
    20
100
AcDbLine
 10
197.4931749287019
 20
100.2691082494438
 30
0.0
 11
197.4931749287019
 21
82.26910824944386
 31
0.0
  0
LINE
  5
164
330
1F
100
AcDbEntity
  8
GR2_01
 62
    94
370
    20
100
AcDbLine
 10
224.493174928702
 20
100.2691082494438
 30
0.0
 11
224.4931749287018
 21
82.26910824944387
 31
0.0
  0
LINE
  5
165
330
1F
100
AcDbEntity
  8
GR2_01
 62
    94
370
    20
100
AcDbLine
 10
59.14578167542886
 20
48.43516834722939
 30
0.0
 11
59.14578167542886
 21
26.63516834722938
 31
0.0
  0
LINE
  5
166
330
1F
100
AcDbEntity
  8
GR2_01
 62
    94
370
    20
100
AcDbLine
 10
86.14578167542888
 20
48.43516834722942
 30
0.0
 11
86.14578167542888
 21
26.63516834722938
 31
0.0
  0
LINE
  5
167
330
1F
100
AcDbEntity
  8
GR2_01
 62
    94
370
    20
100
AcDbLine
 10
146.2352115845301
 20
88.26910824944389
 30
0.0
 11
146.2352115845301
 21
94.26910824944395
 31
0.0
  0
LINE
  5
168
330
1F
100
AcDbEntity
  8
GR2_01
 62
    94
370
    20
100
AcDbLine
 10
146.2352115845301
 20
88.51910824944389
 30
0.0
 11
146.7352115845301
 21
88.51910824944389
 31
0.0
  0
LINE
  5
169
330
1F
100
AcDbEntity
  8
GR2_01
 62
    94
370
    20
100
AcDbLine
 10
146.2352115845301
 20
94.019108249444
 30
0.0
 11
146.7352115845301
 21
94.019108249444
 31
0.0
  0
LINE
  5
16A
330
1F
100
AcDbEntity
  8
GR2_01
 62
    94
370
    20
100
AcDbLine
 10
146.7352115845301
 20
88.51910824944389
 30
0.0
 11
146.7352115845301
 21
94.019108249444
 31
0.0
  0
ARC
  5
16B
330
1F
100
AcDbEntity
  8
GR2_01
 62
    94
370
    20
100
AcDbCircle
 10
143.8477115845301
 20
91.26910824944395
 30
0.0
 40
3.987499999999997
100
AcDbArc
 50
316.3971810272957
 51
43.60281897270434
  0
LINE
  5
16C
330
1F
100
AcDbEntity
  8
GR2_01
 62
    94
370
    20
100
AcDbLine
 10
147.8352115845301
 20
91.26910824944395
 30
0.0
 11
147.0759351967559
 21
89.95400296883162
 31
0.0
  0
LINE
  5
16D
330
1F
100
AcDbEntity
  8
GR2_01
 62
    94
370
    20
100
AcDbLine
 10
223.493174928702
 20
101.2691082494438
 30
0.0
 11
224.493174928702
 21
100.2691082494438
 31
0.0
  0
LINE
  5
16E
330
1F
100
AcDbEntity
  8
GR2_01
 62
    94
370
    20
100
AcDbLine
 10
198.4931749287019
 20
101.2691082494438
 30
0.0
 11
197.4931749287019
 21
100.2691082494438
 31
0.0
  0
LINE
  5
16F
330
1F
100
AcDbEntity
  8
GR2_01
 62
    94
370
    20
100
AcDbLine
 10
206.4931749287019
 20
92.26910824944385
 30
0.0
 11
205.4931749287019
 21
91.26910824944383
 31
0.0
  0
LINE
  5
170
330
1F
100
AcDbEntity
  8
GR2_01
 62
    94
370
    20
100
AcDbLine
 10
215.493174928702
 20
92.26910824944385
 30
0.0
 11
216.4931749287019
 21
91.26910824944385
 31
0.0
  0
INSERT
  5
174
330
1F
100
AcDbEntity
  8
GR2_01
 62
    94
370
    20
100
AcDbBlockReference
  2
BLKF025
 10
0.0
 20
0.0
 30
0.0
  0
INSERT
  5
17B
330
1F
100
AcDbEntity
  8
GR2_01
 62
    94
370
    20
100
AcDbBlockReference
  2
BLKF026
 10
0.0
 20
0.0
 30
0.0
  0
LINE
  5
17F
330
1F
100
AcDbEntity
  8
GR2_01
 62
    94
370
    20
100
AcDbLine
 10
219.9931749287018
 20
87.7691082494439
 30
0.0
 11
224.4931749287019
 21
87.76910824944392
 31
0.0
  0
LINE
  5
180
330
1F
100
AcDbEntity
  8
GR2_01
 62
    94
370
    20
100
AcDbLine
 10
201.9931749287018
 20
87.7691082494437
 30
0.0
 11
197.4931749287018
 21
87.76910824944372
 31
0.0
  0
ARC
  5
181
330
1F
100
AcDbEntity
  8
GR2_01
 62
    94
370
    20
100
AcDbCircle
 10
201.9931749287018
 20
91.2691082494437
 30
0.0
 40
3.5
100
AcDbArc
 50
270.0000000000005
 51
0.0000000000037149
  0
ARC
  5
182
330
1F
100
AcDbEntity
  8
GR2_01
 62
    94
370
    20
100
AcDbCircle
 10
219.9931749287018
 20
91.26910824944392
 30
0.0
 40
3.5
100
AcDbArc
 50
180.0
 51
269.9999999999995
  0
INSERT
  5
186
330
1F
100
AcDbEntity
  8
GR2_01
 62
    94
370
    20
100
AcDbBlockReference
  2
BLKF027
 10
0.0
 20
0.0
 30
0.0
  0
INSERT
  5
193
330
1F
100
AcDbEntity
  8
GR2_01
 62
    94
370
    20
100
AcDbBlockReference
  2
BLKF028
 10
0.0
 20
0.0
 30
0.0
  0
INSERT
  5
1A0
330
1F
100
AcDbEntity
  8
GR2_01
 62
    94
370
    20
100
AcDbBlockReference
  2
BLKF029
 10
0.0
 20
0.0
 30
0.0
  0
CIRCLE
  5
1AA
330
1F
100
AcDbEntity
  8
GR2_01
 62
    94
370
    20
100
AcDbCircle
 10
72.64578167542888
 20
88.26910824944383
 30
0.0
 40
3.0
  0
CIRCLE
  5
1AB
330
1F
100
AcDbEntity
  8
GR2_01
 62
    94
370
    20
100
AcDbCircle
 10
63.64578167542884
 20
197.2691082494437
 30
0.0
 40
3.0
  0
CIRCLE
  5
1AC
330
1F
100
AcDbEntity
  8
GR2_01
 62
    94
370
    20
100
AcDbCircle
 10
63.64578167542884
 20
267.2691082494438
 30
0.0
 40
3.0
  0
LINE
  5
1AD
330
1F
100
AcDbEntity
  8
GR2_01
 62
    94
370
    20
100
AcDbLine
 10
198.2931749287019
 20
282.2691082494439
 30
0.0
 11
223.6931749287018
 21
282.2691082494438
 31
0.0
  0
ARC
  5
1AE
330
1F
100
AcDbEntity
  8
GR2_01
 62
    94
370
    20
100
AcDbCircle
 10
198.2931749287019
 20
281.2691082494439
 30
0.0
 40
1.0
100
AcDbArc
 50
90.0
 51
180.0
  0
ARC
  5
1AF
330
1F
100
AcDbEntity
  8
GR2_01
 62
    94
370
    20
100
AcDbCircle
 10
223.6931749287018
 20
281.2691082494438
 30
0.0
 40
1.0
100
AcDbArc
 50
0.0
 51
90.0
  0
ARC
  5
1B0
330
1F
100
AcDbEntity
  8
GR2_01
 62
    94
370
    20
100
AcDbCircle
 10
221.6931749287018
 20
180.2691082494439
 30
0.0
 40
3.0
100
AcDbArc
 50
90.0
 51
269.9999999999994
  0
LINE
  5
1B1
330
1F
100
AcDbEntity
  8
GR2_01
 62
    94
370
    20
100
AcDbLine
 10
220.5026972095928
 20
181.4595859685529
 30
0.0
 11
222.8836526478108
 21
179.0786305303349
 31
0.0
  0
LINE
  5
1B2
330
1F
100
AcDbEntity
  8
GR2_01
 62
    94
370
    20
100
AcDbLine
 10
220.5026972095928
 20
179.0786305303349
 30
0.0
 11
222.8836526478108
 21
181.4595859685529
 31
0.0
  0
LINE
  5
1B3
330
1F
100
AcDbEntity
  8
GR2_01
 62
    94
370
    20
100
AcDbLine
 10
224.6931749287018
 20
183.2691082494439
 30
0.0
 11
221.6931749287018
 21
183.2691082494439
 31
0.0
  0
LINE
  5
1B4
330
1F
100
AcDbEntity
  8
GR2_01
 62
    94
370
    20
100
AcDbLine
 10
224.6931749287018
 20
177.2691082494439
 30
0.0
 11
221.6931749287018
 21
177.2691082494439
 31
0.0
  0
CIRCLE
  5
1B5
330
1F
100
AcDbEntity
  8
GR2_01
 62
    94
370
    20
100
AcDbCircle
 10
221.6931749287019
 20
180.2691082494439
 30
0.0
 40
2.75
  0
ARC
  5
1B6
330
1F
100
AcDbEntity
  8
GR2_01
 62
    94
370
    20
100
AcDbCircle
 10
200.293174928702
 20
180.2691082494439
 30
0.0
 40
3.0
100
AcDbArc
 50
270.0000000000006
 51
90.0
  0
LINE
  5
1B7
330
1F
100
AcDbEntity
  8
GR2_01
 62
    94
370
    20
100
AcDbLine
 10
201.4836526478111
 20
181.4595859685529
 30
0.0
 11
199.102697209593
 21
179.0786305303349
 31
0.0
  0
LINE
  5
1B8
330
1F
100
AcDbEntity
  8
GR2_01
 62
    94
370
    20
100
AcDbLine
 10
201.4836526478111
 20
179.0786305303349
 30
0.0
 11
199.102697209593
 21
181.4595859685529
 31
0.0
  0
LINE
  5
1B9
330
1F
100
AcDbEntity
  8
GR2_01
 62
    94
370
    20
100
AcDbLine
 10
197.293174928702
 20
183.2691082494439
 30
0.0
 11
200.293174928702
 21
183.2691082494439
 31
0.0
  0
LINE
  5
1BA
330
1F
100
AcDbEntity
  8
GR2_01
 62
    94
370
    20
100
AcDbLine
 10
197.293174928702
 20
177.2691082494439
 30
0.0
 11
200.293174928702
 21
177.2691082494439
 31
0.0
  0
CIRCLE
  5
1BB
330
1F
100
AcDbEntity
  8
GR2_01
 62
    94
370
    20
100
AcDbCircle
 10
200.2931749287019
 20
180.2691082494439
 30
0.0
 40
2.75
  0
LINE
  5
1BC
330
1F
100
AcDbEntity
  8
GR2_01
 62
   234
370
    20
100
AcDbLine
 10
214.2431749287018
 20
203.1933723181559
 30
0.0
 11
214.2431749287018
 21
270.9297309813971
 31
0.0
  0
LINE
  5
1BD
330
1F
100
AcDbEntity
  8
GR2_01
 62
   234
370
    20
100
AcDbLine
 10
214.1189108599898
 20
203.0691082494439
 30
0.0
 11
213.0431749287018
 21
203.0691082494439
 31
0.0
  0
LINE
  5
1BE
330
1F
100
AcDbEntity
  8
GR2_01
 62
   234
370
    20
100
AcDbLine
 10
214.5431749287018
 20
203.069108249444
 30
0.0
 11
214.2431749287017
 21
202.769108249444
 31
0.0
  0
LINE
  5
1BF
330
1F
100
AcDbEntity
  8
GR2_01
 62
   234
370
    20
100
AcDbLine
 10
214.2431749287017
 20
203.1933723181559
 30
0.0
 11
214.1189108599898
 21
203.069108249444
 31
0.0
  0
LINE
  5
1C0
330
1F
100
AcDbEntity
  8
GR2_01
 62
   234
370
    20
100
AcDbLine
 10
214.2431749287017
 20
203.193372318156
 30
0.0
 11
214.5431749287018
 21
203.069108249444
 31
0.0
  0
LINE
  5
1C1
330
1F
100
AcDbEntity
  8
GR2_01
 62
   234
370
    20
100
AcDbLine
 10
214.1189108599898
 20
203.069108249444
 30
0.0
 11
214.2431749287018
 21
202.7691082494439
 31
0.0
  0
LINE
  5
1C2
330
1F
100
AcDbEntity
  8
GR2_01
 62
   234
370
    20
100
AcDbLine
 10
207.2431749287018
 20
202.7691082494439
 30
0.0
 11
207.2431749287018
 21
203.7691082494439
 31
0.0
  0
LINE
  5
1C3
330
1F
100
AcDbEntity
  8
GR2_01
 62
   234
370
    20
100
AcDbLine
 10
208.4931749287017
 20
202.769108249444
 30
0.0
 11
208.4931749287017
 21
209.2191082494438
 31
0.0
  0
LINE
  5
1C4
330
1F
100
AcDbEntity
  8
GR2_01
 62
   234
370
    20
100
AcDbLine
 10
205.2431749287018
 20
207.5107656362179
 30
0.0
 11
205.2431749287018
 21
209.2191082494438
 31
0.0
  0
LINE
  5
1C5
330
1F
100
AcDbEntity
  8
GR2_01
 62
   234
370
    20
100
AcDbLine
 10
213.4931749287018
 20
239.3891082494438
 30
0.0
 11
209.7431749287018
 21
239.3891082494438
 31
0.0
  0
LINE
  5
1C6
330
1F
100
AcDbEntity
  8
GR2_01
 62
   234
370
    20
100
AcDbLine
 10
213.4931749287018
 20
235.8891082494438
 30
0.0
 11
209.7431749287018
 21
235.8891082494438
 31
0.0
  0
LINE
  5
1C7
330
1F
100
AcDbEntity
  8
GR2_01
 62
   234
370
    20
100
AcDbLine
 10
213.4931749287018
 20
235.8891082494438
 30
0.0
 11
213.4931749287018
 21
239.3891082494438
 31
0.0
  0
LINE
  5
1C8
330
1F
100
AcDbEntity
  8
GR2_01
 62
   234
370
    20
100
AcDbLine
 10
213.4931749287018
 20
231.7691082494438
 30
0.0
 11
209.7431749287018
 21
231.7691082494438
 31
0.0
  0
LINE
  5
1C9
330
1F
100
AcDbEntity
  8
GR2_01
 62
   234
370
    20
100
AcDbLine
 10
213.4931749287018
 20
228.2691082494438
 30
0.0
 11
209.7431749287018
 21
228.2691082494438
 31
0.0
  0
LINE
  5
1CA
330
1F
100
AcDbEntity
  8
GR2_01
 62
   234
370
    20
100
AcDbLine
 10
213.4931749287018
 20
228.2691082494438
 30
0.0
 11
213.4931749287018
 21
231.7691082494438
 31
0.0
  0
LINE
  5
1CB
330
1F
100
AcDbEntity
  8
GR2_01
 62
   234
370
    20
100
AcDbLine
 10
213.4931749287018
 20
247.0091082494438
 30
0.0
 11
209.7431749287018
 21
247.0091082494438
 31
0.0
  0
LINE
  5
1CC
330
1F
100
AcDbEntity
  8
GR2_01
 62
   234
370
    20
100
AcDbLine
 10
213.4931749287018
 20
243.5091082494438
 30
0.0
 11
209.7431749287018
 21
243.5091082494438
 31
0.0
  0
LINE
  5
1CD
330
1F
100
AcDbEntity
  8
GR2_01
 62
   234
370
    20
100
AcDbLine
 10
213.4931749287018
 20
243.5091082494438
 30
0.0
 11
213.4931749287018
 21
247.0091082494438
 31
0.0
  0
LINE
  5
1CE
330
1F
100
AcDbEntity
  8
GR2_01
 62
   234
370
    20
100
AcDbLine
 10
209.9931749287018
 20
231.7691082494438
 30
0.0
 11
209.9931749287018
 21
235.8891082494438
 31
0.0
  0
LINE
  5
1CF
330
1F
100
AcDbEntity
  8
GR2_01
 62
   234
370
    20
100
AcDbLine
 10
209.9931749287018
 20
239.3891082494438
 30
0.0
 11
209.9931749287018
 21
243.5091082494438
 31
0.0
  0
LINE
  5
1D0
330
1F
100
AcDbEntity
  8
GR2_01
 62
   234
370
    20
100
AcDbLine
 10
209.9931749287018
 20
247.0091082494438
 30
0.0
 11
209.9931749287018
 21
251.1291082494438
 31
0.0
  0
LINE
  5
1D1
330
1F
100
AcDbEntity
  8
GR2_01
 62
   234
370
    20
100
AcDbLine
 10
213.4931749287018
 20
224.1491082494437
 30
0.0
 11
209.7431749287018
 21
224.1491082494437
 31
0.0
  0
LINE
  5
1D2
330
1F
100
AcDbEntity
  8
GR2_01
 62
   234
370
    20
100
AcDbLine
 10
213.4931749287018
 20
220.6491082494437
 30
0.0
 11
209.7431749287018
 21
220.6491082494437
 31
0.0
  0
LINE
  5
1D3
330
1F
100
AcDbEntity
  8
GR2_01
 62
   234
370
    20
100
AcDbLine
 10
213.4931749287018
 20
220.6491082494437
 30
0.0
 11
213.4931749287018
 21
224.1491082494437
 31
0.0
  0
LINE
  5
1D4
330
1F
100
AcDbEntity
  8
GR2_01
 62
   234
370
    20
100
AcDbLine
 10
209.9931749287018
 20
228.2691082494438
 30
0.0
 11
209.9931749287018
 21
224.1491082494438
 31
0.0
  0
LINE
  5
1D5
330
1F
100
AcDbEntity
  8
GR2_01
 62
   234
370
    20
100
AcDbLine
 10
213.4931749287018
 20
216.5291082494437
 30
0.0
 11
209.7431749287018
 21
216.5291082494437
 31
0.0
  0
LINE
  5
1D6
330
1F
100
AcDbEntity
  8
GR2_01
 62
   234
370
    20
100
AcDbLine
 10
213.4931749287018
 20
213.0291082494437
 30
0.0
 11
209.7431749287018
 21
213.0291082494437
 31
0.0
  0
LINE
  5
1D7
330
1F
100
AcDbEntity
  8
GR2_01
 62
   234
370
    20
100
AcDbLine
 10
213.4931749287018
 20
213.0291082494437
 30
0.0
 11
213.4931749287018
 21
216.5291082494437
 31
0.0
  0
LINE
  5
1D8
330
1F
100
AcDbEntity
  8
GR2_01
 62
   234
370
    20
100
AcDbLine
 10
209.9931749287018
 20
220.6491082494438
 30
0.0
 11
209.9931749287018
 21
216.5291082494437
 31
0.0
  0
LINE
  5
1D9
330
1F
100
AcDbEntity
  8
GR2_01
 62
   234
370
    20
100
AcDbLine
 10
213.4931749287018
 20
208.9091082494437
 30
0.0
 11
209.7431749287018
 21
208.9091082494438
 31
0.0
  0
LINE
  5
1DA
330
1F
100
AcDbEntity
  8
GR2_01
 62
   234
370
    20
100
AcDbLine
 10
213.4931749287018
 20
205.4091082494437
 30
0.0
 11
209.7431749287018
 21
205.4091082494437
 31
0.0
  0
LINE
  5
1DB
330
1F
100
AcDbEntity
  8
GR2_01
 62
   234
370
    20
100
AcDbLine
 10
213.4931749287018
 20
205.4091082494437
 30
0.0
 11
213.4931749287018
 21
208.9091082494437
 31
0.0
  0
LINE
  5
1DC
330
1F
100
AcDbEntity
  8
GR2_01
 62
   234
370
    20
100
AcDbLine
 10
209.9931749287018
 20
213.0291082494438
 30
0.0
 11
209.9931749287018
 21
208.9091082494438
 31
0.0
  0
LINE
  5
1DD
330
1F
100
AcDbEntity
  8
GR2_01
 62
   234
370
    20
100
AcDbLine
 10
209.9931749287018
 20
205.4091082494438
 30
0.0
 11
209.9931749287018
 21
202.769108249444
 31
0.0
  0
LINE
  5
1DE
330
1F
100
AcDbEntity
  8
GR2_01
 62
   234
370
    20
100
AcDbLine
 10
205.2431749287018
 20
220.3391082494438
 30
0.0
 11
208.7431749287018
 21
220.3391082494437
 31
0.0
  0
LINE
  5
1DF
330
1F
100
AcDbEntity
  8
GR2_01
 62
   234
370
    20
100
AcDbLine
 10
205.2431749287018
 20
216.8391082494438
 30
0.0
 11
208.7431749287018
 21
216.8391082494438
 31
0.0
  0
LINE
  5
1E0
330
1F
100
AcDbEntity
  8
GR2_01
 62
   234
370
    20
100
AcDbLine
 10
205.2431749287018
 20
212.7191082494438
 30
0.0
 11
208.7431749287018
 21
212.7191082494438
 31
0.0
  0
LINE
  5
1E1
330
1F
100
AcDbEntity
  8
GR2_01
 62
   234
370
    20
100
AcDbLine
 10
205.2431749287018
 20
209.2191082494438
 30
0.0
 11
208.7431749287018
 21
209.2191082494438
 31
0.0
  0
LINE
  5
1E2
330
1F
100
AcDbEntity
  8
GR2_01
 62
   234
370
    20
100
AcDbLine
 10
205.5431749287019
 20
207.2918912402056
 30
0.0
 11
205.5431749287019
 21
209.2191082494438
 31
0.0
  0
LINE
  5
1E3
330
1F
100
AcDbEntity
  8
GR2_01
 62
   234
370
    20
100
AcDbLine
 10
208.4931749287016
 20
203.069108249444
 30
0.0
 11
207.2431749287018
 21
203.069108249444
 31
0.0
  0
LINE
  5
1E4
330
1F
100
AcDbEntity
  8
GR2_01
 62
   234
370
    20
100
AcDbLine
 10
213.4931749287018
 20
240.4491082494438
 30
0.0
 11
209.9931749287018
 21
240.4491082494438
 31
0.0
  0
LINE
  5
1E5
330
1F
100
AcDbEntity
  8
GR2_01
 62
   234
370
    20
100
AcDbLine
 10
213.4931749287018
 20
242.4491082494438
 30
0.0
 11
209.9931749287018
 21
242.4491082494438
 31
0.0
  0
LINE
  5
1E6
330
1F
100
AcDbEntity
  8
GR2_01
 62
   234
370
    20
100
AcDbLine
 10
213.4931749287018
 20
242.4491082494438
 30
0.0
 11
213.4931749287018
 21
240.4491082494438
 31
0.0
  0
LINE
  5
1E7
330
1F
100
AcDbEntity
  8
GR2_01
 62
   234
370
    20
100
AcDbLine
 10
213.4931749287018
 20
232.8291082494437
 30
0.0
 11
209.9931749287018
 21
232.8291082494437
 31
0.0
  0
LINE
  5
1E8
330
1F
100
AcDbEntity
  8
GR2_01
 62
   234
370
    20
100
AcDbLine
 10
213.4931749287018
 20
234.8291082494437
 30
0.0
 11
209.9931749287018
 21
234.8291082494437
 31
0.0
  0
LINE
  5
1E9
330
1F
100
AcDbEntity
  8
GR2_01
 62
   234
370
    20
100
AcDbLine
 10
213.4931749287018
 20
225.2091082494438
 30
0.0
 11
209.9931749287018
 21
225.2091082494438
 31
0.0
  0
LINE
  5
1EA
330
1F
100
AcDbEntity
  8
GR2_01
 62
   234
370
    20
100
AcDbLine
 10
213.4931749287018
 20
227.2091082494438
 30
0.0
 11
209.9931749287018
 21
227.2091082494438
 31
0.0
  0
LINE
  5
1EB
330
1F
100
AcDbEntity
  8
GR2_01
 62
   234
370
    20
100
AcDbLine
 10
213.4931749287018
 20
234.8291082494438
 30
0.0
 11
213.4931749287018
 21
232.8291082494438
 31
0.0
  0
LINE
  5
1EC
330
1F
100
AcDbEntity
  8
GR2_01
 62
   234
370
    20
100
AcDbLine
 10
213.4931749287018
 20
227.2091082494438
 30
0.0
 11
213.4931749287018
 21
225.2091082494438
 31
0.0
  0
LINE
  5
1ED
330
1F
100
AcDbEntity
  8
GR2_01
 62
   234
370
    20
100
AcDbLine
 10
213.4931749287018
 20
217.5891082494438
 30
0.0
 11
209.9931749287018
 21
217.5891082494438
 31
0.0
  0
LINE
  5
1EE
330
1F
100
AcDbEntity
  8
GR2_01
 62
   234
370
    20
100
AcDbLine
 10
213.4931749287018
 20
219.5891082494438
 30
0.0
 11
209.9931749287018
 21
219.5891082494438
 31
0.0
  0
LINE
  5
1EF
330
1F
100
AcDbEntity
  8
GR2_01
 62
   234
370
    20
100
AcDbLine
 10
213.4931749287018
 20
219.5891082494438
 30
0.0
 11
213.4931749287018
 21
217.5891082494438
 31
0.0
  0
LINE
  5
1F0
330
1F
100
AcDbEntity
  8
GR2_01
 62
   234
370
    20
100
AcDbLine
 10
213.4931749287018
 20
209.9691082494438
 30
0.0
 11
209.9931749287018
 21
209.9691082494438
 31
0.0
  0
LINE
  5
1F1
330
1F
100
AcDbEntity
  8
GR2_01
 62
   234
370
    20
100
AcDbLine
 10
213.4931749287018
 20
211.9691082494438
 30
0.0
 11
209.9931749287018
 21
211.9691082494438
 31
0.0
  0
LINE
  5
1F2
330
1F
100
AcDbEntity
  8
GR2_01
 62
   234
370
    20
100
AcDbLine
 10
213.4931749287018
 20
211.9691082494438
 30
0.0
 11
213.4931749287018
 21
209.9691082494438
 31
0.0
  0
LINE
  5
1F3
330
1F
100
AcDbEntity
  8
GR2_01
 62
   234
370
    20
100
AcDbLine
 10
213.4931749287018
 20
250.0691082494438
 30
0.0
 11
209.9931749287018
 21
250.0691082494438
 31
0.0
  0
LINE
  5
1F4
330
1F
100
AcDbEntity
  8
GR2_01
 62
   234
370
    20
100
AcDbLine
 10
213.4931749287018
 20
248.0691082494438
 30
0.0
 11
209.9931749287018
 21
248.0691082494438
 31
0.0
  0
LINE
  5
1F5
330
1F
100
AcDbEntity
  8
GR2_01
 62
   234
370
    20
100
AcDbLine
 10
213.4931749287018
 20
248.0691082494438
 30
0.0
 11
213.4931749287018
 21
250.0691082494438
 31
0.0
  0
LINE
  5
1F6
330
1F
100
AcDbEntity
  8
GR2_01
 62
   234
370
    20
100
AcDbLine
 10
213.0431749287018
 20
204.3491082494438
 30
0.0
 11
209.9931749287018
 21
204.3491082494438
 31
0.0
  0
LINE
  5
1F7
330
1F
100
AcDbEntity
  8
GR2_01
 62
   234
370
    20
100
AcDbLine
 10
205.2431749287018
 20
227.9591082494438
 30
0.0
 11
208.7431749287018
 21
227.9591082494438
 31
0.0
  0
LINE
  5
1F8
330
1F
100
AcDbEntity
  8
GR2_01
 62
   234
370
    20
100
AcDbLine
 10
205.2431749287018
 20
224.4591082494438
 30
0.0
 11
208.7431749287018
 21
224.4591082494438
 31
0.0
  0
LINE
  5
1F9
330
1F
100
AcDbEntity
  8
GR2_01
 62
   234
370
    20
100
AcDbLine
 10
209.7431749287018
 20
228.2691082494438
 30
0.0
 11
209.7431749287018
 21
231.7691082494438
 31
0.0
  0
LINE
  5
1FA
330
1F
100
AcDbEntity
  8
GR2_01
 62
   234
370
    20
100
AcDbLine
 10
209.7431749287018
 20
224.1491082494438
 30
0.0
 11
209.7431749287018
 21
220.6491082494437
 31
0.0
  0
LINE
  5
1FB
330
1F
100
AcDbEntity
  8
GR2_01
 62
   234
370
    20
100
AcDbLine
 10
209.7431749287018
 20
216.5291082494437
 30
0.0
 11
209.7431749287018
 21
213.0291082494437
 31
0.0
  0
LINE
  5
1FC
330
1F
100
AcDbEntity
  8
GR2_01
 62
   234
370
    20
100
AcDbLine
 10
209.7431749287018
 20
208.9091082494438
 30
0.0
 11
209.7431749287018
 21
205.4091082494437
 31
0.0
  0
LINE
  5
1FD
330
1F
100
AcDbEntity
  8
GR2_01
 62
   234
370
    20
100
AcDbLine
 10
209.7431749287018
 20
235.8891082494438
 30
0.0
 11
209.7431749287018
 21
239.3891082494438
 31
0.0
  0
LINE
  5
1FE
330
1F
100
AcDbEntity
  8
GR2_01
 62
   234
370
    20
100
AcDbLine
 10
209.7431749287018
 20
243.5091082494438
 30
0.0
 11
209.7431749287018
 21
247.0091082494438
 31
0.0
  0
LINE
  5
1FF
330
1F
100
AcDbEntity
  8
GR2_01
 62
    94
370
    20
100
AcDbLine
 10
207.7431749287018
 20
209.2191082494438
 30
0.0
 11
207.7431749287018
 21
212.7191082494438
 31
0.0
  0
LINE
  5
200
330
1F
100
AcDbEntity
  8
GR2_01
 62
    94
370
    20
100
AcDbLine
 10
207.7431749287018
 20
224.4591082494438
 30
0.0
 11
207.7431749287018
 21
227.9591082494438
 31
0.0
  0
LINE
  5
201
330
1F
100
AcDbEntity
  8
GR2_01
 62
    94
370
    20
100
AcDbLine
 10
207.7431749287018
 20
216.8391082494438
 30
0.0
 11
207.7431749287018
 21
220.3391082494438
 31
0.0
  0
LINE
  5
202
330
1F
100
AcDbEntity
  8
GR2_01
 62
   234
370
    20
100
AcDbLine
 10
208.7431749287018
 20
224.4591082494438
 30
0.0
 11
208.7431749287018
 21
227.9591082494438
 31
0.0
  0
LINE
  5
203
330
1F
100
AcDbEntity
  8
GR2_01
 62
   234
370
    20
100
AcDbLine
 10
208.7431749287018
 20
216.8391082494438
 30
0.0
 11
208.7431749287018
 21
220.3391082494438
 31
0.0
  0
LINE
  5
204
330
1F
100
AcDbEntity
  8
GR2_01
 62
   234
370
    20
100
AcDbLine
 10
208.7431749287018
 20
209.2191082494438
 30
0.0
 11
208.7431749287018
 21
212.7191082494438
 31
0.0
  0
LINE
  5
205
330
1F
100
AcDbEntity
  8
GR2_01
 62
   234
370
    20
100
AcDbLine
 10
208.4931749287018
 20
220.3391082494438
 30
0.0
 11
208.4931749287018
 21
224.4591082494438
 31
0.0
  0
LINE
  5
206
330
1F
100
AcDbEntity
  8
GR2_01
 62
   234
370
    20
100
AcDbLine
 10
208.4931749287018
 20
212.7191082494438
 30
0.0
 11
208.4931749287018
 21
216.8391082494438
 31
0.0
  0
LINE
  5
207
330
1F
100
AcDbEntity
  8
GR2_01
 62
   234
370
    20
100
AcDbLine
 10
213.4931749287018
 20
254.6291082494438
 30
0.0
 11
209.7431749287018
 21
254.6291082494438
 31
0.0
  0
LINE
  5
208
330
1F
100
AcDbEntity
  8
GR2_01
 62
   234
370
    20
100
AcDbLine
 10
213.4931749287018
 20
251.1291082494438
 30
0.0
 11
209.7431749287018
 21
251.1291082494438
 31
0.0
  0
LINE
  5
209
330
1F
100
AcDbEntity
  8
GR2_01
 62
   234
370
    20
100
AcDbLine
 10
213.4931749287018
 20
251.1291082494438
 30
0.0
 11
213.4931749287018
 21
254.6291082494438
 31
0.0
  0
LINE
  5
20A
330
1F
100
AcDbEntity
  8
GR2_01
 62
   234
370
    20
100
AcDbLine
 10
209.9931749287018
 20
254.6291082494438
 30
0.0
 11
209.9931749287018
 21
258.7491082494438
 31
0.0
  0
LINE
  5
20B
330
1F
100
AcDbEntity
  8
GR2_01
 62
   234
370
    20
100
AcDbLine
 10
213.4931749287018
 20
257.6891082494438
 30
0.0
 11
209.9931749287018
 21
257.6891082494438
 31
0.0
  0
LINE
  5
20C
330
1F
100
AcDbEntity
  8
GR2_01
 62
   234
370
    20
100
AcDbLine
 10
213.4931749287018
 20
255.6891082494438
 30
0.0
 11
209.9931749287018
 21
255.6891082494438
 31
0.0
  0
LINE
  5
20D
330
1F
100
AcDbEntity
  8
GR2_01
 62
   234
370
    20
100
AcDbLine
 10
213.4931749287018
 20
255.6891082494438
 30
0.0
 11
213.4931749287018
 21
257.6891082494438
 31
0.0
  0
LINE
  5
20E
330
1F
100
AcDbEntity
  8
GR2_01
 62
   234
370
    20
100
AcDbLine
 10
209.7431749287018
 20
251.1291082494438
 30
0.0
 11
209.7431749287018
 21
254.6291082494438
 31
0.0
  0
LINE
  5
20F
330
1F
100
AcDbEntity
  8
GR2_01
 62
   234
370
    20
100
AcDbLine
 10
213.4931749287018
 20
262.2491082494438
 30
0.0
 11
209.7431749287018
 21
262.2491082494438
 31
0.0
  0
LINE
  5
210
330
1F
100
AcDbEntity
  8
GR2_01
 62
   234
370
    20
100
AcDbLine
 10
213.4931749287018
 20
258.7491082494438
 30
0.0
 11
209.7431749287018
 21
258.7491082494438
 31
0.0
  0
LINE
  5
211
330
1F
100
AcDbEntity
  8
GR2_01
 62
   234
370
    20
100
AcDbLine
 10
213.4931749287018
 20
258.7491082494438
 30
0.0
 11
213.4931749287018
 21
262.2491082494438
 31
0.0
  0
LINE
  5
212
330
1F
100
AcDbEntity
  8
GR2_01
 62
   234
370
    20
100
AcDbLine
 10
209.9931749287018
 20
262.2491082494438
 30
0.0
 11
209.9931749287018
 21
266.3691082494438
 31
0.0
  0
LINE
  5
213
330
1F
100
AcDbEntity
  8
GR2_01
 62
   234
370
    20
100
AcDbLine
 10
213.4931749287018
 20
265.3091082494439
 30
0.0
 11
209.9931749287018
 21
265.3091082494439
 31
0.0
  0
LINE
  5
214
330
1F
100
AcDbEntity
  8
GR2_01
 62
   234
370
    20
100
AcDbLine
 10
213.4931749287018
 20
263.3091082494439
 30
0.0
 11
209.9931749287018
 21
263.3091082494439
 31
0.0
  0
LINE
  5
215
330
1F
100
AcDbEntity
  8
GR2_01
 62
   234
370
    20
100
AcDbLine
 10
213.4931749287018
 20
263.3091082494439
 30
0.0
 11
213.4931749287018
 21
265.3091082494439
 31
0.0
  0
LINE
  5
216
330
1F
100
AcDbEntity
  8
GR2_01
 62
   234
370
    20
100
AcDbLine
 10
209.7431749287018
 20
258.7491082494438
 30
0.0
 11
209.7431749287018
 21
262.2491082494438
 31
0.0
  0
LINE
  5
217
330
1F
100
AcDbEntity
  8
GR2_01
 62
   234
370
    20
100
AcDbLine
 10
213.4931749287018
 20
269.8691082494438
 30
0.0
 11
209.7431749287018
 21
269.8691082494438
 31
0.0
  0
LINE
  5
218
330
1F
100
AcDbEntity
  8
GR2_01
 62
   234
370
    20
100
AcDbLine
 10
213.4931749287018
 20
266.3691082494438
 30
0.0
 11
209.7431749287018
 21
266.3691082494438
 31
0.0
  0
LINE
  5
219
330
1F
100
AcDbEntity
  8
GR2_01
 62
   234
370
    20
100
AcDbLine
 10
213.4931749287018
 20
266.3691082494438
 30
0.0
 11
213.4931749287018
 21
269.8691082494438
 31
0.0
  0
LINE
  5
21A
330
1F
100
AcDbEntity
  8
GR2_01
 62
   234
370
    20
100
AcDbLine
 10
209.9931749287018
 20
269.8691082494438
 30
0.0
 11
209.9931749287018
 21
273.8816260557476
 31
0.0
  0
LINE
  5
21B
330
1F
100
AcDbEntity
  8
GR2_01
 62
   234
370
    20
100
AcDbLine
 10
209.7431749287018
 20
266.3691082494438
 30
0.0
 11
209.7431749287018
 21
269.8691082494438
 31
0.0
  0
LINE
  5
21C
330
1F
100
AcDbEntity
  8
GR2_01
 62
   234
370
    20
100
AcDbLine
 10
205.243174928702
 20
273.6791082494439
 30
0.0
 11
208.7431749287018
 21
273.6791082494439
 31
0.0
  0
LINE
  5
21D
330
1F
100
AcDbEntity
  8
GR2_01
 62
   234
370
    20
100
AcDbLine
 10
205.2431749287018
 20
270.1791082494439
 30
0.0
 11
208.7431749287018
 21
270.1791082494439
 31
0.0
  0
LINE
  5
21E
330
1F
100
AcDbEntity
  8
GR2_01
 62
   234
370
    20
100
AcDbLine
 10
208.7431749287018
 20
270.1791082494439
 30
0.0
 11
208.7431749287018
 21
274.3719939324137
 31
0.0
  0
LINE
  5
21F
330
1F
100
AcDbEntity
  8
GR2_01
 62
   234
370
    20
100
AcDbLine
 10
205.5431749287018
 20
275.5948441807317
 30
0.0
 11
205.5431749287018
 21
273.6791082494439
 31
0.0
  0
LINE
  5
220
330
1F
100
AcDbEntity
  8
GR2_01
 62
   234
370
    20
100
AcDbLine
 10
205.2431749287018
 20
273.6791082494439
 30
0.0
 11
205.2431749287018
 21
275.7191082494437
 31
0.0
  0
LINE
  5
221
330
1F
100
AcDbEntity
  8
GR2_01
 62
   234
370
    20
100
AcDbLine
 10
214.5431749287018
 20
203.069108249444
 30
0.0
 11
214.5431749287018
 21
270.9297309813971
 31
0.0
  0
ARC
  5
222
330
1F
100
AcDbEntity
  8
GR2_01
 62
   234
370
    20
100
AcDbCircle
 10
210.9931749287018
 20
278.2691082494437
 30
0.0
 40
5.5
100
AcDbArc
 50
204.1477399170226
 51
236.5685374418164
  0
LINE
  5
223
330
1F
100
AcDbEntity
  8
GR2_01
 62
   234
370
    20
100
AcDbLine
 10
205.5431749287019
 20
276.0191082494437
 30
0.0
 11
205.9744599537306
 21
276.0191082494437
 31
0.0
  0
LINE
  5
224
330
1F
100
AcDbEntity
  8
GR2_01
 62
   234
370
    20
100
AcDbLine
 10
205.5431749287019
 20
276.0191082494437
 30
0.0
 11
205.243174928702
 21
275.7191082494437
 31
0.0
  0
LINE
  5
225
330
1F
100
AcDbEntity
  8
GR2_01
 62
   234
370
    20
100
AcDbLine
 10
205.6674389974138
 20
275.7191082494437
 30
0.0
 11
205.5431749287019
 21
275.5948441807317
 31
0.0
  0
LINE
  5
226
330
1F
100
AcDbEntity
  8
GR2_01
 62
   234
370
    20
100
AcDbLine
 10
205.6674389974138
 20
275.7191082494437
 30
0.0
 11
205.5431749287019
 21
276.0191082494437
 31
0.0
  0
LINE
  5
227
330
1F
100
AcDbEntity
  8
GR2_01
 62
   234
370
    20
100
AcDbLine
 10
205.5431749287019
 20
275.5948441807318
 30
0.0
 11
205.243174928702
 21
275.7191082494437
 31
0.0
  0
LINE
  5
228
330
1F
100
AcDbEntity
  8
GR2_01
 62
   234
370
    20
100
AcDbLine
 10
206.1200342576356
 20
275.7191082494437
 30
0.0
 11
205.6674389974138
 21
275.7191082494437
 31
0.0
  0
LINE
  5
229
330
1F
100
AcDbEntity
  8
GR2_01
 62
   234
370
    20
100
AcDbLine
 10
205.5431749287019
 20
216.8391082494438
 30
0.0
 11
205.5431749287019
 21
212.7191082494438
 31
0.0
  0
LINE
  5
22A
330
1F
100
AcDbEntity
  8
GR2_01
 62
    94
370
    20
100
AcDbLine
 10
205.7000349287019
 20
209.2191082494438
 30
0.0
 11
205.7000349287019
 21
212.7191082494438
 31
0.0
  0
LINE
  5
22B
330
1F
100
AcDbEntity
  8
GR2_01
 62
   234
370
    20
100
AcDbLine
 10
207.1431749287018
 20
223.2341082494438
 30
0.0
 11
207.1431749287018
 21
221.5641082494438
 31
0.0
  0
LINE
  5
22C
330
1F
100
AcDbEntity
  8
GR2_01
 62
   234
370
    20
100
AcDbLine
 10
206.2431749287018
 20
223.2341082494438
 30
0.0
 11
207.1431749287018
 21
223.2341082494437
 31
0.0
  0
LINE
  5
22D
330
1F
100
AcDbEntity
  8
GR2_01
 62
   234
370
    20
100
AcDbLine
 10
206.5431749287018
 20
221.2641082494438
 30
0.0
 11
206.5431749287017
 21
220.6162662665395
 31
0.0
  0
LINE
  5
22E
330
1F
100
AcDbEntity
  8
GR2_01
 62
   234
370
    20
100
AcDbLine
 10
206.2431749287018
 20
221.5641082494438
 30
0.0
 11
207.1431749287018
 21
221.5641082494438
 31
0.0
  0
LINE
  5
22F
330
1F
100
AcDbEntity
  8
GR2_01
 62
   234
370
    20
100
AcDbLine
 10
205.7431749287018
 20
222.5176475002079
 30
0.0
 11
206.1131363857236
 21
223.5341082494437
 31
0.0
  0
LINE
  5
230
330
1F
100
AcDbEntity
  8
GR2_01
 62
   234
370
    20
100
AcDbLine
 10
206.1379628427065
 20
220.7637514044067
 30
0.0
 11
206.5431749287017
 21
220.6162662665395
 31
0.0
  0
LINE
  5
231
330
1F
100
AcDbEntity
  8
GR2_01
 62
   234
370
    20
100
AcDbLine
 10
205.5431749287019
 20
224.4591082494438
 30
0.0
 11
205.5431749287019
 21
220.3391082494437
 31
0.0
  0
LINE
  5
232
330
1F
100
AcDbEntity
  8
GR2_01
 62
   234
370
    20
100
AcDbLine
 10
206.1131363857236
 20
223.5341082494437
 30
0.0
 11
208.4931749287018
 21
223.5341082494437
 31
0.0
  0
LINE
  5
233
330
1F
100
AcDbEntity
  8
GR2_01
 62
   234
370
    20
100
AcDbLine
 10
206.5431749287018
 20
221.2641082494438
 30
0.0
 11
208.4931749287018
 21
221.2641082494438
 31
0.0
  0
LINE
  5
234
330
1F
100
AcDbEntity
  8
GR2_01
 62
   234
370
    20
100
AcDbLine
 10
205.2431749287018
 20
212.7191082494438
 30
0.0
 11
205.2431749287018
 21
216.8391082494438
 31
0.0
  0
LINE
  5
235
330
1F
100
AcDbEntity
  8
GR2_01
 62
   234
370
    20
100
AcDbLine
 10
205.2431749287018
 20
220.3391082494438
 30
0.0
 11
205.2431749287018
 21
224.4591082494438
 31
0.0
  0
LINE
  5
236
330
1F
100
AcDbEntity
  8
GR2_01
 62
    94
370
    20
100
AcDbLine
 10
205.7431749287018
 20
224.4591082494438
 30
0.0
 11
205.7431749287018
 21
227.9591082494438
 31
0.0
  0
LINE
  5
237
330
1F
100
AcDbEntity
  8
GR2_01
 62
    94
370
    20
100
AcDbLine
 10
206.4931749287018
 20
224.4591082494438
 30
0.0
 11
206.4931749287018
 21
227.9591082494438
 31
0.0
  0
LINE
  5
238
330
1F
100
AcDbEntity
  8
GR2_01
 62
    94
370
    20
100
AcDbLine
 10
206.4931749287018
 20
209.2191082494439
 30
0.0
 11
206.4931749287018
 21
212.7191082494438
 31
0.0
  0
LINE
  5
239
330
1F
100
AcDbEntity
  8
GR2_01
 62
    94
370
    20
100
AcDbLine
 10
205.7000349287019
 20
216.8391082494438
 30
0.0
 11
205.7000349287019
 21
220.3391082494437
 31
0.0
  0
LINE
  5
23A
330
1F
100
AcDbEntity
  8
GR2_01
 62
    94
370
    20
100
AcDbLine
 10
206.4931749287018
 20
216.8391082494438
 30
0.0
 11
206.4931749287018
 21
220.3391082494437
 31
0.0
  0
LINE
  5
23B
330
1F
100
AcDbEntity
  8
GR2_01
 62
   234
370
    20
100
AcDbLine
 10
205.2431749287018
 20
235.5791082494438
 30
0.0
 11
208.7431749287018
 21
235.5791082494438
 31
0.0
  0
LINE
  5
23C
330
1F
100
AcDbEntity
  8
GR2_01
 62
   234
370
    20
100
AcDbLine
 10
205.2431749287018
 20
232.0791082494438
 30
0.0
 11
208.7431749287018
 21
232.0791082494438
 31
0.0
  0
LINE
  5
23D
330
1F
100
AcDbEntity
  8
GR2_01
 62
    94
370
    20
100
AcDbLine
 10
207.7431749287018
 20
232.0791082494438
 30
0.0
 11
207.7431749287018
 21
235.5791082494438
 31
0.0
  0
LINE
  5
23E
330
1F
100
AcDbEntity
  8
GR2_01
 62
   234
370
    20
100
AcDbLine
 10
208.7431749287018
 20
232.0791082494438
 30
0.0
 11
208.7431749287018
 21
235.5791082494438
 31
0.0
  0
LINE
  5
23F
330
1F
100
AcDbEntity
  8
GR2_01
 62
   234
370
    20
100
AcDbLine
 10
208.4931749287018
 20
227.9591082494438
 30
0.0
 11
208.4931749287018
 21
232.0791082494438
 31
0.0
  0
LINE
  5
240
330
1F
100
AcDbEntity
  8
GR2_01
 62
   234
370
    20
100
AcDbLine
 10
205.5431749287019
 20
232.0791082494438
 30
0.0
 11
205.5431749287019
 21
227.9591082494438
 31
0.0
  0
LINE
  5
241
330
1F
100
AcDbEntity
  8
GR2_01
 62
   234
370
    20
100
AcDbLine
 10
205.2431749287018
 20
227.9591082494438
 30
0.0
 11
205.2431749287018
 21
232.0791082494438
 31
0.0
  0
LINE
  5
242
330
1F
100
AcDbEntity
  8
GR2_01
 62
    94
370
    20
100
AcDbLine
 10
205.7431749287018
 20
232.0791082494438
 30
0.0
 11
205.7431749287018
 21
235.5791082494438
 31
0.0
  0
LINE
  5
243
330
1F
100
AcDbEntity
  8
GR2_01
 62
    94
370
    20
100
AcDbLine
 10
206.4931749287018
 20
232.0791082494438
 30
0.0
 11
206.4931749287018
 21
235.5791082494438
 31
0.0
  0
LINE
  5
244
330
1F
100
AcDbEntity
  8
GR2_01
 62
   234
370
    20
100
AcDbLine
 10
205.2431749287018
 20
243.1991082494438
 30
0.0
 11
208.7431749287018
 21
243.1991082494438
 31
0.0
  0
LINE
  5
245
330
1F
100
AcDbEntity
  8
GR2_01
 62
   234
370
    20
100
AcDbLine
 10
205.2431749287018
 20
239.6991082494438
 30
0.0
 11
208.7431749287018
 21
239.6991082494438
 31
0.0
  0
LINE
  5
246
330
1F
100
AcDbEntity
  8
GR2_01
 62
    94
370
    20
100
AcDbLine
 10
207.7431749287018
 20
239.6991082494438
 30
0.0
 11
207.7431749287018
 21
243.1991082494438
 31
0.0
  0
LINE
  5
247
330
1F
100
AcDbEntity
  8
GR2_01
 62
   234
370
    20
100
AcDbLine
 10
208.7431749287018
 20
239.6991082494438
 30
0.0
 11
208.7431749287018
 21
243.1991082494438
 31
0.0
  0
LINE
  5
248
330
1F
100
AcDbEntity
  8
GR2_01
 62
   234
370
    20
100
AcDbLine
 10
208.4931749287018
 20
235.5791082494438
 30
0.0
 11
208.4931749287018
 21
239.6991082494438
 31
0.0
  0
LINE
  5
249
330
1F
100
AcDbEntity
  8
GR2_01
 62
   234
370
    20
100
AcDbLine
 10
205.2431749287018
 20
235.5791082494438
 30
0.0
 11
205.2431749287018
 21
239.6991082494438
 31
0.0
  0
LINE
  5
24A
330
1F
100
AcDbEntity
  8
GR2_01
 62
    94
370
    20
100
AcDbLine
 10
205.7431749287018
 20
239.6991082494438
 30
0.0
 11
205.7431749287018
 21
243.1991082494438
 31
0.0
  0
LINE
  5
24B
330
1F
100
AcDbEntity
  8
GR2_01
 62
    94
370
    20
100
AcDbLine
 10
206.4931749287018
 20
239.6991082494438
 30
0.0
 11
206.4931749287018
 21
243.1991082494438
 31
0.0
  0
LINE
  5
24C
330
1F
100
AcDbEntity
  8
GR2_01
 62
   234
370
    20
100
AcDbLine
 10
205.2431749287018
 20
250.8191082494438
 30
0.0
 11
208.7431749287018
 21
250.8191082494438
 31
0.0
  0
LINE
  5
24D
330
1F
100
AcDbEntity
  8
GR2_01
 62
   234
370
    20
100
AcDbLine
 10
205.2431749287018
 20
247.3191082494438
 30
0.0
 11
208.7431749287018
 21
247.3191082494438
 31
0.0
  0
LINE
  5
24E
330
1F
100
AcDbEntity
  8
GR2_01
 62
    94
370
    20
100
AcDbLine
 10
207.7431749287018
 20
247.3191082494438
 30
0.0
 11
207.7431749287018
 21
250.8191082494438
 31
0.0
  0
LINE
  5
24F
330
1F
100
AcDbEntity
  8
GR2_01
 62
   234
370
    20
100
AcDbLine
 10
208.7431749287018
 20
247.3191082494438
 30
0.0
 11
208.7431749287018
 21
250.8191082494438
 31
0.0
  0
LINE
  5
250
330
1F
100
AcDbEntity
  8
GR2_01
 62
   234
370
    20
100
AcDbLine
 10
208.4931749287018
 20
243.1991082494438
 30
0.0
 11
208.4931749287018
 21
247.3191082494438
 31
0.0
  0
LINE
  5
251
330
1F
100
AcDbEntity
  8
GR2_01
 62
   234
370
    20
100
AcDbLine
 10
205.5431749287019
 20
247.3191082494438
 30
0.0
 11
205.5431749287019
 21
243.1991082494438
 31
0.0
  0
LINE
  5
252
330
1F
100
AcDbEntity
  8
GR2_01
 62
   234
370
    20
100
AcDbLine
 10
205.2431749287018
 20
243.1991082494438
 30
0.0
 11
205.2431749287018
 21
247.3191082494438
 31
0.0
  0
LINE
  5
253
330
1F
100
AcDbEntity
  8
GR2_01
 62
    94
370
    20
100
AcDbLine
 10
205.7431749287018
 20
247.3191082494438
 30
0.0
 11
205.7431749287018
 21
250.8191082494438
 31
0.0
  0
LINE
  5
254
330
1F
100
AcDbEntity
  8
GR2_01
 62
    94
370
    20
100
AcDbLine
 10
206.4931749287018
 20
247.3191082494438
 30
0.0
 11
206.4931749287018
 21
250.8191082494438
 31
0.0
  0
LINE
  5
255
330
1F
100
AcDbEntity
  8
GR2_01
 62
   234
370
    20
100
AcDbLine
 10
205.2431749287018
 20
258.4391082494438
 30
0.0
 11
208.7431749287018
 21
258.4391082494438
 31
0.0
  0
LINE
  5
256
330
1F
100
AcDbEntity
  8
GR2_01
 62
   234
370
    20
100
AcDbLine
 10
205.2431749287018
 20
254.9391082494438
 30
0.0
 11
208.7431749287018
 21
254.9391082494438
 31
0.0
  0
LINE
  5
257
330
1F
100
AcDbEntity
  8
GR2_01
 62
    94
370
    20
100
AcDbLine
 10
207.7431749287018
 20
254.9391082494438
 30
0.0
 11
207.7431749287018
 21
258.4391082494438
 31
0.0
  0
LINE
  5
258
330
1F
100
AcDbEntity
  8
GR2_01
 62
   234
370
    20
100
AcDbLine
 10
208.7431749287018
 20
254.9391082494438
 30
0.0
 11
208.7431749287018
 21
258.4391082494438
 31
0.0
  0
LINE
  5
259
330
1F
100
AcDbEntity
  8
GR2_01
 62
   234
370
    20
100
AcDbLine
 10
208.4931749287018
 20
250.8191082494438
 30
0.0
 11
208.4931749287018
 21
254.9391082494438
 31
0.0
  0
LINE
  5
25A
330
1F
100
AcDbEntity
  8
GR2_01
 62
   234
370
    20
100
AcDbLine
 10
205.5431749287019
 20
254.9391082494437
 30
0.0
 11
205.5431749287019
 21
250.8191082494438
 31
0.0
  0
LINE
  5
25B
330
1F
100
AcDbEntity
  8
GR2_01
 62
   234
370
    20
100
AcDbLine
 10
205.2431749287018
 20
250.8191082494438
 30
0.0
 11
205.2431749287018
 21
254.9391082494438
 31
0.0
  0
LINE
  5
25C
330
1F
100
AcDbEntity
  8
GR2_01
 62
    94
370
    20
100
AcDbLine
 10
205.7431749287018
 20
254.9391082494438
 30
0.0
 11
205.7431749287018
 21
258.4391082494438
 31
0.0
  0
LINE
  5
25D
330
1F
100
AcDbEntity
  8
GR2_01
 62
    94
370
    20
100
AcDbLine
 10
206.4931749287018
 20
254.9391082494438
 30
0.0
 11
206.4931749287018
 21
258.4391082494438
 31
0.0
  0
LINE
  5
25E
330
1F
100
AcDbEntity
  8
GR2_01
 62
   234
370
    20
100
AcDbLine
 10
205.2431749287018
 20
266.0591082494439
 30
0.0
 11
208.7431749287018
 21
266.0591082494439
 31
0.0
  0
LINE
  5
25F
330
1F
100
AcDbEntity
  8
GR2_01
 62
   234
370
    20
100
AcDbLine
 10
205.2431749287018
 20
262.5591082494439
 30
0.0
 11
208.7431749287018
 21
262.5591082494439
 31
0.0
  0
LINE
  5
260
330
1F
100
AcDbEntity
  8
GR2_01
 62
    94
370
    20
100
AcDbLine
 10
207.7431749287018
 20
262.5591082494439
 30
0.0
 11
207.7431749287018
 21
266.0591082494439
 31
0.0
  0
LINE
  5
261
330
1F
100
AcDbEntity
  8
GR2_01
 62
   234
370
    20
100
AcDbLine
 10
208.7431749287018
 20
262.5591082494439
 30
0.0
 11
208.7431749287018
 21
266.0591082494439
 31
0.0
  0
LINE
  5
262
330
1F
100
AcDbEntity
  8
GR2_01
 62
   234
370
    20
100
AcDbLine
 10
208.4931749287018
 20
258.4391082494438
 30
0.0
 11
208.4931749287018
 21
262.5591082494439
 31
0.0
  0
LINE
  5
263
330
1F
100
AcDbEntity
  8
GR2_01
 62
   234
370
    20
100
AcDbLine
 10
205.5431749287019
 20
262.5591082494439
 30
0.0
 11
205.5431749287019
 21
258.4391082494438
 31
0.0
  0
LINE
  5
264
330
1F
100
AcDbEntity
  8
GR2_01
 62
   234
370
    20
100
AcDbLine
 10
205.2431749287018
 20
258.4391082494438
 30
0.0
 11
205.2431749287018
 21
262.5591082494439
 31
0.0
  0
LINE
  5
265
330
1F
100
AcDbEntity
  8
GR2_01
 62
    94
370
    20
100
AcDbLine
 10
205.7431749287018
 20
262.5591082494439
 30
0.0
 11
205.7431749287018
 21
266.0591082494439
 31
0.0
  0
LINE
  5
266
330
1F
100
AcDbEntity
  8
GR2_01
 62
    94
370
    20
100
AcDbLine
 10
206.4931749287018
 20
262.5591082494439
 30
0.0
 11
206.4931749287018
 21
266.0591082494439
 31
0.0
  0
LINE
  5
267
330
1F
100
AcDbEntity
  8
GR2_01
 62
   234
370
    20
100
AcDbLine
 10
208.4931749287018
 20
266.0591082494439
 30
0.0
 11
208.4931749287018
 21
270.1791082494439
 31
0.0
  0
LINE
  5
268
330
1F
100
AcDbEntity
  8
GR2_01
 62
   234
370
    20
100
AcDbLine
 10
205.5431749287019
 20
270.1791082494439
 30
0.0
 11
205.5431749287019
 21
266.0591082494439
 31
0.0
  0
LINE
  5
269
330
1F
100
AcDbEntity
  8
GR2_01
 62
   234
370
    20
100
AcDbLine
 10
205.2431749287018
 20
266.0591082494439
 30
0.0
 11
205.2431749287018
 21
270.1791082494439
 31
0.0
  0
LINE
  5
26A
330
1F
100
AcDbEntity
  8
GR2_01
 62
    94
370
    20
100
AcDbLine
 10
207.7431749287018
 20
270.1791082494439
 30
0.0
 11
207.7431749287018
 21
273.6791082494439
 31
0.0
  0
LINE
  5
26B
330
1F
100
AcDbEntity
  8
GR2_01
 62
    94
370
    20
100
AcDbLine
 10
205.7431749287018
 20
270.1791082494439
 30
0.0
 11
205.7431749287018
 21
273.6791082494437
 31
0.0
  0
LINE
  5
26C
330
1F
100
AcDbEntity
  8
GR2_01
 62
    94
370
    20
100
AcDbLine
 10
206.4931749287018
 20
270.1791082494439
 30
0.0
 11
206.4931749287018
 21
273.6791082494437
 31
0.0
  0
ARC
  5
26D
330
1F
100
AcDbEntity
  8
GR2_01
 62
   234
370
    20
100
AcDbCircle
 10
202.7431749287018
 20
203.7691082494439
 30
0.0
 40
4.5
100
AcDbArc
 50
0.0
 51
63.6122000387566
  0
LINE
  5
26E
330
1F
100
AcDbEntity
  8
GR2_01
 62
   234
370
    20
100
AcDbLine
 10
209.9931749287018
 20
272.4766044770286
 30
0.0
 11
214.2431749287018
 21
270.9297309813971
 31
0.0
  0
LINE
  5
26F
330
1F
100
AcDbEntity
  8
GR2_01
 62
   234
370
    20
100
AcDbLine
 10
214.7431749287018
 20
270.9297309813971
 30
0.0
 11
214.7431749287018
 21
273.7691082494436
 31
0.0
  0
LINE
  5
270
330
1F
100
AcDbEntity
  8
GR2_01
 62
   234
370
    20
100
AcDbLine
 10
214.7431749287018
 20
270.9297309813971
 30
0.0
 11
209.9931749287018
 21
270.9297309813971
 31
0.0
  0
LINE
  5
271
330
1F
100
AcDbEntity
  8
GR2_01
 62
   234
370
    20
100
AcDbLine
 10
213.0431749287018
 20
202.7691082494439
 30
0.0
 11
213.0431749287018
 21
204.3491082494438
 31
0.0
  0
LINE
  5
272
330
1F
100
AcDbEntity
  8
GR2_01
 62
   234
370
    20
100
AcDbLine
 10
207.2431749287018
 20
202.7691082494436
 30
0.0
 11
215.0431749287018
 21
202.7691082494436
 31
0.0
  0
LINE
  5
273
330
1F
100
AcDbEntity
  8
GR2_01
 62
   234
370
    20
100
AcDbLine
 10
206.2431749287018
 20
220.7254573368193
 30
0.0
 11
206.2431749287018
 21
223.5341082494437
 31
0.0
  0
LINE
  5
274
330
1F
100
AcDbEntity
  8
GR2_01
 62
    94
370
    20
100
AcDbLine
 10
207.4431749287018
 20
223.5341082494438
 30
0.0
 11
207.4431749287018
 21
221.2641082494438
 31
0.0
  0
LINE
  5
275
330
1F
100
AcDbEntity
  8
GR2_01
 62
   234
370
    20
100
AcDbLine
 10
207.1431749287018
 20
215.6141082494438
 30
0.0
 11
207.1431749287018
 21
213.9441082494439
 31
0.0
  0
LINE
  5
276
330
1F
100
AcDbEntity
  8
GR2_01
 62
   234
370
    20
100
AcDbLine
 10
206.2431749287018
 20
215.6141082494438
 30
0.0
 11
207.1431749287018
 21
215.6141082494438
 31
0.0
  0
LINE
  5
277
330
1F
100
AcDbEntity
  8
GR2_01
 62
   234
370
    20
100
AcDbLine
 10
206.5431749287018
 20
213.6441082494439
 30
0.0
 11
206.5431749287017
 21
212.9962662665396
 31
0.0
  0
LINE
  5
278
330
1F
100
AcDbEntity
  8
GR2_01
 62
   234
370
    20
100
AcDbLine
 10
206.2431749287018
 20
213.9441082494439
 30
0.0
 11
207.1431749287018
 21
213.9441082494439
 31
0.0
  0
LINE
  5
279
330
1F
100
AcDbEntity
  8
GR2_01
 62
   234
370
    20
100
AcDbLine
 10
205.7431749287018
 20
214.8976475002079
 30
0.0
 11
206.1131363857236
 21
215.9141082494438
 31
0.0
  0
LINE
  5
27A
330
1F
100
AcDbEntity
  8
GR2_01
 62
   234
370
    20
100
AcDbLine
 10
206.1379628427065
 20
213.1437514044067
 30
0.0
 11
206.5431749287017
 21
212.9962662665395
 31
0.0
  0
LINE
  5
27B
330
1F
100
AcDbEntity
  8
GR2_01
 62
   234
370
    20
100
AcDbLine
 10
206.1131363857236
 20
215.9141082494438
 30
0.0
 11
208.4931749287018
 21
215.9141082494438
 31
0.0
  0
LINE
  5
27C
330
1F
100
AcDbEntity
  8
GR2_01
 62
   234
370
    20
100
AcDbLine
 10
206.5431749287018
 20
213.6441082494439
 30
0.0
 11
208.4931749287018
 21
213.6441082494438
 31
0.0
  0
LINE
  5
27D
330
1F
100
AcDbEntity
  8
GR2_01
 62
   234
370
    20
100
AcDbLine
 10
206.2431749287018
 20
213.1054573368193
 30
0.0
 11
206.2431749287018
 21
215.9141082494438
 31
0.0
  0
LINE
  5
27E
330
1F
100
AcDbEntity
  8
GR2_01
 62
    94
370
    20
100
AcDbLine
 10
207.4431749287018
 20
215.9141082494438
 30
0.0
 11
207.4431749287018
 21
213.6441082494439
 31
0.0
  0
LINE
  5
27F
330
1F
100
AcDbEntity
  8
GR2_01
 62
   234
370
    20
100
AcDbLine
 10
207.1431749287018
 20
230.8541082494438
 30
0.0
 11
207.1431749287018
 21
229.1841082494439
 31
0.0
  0
LINE
  5
280
330
1F
100
AcDbEntity
  8
GR2_01
 62
   234
370
    20
100
AcDbLine
 10
206.2431749287018
 20
230.8541082494438
 30
0.0
 11
207.1431749287018
 21
230.8541082494438
 31
0.0
  0
LINE
  5
281
330
1F
100
AcDbEntity
  8
GR2_01
 62
   234
370
    20
100
AcDbLine
 10
206.5431749287018
 20
228.8841082494438
 30
0.0
 11
206.5431749287017
 21
228.2362662665395
 31
0.0
  0
LINE
  5
282
330
1F
100
AcDbEntity
  8
GR2_01
 62
   234
370
    20
100
AcDbLine
 10
206.2431749287018
 20
229.1841082494439
 30
0.0
 11
207.1431749287018
 21
229.1841082494439
 31
0.0
  0
LINE
  5
283
330
1F
100
AcDbEntity
  8
GR2_01
 62
   234
370
    20
100
AcDbLine
 10
205.7431749287018
 20
230.1376475002079
 30
0.0
 11
206.1131363857236
 21
231.1541082494438
 31
0.0
  0
LINE
  5
284
330
1F
100
AcDbEntity
  8
GR2_01
 62
   234
370
    20
100
AcDbLine
 10
206.1379628427065
 20
228.3837514044067
 30
0.0
 11
206.5431749287017
 21
228.2362662665395
 31
0.0
  0
LINE
  5
285
330
1F
100
AcDbEntity
  8
GR2_01
 62
   234
370
    20
100
AcDbLine
 10
206.1131363857236
 20
231.1541082494438
 30
0.0
 11
208.4931749287018
 21
231.1541082494438
 31
0.0
  0
LINE
  5
286
330
1F
100
AcDbEntity
  8
GR2_01
 62
   234
370
    20
100
AcDbLine
 10
206.5431749287018
 20
228.8841082494438
 30
0.0
 11
208.4931749287018
 21
228.8841082494438
 31
0.0
  0
LINE
  5
287
330
1F
100
AcDbEntity
  8
GR2_01
 62
   234
370
    20
100
AcDbLine
 10
206.2431749287018
 20
228.3454573368193
 30
0.0
 11
206.2431749287018
 21
231.1541082494438
 31
0.0
  0
LINE
  5
288
330
1F
100
AcDbEntity
  8
GR2_01
 62
    94
370
    20
100
AcDbLine
 10
207.4431749287019
 20
231.1541082494438
 30
0.0
 11
207.4431749287018
 21
228.8841082494438
 31
0.0
  0
LINE
  5
289
330
1F
100
AcDbEntity
  8
GR2_01
 62
   234
370
    20
100
AcDbLine
 10
207.1431749287018
 20
238.4741082494438
 30
0.0
 11
207.1431749287018
 21
236.8041082494439
 31
0.0
  0
LINE
  5
28A
330
1F
100
AcDbEntity
  8
GR2_01
 62
   234
370
    20
100
AcDbLine
 10
206.2431749287018
 20
238.4741082494438
 30
0.0
 11
207.1431749287018
 21
238.4741082494437
 31
0.0
  0
LINE
  5
28B
330
1F
100
AcDbEntity
  8
GR2_01
 62
   234
370
    20
100
AcDbLine
 10
206.5431749287018
 20
236.5041082494438
 30
0.0
 11
206.5431749287017
 21
235.8562662665395
 31
0.0
  0
LINE
  5
28C
330
1F
100
AcDbEntity
  8
GR2_01
 62
   234
370
    20
100
AcDbLine
 10
206.2431749287018
 20
236.8041082494438
 30
0.0
 11
207.1431749287018
 21
236.8041082494438
 31
0.0
  0
LINE
  5
28D
330
1F
100
AcDbEntity
  8
GR2_01
 62
   234
370
    20
100
AcDbLine
 10
205.7431749287018
 20
237.7576475002078
 30
0.0
 11
206.1131363857236
 21
238.7741082494437
 31
0.0
  0
LINE
  5
28E
330
1F
100
AcDbEntity
  8
GR2_01
 62
   234
370
    20
100
AcDbLine
 10
206.1379628427065
 20
236.0037514044067
 30
0.0
 11
206.5431749287017
 21
235.8562662665395
 31
0.0
  0
LINE
  5
28F
330
1F
100
AcDbEntity
  8
GR2_01
 62
   234
370
    20
100
AcDbLine
 10
206.1131363857236
 20
238.7741082494437
 30
0.0
 11
208.4931749287018
 21
238.7741082494437
 31
0.0
  0
LINE
  5
290
330
1F
100
AcDbEntity
  8
GR2_01
 62
   234
370
    20
100
AcDbLine
 10
206.5431749287018
 20
236.5041082494438
 30
0.0
 11
208.4931749287018
 21
236.5041082494438
 31
0.0
  0
LINE
  5
291
330
1F
100
AcDbEntity
  8
GR2_01
 62
   234
370
    20
100
AcDbLine
 10
206.2431749287018
 20
235.9654573368193
 30
0.0
 11
206.2431749287018
 21
238.7741082494437
 31
0.0
  0
LINE
  5
292
330
1F
100
AcDbEntity
  8
GR2_01
 62
    94
370
    20
100
AcDbLine
 10
207.4431749287019
 20
238.7741082494438
 30
0.0
 11
207.4431749287018
 21
236.5041082494438
 31
0.0
  0
LINE
  5
293
330
1F
100
AcDbEntity
  8
GR2_01
 62
   234
370
    20
100
AcDbLine
 10
207.1431749287018
 20
246.0941082494438
 30
0.0
 11
207.1431749287018
 21
244.4241082494439
 31
0.0
  0
LINE
  5
294
330
1F
100
AcDbEntity
  8
GR2_01
 62
   234
370
    20
100
AcDbLine
 10
206.2431749287018
 20
246.0941082494438
 30
0.0
 11
207.1431749287018
 21
246.0941082494437
 31
0.0
  0
LINE
  5
295
330
1F
100
AcDbEntity
  8
GR2_01
 62
   234
370
    20
100
AcDbLine
 10
206.5431749287018
 20
244.1241082494438
 30
0.0
 11
206.5431749287017
 21
243.4762662665395
 31
0.0
  0
LINE
  5
296
330
1F
100
AcDbEntity
  8
GR2_01
 62
   234
370
    20
100
AcDbLine
 10
206.2431749287018
 20
244.4241082494438
 30
0.0
 11
207.1431749287018
 21
244.4241082494438
 31
0.0
  0
LINE
  5
297
330
1F
100
AcDbEntity
  8
GR2_01
 62
   234
370
    20
100
AcDbLine
 10
205.7431749287018
 20
245.3776475002078
 30
0.0
 11
206.1131363857236
 21
246.3941082494437
 31
0.0
  0
LINE
  5
298
330
1F
100
AcDbEntity
  8
GR2_01
 62
   234
370
    20
100
AcDbLine
 10
206.1379628427065
 20
243.6237514044067
 30
0.0
 11
206.5431749287017
 21
243.4762662665395
 31
0.0
  0
LINE
  5
299
330
1F
100
AcDbEntity
  8
GR2_01
 62
   234
370
    20
100
AcDbLine
 10
206.1131363857236
 20
246.3941082494437
 30
0.0
 11
208.4931749287018
 21
246.3941082494437
 31
0.0
  0
LINE
  5
29A
330
1F
100
AcDbEntity
  8
GR2_01
 62
   234
370
    20
100
AcDbLine
 10
206.5431749287018
 20
244.1241082494438
 30
0.0
 11
208.4931749287018
 21
244.1241082494438
 31
0.0
  0
LINE
  5
29B
330
1F
100
AcDbEntity
  8
GR2_01
 62
   234
370
    20
100
AcDbLine
 10
206.2431749287018
 20
243.5854573368193
 30
0.0
 11
206.2431749287018
 21
246.3941082494437
 31
0.0
  0
LINE
  5
29C
330
1F
100
AcDbEntity
  8
GR2_01
 62
    94
370
    20
100
AcDbLine
 10
207.4431749287019
 20
246.3941082494438
 30
0.0
 11
207.4431749287018
 21
244.1241082494439
 31
0.0
  0
LINE
  5
29D
330
1F
100
AcDbEntity
  8
GR2_01
 62
   234
370
    20
100
AcDbLine
 10
207.1431749287018
 20
253.7141082494438
 30
0.0
 11
207.1431749287018
 21
252.0441082494439
 31
0.0
  0
LINE
  5
29E
330
1F
100
AcDbEntity
  8
GR2_01
 62
   234
370
    20
100
AcDbLine
 10
206.2431749287018
 20
253.7141082494438
 30
0.0
 11
207.1431749287018
 21
253.7141082494437
 31
0.0
  0
LINE
  5
29F
330
1F
100
AcDbEntity
  8
GR2_01
 62
   234
370
    20
100
AcDbLine
 10
206.5431749287018
 20
251.7441082494438
 30
0.0
 11
206.5431749287017
 21
251.0962662665395
 31
0.0
  0
LINE
  5
2A0
330
1F
100
AcDbEntity
  8
GR2_01
 62
   234
370
    20
100
AcDbLine
 10
206.2431749287018
 20
252.0441082494438
 30
0.0
 11
207.1431749287018
 21
252.0441082494438
 31
0.0
  0
LINE
  5
2A1
330
1F
100
AcDbEntity
  8
GR2_01
 62
   234
370
    20
100
AcDbLine
 10
205.7431749287018
 20
252.9976475002078
 30
0.0
 11
206.1131363857237
 21
254.0141082494438
 31
0.0
  0
LINE
  5
2A2
330
1F
100
AcDbEntity
  8
GR2_01
 62
   234
370
    20
100
AcDbLine
 10
206.1379628427065
 20
251.2437514044067
 30
0.0
 11
206.5431749287017
 21
251.0962662665395
 31
0.0
  0
LINE
  5
2A3
330
1F
100
AcDbEntity
  8
GR2_01
 62
   234
370
    20
100
AcDbLine
 10
206.1131363857236
 20
254.0141082494438
 30
0.0
 11
208.4931749287018
 21
254.0141082494438
 31
0.0
  0
LINE
  5
2A4
330
1F
100
AcDbEntity
  8
GR2_01
 62
   234
370
    20
100
AcDbLine
 10
206.5431749287018
 20
251.7441082494438
 30
0.0
 11
208.4931749287018
 21
251.7441082494438
 31
0.0
  0
LINE
  5
2A5
330
1F
100
AcDbEntity
  8
GR2_01
 62
   234
370
    20
100
AcDbLine
 10
206.2431749287018
 20
251.2054573368193
 30
0.0
 11
206.2431749287018
 21
254.0141082494438
 31
0.0
  0
LINE
  5
2A6
330
1F
100
AcDbEntity
  8
GR2_01
 62
    94
370
    20
100
AcDbLine
 10
207.4431749287019
 20
254.0141082494438
 30
0.0
 11
207.4431749287018
 21
251.7441082494439
 31
0.0
  0
LINE
  5
2A7
330
1F
100
AcDbEntity
  8
GR2_01
 62
   234
370
    20
100
AcDbLine
 10
207.1431749287018
 20
268.9541082494438
 30
0.0
 11
207.1431749287018
 21
267.2841082494439
 31
0.0
  0
LINE
  5
2A8
330
1F
100
AcDbEntity
  8
GR2_01
 62
   234
370
    20
100
AcDbLine
 10
206.2431749287018
 20
268.9541082494438
 30
0.0
 11
207.1431749287018
 21
268.9541082494438
 31
0.0
  0
LINE
  5
2A9
330
1F
100
AcDbEntity
  8
GR2_01
 62
   234
370
    20
100
AcDbLine
 10
206.5431749287018
 20
266.9841082494439
 30
0.0
 11
206.5431749287017
 21
266.3362662665396
 31
0.0
  0
LINE
  5
2AA
330
1F
100
AcDbEntity
  8
GR2_01
 62
   234
370
    20
100
AcDbLine
 10
206.2431749287018
 20
267.2841082494439
 30
0.0
 11
207.1431749287018
 21
267.2841082494439
 31
0.0
  0
LINE
  5
2AB
330
1F
100
AcDbEntity
  8
GR2_01
 62
   234
370
    20
100
AcDbLine
 10
205.7431749287018
 20
268.2376475002079
 30
0.0
 11
206.1131363857237
 21
269.2541082494438
 31
0.0
  0
LINE
  5
2AC
330
1F
100
AcDbEntity
  8
GR2_01
 62
   234
370
    20
100
AcDbLine
 10
206.1379628427065
 20
266.4837514044067
 30
0.0
 11
206.5431749287017
 21
266.3362662665396
 31
0.0
  0
LINE
  5
2AD
330
1F
100
AcDbEntity
  8
GR2_01
 62
   234
370
    20
100
AcDbLine
 10
206.1131363857236
 20
269.2541082494438
 30
0.0
 11
208.4931749287018
 21
269.2541082494438
 31
0.0
  0
LINE
  5
2AE
330
1F
100
AcDbEntity
  8
GR2_01
 62
   234
370
    20
100
AcDbLine
 10
206.5431749287018
 20
266.9841082494439
 30
0.0
 11
208.4931749287018
 21
266.9841082494438
 31
0.0
  0
LINE
  5
2AF
330
1F
100
AcDbEntity
  8
GR2_01
 62
   234
370
    20
100
AcDbLine
 10
206.2431749287018
 20
266.4454573368193
 30
0.0
 11
206.2431749287018
 21
269.2541082494438
 31
0.0
  0
LINE
  5
2B0
330
1F
100
AcDbEntity
  8
GR2_01
 62
    94
370
    20
100
AcDbLine
 10
207.4431749287019
 20
269.2541082494438
 30
0.0
 11
207.4431749287018
 21
266.9841082494439
 31
0.0
  0
LINE
  5
2B1
330
1F
100
AcDbEntity
  8
GR2_01
 62
   234
370
    20
100
AcDbLine
 10
207.1431749287018
 20
261.3341082494438
 30
0.0
 11
207.1431749287018
 21
259.6641082494439
 31
0.0
  0
LINE
  5
2B2
330
1F
100
AcDbEntity
  8
GR2_01
 62
   234
370
    20
100
AcDbLine
 10
206.2431749287018
 20
261.3341082494438
 30
0.0
 11
207.1431749287018
 21
261.3341082494437
 31
0.0
  0
LINE
  5
2B3
330
1F
100
AcDbEntity
  8
GR2_01
 62
   234
370
    20
100
AcDbLine
 10
206.5431749287018
 20
259.3641082494438
 30
0.0
 11
206.5431749287017
 21
258.7162662665395
 31
0.0
  0
LINE
  5
2B4
330
1F
100
AcDbEntity
  8
GR2_01
 62
   234
370
    20
100
AcDbLine
 10
206.2431749287018
 20
259.6641082494438
 30
0.0
 11
207.1431749287018
 21
259.6641082494438
 31
0.0
  0
LINE
  5
2B5
330
1F
100
AcDbEntity
  8
GR2_01
 62
   234
370
    20
100
AcDbLine
 10
205.7431749287018
 20
260.6176475002079
 30
0.0
 11
206.1131363857237
 21
261.6341082494438
 31
0.0
  0
LINE
  5
2B6
330
1F
100
AcDbEntity
  8
GR2_01
 62
   234
370
    20
100
AcDbLine
 10
206.1379628427065
 20
258.8637514044067
 30
0.0
 11
206.5431749287017
 21
258.7162662665395
 31
0.0
  0
LINE
  5
2B7
330
1F
100
AcDbEntity
  8
GR2_01
 62
   234
370
    20
100
AcDbLine
 10
206.1131363857236
 20
261.6341082494438
 30
0.0
 11
208.4931749287018
 21
261.6341082494438
 31
0.0
  0
LINE
  5
2B8
330
1F
100
AcDbEntity
  8
GR2_01
 62
   234
370
    20
100
AcDbLine
 10
206.5431749287018
 20
259.3641082494438
 30
0.0
 11
208.4931749287018
 21
259.3641082494438
 31
0.0
  0
LINE
  5
2B9
330
1F
100
AcDbEntity
  8
GR2_01
 62
   234
370
    20
100
AcDbLine
 10
206.2431749287018
 20
258.8254573368193
 30
0.0
 11
206.2431749287018
 21
261.6341082494438
 31
0.0
  0
LINE
  5
2BA
330
1F
100
AcDbEntity
  8
GR2_01
 62
    94
370
    20
100
AcDbLine
 10
207.4431749287019
 20
261.6341082494438
 30
0.0
 11
207.4431749287018
 21
259.3641082494439
 31
0.0
  0
LINE
  5
2BB
330
1F
100
AcDbEntity
  8
GR2_01
 62
   234
370
    20
100
AcDbLine
 10
205.7431749287018
 20
213.7075669768783
 30
0.0
 11
205.7431749287018
 21
214.8976475002079
 31
0.0
  0
ARC
  5
2BC
330
1F
100
AcDbEntity
  8
GR2_01
 62
   234
370
    20
100
AcDbCircle
 10
206.3431749287019
 20
213.7075669768783
 30
0.0
 40
0.6
100
AcDbArc
 50
180.0
 51
250.0000000000008
  0
LINE
  5
2BD
330
1F
100
AcDbEntity
  8
GR2_01
 62
   234
370
    20
100
AcDbLine
 10
205.7431749287018
 20
221.3275669768782
 30
0.0
 11
205.7431749287018
 21
222.5176475002078
 31
0.0
  0
ARC
  5
2BE
330
1F
100
AcDbEntity
  8
GR2_01
 62
   234
370
    20
100
AcDbCircle
 10
206.3431749287019
 20
221.3275669768782
 30
0.0
 40
0.6
100
AcDbArc
 50
180.0
 51
250.0000000000008
  0
LINE
  5
2BF
330
1F
100
AcDbEntity
  8
GR2_01
 62
   234
370
    20
100
AcDbLine
 10
205.7431749287018
 20
228.9475669768782
 30
0.0
 11
205.7431749287018
 21
230.1376475002079
 31
0.0
  0
ARC
  5
2C0
330
1F
100
AcDbEntity
  8
GR2_01
 62
   234
370
    20
100
AcDbCircle
 10
206.3431749287019
 20
228.9475669768782
 30
0.0
 40
0.6
100
AcDbArc
 50
180.0
 51
250.0000000000008
  0
LINE
  5
2C1
330
1F
100
AcDbEntity
  8
GR2_01
 62
   234
370
    20
100
AcDbLine
 10
205.7431749287018
 20
236.5675669768783
 30
0.0
 11
205.7431749287018
 21
237.7576475002079
 31
0.0
  0
ARC
  5
2C2
330
1F
100
AcDbEntity
  8
GR2_01
 62
   234
370
    20
100
AcDbCircle
 10
206.3431749287019
 20
236.5675669768783
 30
0.0
 40
0.6
100
AcDbArc
 50
180.0
 51
250.0000000000008
  0
LINE
  5
2C3
330
1F
100
AcDbEntity
  8
GR2_01
 62
   234
370
    20
100
AcDbLine
 10
205.7431749287018
 20
244.1875669768782
 30
0.0
 11
205.7431749287018
 21
245.3776475002078
 31
0.0
  0
ARC
  5
2C4
330
1F
100
AcDbEntity
  8
GR2_01
 62
   234
370
    20
100
AcDbCircle
 10
206.3431749287019
 20
244.1875669768782
 30
0.0
 40
0.6
100
AcDbArc
 50
180.0
 51
250.0000000000008
  0
LINE
  5
2C5
330
1F
100
AcDbEntity
  8
GR2_01
 62
   234
370
    20
100
AcDbLine
 10
205.7431749287018
 20
251.8075669768782
 30
0.0
 11
205.7431749287018
 21
252.9976475002078
 31
0.0
  0
ARC
  5
2C6
330
1F
100
AcDbEntity
  8
GR2_01
 62
   234
370
    20
100
AcDbCircle
 10
206.3431749287019
 20
251.8075669768782
 30
0.0
 40
0.6
100
AcDbArc
 50
180.0
 51
250.0000000000008
  0
LINE
  5
2C7
330
1F
100
AcDbEntity
  8
GR2_01
 62
   234
370
    20
100
AcDbLine
 10
205.7431749287018
 20
259.4275669768783
 30
0.0
 11
205.7431749287018
 21
260.6176475002079
 31
0.0
  0
ARC
  5
2C8
330
1F
100
AcDbEntity
  8
GR2_01
 62
   234
370
    20
100
AcDbCircle
 10
206.3431749287019
 20
259.4275669768783
 30
0.0
 40
0.6
100
AcDbArc
 50
180.0
 51
250.0000000000008
  0
LINE
  5
2C9
330
1F
100
AcDbEntity
  8
GR2_01
 62
   234
370
    20
100
AcDbLine
 10
205.7431749287018
 20
267.0475669768783
 30
0.0
 11
205.7431749287018
 21
268.2376475002079
 31
0.0
  0
ARC
  5
2CA
330
1F
100
AcDbEntity
  8
GR2_01
 62
   234
370
    20
100
AcDbCircle
 10
206.3431749287019
 20
267.0475669768783
 30
0.0
 40
0.6
100
AcDbArc
 50
180.0
 51
250.0000000000008
  0
LINE
  5
2CB
330
1F
100
AcDbEntity
  8
GR2_01
 62
   234
370
    20
100
AcDbLine
 10
204.7431749287018
 20
207.8002371235928
 30
0.0
 11
204.7431749287018
 21
277.2691082494436
 31
0.0
  0
LINE
  5
2CC
330
1F
100
AcDbEntity
  8
GR2_01
 62
   234
370
    20
100
AcDbLine
 10
215.0431749287018
 20
202.7691082494436
 30
0.0
 11
215.0431749287018
 21
273.7691082494436
 31
0.0
  0
ARC
  5
2CD
330
1F
100
AcDbEntity
  8
GR2_01
 62
   234
370
    20
100
AcDbCircle
 10
210.9931749287018
 20
278.2691082494436
 30
0.0
 40
4.5
100
AcDbArc
 50
192.8395884069041
 51
270.0
  0
LINE
  5
2CE
330
1F
100
AcDbEntity
  8
GR2_01
 62
   234
370
    20
100
AcDbLine
 10
210.9931749287018
 20
273.7691082494436
 30
0.0
 11
215.0431749287018
 21
273.7691082494436
 31
0.0
  0
LINE
  5
2CF
330
1F
100
AcDbEntity
  8
GR2_01
 62
   234
370
    20
100
AcDbLine
 10
204.7431749287018
 20
277.2691082494436
 30
0.0
 11
206.6056927350058
 21
277.2691082494436
 31
0.0
  0
CIRCLE
  5
2D0
330
1F
100
AcDbEntity
  8
GR2_01
 62
   234
370
    20
100
AcDbCircle
 10
219.993174928702
 20
267.2691082494439
 30
0.0
 40
3.5
  0
CIRCLE
  5
2D1
330
1F
100
AcDbEntity
  8
GR2_01
 62
   234
370
    20
100
AcDbCircle
 10
219.993174928702
 20
197.2691082494438
 30
0.0
 40
3.5
  0
LINE
  5
2D2
330
1F
100
AcDbEntity
  8
GR2_01
 62
    94
370
    20
100
AcDbLine
 10
206.6056927350058
 20
277.5691082494436
 30
0.0
 11
206.6056927350058
 21
282.2691082494438
 31
0.0
  0
LINE
  5
2D3
330
1F
100
AcDbEntity
  8
GR2_01
 62
    94
370
    20
100
AcDbLine
 10
206.6056927350058
 20
277.5691082494436
 30
0.0
 11
204.4431749287019
 21
277.5691082494436
 31
0.0
  0
LINE
  5
2D4
330
1F
100
AcDbEntity
  8
GR2_01
 62
    94
370
    20
100
AcDbLine
 10
204.4431749287019
 20
277.5691082494435
 30
0.0
 11
204.4431749287018
 21
202.2691082494436
 31
0.0
  0
LINE
  5
2D5
330
1F
100
AcDbEntity
  8
GR2_01
 62
    94
370
    20
100
AcDbLine
 10
197.2931749287018
 20
207.9691082494439
 30
0.0
 11
198.6931749287019
 21
207.9691082494439
 31
0.0
  0
LINE
  5
2D6
330
1F
100
AcDbEntity
  8
GR2_01
 62
    94
370
    20
100
AcDbLine
 10
197.2931749287018
 20
190.0191082494437
 30
0.0
 11
224.6931749287019
 21
190.0191082494437
 31
0.0
  0
CIRCLE
  5
2D7
330
1F
100
AcDbEntity
  8
GR2_01
 62
    94
370
    20
100
AcDbCircle
 10
219.9931749287018
 20
267.2691082494438
 30
0.0
 40
1.5
  0
CIRCLE
  5
2D8
330
1F
100
AcDbEntity
  8
GR2_01
 62
    94
370
    20
100
AcDbCircle
 10
219.993174928702
 20
197.2691082494437
 30
0.0
 40
1.5
  0
LINE
  5
2D9
330
1F
100
AcDbEntity
  8
GR2_01
 62
    94
370
    20
100
AcDbLine
 10
214.3931749287018
 20
282.2691082494438
 30
0.0
 11
214.3931749287018
 21
273.7691082494436
 31
0.0
  0
LINE
  5
2DA
330
1F
100
AcDbEntity
  8
GR2_01
 62
    94
370
    20
100
AcDbLine
 10
214.3931749287018
 20
202.7691082494436
 30
0.0
 11
214.3931749287018
 21
190.0191082494437
 31
0.0
  0
LINE
  5
2DB
330
1F
100
AcDbEntity
  8
GR2_01
 62
    94
370
    20
100
AcDbLine
 10
220.1836526478109
 20
278.078630530335
 30
0.0
 11
217.8026972095929
 21
280.459585968553
 31
0.0
  0
LINE
  5
2DC
330
1F
100
AcDbEntity
  8
GR2_01
 62
    94
370
    20
100
AcDbLine
 10
220.1836526478109
 20
280.459585968553
 30
0.0
 11
217.8026972095929
 21
278.078630530335
 31
0.0
  0
CIRCLE
  5
2DD
330
1F
100
AcDbEntity
  8
GR2_01
 62
    94
370
    20
100
AcDbCircle
 10
218.993174928702
 20
279.2691082494441
 30
0.0
 40
2.75
  0
ARC
  5
2DE
330
1F
100
AcDbEntity
  8
GR2_01
 62
    94
370
    20
100
AcDbCircle
 10
218.9931749287018
 20
279.269108249444
 30
0.0
 40
3.0
100
AcDbArc
 50
180.0
 51
359.9999999999989
  0
LINE
  5
2DF
330
1F
100
AcDbEntity
  8
GR2_01
 62
    94
370
    20
100
AcDbLine
 10
215.9931749287017
 20
282.2691082494439
 30
0.0
 11
215.9931749287017
 21
279.269108249444
 31
0.0
  0
LINE
  5
2E0
330
1F
100
AcDbEntity
  8
GR2_01
 62
    94
370
    20
100
AcDbLine
 10
221.993174928702
 20
282.2691082494439
 30
0.0
 11
221.993174928702
 21
279.269108249444
 31
0.0
  0
LINE
  5
2E1
330
1F
100
AcDbEntity
  8
GR2_01
 62
    94
370
    20
100
AcDbLine
 10
198.6931749287019
 20
208.569108249444
 30
0.0
 11
198.6931749287018
 21
199.969108249444
 31
0.0
  0
LINE
  5
2E2
330
1F
100
AcDbEntity
  8
GR2_01
 62
    94
370
    20
100
AcDbLine
 10
206.2931749287019
 20
199.7691082494441
 30
0.0
 11
198.8931749287018
 21
199.7691082494441
 31
0.0
  0
LINE
  5
2E3
330
1F
100
AcDbEntity
  8
GR2_01
 62
    94
370
    20
100
AcDbLine
 10
206.4931749287018
 20
199.9691082494441
 30
0.0
 11
206.4931749287018
 21
202.2691082494436
 31
0.0
  0
LINE
  5
2E4
330
1F
100
AcDbEntity
  8
GR2_01
 62
    94
370
    20
100
AcDbLine
 10
204.4431749287018
 20
208.769108249444
 30
0.0
 11
198.8931749287018
 21
208.769108249444
 31
0.0
  0
ARC
  5
2E5
330
1F
100
AcDbEntity
  8
GR2_01
 62
    94
370
    20
100
AcDbCircle
 10
198.8931749287018
 20
208.569108249444
 30
0.0
 40
0.2
100
AcDbArc
 50
90.0
 51
180.0
  0
ARC
  5
2E6
330
1F
100
AcDbEntity
  8
GR2_01
 62
    94
370
    20
100
AcDbCircle
 10
198.8931749287018
 20
199.969108249444
 30
0.0
 40
0.2
100
AcDbArc
 50
180.0
 51
270.0
  0
ARC
  5
2E7
330
1F
100
AcDbEntity
  8
GR2_01
 62
    94
370
    20
100
AcDbCircle
 10
206.2931749287019
 20
199.9691082494441
 30
0.0
 40
0.2
100
AcDbArc
 50
270.0
 51
0.0
  0
LINE
  5
2E9
330
1F
100
AcDbEntity
  8
GR1_01
 62
    94
370
    20
100
AcDbLine
 10
214.3931749287018
 20
202.2691082494436
 30
0.0
 11
204.4431749287018
 21
202.2691082494436
 31
0.0
  0
LINE
  5
2EA
330
1F
100
AcDbEntity
  8
GR2_01
 62
    94
370
    20
100
AcDbLine
 10
198.2931749287018
 20
78.26910824944386
 30
0.0
 11
223.6931749287019
 21
78.26910824944386
 31
0.0
  0
LINE
  5
2EB
330
1F
100
AcDbEntity
  8
GR2_01
 62
    94
370
    20
100
AcDbLine
 10
200.0931749287019
 20
80.06910824944386
 30
0.0
 11
209.0931749287019
 21
80.06910824944387
 31
0.0
  0
ARC
  5
2EC
330
1F
100
AcDbEntity
  8
GR2_01
 62
    94
370
    20
100
AcDbCircle
 10
221.8931749287018
 20
81.06910824944386
 30
0.0
 40
1.0
100
AcDbArc
 50
270.0
 51
0.0
  0
ARC
  5
2ED
330
1F
100
AcDbEntity
  8
GR2_01
 62
    94
370
    20
100
AcDbCircle
 10
200.0931749287019
 20
81.06910824944386
 30
0.0
 40
1.0
100
AcDbArc
 50
180.0
 51
270.0
  0
LINE
  5
2EE
330
1F
100
AcDbEntity
  8
GR2_01
 62
    94
370
    20
100
AcDbLine
 10
212.8931749287019
 20
80.06910824944386
 30
0.0
 11
221.8931749287018
 21
80.06910824944386
 31
0.0
  0
ARC
  5
2EF
330
1F
100
AcDbEntity
  8
GR2_01
 62
    94
370
    20
100
AcDbCircle
 10
212.8931749287019
 20
81.06910824944386
 30
0.0
 40
1.0
100
AcDbArc
 50
180.0
 51
270.0
  0
ARC
  5
2F0
330
1F
100
AcDbEntity
  8
GR2_01
 62
    94
370
    20
100
AcDbCircle
 10
209.0931749287019
 20
81.06910824944387
 30
0.0
 40
1.0
100
AcDbArc
 50
270.0
 51
0.0
  0
LINE
  5
2F1
330
1F
100
AcDbEntity
  8
GR2_01
 62
    94
370
    20
100
AcDbLine
 10
222.8931749287018
 20
82.26910824944387
 30
0.0
 11
222.8931749287018
 21
81.06910824944386
 31
0.0
  0
LINE
  5
2F2
330
1F
100
AcDbEntity
  8
GR2_01
 62
    94
370
    20
100
AcDbLine
 10
211.8931749287019
 20
82.26910824944386
 30
0.0
 11
211.8931749287019
 21
81.06910824944386
 31
0.0
  0
LINE
  5
2F3
330
1F
100
AcDbEntity
  8
GR2_01
 62
    94
370
    20
100
AcDbLine
 10
210.0931749287019
 20
82.26910824944386
 30
0.0
 11
210.0931749287019
 21
81.06910824944387
 31
0.0
  0
LINE
  5
2F4
330
1F
100
AcDbEntity
  8
GR2_01
 62
    94
370
    20
100
AcDbLine
 10
199.0931749287019
 20
82.26910824944385
 30
0.0
 11
199.0931749287019
 21
81.06910824944386
 31
0.0
  0
LINE
  5
2F5
330
1F
100
AcDbEntity
  8
GR2_01
 62
    94
370
    20
100
AcDbLine
 10
59.14578167542886
 20
26.63516834722938
 30
0.0
 11
86.14578167542888
 21
26.63516834722938
 31
0.0
  0
LINE
  5
2F6
330
1F
100
AcDbEntity
  8
GR2_01
 62
    94
370
    20
100
AcDbLine
 10
80.5308617537352
 20
26.63516834722938
 30
0.0
 11
80.5308617537352
 21
25.43516834722939
 31
0.0
  0
LINE
  5
2F7
330
1F
100
AcDbEntity
  8
GR2_01
 62
    94
370
    20
100
AcDbLine
 10
64.76070159712255
 20
26.63516834722938
 30
0.0
 11
64.76070159712255
 21
25.43516834722939
 31
0.0
  0
LINE
  5
2F8
330
1F
100
AcDbEntity
  8
GR1_01
 62
    94
370
    20
100
AcDbLine
 10
69.1457816754291
 20
67.33516834722937
 30
0.0
 11
69.1457816754291
 21
63.43516834722939
 31
0.0
  0
LINE
  5
2F9
330
1F
100
AcDbEntity
  8
GR1_01
 62
    94
370
    20
100
AcDbLine
 10
76.1457816754291
 20
67.33516834722937
 30
0.0
 11
76.1457816754291
 21
63.43516834722942
 31
0.0
  0
LINE
  5
2FA
330
1F
100
AcDbEntity
  8
GR2_01
 62
    94
370
    20
100
AcDbLine
 10
76.1457816754291
 20
63.43516834722942
 30
0.0
 11
69.1457816754291
 21
63.43516834722939
 31
0.0
  0
LINE
  5
2FB
330
1F
100
AcDbEntity
  8
GR2_01
 62
   234
370
    20
100
AcDbLine
 10
74.14578167542882
 20
23.93516834722945
 30
0.0
 11
75.14578167542899
 21
23.93516834722945
 31
0.0
  0
LINE
  5
2FC
330
1F
100
AcDbEntity
  8
GR2_01
 62
    94
370
    20
100
AcDbLine
 10
74.14578167542882
 20
25.43516834722939
 30
0.0
 11
86.34578167542892
 21
25.43516834722939
 31
0.0
  0
LINE
  5
2FD
330
1F
100
AcDbEntity
  8
GR1_01
 62
    94
370
    20
100
AcDbLine
 10
69.89578167542882
 20
64.63516834722941
 30
0.0
 11
69.9379030800915
 21
65.43889262707708
 31
0.0
  0
LINE
  5
2FE
330
1F
100
AcDbEntity
  8
GR1_01
 62
    94
370
    20
100
AcDbLine
 10
75.39578167542882
 20
64.63516834722941
 30
0.0
 11
75.35366027076614
 21
65.43889262707708
 31
0.0
  0
LINE
  5
2FF
330
1F
100
AcDbEntity
  8
GR1_01
 62
    94
370
    20
100
AcDbLine
 10
69.89578167542882
 20
64.63516834722941
 30
0.0
 11
75.39578167542882
 21
64.63516834722941
 31
0.0
  0
ARC
  5
300
330
1F
100
AcDbEntity
  8
GR1_01
 62
    94
370
    20
100
AcDbCircle
 10
70.93653261484607
 20
65.38655667083415
 30
0.0
 40
1.0
100
AcDbArc
 50
106.5513675242212
 51
177.0000000000001
  0
ARC
  5
301
330
1F
100
AcDbEntity
  8
GR1_01
 62
    94
370
    20
100
AcDbCircle
 10
74.35503073601157
 20
65.38655667083415
 30
0.0
 40
1.0
100
AcDbArc
 50
2.999999999999886
 51
73.4486324757788
  0
ARC
  5
302
330
1F
100
AcDbEntity
  8
GR1_01
 62
    94
370
    20
100
AcDbCircle
 10
72.64578167542882
 20
59.63516834722938
 30
0.0
 40
7.0
100
AcDbArc
 50
73.4486324757788
 51
106.5513675242212
  0
LINE
  5
303
330
1F
100
AcDbEntity
  8
GR1_01
 62
    94
370
    20
100
AcDbLine
 10
71.14578167542882
 20
19.63516834722938
 30
0.0
 11
74.14578167542882
 21
19.63516834722938
 31
0.0
  0
LINE
  5
304
330
1F
100
AcDbEntity
  8
GR1_01
 62
    94
370
    20
100
AcDbLine
 10
74.14578167542882
 20
26.63516834722921
 30
0.0
 11
74.14578167542882
 21
19.63516834722938
 31
0.0
  0
LINE
  5
305
330
1F
100
AcDbEntity
  8
GR1_01
 62
    94
370
    20
100
AcDbLine
 10
73.84578167542887
 20
26.63516834722921
 30
0.0
 11
73.84578167542887
 21
19.63516834722938
 31
0.0
  0
LINE
  5
306
330
1F
100
AcDbEntity
  8
GR1_01
 62
    94
370
    20
100
AcDbLine
 10
71.14578167542882
 20
26.63516834722921
 30
0.0
 11
71.14578167542882
 21
19.63516834722938
 31
0.0
  0
LINE
  5
307
330
1F
100
AcDbEntity
  8
GR1_01
 62
    94
370
    20
100
AcDbLine
 10
71.44578167542883
 20
26.63516834722921
 30
0.0
 11
71.44578167542883
 21
19.63516834722938
 31
0.0
  0
LINE
  5
308
330
1F
100
AcDbEntity
  8
GR1_01
 62
    94
370
    20
100
AcDbLine
 10
69.64578167542888
 20
63.93516834722939
 30
0.0
 11
69.64578167542888
 21
63.43516834722939
 31
0.0
  0
LINE
  5
309
330
1F
100
AcDbEntity
  8
GR1_01
 62
    94
370
    20
100
AcDbLine
 10
75.64578167542888
 20
63.43516834722939
 30
0.0
 11
75.64578167542888
 21
63.93516834722939
 31
0.0
  0
LINE
  5
30A
330
1F
100
AcDbEntity
  8
GR1_01
 62
    94
370
    20
100
AcDbLine
 10
75.64578167542888
 20
63.93516834722939
 30
0.0
 11
69.64578167542888
 21
63.93516834722939
 31
0.0
  0
LINE
  5
30B
330
1F
100
AcDbEntity
  8
GR1_01
 62
    94
370
    20
100
AcDbLine
 10
69.69578167542883
 20
64.63516834722938
 30
0.0
 11
69.69578167542883
 21
63.93516834722939
 31
0.0
  0
LINE
  5
30C
330
1F
100
AcDbEntity
  8
GR1_01
 62
    94
370
    20
100
AcDbLine
 10
69.69578167542883
 20
63.93516834722939
 30
0.0
 11
75.59578167542887
 21
63.93516834722939
 31
0.0
  0
LINE
  5
30D
330
1F
100
AcDbEntity
  8
GR1_01
 62
    94
370
    20
100
AcDbLine
 10
75.59578167542887
 20
63.93516834722939
 30
0.0
 11
75.59578167542887
 21
64.63516834722938
 31
0.0
  0
LINE
  5
30E
330
1F
100
AcDbEntity
  8
GR1_01
 62
    94
370
    20
100
AcDbLine
 10
75.59578167542887
 20
64.63516834722938
 30
0.0
 11
69.69578167542883
 21
64.63516834722938
 31
0.0
  0
LINE
  5
30F
330
1F
100
AcDbEntity
  8
GR1_01
 62
    94
370
    20
100
AcDbLine
 10
72.2416364869961
 20
64.63516834722938
 30
0.0
 11
72.64578167542888
 21
63.93516834722939
 31
0.0
  0
LINE
  5
310
330
1F
100
AcDbEntity
  8
GR1_01
 62
    94
370
    20
100
AcDbLine
 10
72.64578167542888
 20
64.63516834722938
 30
0.0
 11
73.0499268638616
 21
63.93516834722939
 31
0.0
  0
LINE
  5
311
330
1F
100
AcDbEntity
  8
GR2_01
 62
    94
370
    20
100
AcDbLine
 10
144.6352115845301
 20
101.2691082494438
 30
0.0
 11
144.6352115845301
 21
83.86910824944383
 31
0.0
  0
LINE
  5
312
330
1F
100
AcDbEntity
  8
GR2_01
 62
    94
370
    20
100
AcDbLine
 10
146.2352115845301
 20
82.26910824944383
 30
0.0
 11
164.8352115845302
 21
82.26910824944383
 31
0.0
  0
LINE
  5
313
330
1F
100
AcDbEntity
  8
GR2_01
 62
    94
370
    20
100
AcDbLine
 10
166.4352115845302
 20
83.86910824944384
 30
0.0
 11
166.4352115845301
 21
92.26910824944383
 31
0.0
  0
LINE
  5
314
330
1F
100
AcDbEntity
  8
GR2_01
 62
    94
370
    20
100
AcDbLine
 10
146.2352115845301
 20
101.2691082494438
 30
0.0
 11
146.2352115845301
 21
83.86910824944384
 31
0.0
  0
LINE
  5
315
330
1F
100
AcDbEntity
  8
GR2_01
 62
    94
370
    20
100
AcDbLine
 10
164.8352115845301
 20
83.86910824944383
 30
0.0
 11
164.8352115845301
 21
92.26910824944383
 31
0.0
  0
LINE
  5
316
330
1F
100
AcDbEntity
  8
GR2_01
 62
    94
370
    20
100
AcDbLine
 10
146.2352115845302
 20
83.86910824944384
 30
0.0
 11
164.8352115845301
 21
83.86910824944383
 31
0.0
  0
ARC
  5
317
330
1F
100
AcDbEntity
  8
GR2_01
 62
    94
370
    20
100
AcDbCircle
 10
164.8352115845302
 20
83.86910824944384
 30
0.0
 40
1.6
100
AcDbArc
 50
270.0
 51
0.0000000000001018
  0
ARC
  5
318
330
1F
100
AcDbEntity
  8
GR2_01
 62
    94
370
    20
100
AcDbCircle
 10
146.23521158453
 20
83.86910824944378
 30
0.0
 40
1.599999999999966
100
AcDbArc
 50
179.9999999999985
 51
270.000000000001
  0
LINE
  5
319
330
1F
100
AcDbEntity
  8
GR2_01
 62
    94
370
    20
100
AcDbLine
 10
164.8352115845301
 20
92.26910824944383
 30
0.0
 11
166.4352115845301
 21
92.26910824944383
 31
0.0
  0
LINE
  5
31A
330
1F
100
AcDbEntity
  8
GR2_01
 62
    94
370
    20
100
AcDbLine
 10
146.2352115845301
 20
101.2691082494438
 30
0.0
 11
144.6352115845301
 21
101.2691082494438
 31
0.0
  0
LINE
  5
31B
330
1F
100
AcDbEntity
  8
GR2_01
 62
     5
370
    20
100
AcDbLine
 10
173.4352115845299
 20
86.76910824944385
 30
0.0
 11
173.4352115845299
 21
89.76910824944385
 31
0.0
  0
LINE
  5
31C
330
1F
100
AcDbEntity
  8
GR2_01
 62
     5
370
    20
100
AcDbLine
 10
147.5423233706316
 20
89.76910824944385
 30
0.0
 11
164.8352115845301
 21
89.76910824944385
 31
0.0
  0
LINE
  5
31D
330
1F
100
AcDbEntity
  8
GR2_01
 62
     5
370
    20
100
AcDbLine
 10
147.4058229164026
 20
89.46910824944385
 30
0.0
 11
164.8352115845301
 21
89.46910824944385
 31
0.0
  0
LINE
  5
31E
330
1F
100
AcDbEntity
  8
GR2_01
 62
     5
370
    20
100
AcDbLine
 10
146.2352115845301
 20
87.06910824944384
 30
0.0
 11
164.8352115845301
 21
87.06910824944384
 31
0.0
  0
LINE
  5
31F
330
1F
100
AcDbEntity
  8
GR2_01
 62
     5
370
    20
100
AcDbLine
 10
146.2352115845301
 20
86.76910824944385
 30
0.0
 11
164.8352115845301
 21
86.76910824944385
 31
0.0
  0
LINE
  5
320
330
1F
100
AcDbEntity
  8
GR2_01
 62
     5
370
    20
100
AcDbLine
 10
166.4352115845301
 20
89.76910824944385
 30
0.0
 11
173.4352115845299
 21
89.76910824944385
 31
0.0
  0
LINE
  5
321
330
1F
100
AcDbEntity
  8
GR2_01
 62
     5
370
    20
100
AcDbLine
 10
166.4352115845301
 20
89.46910824944385
 30
0.0
 11
173.4352115845299
 21
89.46910824944385
 31
0.0
  0
LINE
  5
322
330
1F
100
AcDbEntity
  8
GR2_01
 62
     5
370
    20
100
AcDbLine
 10
166.4352115845302
 20
87.06910824944384
 30
0.0
 11
173.4352115845299
 21
87.06910824944384
 31
0.0
  0
LINE
  5
323
330
1F
100
AcDbEntity
  8
GR2_01
 62
     5
370
    20
100
AcDbLine
 10
166.4352115845302
 20
86.76910824944385
 30
0.0
 11
173.4352115845299
 21
86.76910824944385
 31
0.0
  0
DIMENSION
  5
324
330
1F
100
AcDbEntity
  8
GR1_01
 62
     5
370
    20
100
AcDbDimension
  2
*D27
 10
86.34578167542887
 20
9.345107786414218
 30
0.0
 11
72.64578247070312
 21
10.34510803222656
 31
0.0
 70
    33
 71
     5
 42
-1.0
  3
FX_DIMINFO
100
AcDbAlignedDimension
 13
58.94578167542888
 23
25.43516834722938
 33
0.0
 14
86.34578167542887
 24
25.43516834722939
 34
0.0
1001
ACAD
1000
DSTYLE
1002
{
1070
   173
1070
     1
1070
   344
1005
74
1070
   343
1005
6E
1070
   178
1070
    94
1002
}
  0
DIMENSION
  5
32E
330
1F
100
AcDbEntity
  8
GR1_01
 62
     5
370
    20
100
AcDbDimension
  2
*D28
 10
144.6352115845301
 20
66.31746096267115
 30
0.0
 11
135.1852264404297
 21
67.31745910644531
 31
0.0
 70
    32
 71
     5
 42
-1.0
  3
FX_DIMINFO
100
AcDbAlignedDimension
 13
125.73521158453
 23
79.26910824944386
 33
0.0
 14
144.6352115845301
 24
78.26910824944386
 34
0.0
100
AcDbRotatedDimension
1001
ACAD
1000
DSTYLE
1002
{
1070
   173
1070
     1
1070
   344
1005
74
1070
   343
1005
6E
1070
   178
1070
    94
1002
}
  0
LINE
  5
338
330
1F
100
AcDbEntity
  8
GR2_01
 62
   234
370
    20
100
AcDbLine
 10
287.8517680321636
 20
239.8468650891297
 30
0.0
 11
287.8517680321636
 21
234.7913514097577
 31
0.0
  0
LINE
  5
339
330
1F
100
AcDbEntity
  8
GR2_01
 62
   234
370
    20
100
AcDbLine
 10
286.3960939101363
 20
234.7913514097577
 30
0.0
 11
287.8517680321636
 21
234.7913514097577
 31
0.0
  0
LINE
  5
33A
330
1F
100
AcDbEntity
  8
GR2_01
 62
   234
370
    20
100
AcDbLine
 10
286.3960939101363
 20
239.8468650891297
 30
0.0
 11
286.3960939101363
 21
234.7913514097577
 31
0.0
  0
LINE
  5
33B
330
1F
100
AcDbEntity
  8
GR2_01
 62
   234
370
    20
100
AcDbLine
 10
286.3960939101363
 20
239.8468650891297
 30
0.0
 11
287.8517680321636
 21
239.8468650891297
 31
0.0
  0
LINE
  5
33C
330
1F
100
AcDbEntity
  8
GR2_01
 62
   234
370
    20
100
AcDbLine
 10
366.701863266958
 20
282.8691082494434
 30
0.0
 11
362.201863266958
 21
282.8691082494435
 31
0.0
  0
LINE
  5
33D
330
1F
100
AcDbEntity
  8
GR2_01
 62
   234
370
    20
100
AcDbLine
 10
342.2018632669578
 20
271.0191082494435
 30
0.0
 11
342.2018632669578
 21
272.0653107153766
 31
0.0
  0
LINE
  5
33E
330
1F
100
AcDbEntity
  8
GR2_01
 62
   234
370
    20
100
AcDbLine
 10
342.2018632669578
 20
271.0191082494435
 30
0.0
 11
344.7018632669578
 21
271.0191082494435
 31
0.0
  0
LINE
  5
33F
330
1F
100
AcDbEntity
  8
GR2_01
 62
   234
370
    20
100
AcDbLine
 10
344.7018632669578
 20
271.0191082494435
 30
0.0
 11
344.7018632669573
 21
104.7191082494435
 31
0.0
  0
LINE
  5
340
330
1F
100
AcDbEntity
  8
GR2_01
 62
   234
370
    20
100
AcDbLine
 10
342.2018632669573
 20
104.7191082494435
 30
0.0
 11
342.2018632669574
 21
103.6696556649372
 31
0.0
  0
LINE
  5
341
330
1F
100
AcDbEntity
  8
GR2_01
 62
   234
370
    20
100
AcDbLine
 10
342.2018632669573
 20
104.7191082494435
 30
0.0
 11
344.7018632669573
 21
104.7191082494435
 31
0.0
  0
LINE
  5
342
330
1F
100
AcDbEntity
  8
GR2_01
 62
   234
370
    20
100
AcDbLine
 10
343.6518632669579
 20
263.8191082494436
 30
0.0
 11
344.7018632669578
 21
263.8191082494436
 31
0.0
  0
LINE
  5
343
330
1F
100
AcDbEntity
  8
GR2_01
 62
   234
370
    20
100
AcDbLine
 10
343.6518632669579
 20
262.4191082494435
 30
0.0
 11
344.7018632669578
 21
262.4191082494435
 31
0.0
  0
LINE
  5
344
330
1F
100
AcDbEntity
  8
GR2_01
 62
   234
370
    20
100
AcDbLine
 10
343.6518632669579
 20
255.2191082494435
 30
0.0
 11
344.7018632669578
 21
255.2191082494435
 31
0.0
  0
LINE
  5
345
330
1F
100
AcDbEntity
  8
GR2_01
 62
   234
370
    20
100
AcDbLine
 10
343.6518632669579
 20
253.8191082494436
 30
0.0
 11
344.7018632669578
 21
253.8191082494434
 31
0.0
  0
LINE
  5
346
330
1F
100
AcDbEntity
  8
GR2_01
 62
   234
370
    20
100
AcDbLine
 10
343.6518632669579
 20
246.6191082494435
 30
0.0
 11
344.7018632669578
 21
246.6191082494435
 31
0.0
  0
LINE
  5
347
330
1F
100
AcDbEntity
  8
GR2_01
 62
   234
370
    20
100
AcDbLine
 10
343.6518632669579
 20
245.2191082494435
 30
0.0
 11
344.7018632669578
 21
245.2191082494435
 31
0.0
  0
LINE
  5
348
330
1F
100
AcDbEntity
  8
GR2_01
 62
   234
370
    20
100
AcDbLine
 10
343.6518632669578
 20
238.0191082494435
 30
0.0
 11
344.7018632669577
 21
238.0191082494435
 31
0.0
  0
LINE
  5
349
330
1F
100
AcDbEntity
  8
GR2_01
 62
   234
370
    20
100
AcDbLine
 10
343.6518632669578
 20
236.6191082494435
 30
0.0
 11
344.7018632669577
 21
236.6191082494435
 31
0.0
  0
LINE
  5
34A
330
1F
100
AcDbEntity
  8
GR2_01
 62
   234
370
    20
100
AcDbLine
 10
343.6518632669578
 20
229.4191082494437
 30
0.0
 11
344.7018632669577
 21
229.4191082494436
 31
0.0
  0
LINE
  5
34B
330
1F
100
AcDbEntity
  8
GR2_01
 62
   234
370
    20
100
AcDbLine
 10
343.6518632669578
 20
228.0191082494435
 30
0.0
 11
344.7018632669577
 21
228.0191082494435
 31
0.0
  0
LINE
  5
34C
330
1F
100
AcDbEntity
  8
GR2_01
 62
   234
370
    20
100
AcDbLine
 10
343.6518632669578
 20
220.8191082494436
 30
0.0
 11
344.7018632669577
 21
220.8191082494436
 31
0.0
  0
LINE
  5
34D
330
1F
100
AcDbEntity
  8
GR2_01
 62
   234
370
    20
100
AcDbLine
 10
343.6518632669578
 20
219.4191082494435
 30
0.0
 11
344.7018632669577
 21
219.4191082494435
 31
0.0
  0
LINE
  5
34E
330
1F
100
AcDbEntity
  8
GR2_01
 62
   234
370
    20
100
AcDbLine
 10
343.6518632669578
 20
212.2191082494435
 30
0.0
 11
344.7018632669577
 21
212.2191082494435
 31
0.0
  0
LINE
  5
34F
330
1F
100
AcDbEntity
  8
GR2_01
 62
   234
370
    20
100
AcDbLine
 10
343.6518632669578
 20
210.8191082494434
 30
0.0
 11
344.7018632669577
 21
210.8191082494436
 31
0.0
  0
LINE
  5
350
330
1F
100
AcDbEntity
  8
GR2_01
 62
   234
370
    20
100
AcDbLine
 10
343.6518632669577
 20
203.6191082494435
 30
0.0
 11
344.7018632669576
 21
203.6191082494435
 31
0.0
  0
LINE
  5
351
330
1F
100
AcDbEntity
  8
GR2_01
 62
   234
370
    20
100
AcDbLine
 10
343.6518632669577
 20
202.2191082494434
 30
0.0
 11
344.7018632669576
 21
202.2191082494435
 31
0.0
  0
LINE
  5
352
330
1F
100
AcDbEntity
  8
GR2_01
 62
   234
370
    20
100
AcDbLine
 10
343.6518632669577
 20
195.0191082494435
 30
0.0
 11
344.7018632669576
 21
195.0191082494434
 31
0.0
  0
LINE
  5
353
330
1F
100
AcDbEntity
  8
GR2_01
 62
   234
370
    20
100
AcDbLine
 10
343.6518632669577
 20
193.6191082494436
 30
0.0
 11
344.7018632669576
 21
193.6191082494436
 31
0.0
  0
LINE
  5
354
330
1F
100
AcDbEntity
  8
GR2_01
 62
   234
370
    20
100
AcDbLine
 10
343.6518632669577
 20
186.4191082494436
 30
0.0
 11
344.7018632669576
 21
186.4191082494435
 31
0.0
  0
LINE
  5
355
330
1F
100
AcDbEntity
  8
GR2_01
 62
   234
370
    20
100
AcDbLine
 10
343.6518632669577
 20
185.0191082494435
 30
0.0
 11
344.7018632669576
 21
185.0191082494434
 31
0.0
  0
LINE
  5
356
330
1F
100
AcDbEntity
  8
GR2_01
 62
   234
370
    20
100
AcDbLine
 10
343.6518632669577
 20
177.8191082494434
 30
0.0
 11
344.7018632669576
 21
177.8191082494435
 31
0.0
  0
LINE
  5
357
330
1F
100
AcDbEntity
  8
GR2_01
 62
   234
370
    20
100
AcDbLine
 10
343.6518632669577
 20
176.4191082494436
 30
0.0
 11
344.7018632669576
 21
176.4191082494435
 31
0.0
  0
LINE
  5
358
330
1F
100
AcDbEntity
  8
GR2_01
 62
   234
370
    20
100
AcDbLine
 10
343.6518632669575
 20
169.2191082494435
 30
0.0
 11
344.7018632669575
 21
169.2191082494435
 31
0.0
  0
LINE
  5
359
330
1F
100
AcDbEntity
  8
GR2_01
 62
   234
370
    20
100
AcDbLine
 10
343.6518632669575
 20
167.8191082494435
 30
0.0
 11
344.7018632669575
 21
167.8191082494435
 31
0.0
  0
LINE
  5
35A
330
1F
100
AcDbEntity
  8
GR2_01
 62
   234
370
    20
100
AcDbLine
 10
343.6518632669575
 20
160.6191082494436
 30
0.0
 11
344.7018632669575
 21
160.6191082494436
 31
0.0
  0
LINE
  5
35B
330
1F
100
AcDbEntity
  8
GR2_01
 62
   234
370
    20
100
AcDbLine
 10
343.6518632669575
 20
159.2191082494435
 30
0.0
 11
344.7018632669575
 21
159.2191082494435
 31
0.0
  0
LINE
  5
35C
330
1F
100
AcDbEntity
  8
GR2_01
 62
   234
370
    20
100
AcDbLine
 10
343.6518632669575
 20
152.0191082494435
 30
0.0
 11
344.7018632669575
 21
152.0191082494434
 31
0.0
  0
LINE
  5
35D
330
1F
100
AcDbEntity
  8
GR2_01
 62
   234
370
    20
100
AcDbLine
 10
343.6518632669575
 20
150.6191082494435
 30
0.0
 11
344.7018632669575
 21
150.6191082494435
 31
0.0
  0
LINE
  5
35E
330
1F
100
AcDbEntity
  8
GR2_01
 62
   234
370
    20
100
AcDbLine
 10
343.6518632669575
 20
143.4191082494436
 30
0.0
 11
344.7018632669575
 21
143.4191082494435
 31
0.0
  0
LINE
  5
35F
330
1F
100
AcDbEntity
  8
GR2_01
 62
   234
370
    20
100
AcDbLine
 10
343.6518632669574
 20
142.0191082494436
 30
0.0
 11
344.7018632669574
 21
142.0191082494435
 31
0.0
  0
LINE
  5
360
330
1F
100
AcDbEntity
  8
GR2_01
 62
   234
370
    20
100
AcDbLine
 10
343.6518632669574
 20
134.8191082494434
 30
0.0
 11
344.7018632669574
 21
134.8191082494435
 31
0.0
  0
LINE
  5
361
330
1F
100
AcDbEntity
  8
GR2_01
 62
   234
370
    20
100
AcDbLine
 10
343.6518632669574
 20
133.4191082494437
 30
0.0
 11
344.7018632669574
 21
133.4191082494435
 31
0.0
  0
LINE
  5
362
330
1F
100
AcDbEntity
  8
GR2_01
 62
   234
370
    20
100
AcDbLine
 10
343.6518632669574
 20
126.2191082494435
 30
0.0
 11
344.7018632669574
 21
126.2191082494435
 31
0.0
  0
LINE
  5
363
330
1F
100
AcDbEntity
  8
GR2_01
 62
   234
370
    20
100
AcDbLine
 10
343.6518632669574
 20
124.8191082494434
 30
0.0
 11
344.7018632669574
 21
124.8191082494435
 31
0.0
  0
LINE
  5
364
330
1F
100
AcDbEntity
  8
GR2_01
 62
   234
370
    20
100
AcDbLine
 10
343.6518632669574
 20
117.6191082494436
 30
0.0
 11
344.7018632669574
 21
117.6191082494436
 31
0.0
  0
LINE
  5
365
330
1F
100
AcDbEntity
  8
GR2_01
 62
   234
370
    20
100
AcDbLine
 10
343.6518632669574
 20
116.2191082494436
 30
0.0
 11
344.7018632669574
 21
116.2191082494435
 31
0.0
  0
LINE
  5
366
330
1F
100
AcDbEntity
  8
GR2_01
 62
   234
370
    20
100
AcDbLine
 10
344.7018632669573
 20
109.0191082494437
 30
0.0
 11
343.6518632669573
 21
109.0191082494437
 31
0.0
  0
LINE
  5
367
330
1F
100
AcDbEntity
  8
GR2_01
 62
   234
370
    20
100
AcDbLine
 10
344.7018632669573
 20
107.6191082494436
 30
0.0
 11
343.6518632669573
 21
107.6191082494436
 31
0.0
  0
LINE
  5
368
330
1F
100
AcDbEntity
  8
GR2_01
 62
   234
370
    20
100
AcDbLine
 10
342.2018632669578
 20
270.9191082494435
 30
0.0
 11
342.2018632669573
 21
104.8191082494434
 31
0.0
  0
LINE
  5
369
330
1F
100
AcDbEntity
  8
GR2_01
 62
   234
370
    20
100
AcDbLine
 10
342.2018632669578
 20
270.9191082494435
 30
0.0
 11
344.7018632669578
 21
270.9191082494435
 31
0.0
  0
LINE
  5
36A
330
1F
100
AcDbEntity
  8
GR2_01
 62
   234
370
    20
100
AcDbLine
 10
342.2018632669573
 20
104.8191082494434
 30
0.0
 11
344.7018632669573
 21
104.8191082494434
 31
0.0
  0
LINE
  5
36B
330
1F
100
AcDbEntity
  8
GR2_01
 62
   234
370
    20
100
AcDbLine
 10
366.7018632669573
 20
102.8691082494433
 30
0.0
 11
375.2018632669573
 21
102.8691082494434
 31
0.0
  0
LINE
  5
36C
330
1F
100
AcDbEntity
  8
GR2_01
 62
   234
370
    20
100
AcDbLine
 10
375.2018632669578
 20
272.8691082494434
 30
0.0
 11
366.7018632669578
 21
272.8691082494434
 31
0.0
  0
LINE
  5
36D
330
1F
100
AcDbEntity
  8
GR2_01
 62
   234
370
    20
100
AcDbLine
 10
286.151768032164
 20
68.41316939867495
 30
0.0
 11
302.151768032164
 21
68.41316939867505
 31
0.0
  0
LINE
  5
36E
330
1F
100
AcDbEntity
  8
GR2_01
 62
   234
370
    20
100
AcDbLine
 10
285.151768032164
 20
67.41316939867497
 30
0.0
 11
285.151768032164
 21
43.91316939867496
 31
0.0
  0
LINE
  5
36F
330
1F
100
AcDbEntity
  8
GR2_01
 62
   234
370
    20
100
AcDbLine
 10
285.151768032164
 20
43.91316939867496
 30
0.0
 11
294.8517680321639
 21
43.91316939867506
 31
0.0
  0
LINE
  5
370
330
1F
100
AcDbEntity
  8
GR2_01
 62
   234
370
    20
100
AcDbLine
 10
303.151768032164
 20
43.91316939867504
 30
0.0
 11
303.151768032164
 21
67.41316939867505
 31
0.0
  0
LINE
  5
371
330
1F
100
AcDbEntity
  8
GR2_01
 62
   234
370
    20
100
AcDbLine
 10
300.3517680321639
 20
43.91316939867505
 30
0.0
 11
300.3517680321639
 21
35.41316939867505
 31
0.0
  0
LINE
  5
372
330
1F
100
AcDbEntity
  8
GR2_01
 62
   234
370
    20
100
AcDbLine
 10
290.8517680321639
 20
35.91316939867507
 30
0.0
 11
290.8517680321639
 21
43.91316939867507
 31
0.0
  0
ARC
  5
373
330
1F
100
AcDbEntity
  8
GR2_01
 62
   234
370
    20
100
AcDbCircle
 10
291.3517680321639
 20
35.91316939867507
 30
0.0
 40
0.5
100
AcDbArc
 50
180.0000000000001
 51
270.0000000000001
  0
LINE
  5
374
330
1F
100
AcDbEntity
  8
GR2_01
 62
   234
370
    20
100
AcDbLine
 10
286.151768032164
 20
58.82848706341095
 30
0.0
 11
291.8517680321639
 21
58.82848706341106
 31
0.0
  0
LINE
  5
375
330
1F
100
AcDbEntity
  8
GR2_01
 62
   234
370
    20
100
AcDbLine
 10
291.8517680321639
 20
53.41316939867507
 30
0.0
 11
291.8517680321639
 21
58.82848706341106
 31
0.0
  0
LINE
  5
376
330
1F
100
AcDbEntity
  8
GR2_01
 62
   234
370
    20
100
AcDbLine
 10
300.8517680321639
 20
53.41316939867505
 30
0.0
 11
300.8517680321639
 21
58.82848706341105
 31
0.0
  0
ARC
  5
377
330
1F
100
AcDbEntity
  8
GR2_01
 62
   234
370
    20
100
AcDbCircle
 10
362.201863266958
 20
282.3691082494435
 30
0.0
 40
0.5
100
AcDbArc
 50
90.0
 51
135.1640167722558
  0
ARC
  5
378
330
1F
100
AcDbEntity
  8
GR2_01
 62
   234
370
    20
100
AcDbCircle
 10
286.151768032164
 20
67.41316939867495
 30
0.0
 40
1.0
100
AcDbArc
 50
90.00000000000011
 51
180.0000000000001
  0
ARC
  5
379
330
1F
100
AcDbEntity
  8
GR2_01
 62
   234
370
    20
100
AcDbCircle
 10
286.151768032164
 20
57.82848706341095
 30
0.0
 40
1.0
100
AcDbArc
 50
90.00000000000011
 51
180.0000000000001
  0
ARC
  5
37A
330
1F
100
AcDbEntity
  8
GR2_01
 62
   234
370
    20
100
AcDbCircle
 10
302.151768032164
 20
57.82848706341104
 30
0.0
 40
1.0
100
AcDbArc
 50
0.0000000000001421
 51
90.00000000000016
  0
ARC
  5
37B
330
1F
100
AcDbEntity
  8
GR2_01
 62
   234
370
    20
100
AcDbCircle
 10
302.151768032164
 20
67.41316939867505
 30
0.0
 40
1.0
100
AcDbArc
 50
0.0000000000001421
 51
90.00000000000016
  0
ARC
  5
37C
330
1F
100
AcDbEntity
  8
GR2_01
 62
   234
370
    20
100
AcDbCircle
 10
296.351768032164
 20
53.41316939867506
 30
0.0
 40
4.500000000000057
100
AcDbArc
 50
180.0000000000001
 51
0.0000000000001018
  0
LINE
  5
37D
330
1F
100
AcDbEntity
  8
GR2_01
 62
   234
370
    20
100
AcDbLine
 10
300.8517680321639
 20
58.82848706341105
 30
0.0
 11
302.151768032164
 21
58.82848706341104
 31
0.0
  0
LINE
  5
37E
330
1F
100
AcDbEntity
  8
GR2_01
 62
   234
370
    20
100
AcDbLine
 10
300.3517680321639
 20
35.41316939867505
 30
0.0
 11
298.0838188397329
 21
35.41316939867505
 31
0.0
  0
LINE
  5
37F
330
1F
100
AcDbEntity
  8
GR2_01
 62
   234
370
    20
100
AcDbLine
 10
375.2018632669573
 20
102.8691082494434
 30
0.0
 11
375.2018632669578
 21
272.8691082494434
 31
0.0
  0
LINE
  5
380
330
1F
100
AcDbEntity
  8
GR2_01
 62
   234
370
    20
100
AcDbLine
 10
299.6517680321635
 20
239.8468650891297
 30
0.0
 11
299.6517680321635
 21
234.7913514097577
 31
0.0
  0
LINE
  5
381
330
1F
100
AcDbEntity
  8
GR2_01
 62
   234
370
    20
100
AcDbLine
 10
301.1074421541908
 20
234.7913514097577
 30
0.0
 11
299.6517680321635
 21
234.7913514097577
 31
0.0
  0
LINE
  5
382
330
1F
100
AcDbEntity
  8
GR2_01
 62
   234
370
    20
100
AcDbLine
 10
301.1074421541908
 20
239.8468650891297
 30
0.0
 11
301.1074421541908
 21
234.7913514097577
 31
0.0
  0
LINE
  5
383
330
1F
100
AcDbEntity
  8
GR2_01
 62
   234
370
    20
100
AcDbLine
 10
301.1074421541908
 20
239.8468650891297
 30
0.0
 11
299.6517680321635
 21
239.8468650891297
 31
0.0
  0
LINE
  5
384
330
1F
100
AcDbEntity
  8
GR2_01
 62
   234
370
    20
100
AcDbLine
 10
343.6518632669579
 20
271.0191082494435
 30
0.0
 11
343.6518632669573
 21
104.7191082494435
 31
0.0
  0
LINE
  5
385
330
1F
100
AcDbEntity
  8
GR2_01
 62
   234
370
    20
100
AcDbLine
 10
303.1517680321633
 20
282.3691082494437
 30
0.0
 11
303.151768032164
 21
93.3691082494438
 31
0.0
  0
LINE
  5
386
330
1F
100
AcDbEntity
  8
GR2_01
 62
   234
370
    20
100
AcDbLine
 10
285.1517680321633
 20
282.3691082494437
 30
0.0
 11
285.151768032164
 21
93.36910824944374
 31
0.0
  0
LINE
  5
387
330
1F
100
AcDbEntity
  8
GR2_01
 62
   234
370
    20
100
AcDbLine
 10
302.651768032164
 20
92.8691082494438
 30
0.0
 11
285.651768032164
 21
92.86910824944374
 31
0.0
  0
LINE
  5
388
330
1F
100
AcDbEntity
  8
GR2_01
 62
   234
370
    20
100
AcDbLine
 10
302.6517680321633
 20
282.8691082494437
 30
0.0
 11
285.6517680321633
 21
282.8691082494437
 31
0.0
  0
ARC
  5
389
330
1F
100
AcDbEntity
  8
GR2_01
 62
   234
370
    20
100
AcDbCircle
 10
302.6517680321633
 20
282.3691082494437
 30
0.0
 40
0.5
100
AcDbArc
 50
0.000000000000199
 51
90.0000000000002
  0
ARC
  5
38A
330
1F
100
AcDbEntity
  8
GR2_01
 62
   234
370
    20
100
AcDbCircle
 10
285.6517680321633
 20
282.3691082494437
 30
0.0
 40
0.5
100
AcDbArc
 50
90.0000000000002
 51
180.0000000000002
  0
ARC
  5
38B
330
1F
100
AcDbEntity
  8
GR2_01
 62
   234
370
    20
100
AcDbCircle
 10
285.651768032164
 20
93.36910824944374
 30
0.0
 40
0.5
100
AcDbArc
 50
180.0000000000002
 51
270.0000000000002
  0
ARC
  5
38C
330
1F
100
AcDbEntity
  8
GR2_01
 62
   234
370
    20
100
AcDbCircle
 10
302.651768032164
 20
93.3691082494438
 30
0.0
 40
0.5
100
AcDbArc
 50
270.0000000000002
 51
0.0000000000002036
  0
ARC
  5
38D
330
1F
100
AcDbEntity
  8
GR2_01
 62
   234
370
    20
100
AcDbCircle
 10
296.351768032164
 20
97.8691082494438
 30
0.0
 40
4.5
100
AcDbArc
 50
180.0000000000002
 51
0.0000000000002036
  0
LINE
  5
38E
330
1F
100
AcDbEntity
  8
GR2_01
 62
   234
370
    20
100
AcDbLine
 10
302.651768032164
 20
102.2191082494437
 30
0.0
 11
285.651768032164
 21
102.2191082494437
 31
0.0
  0
LINE
  5
38F
330
1F
100
AcDbEntity
  8
GR2_01
 62
   234
370
    20
100
AcDbLine
 10
302.651768032164
 20
103.2191082494436
 30
0.0
 11
285.651768032164
 21
103.2191082494435
 31
0.0
  0
ARC
  5
390
330
1F
100
AcDbEntity
  8
GR2_01
 62
   234
370
    20
100
AcDbCircle
 10
302.651768032164
 20
102.7191082494437
 30
0.0
 40
0.5
100
AcDbArc
 50
270.0000000000002
 51
0.0000000000002036
  0
ARC
  5
391
330
1F
100
AcDbEntity
  8
GR2_01
 62
   234
370
    20
100
AcDbCircle
 10
302.651768032164
 20
103.7191082494436
 30
0.0
 40
0.5
100
AcDbArc
 50
270.0000000000002
 51
0.0000000000002036
  0
ARC
  5
392
330
1F
100
AcDbEntity
  8
GR2_01
 62
   234
370
    20
100
AcDbCircle
 10
285.651768032164
 20
102.7191082494437
 30
0.0
 40
0.5
100
AcDbArc
 50
180.0000000000002
 51
270.0000000000002
  0
ARC
  5
393
330
1F
100
AcDbEntity
  8
GR2_01
 62
   234
370
    20
100
AcDbCircle
 10
285.651768032164
 20
103.7191082494435
 30
0.0
 40
0.5
100
AcDbArc
 50
180.0000000000002
 51
270.0000000000002
  0
LINE
  5
394
330
1F
100
AcDbEntity
  8
GR2_01
 62
   234
370
    20
100
AcDbLine
 10
303.151768032164
 20
104.7191082494437
 30
0.0
 11
285.151768032164
 21
104.7191082494437
 31
0.0
  0
LINE
  5
395
330
1F
100
AcDbEntity
  8
GR2_01
 62
   234
370
    20
100
AcDbLine
 10
300.851768032164
 20
97.8691082494438
 30
0.0
 11
300.851768032164
 21
102.2191082494437
 31
0.0
  0
LINE
  5
396
330
1F
100
AcDbEntity
  8
GR2_01
 62
   234
370
    20
100
AcDbLine
 10
291.851768032164
 20
97.86910824944377
 30
0.0
 11
291.851768032164
 21
102.2191082494437
 31
0.0
  0
LINE
  5
397
330
1F
100
AcDbEntity
  8
GR2_01
 62
   234
370
    20
100
AcDbLine
 10
297.151768032164
 20
104.4191082494438
 30
0.0
 11
291.151768032164
 21
104.4191082494437
 31
0.0
  0
LINE
  5
398
330
1F
100
AcDbEntity
  8
GR2_01
 62
   234
370
    20
100
AcDbLine
 10
297.151768032164
 20
104.4191082494438
 30
0.0
 11
297.4517680321641
 21
104.7191082494437
 31
0.0
  0
LINE
  5
399
330
1F
100
AcDbEntity
  8
GR2_01
 62
   234
370
    20
100
AcDbLine
 10
291.151768032164
 20
104.4191082494437
 30
0.0
 11
290.851768032164
 21
104.7191082494437
 31
0.0
  0
ARC
  5
39A
330
1F
100
AcDbEntity
  8
GR2_01
 62
   234
370
    20
100
AcDbCircle
 10
296.3517680321634
 20
277.8691082494437
 30
0.0
 40
4.5
100
AcDbArc
 50
0.000000000000199
 51
180.0000000000002
  0
LINE
  5
39B
330
1F
100
AcDbEntity
  8
GR2_01
 62
   234
370
    20
100
AcDbLine
 10
302.6517680321634
 20
273.5191082494437
 30
0.0
 11
285.6517680321634
 21
273.5191082494437
 31
0.0
  0
LINE
  5
39C
330
1F
100
AcDbEntity
  8
GR2_01
 62
   234
370
    20
100
AcDbLine
 10
302.6517680321634
 20
272.5191082494437
 30
0.0
 11
285.6517680321634
 21
272.5191082494437
 31
0.0
  0
ARC
  5
39D
330
1F
100
AcDbEntity
  8
GR2_01
 62
   234
370
    20
100
AcDbCircle
 10
302.6517680321634
 20
273.0191082494437
 30
0.0
 40
0.5
100
AcDbArc
 50
0.000000000000199
 51
90.0000000000002
  0
ARC
  5
39E
330
1F
100
AcDbEntity
  8
GR2_01
 62
   234
370
    20
100
AcDbCircle
 10
302.6517680321634
 20
272.0191082494437
 30
0.0
 40
0.5
100
AcDbArc
 50
0.000000000000199
 51
90.0000000000002
  0
ARC
  5
39F
330
1F
100
AcDbEntity
  8
GR2_01
 62
   234
370
    20
100
AcDbCircle
 10
285.6517680321634
 20
273.0191082494437
 30
0.0
 40
0.5
100
AcDbArc
 50
90.0000000000002
 51
180.0000000000002
  0
ARC
  5
3A0
330
1F
100
AcDbEntity
  8
GR2_01
 62
   234
370
    20
100
AcDbCircle
 10
285.6517680321634
 20
272.0191082494437
 30
0.0
 40
0.5
100
AcDbArc
 50
90.0000000000002
 51
180.0000000000002
  0
LINE
  5
3A1
330
1F
100
AcDbEntity
  8
GR2_01
 62
   234
370
    20
100
AcDbLine
 10
300.8517680321634
 20
277.8691082494437
 30
0.0
 11
300.8517680321635
 21
273.5191082494437
 31
0.0
  0
LINE
  5
3A2
330
1F
100
AcDbEntity
  8
GR2_01
 62
   234
370
    20
100
AcDbLine
 10
291.8517680321634
 20
277.8691082494437
 30
0.0
 11
291.8517680321635
 21
273.5191082494437
 31
0.0
  0
LINE
  5
3A3
330
1F
100
AcDbEntity
  8
GR2_01
 62
   234
370
    20
100
AcDbLine
 10
302.3517680321635
 20
271.0191082494438
 30
0.0
 11
302.3517680321639
 21
104.7191082494437
 31
0.0
  0
LINE
  5
3A4
330
1F
100
AcDbEntity
  8
GR2_01
 62
   234
370
    20
100
AcDbLine
 10
303.1517680321634
 20
271.0191082494438
 30
0.0
 11
285.1517680321634
 21
271.0191082494437
 31
0.0
  0
LINE
  5
3A5
330
1F
100
AcDbEntity
  8
GR2_01
 62
   234
370
    20
100
AcDbLine
 10
297.1517680321634
 20
271.3191082494437
 30
0.0
 11
291.1517680321634
 21
271.3191082494437
 31
0.0
  0
LINE
  5
3A6
330
1F
100
AcDbEntity
  8
GR2_01
 62
   234
370
    20
100
AcDbLine
 10
297.1517680321634
 20
271.3191082494437
 30
0.0
 11
297.4517680321635
 21
271.0191082494437
 31
0.0
  0
LINE
  5
3A7
330
1F
100
AcDbEntity
  8
GR2_01
 62
   234
370
    20
100
AcDbLine
 10
291.1517680321634
 20
271.3191082494437
 30
0.0
 11
290.8517680321635
 21
271.0191082494437
 31
0.0
  0
LINE
  5
3A9
330
1F
100
AcDbEntity
  8
GR2_01
  6
0.35点線
 62
     5
370
    20
100
AcDbLine
 10
293.7517680321639
 20
49.76316939867497
 30
0.0
 11
293.7517680321639
 21
49.41316939867506
 31
0.0
  0
INSERT
  5
3AD
330
1F
100
AcDbEntity
  8
GR2_01
 62
   234
370
    20
100
AcDbBlockReference
  2
BLKF032
 10
0.0
 20
0.0
 30
0.0
  0
LINE
  5
3B2
330
1F
100
AcDbEntity
  8
GR2_01
 62
   234
370
    20
100
AcDbLine
 10
369.401863266958
 20
279.8691082494434
 30
0.0
 11
375.0471627285787
 21
279.8691082494433
 31
0.0
  0
LINE
  5
3B3
330
1F
100
AcDbEntity
  8
GR2_01
 62
   234
370
    20
100
AcDbLine
 10
369.4018632669579
 20
275.8691082494434
 30
0.0
 11
375.0471627285787
 21
275.8691082494433
 31
0.0
  0
LINE
  5
3B4
330
1F
100
AcDbEntity
  8
GR2_01
 62
   234
370
    20
100
AcDbLine
 10
375.6245129977683
 20
278.8691082494434
 30
0.0
 11
375.0471627285788
 21
279.8691082494433
 31
0.0
  0
LINE
  5
3B5
330
1F
100
AcDbEntity
  8
GR2_01
 62
   234
370
    20
100
AcDbLine
 10
375.6245129977683
 20
276.8691082494434
 30
0.0
 11
375.0471627285787
 21
275.8691082494433
 31
0.0
  0
LINE
  5
3B6
330
1F
100
AcDbEntity
  8
GR2_01
 62
   234
370
    20
100
AcDbLine
 10
375.0471627285787
 20
279.8691082494433
 30
0.0
 11
375.0471627285785
 21
275.8691082494433
 31
0.0
  0
LINE
  5
3B7
330
1F
100
AcDbEntity
  8
GR2_01
 62
     5
370
    20
100
AcDbLine
 10
369.401863266958
 20
279.3691082494433
 30
0.0
 11
375.3358378631735
 21
279.3691082494433
 31
0.0
  0
LINE
  5
3B8
330
1F
100
AcDbEntity
  8
GR2_01
 62
     5
370
    20
100
AcDbLine
 10
369.4018632669579
 20
276.3691082494434
 30
0.0
 11
375.3358378631735
 21
276.3691082494434
 31
0.0
  0
LINE
  5
3B9
330
1F
100
AcDbEntity
  8
GR2_01
 62
   234
370
    20
100
AcDbLine
 10
366.7018632669578
 20
276.3691082494434
 30
0.0
 11
369.4018632669579
 21
276.3691082494434
 31
0.0
  0
LINE
  5
3BA
330
1F
100
AcDbEntity
  8
GR2_01
 62
   234
370
    20
100
AcDbLine
 10
366.701863266958
 20
279.3691082494433
 30
0.0
 11
369.401863266958
 21
279.3691082494433
 31
0.0
  0
LINE
  5
3BB
330
1F
100
AcDbEntity
  8
GR2_01
 62
   234
370
    20
100
AcDbLine
 10
369.401863266958
 20
279.8691082494434
 30
0.0
 11
369.4018632669579
 21
275.8691082494434
 31
0.0
  0
INSERT
  5
3BF
330
1F
100
AcDbEntity
  8
GR2_01
 62
   234
370
    20
100
AcDbBlockReference
  2
BLKF033
 10
0.0
 20
0.0
 30
0.0
  0
LINE
  5
3C6
330
1F
100
AcDbEntity
  8
GR2_01
 62
   234
370
    20
100
AcDbLine
 10
296.3517680321639
 20
53.01316939867508
 30
0.0
 11
297.5926306955887
 21
52.29675700591935
 31
0.0
  0
LINE
  5
3C7
330
1F
100
AcDbEntity
  8
GR2_01
 62
   234
370
    20
100
AcDbLine
 10
296.3517680321639
 20
53.01316939867508
 30
0.0
 11
294.4061471177827
 21
51.88986464001602
 31
0.0
  0
LINE
  5
3C8
330
1F
100
AcDbEntity
  8
GR2_01
 62
   234
370
    20
100
AcDbLine
 10
298.413320844973
 20
49.41316939867505
 30
0.0
 11
294.2902152193551
 21
49.41316939867506
 31
0.0
  0
LINE
  5
3C9
330
1F
100
AcDbEntity
  8
GR2_01
 62
   234
370
    20
100
AcDbLine
 10
299.8517680321639
 20
50.41316939867505
 30
0.0
 11
292.9976660659142
 21
50.41316939867495
 31
0.0
  0
LINE
  5
3CA
330
1F
100
AcDbEntity
  8
GR2_01
 62
   234
370
    20
100
AcDbLine
 10
292.8517680321639
 20
50.41316939867506
 30
0.0
 11
292.8517680321639
 21
50.57432304774859
 31
0.0
  0
LINE
  5
3CB
330
1F
100
AcDbEntity
  8
GR2_01
 62
   234
370
    20
100
AcDbLine
 10
296.0088633271481
 20
50.41316939867506
 30
0.0
 11
295.0088633271481
 21
49.41316939867506
 31
0.0
  0
LINE
  5
3CC
330
1F
100
AcDbEntity
  8
GR2_01
 62
   234
370
    20
100
AcDbLine
 10
296.0088633271481
 20
49.41316939867495
 30
0.0
 11
297.0088633271482
 21
50.41316939867505
 31
0.0
  0
LINE
  5
3CD
330
1F
100
AcDbEntity
  8
GR2_01
 62
   234
370
    20
100
AcDbLine
 10
298.3517680321639
 20
41.21316939867501
 30
0.0
 11
294.3517680321639
 21
41.21316939867501
 31
0.0
  0
LINE
  5
3CE
330
1F
100
AcDbEntity
  8
GR2_01
 62
   234
370
    20
100
AcDbLine
 10
294.3517680321639
 20
41.21316939867501
 30
0.0
 11
294.3517680321639
 21
35.56786993705436
 31
0.0
  0
LINE
  5
3CF
330
1F
100
AcDbEntity
  8
GR2_01
 62
   234
370
    20
100
AcDbLine
 10
298.3517680321639
 20
41.21316939867501
 30
0.0
 11
298.3517680321639
 21
35.56786993705424
 31
0.0
  0
LINE
  5
3D0
330
1F
100
AcDbEntity
  8
GR2_01
 62
   234
370
    20
100
AcDbLine
 10
297.8517680321639
 20
44.91316939867505
 30
0.0
 11
297.8517680321639
 21
44.66316939867505
 31
0.0
  0
LINE
  5
3D1
330
1F
100
AcDbEntity
  8
GR2_01
 62
   234
370
    20
100
AcDbLine
 10
294.8517680321638
 20
44.91316939867495
 30
0.0
 11
294.8517680321639
 21
44.66316939867506
 31
0.0
  0
LINE
  5
3D2
330
1F
100
AcDbEntity
  8
GR2_01
 62
   234
370
    20
100
AcDbLine
 10
295.3517680321638
 20
34.99051966786471
 30
0.0
 11
294.3517680321639
 21
35.56786993705425
 31
0.0
  0
LINE
  5
3D3
330
1F
100
AcDbEntity
  8
GR2_01
 62
   234
370
    20
100
AcDbLine
 10
297.351768032164
 20
34.9905196678647
 30
0.0
 11
298.3517680321639
 21
35.56786993705424
 31
0.0
  0
LINE
  5
3D4
330
1F
100
AcDbEntity
  8
GR2_01
 62
   234
370
    20
100
AcDbLine
 10
294.3517680321639
 20
35.56786993705436
 30
0.0
 11
298.3517680321639
 21
35.56786993705435
 31
0.0
  0
LINE
  5
3D5
330
1F
100
AcDbEntity
  8
GR2_01
 62
     5
370
    20
100
AcDbLine
 10
294.8517680321639
 20
41.21316939867501
 30
0.0
 11
294.8517680321639
 21
35.27919480245948
 31
0.0
  0
LINE
  5
3D6
330
1F
100
AcDbEntity
  8
GR2_01
 62
     5
370
    20
100
AcDbLine
 10
297.8517680321639
 20
41.21316939867501
 30
0.0
 11
297.8517680321639
 21
35.27919480245947
 31
0.0
  0
LINE
  5
3D7
330
1F
100
AcDbEntity
  8
GR2_01
 62
   234
370
    20
100
AcDbLine
 10
293.6017680321639
 20
44.16316939867506
 30
0.0
 11
299.1017680321639
 21
44.16316939867505
 31
0.0
  0
LINE
  5
3D8
330
1F
100
AcDbEntity
  8
GR2_01
 62
   234
370
    20
100
AcDbLine
 10
293.6017680321639
 20
44.16316939867506
 30
0.0
 11
293.6017680321639
 21
44.66316939867506
 31
0.0
  0
LINE
  5
3D9
330
1F
100
AcDbEntity
  8
GR2_01
 62
   234
370
    20
100
AcDbLine
 10
299.1017680321639
 20
44.16316939867505
 30
0.0
 11
299.1017680321639
 21
44.66316939867505
 31
0.0
  0
LINE
  5
3DA
330
1F
100
AcDbEntity
  8
GR2_01
 62
   234
370
    20
100
AcDbLine
 10
297.8517680321639
 20
44.16316939867505
 30
0.0
 11
297.8517680321639
 21
41.21316939867501
 31
0.0
  0
LINE
  5
3DB
330
1F
100
AcDbEntity
  8
GR2_01
 62
   234
370
    20
100
AcDbLine
 10
294.8517680321639
 20
44.16316939867506
 30
0.0
 11
294.8517680321639
 21
41.21316939867501
 31
0.0
  0
LINE
  5
3DC
330
1F
100
AcDbEntity
  8
GR2_01
 62
   234
370
    20
100
AcDbLine
 10
293.6017680321639
 20
44.66316939867506
 30
0.0
 11
299.1017680321639
 21
44.66316939867505
 31
0.0
  0
LINE
  5
3DD
330
1F
100
AcDbEntity
  8
GR2_01
 62
   234
370
    20
100
AcDbLine
 10
292.451768032164
 20
43.91316939867506
 30
0.0
 11
292.451768032164
 21
44.91316939867506
 31
0.0
  0
LINE
  5
3DE
330
1F
100
AcDbEntity
  8
GR2_01
 62
   234
370
    20
100
AcDbLine
 10
300.2517680321639
 20
43.91316939867505
 30
0.0
 11
300.2517680321639
 21
44.91316939867505
 31
0.0
  0
LINE
  5
3DF
330
1F
100
AcDbEntity
  8
GR2_01
 62
   234
370
    20
100
AcDbLine
 10
292.451768032164
 20
44.91316939867495
 30
0.0
 11
300.2517680321639
 21
44.91316939867505
 31
0.0
  0
LINE
  5
3E0
330
1F
100
AcDbEntity
  8
GR2_01
 62
   234
370
    20
100
AcDbLine
 10
297.8517680321639
 20
43.91316939867505
 30
0.0
 11
303.151768032164
 21
43.91316939867504
 31
0.0
  0
LINE
  5
3E1
330
1F
100
AcDbEntity
  8
GR2_01
 62
   234
370
    20
100
AcDbLine
 10
294.6197172245952
 20
35.41316939867506
 30
0.0
 11
291.3517680321639
 21
35.41316939867507
 31
0.0
  0
LINE
  5
3E2
330
1F
100
AcDbEntity
  8
GR2_01
 62
   234
370
    20
100
AcDbLine
 10
351.7018632669578
 20
273.4416431913097
 30
0.0
 11
361.8643808919877
 21
282.7380332371908
 31
0.0
  0
CIRCLE
  5
3E3
330
1F
100
AcDbEntity
  8
GR2_01
 62
   234
370
    20
100
AcDbCircle
 10
296.351768032164
 20
97.8691082494438
 30
0.0
 40
3.499999999999972
  0
LINE
  5
3E4
330
1F
100
AcDbEntity
  8
GR2_01
 62
   234
370
    20
100
AcDbLine
 10
297.765981594537
 20
96.45489468707069
 30
0.0
 11
294.9375544697908
 21
99.28332181181688
 31
0.0
  0
LINE
  5
3E5
330
1F
100
AcDbEntity
  8
GR2_01
 62
   234
370
    20
100
AcDbLine
 10
295.2911078603842
 20
96.80844807766388
 30
0.0
 11
297.4124282039437
 21
98.92976842122357
 31
0.0
  0
CIRCLE
  5
3E6
330
1F
100
AcDbEntity
  8
GR2_01
 62
   234
370
    20
100
AcDbCircle
 10
296.3517680321634
 20
277.8691082494436
 30
0.0
 40
3.499999999999972
  0
LINE
  5
3E7
330
1F
100
AcDbEntity
  8
GR2_01
 62
   234
370
    20
100
AcDbLine
 10
297.7659815945365
 20
276.4548946870707
 30
0.0
 11
294.9375544697901
 21
279.2833218118169
 31
0.0
  0
LINE
  5
3E8
330
1F
100
AcDbEntity
  8
GR2_01
 62
   234
370
    20
100
AcDbLine
 10
295.2911078603836
 20
276.808448077664
 30
0.0
 11
297.412428203943
 21
278.9297684212236
 31
0.0
  0
LINE
  5
3E9
330
1F
100
AcDbEntity
  8
GR2_01
 62
   234
370
    20
100
AcDbLine
 10
287.8517680321639
 20
139.3808520216253
 30
0.0
 11
287.8517680321638
 21
144.4363657009974
 31
0.0
  0
LINE
  5
3EA
330
1F
100
AcDbEntity
  8
GR2_01
 62
   234
370
    20
100
AcDbLine
 10
286.3960939101365
 20
144.4363657009973
 30
0.0
 11
287.8517680321638
 21
144.4363657009974
 31
0.0
  0
LINE
  5
3EB
330
1F
100
AcDbEntity
  8
GR2_01
 62
   234
370
    20
100
AcDbLine
 10
286.3960939101366
 20
139.3808520216252
 30
0.0
 11
286.3960939101365
 21
144.4363657009973
 31
0.0
  0
LINE
  5
3EC
330
1F
100
AcDbEntity
  8
GR2_01
 62
   234
370
    20
100
AcDbLine
 10
286.3960939101366
 20
139.3808520216252
 30
0.0
 11
287.8517680321639
 21
139.3808520216253
 31
0.0
  0
LINE
  5
3ED
330
1F
100
AcDbEntity
  8
GR2_01
 62
   234
370
    20
100
AcDbLine
 10
299.6517680321639
 20
139.3808520216253
 30
0.0
 11
299.6517680321638
 21
144.4363657009974
 31
0.0
  0
LINE
  5
3EE
330
1F
100
AcDbEntity
  8
GR2_01
 62
   234
370
    20
100
AcDbLine
 10
301.1074421541911
 20
144.4363657009974
 30
0.0
 11
299.6517680321638
 21
144.4363657009974
 31
0.0
  0
LINE
  5
3EF
330
1F
100
AcDbEntity
  8
GR2_01
 62
   234
370
    20
100
AcDbLine
 10
301.1074421541912
 20
139.3808520216253
 30
0.0
 11
301.1074421541911
 21
144.4363657009974
 31
0.0
  0
LINE
  5
3F0
330
1F
100
AcDbEntity
  8
GR2_01
 62
   234
370
    20
100
AcDbLine
 10
301.1074421541912
 20
139.3808520216253
 30
0.0
 11
299.6517680321639
 21
139.3808520216253
 31
0.0
  0
LINE
  5
3F1
330
1F
100
AcDbEntity
  8
GR2_01
 62
   234
370
    20
100
AcDbLine
 10
375.6245129977683
 20
276.8691082494434
 30
0.0
 11
375.6245129977684
 21
278.8691082494434
 31
0.0
  0
LINE
  5
3F2
330
1F
100
AcDbEntity
  8
GR2_01
 62
   234
370
    20
100
AcDbLine
 10
295.3517680321638
 20
34.99051966786471
 30
0.0
 11
297.351768032164
 21
34.9905196678647
 31
0.0
  0
LINE
  5
3F3
330
1F
100
AcDbEntity
  8
GR2_01
 62
   234
370
    20
100
AcDbLine
 10
342.6535361276501
 20
272.5629697227363
 30
0.0
 11
351.7018632669578
 21
273.4416431913097
 31
0.0
  0
ARC
  5
3F4
330
1F
100
AcDbEntity
  8
GR2_01
 62
   234
370
    20
100
AcDbCircle
 10
342.7018632669578
 20
272.0653107153766
 30
0.0
 40
0.5
100
AcDbArc
 50
95.54654121624428
 51
180.0
  0
LINE
  5
3F5
330
1F
100
AcDbEntity
  8
GR2_01
 62
   234
370
    20
100
AcDbLine
 10
342.6499783270898
 20
103.1723549983231
 30
0.0
 11
351.7865456022213
 21
102.2191082494435
 31
0.0
  0
ARC
  5
3F6
330
1F
100
AcDbEntity
  8
GR2_01
 62
   234
370
    20
100
AcDbCircle
 10
342.7018632669574
 20
103.6696556649372
 30
0.0
 40
0.5
100
AcDbArc
 50
180.0
 51
264.0437012972347
  0
INSERT
  5
3FA
330
1F
100
AcDbEntity
  8
GR2_01
 62
    94
370
    20
100
AcDbBlockReference
  2
BLKF034
 10
0.0
 20
0.0
 30
0.0
  0
LINE
  5
44C
330
1F
100
AcDbEntity
  8
GR1_01
 62
   234
370
    20
100
AcDbLine
 10
366.701863266958
 20
282.8691082494434
 30
0.0
 11
366.7018632669578
 21
272.8691082494434
 31
0.0
  0
LINE
  5
44D
330
1F
100
AcDbEntity
  8
GR2_01
 62
   234
370
    20
100
AcDbLine
 10
366.7018632669573
 20
92.8691082494434
 30
0.0
 11
362.2018632669573
 21
92.8691082494434
 31
0.0
  0
ARC
  5
44E
330
1F
100
AcDbEntity
  8
GR2_01
 62
   234
370
    20
100
AcDbCircle
 10
362.2018632669573
 20
93.3691082494434
 30
0.0
 40
0.5
100
AcDbArc
 50
224.8359832277442
 51
270.0
  0
INSERT
  5
452
330
1F
100
AcDbEntity
  8
GR2_01
 62
   234
370
    20
100
AcDbBlockReference
  2
BLKF035
 10
0.0
 20
0.0
 30
0.0
  0
LINE
  5
457
330
1F
100
AcDbEntity
  8
GR2_01
 62
   234
370
    20
100
AcDbLine
 10
369.4018632669573
 20
95.8691082494434
 30
0.0
 11
375.047162728578
 21
95.86910824944349
 31
0.0
  0
LINE
  5
458
330
1F
100
AcDbEntity
  8
GR2_01
 62
   234
370
    20
100
AcDbLine
 10
369.4018632669573
 20
99.8691082494434
 30
0.0
 11
375.0471627285781
 21
99.86910824944349
 31
0.0
  0
LINE
  5
459
330
1F
100
AcDbEntity
  8
GR2_01
 62
   234
370
    20
100
AcDbLine
 10
375.6245129977676
 20
96.86910824944337
 30
0.0
 11
375.0471627285781
 21
95.86910824944349
 31
0.0
  0
LINE
  5
45A
330
1F
100
AcDbEntity
  8
GR2_01
 62
   234
370
    20
100
AcDbLine
 10
375.6245129977677
 20
98.86910824944337
 30
0.0
 11
375.0471627285781
 21
99.86910824944349
 31
0.0
  0
LINE
  5
45B
330
1F
100
AcDbEntity
  8
GR2_01
 62
   234
370
    20
100
AcDbLine
 10
375.047162728578
 20
95.86910824944349
 30
0.0
 11
375.047162728578
 21
99.86910824944349
 31
0.0
  0
LINE
  5
45C
330
1F
100
AcDbEntity
  8
GR2_01
 62
     5
370
    20
100
AcDbLine
 10
369.4018632669573
 20
96.36910824944351
 30
0.0
 11
375.3358378631729
 21
96.36910824944349
 31
0.0
  0
LINE
  5
45D
330
1F
100
AcDbEntity
  8
GR2_01
 62
     5
370
    20
100
AcDbLine
 10
369.4018632669573
 20
99.3691082494434
 30
0.0
 11
375.3358378631729
 21
99.36910824944337
 31
0.0
  0
LINE
  5
45E
330
1F
100
AcDbEntity
  8
GR2_01
 62
   234
370
    20
100
AcDbLine
 10
366.7018632669573
 20
99.3691082494434
 30
0.0
 11
369.4018632669573
 21
99.3691082494434
 31
0.0
  0
LINE
  5
45F
330
1F
100
AcDbEntity
  8
GR2_01
 62
   234
370
    20
100
AcDbLine
 10
366.7018632669573
 20
96.36910824944351
 30
0.0
 11
369.4018632669573
 21
96.36910824944351
 31
0.0
  0
LINE
  5
460
330
1F
100
AcDbEntity
  8
GR2_01
 62
   234
370
    20
100
AcDbLine
 10
369.4018632669573
 20
95.8691082494434
 30
0.0
 11
369.4018632669573
 21
99.8691082494434
 31
0.0
  0
LINE
  5
461
330
1F
100
AcDbEntity
  8
GR2_01
 62
   234
370
    20
100
AcDbLine
 10
351.7018632669573
 20
102.2965733075772
 30
0.0
 11
361.864380891987
 21
93.00018326169601
 31
0.0
  0
LINE
  5
462
330
1F
100
AcDbEntity
  8
GR2_01
 62
   234
370
    20
100
AcDbLine
 10
375.6245129977677
 20
98.86910824944337
 30
0.0
 11
375.6245129977677
 21
96.86910824944337
 31
0.0
  0
LINE
  5
463
330
1F
100
AcDbEntity
  8
GR1_01
 62
   234
370
    20
100
AcDbLine
 10
366.7018632669573
 20
92.8691082494434
 30
0.0
 11
366.7018632669573
 21
102.8691082494434
 31
0.0
  0
DIMENSION
  5
464
330
1F
100
AcDbEntity
  8
GR1_01
 62
     5
370
    20
100
AcDbDimension
  2
*D33
 10
303.151768032164
 20
24.93697929876138
 30
0.0
 11
294.1517944335938
 21
25.93697929382324
 31
0.0
 70
    33
 71
     5
 42
-1.0
  3
FX_DIMINFO
100
AcDbAlignedDimension
 13
285.151768032164
 23
43.91316939867497
 33
0.0
 14
303.151768032164
 24
43.91316939867504
 34
0.0
1001
ACAD
1000
DSTYLE
1002
{
1070
   173
1070
     1
1070
   344
1005
74
1070
   343
1005
6E
1070
   178
1070
    94
1002
}
  0
DIMENSION
  5
46E
330
1F
100
AcDbEntity
  8
GR1_01
 62
     5
370
    20
100
AcDbDimension
  2
*D34
 10
317.6123299764154
 20
68.41316939867504
 30
0.0
 11
316.6123657226562
 21
51.91316604614258
 31
0.0
 70
    32
 71
     5
 42
-1.0
  3
FX_DIMINFO
100
AcDbAlignedDimension
 13
300.3517680321639
 23
35.41316939867505
 33
0.0
 14
302.151768032164
 24
68.41316939867505
 34
0.0
 50
90.0
100
AcDbRotatedDimension
1001
ACAD
1000
DSTYLE
1002
{
1070
   173
1070
     1
1070
   344
1005
74
1070
   343
1005
6E
1070
   178
1070
    94
1002
}
  0
DIMENSION
  5
478
330
1F
100
AcDbEntity
  8
GR1_01
 62
     5
370
    20
100
AcDbDimension
  2
*D35
 10
317.6123299764154
 20
282.8691082494437
 30
0.0
 11
316.6123657226562
 21
187.8691101074219
 31
0.0
 70
    33
 71
     5
 42
-1.0
  3
FX_DIMINFO
100
AcDbAlignedDimension
 13
302.651768032164
 23
92.8691082494438
 33
0.0
 14
302.6517680321633
 24
282.8691082494437
 34
0.0
1001
ACAD
1000
DSTYLE
1002
{
1070
   173
1070
     1
1070
   344
1005
74
1070
   343
1005
6E
1070
   178
1070
    94
1002
}
  0
DIMENSION
  5
482
330
1F
100
AcDbEntity
  8
GR1_01
 62
     5
370
    20
100
AcDbDimension
  2
*D36
 10
366.7018632669573
 20
81.52785409125596
 30
0.0
 11
354.4518432617188
 21
82.5278549194336
 31
0.0
 70
    32
 71
     5
 42
-1.0
  3
FX_DIMINFO
100
AcDbAlignedDimension
 13
342.2018632669574
 23
103.6696556649372
 33
0.0
 14
366.7018632669573
 24
92.8691082494434
 34
0.0
100
AcDbRotatedDimension
1001
ACAD
1000
DSTYLE
1002
{
1070
   173
1070
     1
1070
   344
1005
74
1070
   343
1005
6E
1070
   178
1070
    94
1002
}
  0
ENDSEC
  0
SECTION
  2
OBJECTS
  0
DICTIONARY
  5
C
330
0
100
AcDbDictionary
281
     1
  3
ACAD_GROUP
350
D
  3
ACAD_LAYOUT
350
1A
  3
ACAD_MATERIAL
350
43
  3
ACAD_MLEADERSTYLE
350
48E
  3
ACAD_MLINESTYLE
350
17
  3
ACAD_PLOTSETTINGS
350
19
  3
ACAD_PLOTSTYLENAME
350
E
  3
ACAD_SCALELIST
350
47
  3
ACAD_VISUALSTYLE
350
2A
  3
AcDbVariableDictionary
350
48C
  0
DICTIONARY
  5
495
330
8
100
AcDbDictionary
280
     1
281
     1
  3
ACAD_XREC_ROUNDTRIP
360
496
  0
DICTIONARY
  5
D
102
{ACAD_REACTORS
330
C
102
}
330
C
100
AcDbDictionary
281
     1
  0
DICTIONARY
  5
1A
102
{ACAD_REACTORS
330
C
102
}
330
C
100
AcDbDictionary
281
     1
  3
Layout1
350
1E
  3
Layout2
350
26
  3
Model
350
22
  0
DICTIONARY
  5
43
102
{ACAD_REACTORS
330
C
102
}
330
C
100
AcDbDictionary
281
     1
  3
ByBlock
350
45
  3
ByLayer
350
44
  3
Global
350
46
  0
DICTIONARY
  5
48E
102
{ACAD_REACTORS
330
C
102
}
330
C
100
AcDbDictionary
281
     1
  0
DICTIONARY
  5
17
102
{ACAD_REACTORS
330
C
102
}
330
C
100
AcDbDictionary
281
     1
  3
Standard
350
18
  0
DICTIONARY
  5
19
102
{ACAD_REACTORS
330
C
102
}
330
C
100
AcDbDictionary
281
     1
  0
ACDBDICTIONARYWDFLT
  5
E
102
{ACAD_REACTORS
330
C
102
}
330
C
100
AcDbDictionary
281
     1
  3
Normal
350
F
100
AcDbDictionaryWithDefault
340
F
  0
DICTIONARY
  5
47
102
{ACAD_REACTORS
330
C
102
}
330
C
100
AcDbDictionary
281
     1
  3
A0
350
48
  3
A1
350
49
  3
A2
350
4A
  3
A3
350
4B
  3
A4
350
4C
  3
A5
350
4D
  3
A6
350
4E
  3
A7
350
4F
  3
A8
350
50
  3
A9
350
51
  3
B0
350
52
  3
B1
350
53
  3
B2
350
54
  3
B3
350
55
  3
B4
350
56
  3
B5
350
57
  3
B6
350
58
  3
B7
350
59
  3
B8
350
5A
  3
B9
350
5B
  3
C0
350
5C
  3
C1
350
5D
  3
C2
350
5E
  3
C3
350
5F
  3
C4
350
60
  3
C5
350
61
  3
C6
350
62
  3
C7
350
63
  3
C8
350
64
  3
C9
350
65
  3
D0
350
66
  3
D1
350
67
  3
D2
350
68
  0
DICTIONARY
  5
2A
102
{ACAD_REACTORS
330
C
102
}
330
C
100
AcDbDictionary
281
     1
  3
2dWireframe
350
2F
  3
Basic
350
32
  3
Brighten
350
36
  3
ColorChange
350
3A
  3
Conceptual
350
34
  3
Dim
350
35
  3
EdgeColorOff
350
3D
  3
Facepattern
350
39
  3
Flat
350
2B
  3
FlatWithEdges
350
2C
  3
Gouraud
350
2D
  3
GouraudWithEdges
350
2E
  3
Hidden
350
31
  3
JitterOff
350
3B
  3
Linepattern
350
38
  3
OverhangOff
350
3C
  3
Realistic
350
33
  3
Shaded
350
42
  3
Shaded with edges
350
41
  3
Shades of Gray
350
3E
  3
Sketchy
350
3F
  3
Thicken
350
37
  3
Wireframe
350
30
  3
X-Ray
350
40
  0
DICTIONARY
  5
48C
102
{ACAD_REACTORS
330
C
102
}
330
C
100
AcDbDictionary
281
     1
  3
CANNOSCALE
350
497
  3
DIMASSOC
350
493
  3
HIDETEXT
350
494
  3
MSLTSCALE
350
498
  3
PSOLHEIGHT
350
490
  3
PSOLWIDTH
350
48F
  0
XRECORD
  5
496
102
{ACAD_REACTORS
330
495
102
}
330
495
100
AcDbXrecord
280
     1
102
VTR_0.000_0.000_1.000_1.000_GRIDDISPLAY
 70
     3
102
VTR_0.000_0.000_1.000_1.000_GRIDMAJOR
 70
     5
102
VTR_0.000_0.000_1.000_1.000_DEFAULTLIGHTING
280
     1
102
VTR_0.000_0.000_1.000_1.000_DEFAULTLIGHTINGTYPE
 70
     1
102
VTR_0.000_0.000_1.000_1.000_BRIGHTNESS
141
0.0
102
VTR_0.000_0.000_1.000_1.000_CONTRAST
142
0.0
  0
LAYOUT
  5
1E
102
{ACAD_REACTORS
330
1A
102
}
330
1A
100
AcDbPlotSettings
  1

  2
none_device
  4

  6

 40
0.0
 41
0.0
 42
0.0
 43
0.0
 44
0.0
 45
0.0
 46
0.0
 47
0.0
 48
0.0
 49
0.0
140
0.0
141
0.0
142
1.0
143
1.0
 70
   688
 72
     1
 73
     0
 74
     5
  7

 75
    16
147
1.0
148
0.0
149
0.0
100
AcDbLayout
  1
Layout1
 70
     1
 71
     1
 10
0.0
 20
0.0
 11
420.0
 21
297.0
 12
0.0
 22
0.0
 32
0.0
 14
1.000000000000000E+20
 24
1.000000000000000E+20
 34
1.000000000000000E+20
 15
-1.000000000000000E+20
 25
-1.000000000000000E+20
 35
-1.000000000000000E+20
146
0.0
 13
0.0
 23
0.0
 33
0.0
 16
1.0
 26
0.0
 36
0.0
 17
0.0
 27
1.0
 37
0.0
 76
     0
330
1B
  0
LAYOUT
  5
26
102
{ACAD_REACTORS
330
1A
102
}
330
1A
100
AcDbPlotSettings
  1

  2
none_device
  4

  6

 40
0.0
 41
0.0
 42
0.0
 43
0.0
 44
0.0
 45
0.0
 46
0.0
 47
0.0
 48
0.0
 49
0.0
140
0.0
141
0.0
142
1.0
143
1.0
 70
   688
 72
     1
 73
     0
 74
     5
  7

 75
    16
147
1.0
148
0.0
149
0.0
100
AcDbLayout
  1
Layout2
 70
     1
 71
     2
 10
0.0
 20
0.0
 11
0.0
 21
0.0
 12
0.0
 22
0.0
 32
0.0
 14
0.0
 24
0.0
 34
0.0
 15
0.0
 25
0.0
 35
0.0
146
0.0
 13
0.0
 23
0.0
 33
0.0
 16
1.0
 26
0.0
 36
0.0
 17
0.0
 27
1.0
 37
0.0
 76
     0
330
23
  0
LAYOUT
  5
22
102
{ACAD_REACTORS
330
1A
102
}
330
1A
100
AcDbPlotSettings
  1

  2
none_device
  4
Letter_(8.50_x_11.00_Inches)
  6

 40
6.35
 41
6.35
 42
6.35000508
 43
6.35000508
 44
215.9
 45
279.4
 46
0.0
 47
0.0
 48
0.0
 49
0.0
140
0.0
141
0.0
142
1.0
143
1.0
 70
  1712
 72
     1
 73
     0
 74
     0
  7

 75
     0
147
1.0
148
0.0
149
0.0
100
AcDbLayout
  1
Model
 70
     1
 71
     0
 10
0.0
 20
0.0
 11
420.0
 21
297.0
 12
0.0
 22
0.0
 32
0.0
 14
0.0
 24
0.0
 34
0.0
 15
420.0
 25
297.0
 35
0.0
146
0.0
 13
0.0
 23
0.0
 33
0.0
 16
1.0
 26
0.0
 36
0.0
 17
0.0
 27
1.0
 37
0.0
 76
     0
330
1F
331
29
  0
MATERIAL
  5
45
102
{ACAD_REACTORS
330
43
102
}
102
{ACAD_XDICTIONARY
360
4CB
102
}
330
43
100
AcDbMaterial
  1
ByBlock
  0
MATERIAL
  5
44
102
{ACAD_REACTORS
330
43
102
}
102
{ACAD_XDICTIONARY
360
4C9
102
}
330
43
100
AcDbMaterial
  1
ByLayer
  0
MATERIAL
  5
46
102
{ACAD_REACTORS
330
43
102
}
102
{ACAD_XDICTIONARY
360
4CD
102
}
330
43
100
AcDbMaterial
  1
Global
  0
MLINESTYLE
  5
18
102
{ACAD_REACTORS
330
17
102
}
330
17
100
AcDbMlineStyle
  2
Standard
 70
     0
  3

 62
   256
 51
90.0
 52
90.0
 71
     2
 49
0.5
 62
   256
  6
BYLAYER
 49
-0.5
 62
   256
  6
BYLAYER
  0
ACDBPLACEHOLDER
  5
F
102
{ACAD_REACTORS
330
E
102
}
330
E
  0
SCALE
  5
48
102
{ACAD_REACTORS
330
47
102
}
330
47
100
AcDbScale
 70
     0
300
1:1
140
1.0
141
1.0
290
     1
  0
SCALE
  5
49
102
{ACAD_REACTORS
330
47
102
}
330
47
100
AcDbScale
 70
     0
300
1:2
140
1.0
141
2.0
290
     0
  0
SCALE
  5
4A
102
{ACAD_REACTORS
330
47
102
}
330
47
100
AcDbScale
 70
     0
300
1:4
140
1.0
141
4.0
290
     0
  0
SCALE
  5
4B
102
{ACAD_REACTORS
330
47
102
}
330
47
100
AcDbScale
 70
     0
300
1:5
140
1.0
141
5.0
290
     0
  0
SCALE
  5
4C
102
{ACAD_REACTORS
330
47
102
}
330
47
100
AcDbScale
 70
     0
300
1:8
140
1.0
141
8.0
290
     0
  0
SCALE
  5
4D
102
{ACAD_REACTORS
330
47
102
}
330
47
100
AcDbScale
 70
     0
300
1:10
140
1.0
141
10.0
290
     0
  0
SCALE
  5
4E
102
{ACAD_REACTORS
330
47
102
}
330
47
100
AcDbScale
 70
     0
300
1:16
140
1.0
141
16.0
290
     0
  0
SCALE
  5
4F
102
{ACAD_REACTORS
330
47
102
}
330
47
100
AcDbScale
 70
     0
300
1:20
140
1.0
141
20.0
290
     0
  0
SCALE
  5
50
102
{ACAD_REACTORS
330
47
102
}
330
47
100
AcDbScale
 70
     0
300
1:30
140
1.0
141
30.0
290
     0
  0
SCALE
  5
51
102
{ACAD_REACTORS
330
47
102
}
330
47
100
AcDbScale
 70
     0
300
1:40
140
1.0
141
40.0
290
     0
  0
SCALE
  5
52
102
{ACAD_REACTORS
330
47
102
}
330
47
100
AcDbScale
 70
     0
300
1:50
140
1.0
141
50.0
290
     0
  0
SCALE
  5
53
102
{ACAD_REACTORS
330
47
102
}
330
47
100
AcDbScale
 70
     0
300
1:100
140
1.0
141
100.0
290
     0
  0
SCALE
  5
54
102
{ACAD_REACTORS
330
47
102
}
330
47
100
AcDbScale
 70
     0
300
2:1
140
2.0
141
1.0
290
     0
  0
SCALE
  5
55
102
{ACAD_REACTORS
330
47
102
}
330
47
100
AcDbScale
 70
     0
300
4:1
140
4.0
141
1.0
290
     0
  0
SCALE
  5
56
102
{ACAD_REACTORS
330
47
102
}
330
47
100
AcDbScale
 70
     0
300
8:1
140
8.0
141
1.0
290
     0
  0
SCALE
  5
57
102
{ACAD_REACTORS
330
47
102
}
330
47
100
AcDbScale
 70
     0
300
10:1
140
10.0
141
1.0
290
     0
  0
SCALE
  5
58
102
{ACAD_REACTORS
330
47
102
}
330
47
100
AcDbScale
 70
     0
300
100:1
140
100.0
141
1.0
290
     0
  0
SCALE
  5
59
102
{ACAD_REACTORS
330
47
102
}
330
47
100
AcDbScale
 70
     0
300
1/128" = 1'-0"
140
0.0078125
141
12.0
290
     0
  0
SCALE
  5
5A
102
{ACAD_REACTORS
330
47
102
}
330
47
100
AcDbScale
 70
     0
300
1/64" = 1'-0"
140
0.015625
141
12.0
290
     0
  0
SCALE
  5
5B
102
{ACAD_REACTORS
330
47
102
}
330
47
100
AcDbScale
 70
     0
300
1/32" = 1'-0"
140
0.03125
141
12.0
290
     0
  0
SCALE
  5
5C
102
{ACAD_REACTORS
330
47
102
}
330
47
100
AcDbScale
 70
     0
300
1/16" = 1'-0"
140
0.0625
141
12.0
290
     0
  0
SCALE
  5
5D
102
{ACAD_REACTORS
330
47
102
}
330
47
100
AcDbScale
 70
     0
300
3/32" = 1'-0"
140
0.09375
141
12.0
290
     0
  0
SCALE
  5
5E
102
{ACAD_REACTORS
330
47
102
}
330
47
100
AcDbScale
 70
     0
300
1/8" = 1'-0"
140
0.125
141
12.0
290
     0
  0
SCALE
  5
5F
102
{ACAD_REACTORS
330
47
102
}
330
47
100
AcDbScale
 70
     0
300
3/16" = 1'-0"
140
0.1875
141
12.0
290
     0
  0
SCALE
  5
60
102
{ACAD_REACTORS
330
47
102
}
330
47
100
AcDbScale
 70
     0
300
1/4" = 1'-0"
140
0.25
141
12.0
290
     0
  0
SCALE
  5
61
102
{ACAD_REACTORS
330
47
102
}
330
47
100
AcDbScale
 70
     0
300
3/8" = 1'-0"
140
0.375
141
12.0
290
     0
  0
SCALE
  5
62
102
{ACAD_REACTORS
330
47
102
}
330
47
100
AcDbScale
 70
     0
300
1/2" = 1'-0"
140
0.5
141
12.0
290
     0
  0
SCALE
  5
63
102
{ACAD_REACTORS
330
47
102
}
330
47
100
AcDbScale
 70
     0
300
3/4" = 1'-0"
140
0.75
141
12.0
290
     0
  0
SCALE
  5
64
102
{ACAD_REACTORS
330
47
102
}
330
47
100
AcDbScale
 70
     0
300
1" = 1'-0"
140
1.0
141
12.0
290
     0
  0
SCALE
  5
65
102
{ACAD_REACTORS
330
47
102
}
330
47
100
AcDbScale
 70
     0
300
1-1/2" = 1'-0"
140
1.5
141
12.0
290
     0
  0
SCALE
  5
66
102
{ACAD_REACTORS
330
47
102
}
330
47
100
AcDbScale
 70
     0
300
3" = 1'-0"
140
3.0
141
12.0
290
     0
  0
SCALE
  5
67
102
{ACAD_REACTORS
330
47
102
}
330
47
100
AcDbScale
 70
     0
300
6" = 1'-0"
140
6.0
141
12.0
290
     0
  0
SCALE
  5
68
102
{ACAD_REACTORS
330
47
102
}
330
47
100
AcDbScale
 70
     0
300
1'-0" = 1'-0"
140
12.0
141
12.0
290
     0
  0
VISUALSTYLE
  5
2F
102
{ACAD_REACTORS
330
2A
102
}
102
{ACAD_XDICTIONARY
360
4A1
102
}
330
2A
100
AcDbVisualStyle
  2
2dWireframe
 70
     4
 71
     0
 72
     2
 73
     0
 90
        0
 40
0.6
 41
30.0
 62
     5
 63
     7
 74
     1
 91
        4
 64
     7
 65
   257
 75
     1
175
     1
 42
1.0
 92
        0
 66
   257
 43
1.0
 76
     1
 77
     6
 78
     2
 67
     7
 79
     5
170
     0
171
     0
290
     0
174
     0
 93
        1
 44
0.0
173
     0
291
     0
 45
0.0
1001
ACAD
1000
AcDbSavedByObjectVersion
1070
     0
  0
VISUALSTYLE
  5
32
102
{ACAD_REACTORS
330
2A
102
}
102
{ACAD_XDICTIONARY
360
4A7
102
}
330
2A
100
AcDbVisualStyle
  2
Basic
 70
     7
 71
     1
 72
     0
 73
     1
 90
        0
 40
0.6
 41
30.0
 62
     5
 63
     7
 74
     0
 91
        4
 64
     7
 65
   257
 75
     1
175
     1
 42
1.0
 92
        8
 66
     7
 43
1.0
 76
     1
 77
     6
 78
     2
 67
     7
 79
     5
170
     0
171
     0
290
     0
174
     0
 93
        1
 44
0.0
173
     0
291
     1
 45
0.0
1001
ACAD
1000
AcDbSavedByObjectVersion
1070
     0
  0
VISUALSTYLE
  5
36
102
{ACAD_REACTORS
330
2A
102
}
102
{ACAD_XDICTIONARY
360
4AF
102
}
330
2A
100
AcDbVisualStyle
  2
Brighten
 70
    12
 71
     2
 72
     2
 73
     0
 90
        0
 40
0.6
 41
30.0
 62
     5
 63
     7
 74
     1
 91
        4
 64
     7
 65
   257
 75
     1
175
     1
 42
1.0
 92
        8
 66
     7
 43
1.0
 76
     1
 77
     6
 78
     2
 67
     7
 79
     5
170
     0
171
     0
290
     0
174
     0
 93
        1
 44
50.0
173
     0
291
     1
 45
0.0
1001
ACAD
1000
AcDbSavedByObjectVersion
1070
     0
  0
VISUALSTYLE
  5
3A
102
{ACAD_REACTORS
330
2A
102
}
102
{ACAD_XDICTIONARY
360
4B7
102
}
330
2A
100
AcDbVisualStyle
  2
ColorChange
 70
    16
 71
     2
 72
     2
 73
     3
 90
        0
 40
0.6
 41
30.0
 62
     5
 63
     8
 74
     1
 91
        4
 64
     7
 65
   257
 75
     1
175
     1
 42
1.0
 92
        8
 66
     8
 43
1.0
 76
     1
 77
     6
 78
     2
 67
     7
 79
     5
170
     0
171
     0
290
     0
174
     0
 93
        1
 44
0.0
173
     0
291
     1
 45
0.0
1001
ACAD
1000
AcDbSavedByObjectVersion
1070
     0
  0
VISUALSTYLE
  5
34
102
{ACAD_REACTORS
330
2A
102
}
102
{ACAD_XDICTIONARY
360
4AB
102
}
330
2A
100
AcDbVisualStyle
  2
Conceptual
 70
     9
 71
     3
 72
     2
 73
     0
 90
        0
 40
0.6
 41
30.0
 62
     5
 63
     7
 74
     2
 91
        2
 64
     7
 65
   257
 75
     1
175
     1
 42
179.0
 92
        8
 66
     7
 43
1.0
 76
     1
 77
     6
 78
     2
 67
     7
 79
     3
170
     0
171
     0
290
     0
174
     0
 93
        1
 44
0.0
173
     0
291
     0
 45
0.0
1001
ACAD
1000
AcDbSavedByObjectVersion
1070
     0
  0
VISUALSTYLE
  5
35
102
{ACAD_REACTORS
330
2A
102
}
102
{ACAD_XDICTIONARY
360
4AD
102
}
330
2A
100
AcDbVisualStyle
  2
Dim
 70
    11
 71
     2
 72
     2
 73
     0
 90
        0
 40
0.6
 41
30.0
 62
     5
 63
     7
 74
     1
 91
        4
 64
     7
 65
   257
 75
     1
175
     1
 42
1.0
 92
        8
 66
     7
 43
1.0
 76
     1
 77
     6
 78
     2
 67
     7
 79
     5
170
     0
171
     0
290
     0
174
     0
 93
        1
 44
-50.0
173
     0
291
     1
 45
0.0
1001
ACAD
1000
AcDbSavedByObjectVersion
1070
     0
  0
VISUALSTYLE
  5
3D
102
{ACAD_REACTORS
330
2A
102
}
102
{ACAD_XDICTIONARY
360
4BD
102
}
330
2A
100
AcDbVisualStyle
  2
EdgeColorOff
 70
    22
 71
     2
 72
     2
 73
     0
 90
        0
 40
0.6
 41
30.0
 62
     5
 63
     7
 74
     1
 91
        4
 64
     7
 65
   257
 75
     1
175
     1
 42
1.0
 92
        8
 66
     7
 43
1.0
 76
     1
 77
     6
 78
     2
 67
     7
 79
     5
170
     0
171
     0
290
     0
174
     0
 93
        1
 44
0.0
173
     0
291
     1
 45
0.0
1001
ACAD
1000
AcDbSavedByObjectVersion
1070
     0
  0
VISUALSTYLE
  5
39
102
{ACAD_REACTORS
330
2A
102
}
102
{ACAD_XDICTIONARY
360
4B5
102
}
330
2A
100
AcDbVisualStyle
  2
Facepattern
 70
    15
 71
     2
 72
     2
 73
     0
 90
        0
 40
0.6
 41
30.0
 62
     5
 63
     7
 74
     1
 91
        4
 64
     7
 65
   257
 75
     1
175
     1
 42
1.0
 92
        8
 66
     7
 43
1.0
 76
     1
 77
     6
 78
     2
 67
     7
 79
     5
170
     0
171
     0
290
     0
174
     0
 93
        1
 44
0.0
173
     0
291
     1
 45
0.0
1001
ACAD
1000
AcDbSavedByObjectVersion
1070
     0
  0
VISUALSTYLE
  5
2B
102
{ACAD_REACTORS
330
2A
102
}
102
{ACAD_XDICTIONARY
360
499
102
}
330
2A
100
AcDbVisualStyle
  2
Flat
 70
     0
 71
     2
 72
     1
 73
     1
 90
        2
 40
0.6
 41
30.0
 62
     5
 63
     7
 74
     0
 91
        0
 64
     7
 65
   257
 75
     1
175
     1
 42
1.0
 92
        8
 66
     7
 43
1.0
 76
     1
 77
     6
 78
     2
 67
     7
 79
     5
170
     0
171
     0
290
     0
174
     0
 93
       13
 44
0.0
173
     0
291
     1
 45
0.0
1001
ACAD
1000
AcDbSavedByObjectVersion
1070
     0
  0
VISUALSTYLE
  5
2C
102
{ACAD_REACTORS
330
2A
102
}
102
{ACAD_XDICTIONARY
360
49B
102
}
330
2A
100
AcDbVisualStyle
  2
FlatWithEdges
 70
     1
 71
     2
 72
     1
 73
     1
 90
        2
 40
0.6
 41
30.0
 62
     5
 63
     7
 74
     1
 91
        0
 64
     7
 65
   257
 75
     1
175
     1
 42
1.0
 92
        0
 66
   257
 43
1.0
 76
     1
 77
     6
 78
     2
 67
     7
 79
     5
170
     0
171
     0
290
     0
174
     0
 93
       13
 44
0.0
173
     0
291
     1
 45
0.0
1001
ACAD
1000
AcDbSavedByObjectVersion
1070
     0
  0
VISUALSTYLE
  5
2D
102
{ACAD_REACTORS
330
2A
102
}
102
{ACAD_XDICTIONARY
360
49D
102
}
330
2A
100
AcDbVisualStyle
  2
Gouraud
 70
     2
 71
     2
 72
     2
 73
     1
 90
        2
 40
0.6
 41
30.0
 62
     5
 63
     7
 74
     0
 91
        0
 64
     7
 65
   257
 75
     1
175
     1
 42
1.0
 92
        0
 66
     7
 43
1.0
 76
     1
 77
     6
 78
     2
 67
     7
 79
     5
170
     0
171
     0
290
     0
174
     0
 93
       13
 44
0.0
173
     0
291
     1
 45
0.0
1001
ACAD
1000
AcDbSavedByObjectVersion
1070
     0
  0
VISUALSTYLE
  5
2E
102
{ACAD_REACTORS
330
2A
102
}
102
{ACAD_XDICTIONARY
360
49F
102
}
330
2A
100
AcDbVisualStyle
  2
GouraudWithEdges
 70
     3
 71
     2
 72
     2
 73
     1
 90
        2
 40
0.6
 41
30.0
 62
     5
 63
     7
 74
     1
 91
        0
 64
     7
 65
   257
 75
     1
175
     1
 42
1.0
 92
        0
 66
   257
 43
1.0
 76
     1
 77
     6
 78
     2
 67
     7
 79
     5
170
     0
171
     0
290
     0
174
     0
 93
       13
 44
0.0
173
     0
291
     1
 45
0.0
1001
ACAD
1000
AcDbSavedByObjectVersion
1070
     0
  0
VISUALSTYLE
  5
31
102
{ACAD_REACTORS
330
2A
102
}
102
{ACAD_XDICTIONARY
360
4A5
102
}
330
2A
100
AcDbVisualStyle
  2
Hidden
 70
     6
 71
     1
 72
     2
 73
     2
 90
        0
 40
0.6
 41
30.0
 62
     5
 63
     7
 74
     2
 91
        2
 64
     7
 65
   257
 75
     2
175
     1
 42
40.0
 92
        0
 66
   257
 43
1.0
 76
     1
 77
     6
 78
     2
 67
     7
 79
     3
170
     0
171
     0
290
     0
174
     0
 93
        1
 44
0.0
173
     0
291
     0
 45
0.0
1001
ACAD
1000
AcDbSavedByObjectVersion
1070
     0
  0
VISUALSTYLE
  5
3B
102
{ACAD_REACTORS
330
2A
102
}
102
{ACAD_XDICTIONARY
360
4B9
102
}
330
2A
100
AcDbVisualStyle
  2
JitterOff
 70
    20
 71
     2
 72
     2
 73
     0
 90
        0
 40
0.6
 41
30.0
 62
     5
 63
     7
 74
     1
 91
        4
 64
     7
 65
   257
 75
     1
175
     1
 42
1.0
 92
       10
 66
     7
 43
1.0
 76
     1
 77
     6
 78
     2
 67
     7
 79
     5
170
     0
171
     0
290
     0
174
     0
 93
        1
 44
0.0
173
     0
291
     1
 45
0.0
1001
ACAD
1000
AcDbSavedByObjectVersion
1070
     0
  0
VISUALSTYLE
  5
38
102
{ACAD_REACTORS
330
2A
102
}
102
{ACAD_XDICTIONARY
360
4B3
102
}
330
2A
100
AcDbVisualStyle
  2
Linepattern
 70
    14
 71
     2
 72
     2
 73
     0
 90
        0
 40
0.6
 41
30.0
 62
     5
 63
     7
 74
     1
 91
        4
 64
     7
 65
   257
 75
     7
175
     7
 42
1.0
 92
        8
 66
     7
 43
1.0
 76
     1
 77
     6
 78
     2
 67
     7
 79
     5
170
     0
171
     0
290
     0
174
     0
 93
        1
 44
0.0
173
     0
291
     1
 45
0.0
1001
ACAD
1000
AcDbSavedByObjectVersion
1070
     0
  0
VISUALSTYLE
  5
3C
102
{ACAD_REACTORS
330
2A
102
}
102
{ACAD_XDICTIONARY
360
4BB
102
}
330
2A
100
AcDbVisualStyle
  2
OverhangOff
 70
    21
 71
     2
 72
     2
 73
     0
 90
        0
 40
0.6
 41
30.0
 62
     5
 63
     7
 74
     1
 91
        4
 64
     7
 65
   257
 75
     1
175
     1
 42
1.0
 92
        9
 66
     7
 43
1.0
 76
     1
 77
     6
 78
     2
 67
     7
 79
     5
170
     0
171
     0
290
     0
174
     0
 93
        1
 44
0.0
173
     0
291
     1
 45
0.0
1001
ACAD
1000
AcDbSavedByObjectVersion
1070
     0
  0
VISUALSTYLE
  5
33
102
{ACAD_REACTORS
330
2A
102
}
102
{ACAD_XDICTIONARY
360
4A9
102
}
330
2A
100
AcDbVisualStyle
  2
Realistic
 70
     8
 71
     2
 72
     3
 73
     0
 90
        2
 40
0.6
 41
30.0
 62
     5
 63
     7
 74
     0
 91
        0
 64
     7
 65
   257
 75
     1
175
     1
 42
1.0
 92
        8
 66
   257
 43
1.0
 76
     1
 77
     6
 78
     2
 67
     7
 79
     3
170
     0
171
     0
290
     0
174
     0
 93
       13
 44
0.0
173
     0
291
     0
 45
0.0
1001
ACAD
1000
AcDbSavedByObjectVersion
1070
     0
  0
VISUALSTYLE
  5
42
102
{ACAD_REACTORS
330
2A
102
}
102
{ACAD_XDICTIONARY
360
4C7
102
}
330
2A
100
AcDbVisualStyle
  2
Shaded
 70
    27
 71
     2
 72
     2
 73
     1
 90
        2
 40
0.6
 41
30.0
 62
     5
 63
     7
 74
     0
 91
        4
 64
     7
 65
   257
 75
     1
175
     1
 42
1.0
 92
        8
 66
   257
 43
1.0
 76
     1
 77
     6
 78
     2
 67
     8
 79
     3
170
     0
171
     0
290
     0
174
     0
 93
        5
 44
0.0
173
     0
291
     0
 45
0.0
1001
ACAD
1000
AcDbSavedByObjectVersion
1070
     0
  0
VISUALSTYLE
  5
41
102
{ACAD_REACTORS
330
2A
102
}
102
{ACAD_XDICTIONARY
360
4C5
102
}
330
2A
100
AcDbVisualStyle
  2
Shaded with edges
 70
    26
 71
     2
 72
     2
 73
     1
 90
        2
 40
0.6
 41
30.0
 62
     5
 63
     7
 74
     1
 91
       10
 64
     7
 65
   257
 75
     2
175
     1
 42
1.0
 92
        8
 66
   257
 43
1.0
 76
     1
 77
     6
 78
     2
 67
     7
 79
     3
170
     0
171
     0
290
     0
174
     0
 93
        5
 44
0.0
173
     0
291
     0
 45
0.0
1001
ACAD
1000
AcDbSavedByObjectVersion
1070
     0
  0
VISUALSTYLE
  5
3E
102
{ACAD_REACTORS
330
2A
102
}
102
{ACAD_XDICTIONARY
360
4BF
102
}
330
2A
100
AcDbVisualStyle
  2
Shades of Gray
 70
    23
 71
     2
 72
     2
 73
     3
 90
        0
 40
0.6
 41
30.0
 62
     5
 63
     7
 74
     2
 91
        2
 64
     7
 65
     7
 75
     1
175
     1
 42
40.0
 92
        8
 66
     7
 43
1.0
 76
     1
 77
     6
 78
     2
 67
     7
 79
     3
170
     0
171
     0
290
     0
174
     0
 93
        1
 44
0.0
173
     0
291
     0
 45
0.0
1001
ACAD
1000
AcDbSavedByObjectVersion
1070
     0
  0
VISUALSTYLE
  5
3F
102
{ACAD_REACTORS
330
2A
102
}
102
{ACAD_XDICTIONARY
360
4C1
102
}
330
2A
100
AcDbVisualStyle
  2
Sketchy
 70
    24
 71
     1
 72
     2
 73
     2
 90
        0
 40
0.6
 41
30.0
 62
     5
 63
     7
 74
     2
 91
        2
 64
     7
 65
     7
 75
     1
175
     1
 42
40.0
 92
       11
 66
     7
 43
1.0
 76
     1
 77
     6
 78
     2
 67
     7
 79
     6
170
     0
171
     0
290
     0
174
     0
 93
        1
 44
0.0
173
     0
291
     0
 45
0.0
1001
ACAD
1000
AcDbSavedByObjectVersion
1070
     0
  0
VISUALSTYLE
  5
37
102
{ACAD_REACTORS
330
2A
102
}
102
{ACAD_XDICTIONARY
360
4B1
102
}
330
2A
100
AcDbVisualStyle
  2
Thicken
 70
    13
 71
     2
 72
     2
 73
     0
 90
        0
 40
0.6
 41
30.0
 62
     5
 63
     7
 74
     1
 91
        4
 64
     7
 65
   257
 75
     1
175
     1
 42
1.0
 92
       12
 66
     7
 43
1.0
 76
     1
 77
     6
 78
     2
 67
     7
 79
     5
170
     0
171
     0
290
     0
174
     0
 93
        1
 44
0.0
173
     0
291
     1
 45
0.0
1001
ACAD
1000
AcDbSavedByObjectVersion
1070
     0
  0
VISUALSTYLE
  5
30
102
{ACAD_REACTORS
330
2A
102
}
102
{ACAD_XDICTIONARY
360
4A3
102
}
330
2A
100
AcDbVisualStyle
  2
Wireframe
 70
     5
 71
     0
 72
     2
 73
     0
 90
        0
 40
0.6
 41
30.0
 62
     5
 63
     7
 74
     1
 91
        4
 64
     7
 65
   257
 75
     1
175
     1
 42
1.0
 92
        0
 66
   257
 43
1.0
 76
     1
 77
     6
 78
     2
 67
     7
 79
     3
170
     0
171
     0
290
     0
174
     0
 93
        1
 44
0.0
173
     0
291
     0
 45
0.0
1001
ACAD
1000
AcDbSavedByObjectVersion
1070
     0
  0
VISUALSTYLE
  5
40
102
{ACAD_REACTORS
330
2A
102
}
102
{ACAD_XDICTIONARY
360
4C3
102
}
330
2A
100
AcDbVisualStyle
  2
X-Ray
 70
    25
 71
     2
 72
     2
 73
     1
 90
        1
 40
0.5
 41
30.0
 62
     5
 63
     7
 74
     1
 91
        0
 64
     7
 65
   257
 75
     1
175
     1
 42
1.0
 92
        8
 66
     7
 43
1.0
 76
     1
 77
     6
 78
     2
 67
     7
 79
     3
170
     0
171
     0
290
     0
174
     0
 93
       13
 44
0.0
173
     0
291
     0
 45
0.0
1001
ACAD
1000
AcDbSavedByObjectVersion
1070
     0
  0
DICTIONARYVAR
  5
497
102
{ACAD_REACTORS
330
48C
102
}
330
48C
100
DictionaryVariables
280
     0
  1
1:1
  0
DICTIONARYVAR
  5
493
102
{ACAD_REACTORS
330
48C
102
}
330
48C
100
DictionaryVariables
280
     0
  1
2
  0
DICTIONARYVAR
  5
494
102
{ACAD_REACTORS
330
48C
102
}
330
48C
100
DictionaryVariables
280
     0
  1
1
  0
DICTIONARYVAR
  5
498
102
{ACAD_REACTORS
330
48C
102
}
330
48C
100
DictionaryVariables
280
     0
  1
1
  0
DICTIONARYVAR
  5
490
102
{ACAD_REACTORS
330
48C
102
}
330
48C
100
DictionaryVariables
280
     0
  1
80.000000
  0
DICTIONARYVAR
  5
48F
102
{ACAD_REACTORS
330
48C
102
}
330
48C
100
DictionaryVariables
280
     0
  1
5.000000
  0
DICTIONARY
  5
4CB
330
45
100
AcDbDictionary
280
     1
281
     1
  3
ACAD_XREC_ROUNDTRIP
360
4CC
  0
DICTIONARY
  5
4C9
330
44
100
AcDbDictionary
280
     1
281
     1
  3
ACAD_XREC_ROUNDTRIP
360
4CA
  0
DICTIONARY
  5
4CD
330
46
100
AcDbDictionary
280
     1
281
     1
  3
ACAD_XREC_ROUNDTRIP
360
4CE
  0
DICTIONARY
  5
4A1
330
2F
100
AcDbDictionary
280
     1
281
     1
  3
ACAD_XREC_ROUNDTRIP
360
4A2
  0
DICTIONARY
  5
4A7
330
32
100
AcDbDictionary
280
     1
281
     1
  3
ACAD_XREC_ROUNDTRIP
360
4A8
  0
DICTIONARY
  5
4AF
330
36
100
AcDbDictionary
280
     1
281
     1
  3
ACAD_XREC_ROUNDTRIP
360
4B0
  0
DICTIONARY
  5
4B7
330
3A
100
AcDbDictionary
280
     1
281
     1
  3
ACAD_XREC_ROUNDTRIP
360
4B8
  0
DICTIONARY
  5
4AB
330
34
100
AcDbDictionary
280
     1
281
     1
  3
ACAD_XREC_ROUNDTRIP
360
4AC
  0
DICTIONARY
  5
4AD
330
35
100
AcDbDictionary
280
     1
281
     1
  3
ACAD_XREC_ROUNDTRIP
360
4AE
  0
DICTIONARY
  5
4BD
330
3D
100
AcDbDictionary
280
     1
281
     1
  3
ACAD_XREC_ROUNDTRIP
360
4BE
  0
DICTIONARY
  5
4B5
330
39
100
AcDbDictionary
280
     1
281
     1
  3
ACAD_XREC_ROUNDTRIP
360
4B6
  0
DICTIONARY
  5
499
330
2B
100
AcDbDictionary
280
     1
281
     1
  3
ACAD_XREC_ROUNDTRIP
360
49A
  0
DICTIONARY
  5
49B
330
2C
100
AcDbDictionary
280
     1
281
     1
  3
ACAD_XREC_ROUNDTRIP
360
49C
  0
DICTIONARY
  5
49D
330
2D
100
AcDbDictionary
280
     1
281
     1
  3
ACAD_XREC_ROUNDTRIP
360
49E
  0
DICTIONARY
  5
49F
330
2E
100
AcDbDictionary
280
     1
281
     1
  3
ACAD_XREC_ROUNDTRIP
360
4A0
  0
DICTIONARY
  5
4A5
330
31
100
AcDbDictionary
280
     1
281
     1
  3
ACAD_XREC_ROUNDTRIP
360
4A6
  0
DICTIONARY
  5
4B9
330
3B
100
AcDbDictionary
280
     1
281
     1
  3
ACAD_XREC_ROUNDTRIP
360
4BA
  0
DICTIONARY
  5
4B3
330
38
100
AcDbDictionary
280
     1
281
     1
  3
ACAD_XREC_ROUNDTRIP
360
4B4
  0
DICTIONARY
  5
4BB
330
3C
100
AcDbDictionary
280
     1
281
     1
  3
ACAD_XREC_ROUNDTRIP
360
4BC
  0
DICTIONARY
  5
4A9
330
33
100
AcDbDictionary
280
     1
281
     1
  3
ACAD_XREC_ROUNDTRIP
360
4AA
  0
DICTIONARY
  5
4C7
330
42
100
AcDbDictionary
280
     1
281
     1
  3
ACAD_XREC_ROUNDTRIP
360
4C8
  0
DICTIONARY
  5
4C5
330
41
100
AcDbDictionary
280
     1
281
     1
  3
ACAD_XREC_ROUNDTRIP
360
4C6
  0
DICTIONARY
  5
4BF
330
3E
100
AcDbDictionary
280
     1
281
     1
  3
ACAD_XREC_ROUNDTRIP
360
4C0
  0
DICTIONARY
  5
4C1
330
3F
100
AcDbDictionary
280
     1
281
     1
  3
ACAD_XREC_ROUNDTRIP
360
4C2
  0
DICTIONARY
  5
4B1
330
37
100
AcDbDictionary
280
     1
281
     1
  3
ACAD_XREC_ROUNDTRIP
360
4B2
  0
DICTIONARY
  5
4A3
330
30
100
AcDbDictionary
280
     1
281
     1
  3
ACAD_XREC_ROUNDTRIP
360
4A4
  0
DICTIONARY
  5
4C3
330
40
100
AcDbDictionary
280
     1
281
     1
  3
ACAD_XREC_ROUNDTRIP
360
4C4
  0
XRECORD
  5
4CC
102
{ACAD_REACTORS
330
4CB
102
}
330
4CB
100
AcDbXrecord
280
     1
102
MATERIAL
148
0.0
149
0.0
149
0.0
 93
        0
 94
      127
282
     0
 72
     1
 77
     1
171
     1
175
     1
179
     1
273
     0
  0
XRECORD
  5
4CA
102
{ACAD_REACTORS
330
4C9
102
}
330
4C9
100
AcDbXrecord
280
     1
102
MATERIAL
148
0.0
149
0.0
149
0.0
 93
        0
 94
      127
282
     0
 72
     1
 77
     1
171
     1
175
     1
179
     1
273
     0
  0
XRECORD
  5
4CE
102
{ACAD_REACTORS
330
4CD
102
}
330
4CD
100
AcDbXrecord
280
     1
102
MATERIAL
148
0.0
149
0.0
149
0.0
 93
        0
 94
      127
282
     0
 72
     1
 77
     1
171
     1
175
     1
179
     1
273
     0
  0
XRECORD
  5
4A2
102
{ACAD_REACTORS
330
4A1
102
}
330
4A1
100
AcDbXrecord
280
     1
102
RTVSPropertyOp0
 70
     1
102
RTVSPropertyOp1
 70
     1
102
RTVSPropertyOp2
 70
     1
102
RTVSPropertyOp3
 70
     1
102
RTVSPropertyOp4
 70
     1
102
RTVSPropertyOp5
 70
     1
102
RTVSPropertyOp6
 70
     1
102
RTVSPropertyOp7
 70
     1
102
RTVSPropertyOp8
 70
     1
102
RTVSPropertyOp9
 70
     1
102
RTVSPropertyOp10
 70
     1
102
RTVSPropertyOp11
 70
     1
102
RTVSPropertyOp12
 70
     1
102
RTVSPropertyOp13
 70
     1
102
RTVSPropertyOp14
 70
     1
102
RTVSPropertyOp15
 70
     1
102
RTVSPropertyOp16
 70
     1
102
RTVSPropertyOp17
 70
     1
102
RTVSPropertyOp18
 70
     1
102
RTVSPropertyOp19
 70
     1
102
RTVSPropertyOp20
 70
     1
102
RTVSPropertyOp21
 70
     1
102
RTVSPropertyOp22
 70
     1
102
RTVSPropertyOp23
 70
     1
102
RTVSPropertyOp24
 70
     1
102
RTVSPropertyOp25
 70
     1
102
RTVSPropertyOp26
 70
     1
102
RTVSPropertyOp27
 70
     1
102
RTVSPropertyOp28
 70
     1
102
RTVSPropertyOp29
 70
     1
102
RTVSPropertyOp30
 70
     1
102
RTVSPropertyOp31
 70
     1
102
RTVSPropertyOp32
 70
     1
102
RTVSPropertyOp33
 70
     1
102
RTVSPropertyOp34
 70
     1
102
RTVSPropertyOp35
 70
     1
102
RTVSPropertyOp36
 70
     1
102
RTVSPropertyOp37
 70
     1
102
RTVSPropertyOp38
 70
     1
102
RTVSPropertyOp39
 70
     1
102
RTVSPropertyOp40
 70
     1
102
RTVSPropertyOp41
 70
     1
102
RTVSPropertyOp42
 70
     1
102
RTVSPropertyOp43
 70
     1
102
RTVSPropertyOp44
 70
     1
102
RTVSPropertyOp45
 70
     1
102
RTVSPropertyOp46
 70
     1
102
RTVSPropertyOp47
 70
     1
102
RTVSPropertyOp48
 70
     1
102
RTVSPropertyOp49
 70
     1
102
RTVSPropertyOp50
 70
     1
102
RTVSPropertyOp51
 70
     0
102
RTVSPropertyOp52
 70
     0
102
RTVSPropertyOp53
 70
     1
102
RTVSPropertyOp54
 70
     1
102
RTVSPropertyOp55
 70
     1
102
RTVSPropertyOp56
 70
     1
102
RTVSPropertyOp57
 70
     1
102
RTVSPost2010Prop28
280
     1
102
RTVSPost2010PropOp28
 70
     1
102
RTVSPost2010Prop29
280
     1
102
RTVSPost2010PropOp29
 70
     1
102
RTVSPost2010Prop30
280
     0
102
RTVSPost2010PropOp30
 70
     1
102
RTVSPost2010Prop31
280
     0
102
RTVSPost2010PropOp31
 70
     1
102
RTVSPost2010Prop32
280
     0
102
RTVSPost2010PropOp32
 70
     1
102
RTVSPost2010Prop33
280
     0
102
RTVSPost2010PropOp33
 70
     1
102
RTVSPost2010Prop34
280
     0
102
RTVSPost2010PropOp34
 70
     1
102
RTVSPost2010Prop35
280
     0
102
RTVSPost2010PropOp35
 70
     1
102
RTVSPost2010Prop36
280
     0
102
RTVSPost2010PropOp36
 70
     1
102
RTVSPost2010Prop37
 90
       50
102
RTVSPost2010PropOp37
 70
     1
102
RTVSPost2010Prop38
140
0.0
102
RTVSPost2010PropOp38
 70
     1
102
RTVSPost2010Prop39
140
1.0
102
RTVSPost2010PropOp39
 70
     1
102
RTVSPost2010Prop40
 90
        0
102
RTVSPost2010PropOp40
 70
     1
102
RTVSPost2010Prop41ColorIndex
 90
       18
102
RTVSPost2010Prop41ColorRGB
 90
        0
102
RTVSPost2010PropOp41
 70
     1
102
RTVSPost2010Prop42
 90
       50
102
RTVSPost2010PropOp42
 70
     1
102
RTVSPost2010Prop43
 90
        3
102
RTVSPost2010PropOp43
 70
     1
102
RTVSPost2010Prop44ColorIndex
 90
        5
102
RTVSPost2010Prop44ColorRGB
 90
      255
102
RTVSPost2010PropOp44
 70
     1
102
RTVSPost2010Prop45
280
     0
102
RTVSPost2010PropOp45
 70
     1
102
RTVSPost2010Prop46
 90
       50
102
RTVSPost2010PropOp46
 70
     1
102
RTVSPost2010Prop47
 90
       50
102
RTVSPost2010PropOp47
 70
     1
102
RTVSPost2010Prop48
 90
       50
102
RTVSPost2010PropOp48
 70
     1
102
RTVSPost2010Prop49
280
     0
102
RTVSPost2010PropOp49
 70
     1
102
RTVSPost2010Prop50
 90
       50
102
RTVSPost2010PropOp50
 70
     1
102
RTVSPost2010Prop51ColorIndex
 90
      256
102
RTVSPost2010Prop51ColorRGB
 90
-16777216
102
RTVSPost2010PropOp51
 70
     0
102
RTVSPost2010Prop52
140
1.0
102
RTVSPost2010PropOp52
 70
     0
102
RTVSPost2010Prop53
 90
        2
102
RTVSPost2010PropOp53
 70
     1
102
RTVSPost2010Prop54
  1
strokes_ogs.tif
102
RTVSPost2010PropOp54
 70
     1
102
RTVSPost2010Prop55
280
     0
102
RTVSPost2010PropOp55
 70
     1
102
RTVSPost2010Prop56
140
1.0
102
RTVSPost2010PropOp56
 70
     1
102
RTVSPost2010Prop57
140
1.0
102
RTVSPost2010PropOp57
 70
     1
  0
XRECORD
  5
4A8
102
{ACAD_REACTORS
330
4A7
102
}
330
4A7
100
AcDbXrecord
280
     1
102
RTVSPropertyOp0
 70
     1
102
RTVSPropertyOp1
 70
     1
102
RTVSPropertyOp2
 70
     1
102
RTVSPropertyOp3
 70
     1
102
RTVSPropertyOp4
 70
     1
102
RTVSPropertyOp5
 70
     1
102
RTVSPropertyOp6
 70
     1
102
RTVSPropertyOp7
 70
     1
102
RTVSPropertyOp8
 70
     1
102
RTVSPropertyOp9
 70
     1
102
RTVSPropertyOp10
 70
     1
102
RTVSPropertyOp11
 70
     1
102
RTVSPropertyOp12
 70
     1
102
RTVSPropertyOp13
 70
     1
102
RTVSPropertyOp14
 70
     1
102
RTVSPropertyOp15
 70
     1
102
RTVSPropertyOp16
 70
     1
102
RTVSPropertyOp17
 70
     1
102
RTVSPropertyOp18
 70
     1
102
RTVSPropertyOp19
 70
     1
102
RTVSPropertyOp20
 70
     1
102
RTVSPropertyOp21
 70
     1
102
RTVSPropertyOp22
 70
     1
102
RTVSPropertyOp23
 70
     1
102
RTVSPropertyOp24
 70
     1
102
RTVSPropertyOp25
 70
     1
102
RTVSPropertyOp26
 70
     1
102
RTVSPropertyOp27
 70
     1
102
RTVSPropertyOp28
 70
     1
102
RTVSPropertyOp29
 70
     1
102
RTVSPropertyOp30
 70
     1
102
RTVSPropertyOp31
 70
     1
102
RTVSPropertyOp32
 70
     1
102
RTVSPropertyOp33
 70
     1
102
RTVSPropertyOp34
 70
     1
102
RTVSPropertyOp35
 70
     1
102
RTVSPropertyOp36
 70
     1
102
RTVSPropertyOp37
 70
     1
102
RTVSPropertyOp38
 70
     1
102
RTVSPropertyOp39
 70
     1
102
RTVSPropertyOp40
 70
     1
102
RTVSPropertyOp41
 70
     1
102
RTVSPropertyOp42
 70
     1
102
RTVSPropertyOp43
 70
     1
102
RTVSPropertyOp44
 70
     1
102
RTVSPropertyOp45
 70
     1
102
RTVSPropertyOp46
 70
     1
102
RTVSPropertyOp47
 70
     1
102
RTVSPropertyOp48
 70
     1
102
RTVSPropertyOp49
 70
     1
102
RTVSPropertyOp50
 70
     1
102
RTVSPropertyOp51
 70
     0
102
RTVSPropertyOp52
 70
     0
102
RTVSPropertyOp53
 70
     1
102
RTVSPropertyOp54
 70
     1
102
RTVSPropertyOp55
 70
     1
102
RTVSPropertyOp56
 70
     1
102
RTVSPropertyOp57
 70
     1
102
RTVSPost2010Prop28
280
     0
102
RTVSPost2010PropOp28
 70
     1
102
RTVSPost2010Prop29
280
     1
102
RTVSPost2010PropOp29
 70
     1
102
RTVSPost2010Prop30
280
     1
102
RTVSPost2010PropOp30
 70
     1
102
RTVSPost2010Prop31
280
     0
102
RTVSPost2010PropOp31
 70
     1
102
RTVSPost2010Prop32
280
     0
102
RTVSPost2010PropOp32
 70
     1
102
RTVSPost2010Prop33
280
     0
102
RTVSPost2010PropOp33
 70
     1
102
RTVSPost2010Prop34
280
     0
102
RTVSPost2010PropOp34
 70
     1
102
RTVSPost2010Prop35
280
     0
102
RTVSPost2010PropOp35
 70
     1
102
RTVSPost2010Prop36
280
     0
102
RTVSPost2010PropOp36
 70
     1
102
RTVSPost2010Prop37
 90
       50
102
RTVSPost2010PropOp37
 70
     1
102
RTVSPost2010Prop38
140
0.0
102
RTVSPost2010PropOp38
 70
     1
102
RTVSPost2010Prop39
140
1.0
102
RTVSPost2010PropOp39
 70
     1
102
RTVSPost2010Prop40
 90
        0
102
RTVSPost2010PropOp40
 70
     1
102
RTVSPost2010Prop41ColorIndex
 90
       18
102
RTVSPost2010Prop41ColorRGB
 90
        0
102
RTVSPost2010PropOp41
 70
     1
102
RTVSPost2010Prop42
 90
       50
102
RTVSPost2010PropOp42
 70
     1
102
RTVSPost2010Prop43
 90
        3
102
RTVSPost2010PropOp43
 70
     1
102
RTVSPost2010Prop44ColorIndex
 90
        5
102
RTVSPost2010Prop44ColorRGB
 90
      255
102
RTVSPost2010PropOp44
 70
     1
102
RTVSPost2010Prop45
280
     0
102
RTVSPost2010PropOp45
 70
     1
102
RTVSPost2010Prop46
 90
       50
102
RTVSPost2010PropOp46
 70
     1
102
RTVSPost2010Prop47
 90
       50
102
RTVSPost2010PropOp47
 70
     1
102
RTVSPost2010Prop48
 90
       50
102
RTVSPost2010PropOp48
 70
     1
102
RTVSPost2010Prop49
280
     0
102
RTVSPost2010PropOp49
 70
     1
102
RTVSPost2010Prop50
 90
       50
102
RTVSPost2010PropOp50
 70
     1
102
RTVSPost2010Prop51ColorIndex
 90
      256
102
RTVSPost2010Prop51ColorRGB
 90
-16777216
102
RTVSPost2010PropOp51
 70
     0
102
RTVSPost2010Prop52
140
1.0
102
RTVSPost2010PropOp52
 70
     0
102
RTVSPost2010Prop53
 90
        2
102
RTVSPost2010PropOp53
 70
     1
102
RTVSPost2010Prop54
  1
strokes_ogs.tif
102
RTVSPost2010PropOp54
 70
     1
102
RTVSPost2010Prop55
280
     0
102
RTVSPost2010PropOp55
 70
     1
102
RTVSPost2010Prop56
140
1.0
102
RTVSPost2010PropOp56
 70
     1
102
RTVSPost2010Prop57
140
1.0
102
RTVSPost2010PropOp57
 70
     1
  0
XRECORD
  5
4B0
102
{ACAD_REACTORS
330
4AF
102
}
330
4AF
100
AcDbXrecord
280
     1
102
RTVSPropertyOp0
 70
     1
102
RTVSPropertyOp1
 70
     1
102
RTVSPropertyOp2
 70
     1
102
RTVSPropertyOp3
 70
     1
102
RTVSPropertyOp4
 70
     1
102
RTVSPropertyOp5
 70
     1
102
RTVSPropertyOp6
 70
     1
102
RTVSPropertyOp7
 70
     1
102
RTVSPropertyOp8
 70
     1
102
RTVSPropertyOp9
 70
     1
102
RTVSPropertyOp10
 70
     1
102
RTVSPropertyOp11
 70
     1
102
RTVSPropertyOp12
 70
     1
102
RTVSPropertyOp13
 70
     1
102
RTVSPropertyOp14
 70
     1
102
RTVSPropertyOp15
 70
     1
102
RTVSPropertyOp16
 70
     1
102
RTVSPropertyOp17
 70
     1
102
RTVSPropertyOp18
 70
     1
102
RTVSPropertyOp19
 70
     1
102
RTVSPropertyOp20
 70
     1
102
RTVSPropertyOp21
 70
     1
102
RTVSPropertyOp22
 70
     1
102
RTVSPropertyOp23
 70
     1
102
RTVSPropertyOp24
 70
     1
102
RTVSPropertyOp25
 70
     1
102
RTVSPropertyOp26
 70
     1
102
RTVSPropertyOp27
 70
     1
102
RTVSPropertyOp28
 70
     1
102
RTVSPropertyOp29
 70
     1
102
RTVSPropertyOp30
 70
     1
102
RTVSPropertyOp31
 70
     1
102
RTVSPropertyOp32
 70
     1
102
RTVSPropertyOp33
 70
     1
102
RTVSPropertyOp34
 70
     1
102
RTVSPropertyOp35
 70
     1
102
RTVSPropertyOp36
 70
     1
102
RTVSPropertyOp37
 70
     1
102
RTVSPropertyOp38
 70
     1
102
RTVSPropertyOp39
 70
     1
102
RTVSPropertyOp40
 70
     1
102
RTVSPropertyOp41
 70
     1
102
RTVSPropertyOp42
 70
     1
102
RTVSPropertyOp43
 70
     1
102
RTVSPropertyOp44
 70
     1
102
RTVSPropertyOp45
 70
     1
102
RTVSPropertyOp46
 70
     1
102
RTVSPropertyOp47
 70
     1
102
RTVSPropertyOp48
 70
     1
102
RTVSPropertyOp49
 70
     1
102
RTVSPropertyOp50
 70
     1
102
RTVSPropertyOp51
 70
     0
102
RTVSPropertyOp52
 70
     0
102
RTVSPropertyOp53
 70
     1
102
RTVSPropertyOp54
 70
     1
102
RTVSPropertyOp55
 70
     1
102
RTVSPropertyOp56
 70
     1
102
RTVSPropertyOp57
 70
     1
102
RTVSPost2010Prop28
280
     0
102
RTVSPost2010PropOp28
 70
     1
102
RTVSPost2010Prop29
280
     1
102
RTVSPost2010PropOp29
 70
     1
102
RTVSPost2010Prop30
280
     1
102
RTVSPost2010PropOp30
 70
     1
102
RTVSPost2010Prop31
280
     0
102
RTVSPost2010PropOp31
 70
     1
102
RTVSPost2010Prop32
280
     0
102
RTVSPost2010PropOp32
 70
     1
102
RTVSPost2010Prop33
280
     0
102
RTVSPost2010PropOp33
 70
     1
102
RTVSPost2010Prop34
280
     0
102
RTVSPost2010PropOp34
 70
     1
102
RTVSPost2010Prop35
280
     0
102
RTVSPost2010PropOp35
 70
     1
102
RTVSPost2010Prop36
280
     0
102
RTVSPost2010PropOp36
 70
     1
102
RTVSPost2010Prop37
 90
       50
102
RTVSPost2010PropOp37
 70
     1
102
RTVSPost2010Prop38
140
0.0
102
RTVSPost2010PropOp38
 70
     1
102
RTVSPost2010Prop39
140
1.0
102
RTVSPost2010PropOp39
 70
     1
102
RTVSPost2010Prop40
 90
        0
102
RTVSPost2010PropOp40
 70
     1
102
RTVSPost2010Prop41ColorIndex
 90
       18
102
RTVSPost2010Prop41ColorRGB
 90
        0
102
RTVSPost2010PropOp41
 70
     1
102
RTVSPost2010Prop42
 90
       50
102
RTVSPost2010PropOp42
 70
     1
102
RTVSPost2010Prop43
 90
        3
102
RTVSPost2010PropOp43
 70
     1
102
RTVSPost2010Prop44ColorIndex
 90
        5
102
RTVSPost2010Prop44ColorRGB
 90
      255
102
RTVSPost2010PropOp44
 70
     1
102
RTVSPost2010Prop45
280
     0
102
RTVSPost2010PropOp45
 70
     1
102
RTVSPost2010Prop46
 90
       50
102
RTVSPost2010PropOp46
 70
     1
102
RTVSPost2010Prop47
 90
       50
102
RTVSPost2010PropOp47
 70
     1
102
RTVSPost2010Prop48
 90
       50
102
RTVSPost2010PropOp48
 70
     1
102
RTVSPost2010Prop49
280
     0
102
RTVSPost2010PropOp49
 70
     1
102
RTVSPost2010Prop50
 90
       50
102
RTVSPost2010PropOp50
 70
     1
102
RTVSPost2010Prop51ColorIndex
 90
      256
102
RTVSPost2010Prop51ColorRGB
 90
-16777216
102
RTVSPost2010PropOp51
 70
     0
102
RTVSPost2010Prop52
140
1.0
102
RTVSPost2010PropOp52
 70
     0
102
RTVSPost2010Prop53
 90
        2
102
RTVSPost2010PropOp53
 70
     1
102
RTVSPost2010Prop54
  1
strokes_ogs.tif
102
RTVSPost2010PropOp54
 70
     1
102
RTVSPost2010Prop55
280
     0
102
RTVSPost2010PropOp55
 70
     1
102
RTVSPost2010Prop56
140
1.0
102
RTVSPost2010PropOp56
 70
     1
102
RTVSPost2010Prop57
140
1.0
102
RTVSPost2010PropOp57
 70
     1
  0
XRECORD
  5
4B8
102
{ACAD_REACTORS
330
4B7
102
}
330
4B7
100
AcDbXrecord
280
     1
102
RTVSPropertyOp0
 70
     1
102
RTVSPropertyOp1
 70
     1
102
RTVSPropertyOp2
 70
     1
102
RTVSPropertyOp3
 70
     1
102
RTVSPropertyOp4
 70
     1
102
RTVSPropertyOp5
 70
     1
102
RTVSPropertyOp6
 70
     1
102
RTVSPropertyOp7
 70
     1
102
RTVSPropertyOp8
 70
     1
102
RTVSPropertyOp9
 70
     1
102
RTVSPropertyOp10
 70
     1
102
RTVSPropertyOp11
 70
     1
102
RTVSPropertyOp12
 70
     1
102
RTVSPropertyOp13
 70
     1
102
RTVSPropertyOp14
 70
     1
102
RTVSPropertyOp15
 70
     1
102
RTVSPropertyOp16
 70
     1
102
RTVSPropertyOp17
 70
     1
102
RTVSPropertyOp18
 70
     1
102
RTVSPropertyOp19
 70
     1
102
RTVSPropertyOp20
 70
     1
102
RTVSPropertyOp21
 70
     1
102
RTVSPropertyOp22
 70
     1
102
RTVSPropertyOp23
 70
     1
102
RTVSPropertyOp24
 70
     1
102
RTVSPropertyOp25
 70
     1
102
RTVSPropertyOp26
 70
     1
102
RTVSPropertyOp27
 70
     1
102
RTVSPropertyOp28
 70
     1
102
RTVSPropertyOp29
 70
     1
102
RTVSPropertyOp30
 70
     1
102
RTVSPropertyOp31
 70
     1
102
RTVSPropertyOp32
 70
     1
102
RTVSPropertyOp33
 70
     1
102
RTVSPropertyOp34
 70
     1
102
RTVSPropertyOp35
 70
     1
102
RTVSPropertyOp36
 70
     1
102
RTVSPropertyOp37
 70
     1
102
RTVSPropertyOp38
 70
     1
102
RTVSPropertyOp39
 70
     1
102
RTVSPropertyOp40
 70
     1
102
RTVSPropertyOp41
 70
     1
102
RTVSPropertyOp42
 70
     1
102
RTVSPropertyOp43
 70
     1
102
RTVSPropertyOp44
 70
     1
102
RTVSPropertyOp45
 70
     1
102
RTVSPropertyOp46
 70
     1
102
RTVSPropertyOp47
 70
     1
102
RTVSPropertyOp48
 70
     1
102
RTVSPropertyOp49
 70
     1
102
RTVSPropertyOp50
 70
     1
102
RTVSPropertyOp51
 70
     0
102
RTVSPropertyOp52
 70
     0
102
RTVSPropertyOp53
 70
     1
102
RTVSPropertyOp54
 70
     1
102
RTVSPropertyOp55
 70
     1
102
RTVSPropertyOp56
 70
     1
102
RTVSPropertyOp57
 70
     1
102
RTVSPost2010Prop28
280
     0
102
RTVSPost2010PropOp28
 70
     1
102
RTVSPost2010Prop29
280
     1
102
RTVSPost2010PropOp29
 70
     1
102
RTVSPost2010Prop30
280
     1
102
RTVSPost2010PropOp30
 70
     1
102
RTVSPost2010Prop31
280
     0
102
RTVSPost2010PropOp31
 70
     1
102
RTVSPost2010Prop32
280
     0
102
RTVSPost2010PropOp32
 70
     1
102
RTVSPost2010Prop33
280
     0
102
RTVSPost2010PropOp33
 70
     1
102
RTVSPost2010Prop34
280
     0
102
RTVSPost2010PropOp34
 70
     1
102
RTVSPost2010Prop35
280
     0
102
RTVSPost2010PropOp35
 70
     1
102
RTVSPost2010Prop36
280
     0
102
RTVSPost2010PropOp36
 70
     1
102
RTVSPost2010Prop37
 90
       50
102
RTVSPost2010PropOp37
 70
     1
102
RTVSPost2010Prop38
140
0.0
102
RTVSPost2010PropOp38
 70
     1
102
RTVSPost2010Prop39
140
1.0
102
RTVSPost2010PropOp39
 70
     1
102
RTVSPost2010Prop40
 90
        0
102
RTVSPost2010PropOp40
 70
     1
102
RTVSPost2010Prop41ColorIndex
 90
       18
102
RTVSPost2010Prop41ColorRGB
 90
        0
102
RTVSPost2010PropOp41
 70
     1
102
RTVSPost2010Prop42
 90
       50
102
RTVSPost2010PropOp42
 70
     1
102
RTVSPost2010Prop43
 90
        3
102
RTVSPost2010PropOp43
 70
     1
102
RTVSPost2010Prop44ColorIndex
 90
        5
102
RTVSPost2010Prop44ColorRGB
 90
      255
102
RTVSPost2010PropOp44
 70
     1
102
RTVSPost2010Prop45
280
     0
102
RTVSPost2010PropOp45
 70
     1
102
RTVSPost2010Prop46
 90
       50
102
RTVSPost2010PropOp46
 70
     1
102
RTVSPost2010Prop47
 90
       50
102
RTVSPost2010PropOp47
 70
     1
102
RTVSPost2010Prop48
 90
       50
102
RTVSPost2010PropOp48
 70
     1
102
RTVSPost2010Prop49
280
     0
102
RTVSPost2010PropOp49
 70
     1
102
RTVSPost2010Prop50
 90
       50
102
RTVSPost2010PropOp50
 70
     1
102
RTVSPost2010Prop51ColorIndex
 90
      256
102
RTVSPost2010Prop51ColorRGB
 90
-16777216
102
RTVSPost2010PropOp51
 70
     0
102
RTVSPost2010Prop52
140
1.0
102
RTVSPost2010PropOp52
 70
     0
102
RTVSPost2010Prop53
 90
        2
102
RTVSPost2010PropOp53
 70
     1
102
RTVSPost2010Prop54
  1
strokes_ogs.tif
102
RTVSPost2010PropOp54
 70
     1
102
RTVSPost2010Prop55
280
     0
102
RTVSPost2010PropOp55
 70
     1
102
RTVSPost2010Prop56
140
1.0
102
RTVSPost2010PropOp56
 70
     1
102
RTVSPost2010Prop57
140
1.0
102
RTVSPost2010PropOp57
 70
     1
  0
XRECORD
  5
4AC
102
{ACAD_REACTORS
330
4AB
102
}
330
4AB
100
AcDbXrecord
280
     1
102
RTVSPropertyOp0
 70
     1
102
RTVSPropertyOp1
 70
     1
102
RTVSPropertyOp2
 70
     1
102
RTVSPropertyOp3
 70
     1
102
RTVSPropertyOp4
 70
     1
102
RTVSPropertyOp5
 70
     1
102
RTVSPropertyOp6
 70
     1
102
RTVSPropertyOp7
 70
     1
102
RTVSPropertyOp8
 70
     1
102
RTVSPropertyOp9
 70
     1
102
RTVSPropertyOp10
 70
     1
102
RTVSPropertyOp11
 70
     1
102
RTVSPropertyOp12
 70
     1
102
RTVSPropertyOp13
 70
     1
102
RTVSPropertyOp14
 70
     1
102
RTVSPropertyOp15
 70
     1
102
RTVSPropertyOp16
 70
     1
102
RTVSPropertyOp17
 70
     1
102
RTVSPropertyOp18
 70
     1
102
RTVSPropertyOp19
 70
     1
102
RTVSPropertyOp20
 70
     1
102
RTVSPropertyOp21
 70
     1
102
RTVSPropertyOp22
 70
     1
102
RTVSPropertyOp23
 70
     1
102
RTVSPropertyOp24
 70
     1
102
RTVSPropertyOp25
 70
     1
102
RTVSPropertyOp26
 70
     1
102
RTVSPropertyOp27
 70
     1
102
RTVSPropertyOp28
 70
     1
102
RTVSPropertyOp29
 70
     1
102
RTVSPropertyOp30
 70
     1
102
RTVSPropertyOp31
 70
     1
102
RTVSPropertyOp32
 70
     1
102
RTVSPropertyOp33
 70
     1
102
RTVSPropertyOp34
 70
     1
102
RTVSPropertyOp35
 70
     1
102
RTVSPropertyOp36
 70
     1
102
RTVSPropertyOp37
 70
     1
102
RTVSPropertyOp38
 70
     1
102
RTVSPropertyOp39
 70
     1
102
RTVSPropertyOp40
 70
     1
102
RTVSPropertyOp41
 70
     1
102
RTVSPropertyOp42
 70
     1
102
RTVSPropertyOp43
 70
     1
102
RTVSPropertyOp44
 70
     1
102
RTVSPropertyOp45
 70
     1
102
RTVSPropertyOp46
 70
     1
102
RTVSPropertyOp47
 70
     1
102
RTVSPropertyOp48
 70
     1
102
RTVSPropertyOp49
 70
     1
102
RTVSPropertyOp50
 70
     1
102
RTVSPropertyOp51
 70
     0
102
RTVSPropertyOp52
 70
     0
102
RTVSPropertyOp53
 70
     1
102
RTVSPropertyOp54
 70
     1
102
RTVSPropertyOp55
 70
     1
102
RTVSPropertyOp56
 70
     1
102
RTVSPropertyOp57
 70
     1
102
RTVSPost2010Prop28
280
     0
102
RTVSPost2010PropOp28
 70
     1
102
RTVSPost2010Prop29
280
     1
102
RTVSPost2010PropOp29
 70
     1
102
RTVSPost2010Prop30
280
     1
102
RTVSPost2010PropOp30
 70
     1
102
RTVSPost2010Prop31
280
     0
102
RTVSPost2010PropOp31
 70
     1
102
RTVSPost2010Prop32
280
     0
102
RTVSPost2010PropOp32
 70
     1
102
RTVSPost2010Prop33
280
     0
102
RTVSPost2010PropOp33
 70
     1
102
RTVSPost2010Prop34
280
     0
102
RTVSPost2010PropOp34
 70
     1
102
RTVSPost2010Prop35
280
     0
102
RTVSPost2010PropOp35
 70
     1
102
RTVSPost2010Prop36
280
     0
102
RTVSPost2010PropOp36
 70
     1
102
RTVSPost2010Prop37
 90
       50
102
RTVSPost2010PropOp37
 70
     1
102
RTVSPost2010Prop38
140
0.0
102
RTVSPost2010PropOp38
 70
     1
102
RTVSPost2010Prop39
140
1.0
102
RTVSPost2010PropOp39
 70
     1
102
RTVSPost2010Prop40
 90
        0
102
RTVSPost2010PropOp40
 70
     1
102
RTVSPost2010Prop41ColorIndex
 90
       18
102
RTVSPost2010Prop41ColorRGB
 90
        0
102
RTVSPost2010PropOp41
 70
     1
102
RTVSPost2010Prop42
 90
       50
102
RTVSPost2010PropOp42
 70
     1
102
RTVSPost2010Prop43
 90
        3
102
RTVSPost2010PropOp43
 70
     1
102
RTVSPost2010Prop44ColorIndex
 90
        5
102
RTVSPost2010Prop44ColorRGB
 90
      255
102
RTVSPost2010PropOp44
 70
     1
102
RTVSPost2010Prop45
280
     0
102
RTVSPost2010PropOp45
 70
     1
102
RTVSPost2010Prop46
 90
       50
102
RTVSPost2010PropOp46
 70
     1
102
RTVSPost2010Prop47
 90
       50
102
RTVSPost2010PropOp47
 70
     1
102
RTVSPost2010Prop48
 90
       50
102
RTVSPost2010PropOp48
 70
     1
102
RTVSPost2010Prop49
280
     0
102
RTVSPost2010PropOp49
 70
     1
102
RTVSPost2010Prop50
 90
       50
102
RTVSPost2010PropOp50
 70
     1
102
RTVSPost2010Prop51ColorIndex
 90
      256
102
RTVSPost2010Prop51ColorRGB
 90
-16777216
102
RTVSPost2010PropOp51
 70
     0
102
RTVSPost2010Prop52
140
1.0
102
RTVSPost2010PropOp52
 70
     0
102
RTVSPost2010Prop53
 90
        2
102
RTVSPost2010PropOp53
 70
     1
102
RTVSPost2010Prop54
  1
strokes_ogs.tif
102
RTVSPost2010PropOp54
 70
     1
102
RTVSPost2010Prop55
280
     0
102
RTVSPost2010PropOp55
 70
     1
102
RTVSPost2010Prop56
140
1.0
102
RTVSPost2010PropOp56
 70
     1
102
RTVSPost2010Prop57
140
1.0
102
RTVSPost2010PropOp57
 70
     1
  0
XRECORD
  5
4AE
102
{ACAD_REACTORS
330
4AD
102
}
330
4AD
100
AcDbXrecord
280
     1
102
RTVSPropertyOp0
 70
     1
102
RTVSPropertyOp1
 70
     1
102
RTVSPropertyOp2
 70
     1
102
RTVSPropertyOp3
 70
     1
102
RTVSPropertyOp4
 70
     1
102
RTVSPropertyOp5
 70
     1
102
RTVSPropertyOp6
 70
     1
102
RTVSPropertyOp7
 70
     1
102
RTVSPropertyOp8
 70
     1
102
RTVSPropertyOp9
 70
     1
102
RTVSPropertyOp10
 70
     1
102
RTVSPropertyOp11
 70
     1
102
RTVSPropertyOp12
 70
     1
102
RTVSPropertyOp13
 70
     1
102
RTVSPropertyOp14
 70
     1
102
RTVSPropertyOp15
 70
     1
102
RTVSPropertyOp16
 70
     1
102
RTVSPropertyOp17
 70
     1
102
RTVSPropertyOp18
 70
     1
102
RTVSPropertyOp19
 70
     1
102
RTVSPropertyOp20
 70
     1
102
RTVSPropertyOp21
 70
     1
102
RTVSPropertyOp22
 70
     1
102
RTVSPropertyOp23
 70
     1
102
RTVSPropertyOp24
 70
     1
102
RTVSPropertyOp25
 70
     1
102
RTVSPropertyOp26
 70
     1
102
RTVSPropertyOp27
 70
     1
102
RTVSPropertyOp28
 70
     1
102
RTVSPropertyOp29
 70
     1
102
RTVSPropertyOp30
 70
     1
102
RTVSPropertyOp31
 70
     1
102
RTVSPropertyOp32
 70
     1
102
RTVSPropertyOp33
 70
     1
102
RTVSPropertyOp34
 70
     1
102
RTVSPropertyOp35
 70
     1
102
RTVSPropertyOp36
 70
     1
102
RTVSPropertyOp37
 70
     1
102
RTVSPropertyOp38
 70
     1
102
RTVSPropertyOp39
 70
     1
102
RTVSPropertyOp40
 70
     1
102
RTVSPropertyOp41
 70
     1
102
RTVSPropertyOp42
 70
     1
102
RTVSPropertyOp43
 70
     1
102
RTVSPropertyOp44
 70
     1
102
RTVSPropertyOp45
 70
     1
102
RTVSPropertyOp46
 70
     1
102
RTVSPropertyOp47
 70
     1
102
RTVSPropertyOp48
 70
     1
102
RTVSPropertyOp49
 70
     1
102
RTVSPropertyOp50
 70
     1
102
RTVSPropertyOp51
 70
     0
102
RTVSPropertyOp52
 70
     0
102
RTVSPropertyOp53
 70
     1
102
RTVSPropertyOp54
 70
     1
102
RTVSPropertyOp55
 70
     1
102
RTVSPropertyOp56
 70
     1
102
RTVSPropertyOp57
 70
     1
102
RTVSPost2010Prop28
280
     0
102
RTVSPost2010PropOp28
 70
     1
102
RTVSPost2010Prop29
280
     1
102
RTVSPost2010PropOp29
 70
     1
102
RTVSPost2010Prop30
280
     1
102
RTVSPost2010PropOp30
 70
     1
102
RTVSPost2010Prop31
280
     0
102
RTVSPost2010PropOp31
 70
     1
102
RTVSPost2010Prop32
280
     0
102
RTVSPost2010PropOp32
 70
     1
102
RTVSPost2010Prop33
280
     0
102
RTVSPost2010PropOp33
 70
     1
102
RTVSPost2010Prop34
280
     0
102
RTVSPost2010PropOp34
 70
     1
102
RTVSPost2010Prop35
280
     0
102
RTVSPost2010PropOp35
 70
     1
102
RTVSPost2010Prop36
280
     0
102
RTVSPost2010PropOp36
 70
     1
102
RTVSPost2010Prop37
 90
       50
102
RTVSPost2010PropOp37
 70
     1
102
RTVSPost2010Prop38
140
0.0
102
RTVSPost2010PropOp38
 70
     1
102
RTVSPost2010Prop39
140
1.0
102
RTVSPost2010PropOp39
 70
     1
102
RTVSPost2010Prop40
 90
        0
102
RTVSPost2010PropOp40
 70
     1
102
RTVSPost2010Prop41ColorIndex
 90
       18
102
RTVSPost2010Prop41ColorRGB
 90
        0
102
RTVSPost2010PropOp41
 70
     1
102
RTVSPost2010Prop42
 90
       50
102
RTVSPost2010PropOp42
 70
     1
102
RTVSPost2010Prop43
 90
        3
102
RTVSPost2010PropOp43
 70
     1
102
RTVSPost2010Prop44ColorIndex
 90
        5
102
RTVSPost2010Prop44ColorRGB
 90
      255
102
RTVSPost2010PropOp44
 70
     1
102
RTVSPost2010Prop45
280
     0
102
RTVSPost2010PropOp45
 70
     1
102
RTVSPost2010Prop46
 90
       50
102
RTVSPost2010PropOp46
 70
     1
102
RTVSPost2010Prop47
 90
       50
102
RTVSPost2010PropOp47
 70
     1
102
RTVSPost2010Prop48
 90
       50
102
RTVSPost2010PropOp48
 70
     1
102
RTVSPost2010Prop49
280
     0
102
RTVSPost2010PropOp49
 70
     1
102
RTVSPost2010Prop50
 90
       50
102
RTVSPost2010PropOp50
 70
     1
102
RTVSPost2010Prop51ColorIndex
 90
      256
102
RTVSPost2010Prop51ColorRGB
 90
-16777216
102
RTVSPost2010PropOp51
 70
     0
102
RTVSPost2010Prop52
140
1.0
102
RTVSPost2010PropOp52
 70
     0
102
RTVSPost2010Prop53
 90
        2
102
RTVSPost2010PropOp53
 70
     1
102
RTVSPost2010Prop54
  1
strokes_ogs.tif
102
RTVSPost2010PropOp54
 70
     1
102
RTVSPost2010Prop55
280
     0
102
RTVSPost2010PropOp55
 70
     1
102
RTVSPost2010Prop56
140
1.0
102
RTVSPost2010PropOp56
 70
     1
102
RTVSPost2010Prop57
140
1.0
102
RTVSPost2010PropOp57
 70
     1
  0
XRECORD
  5
4BE
102
{ACAD_REACTORS
330
4BD
102
}
330
4BD
100
AcDbXrecord
280
     1
102
RTVSPropertyOp0
 70
     0
102
RTVSPropertyOp1
 70
     0
102
RTVSPropertyOp2
 70
     0
102
RTVSPropertyOp3
 70
     0
102
RTVSPropertyOp4
 70
     0
102
RTVSPropertyOp5
 70
     0
102
RTVSPropertyOp6
 70
     0
102
RTVSPropertyOp7
 70
     0
102
RTVSPropertyOp8
 70
     0
102
RTVSPropertyOp9
 70
     0
102
RTVSPropertyOp10
 70
     0
102
RTVSPropertyOp11
 70
     0
102
RTVSPropertyOp12
 70
     0
102
RTVSPropertyOp13
 70
     0
102
RTVSPropertyOp14
 70
     2
102
RTVSPropertyOp15
 70
     0
102
RTVSPropertyOp16
 70
     0
102
RTVSPropertyOp17
 70
     0
102
RTVSPropertyOp18
 70
     0
102
RTVSPropertyOp19
 70
     0
102
RTVSPropertyOp20
 70
     0
102
RTVSPropertyOp21
 70
     0
102
RTVSPropertyOp22
 70
     0
102
RTVSPropertyOp23
 70
     0
102
RTVSPropertyOp24
 70
     0
102
RTVSPropertyOp25
 70
     0
102
RTVSPropertyOp26
 70
     0
102
RTVSPropertyOp27
 70
     0
102
RTVSPropertyOp28
 70
     0
102
RTVSPropertyOp29
 70
     0
102
RTVSPropertyOp30
 70
     0
102
RTVSPropertyOp31
 70
     0
102
RTVSPropertyOp32
 70
     0
102
RTVSPropertyOp33
 70
     0
102
RTVSPropertyOp34
 70
     0
102
RTVSPropertyOp35
 70
     0
102
RTVSPropertyOp36
 70
     0
102
RTVSPropertyOp37
 70
     0
102
RTVSPropertyOp38
 70
     0
102
RTVSPropertyOp39
 70
     0
102
RTVSPropertyOp40
 70
     0
102
RTVSPropertyOp41
 70
     0
102
RTVSPropertyOp42
 70
     0
102
RTVSPropertyOp43
 70
     0
102
RTVSPropertyOp44
 70
     0
102
RTVSPropertyOp45
 70
     0
102
RTVSPropertyOp46
 70
     0
102
RTVSPropertyOp47
 70
     0
102
RTVSPropertyOp48
 70
     0
102
RTVSPropertyOp49
 70
     0
102
RTVSPropertyOp50
 70
     0
102
RTVSPropertyOp51
 70
     0
102
RTVSPropertyOp52
 70
     0
102
RTVSPropertyOp53
 70
     0
102
RTVSPropertyOp54
 70
     0
102
RTVSPropertyOp55
 70
     0
102
RTVSPropertyOp56
 70
     0
102
RTVSPropertyOp57
 70
     0
102
RTVSPost2010Prop28
280
     0
102
RTVSPost2010PropOp28
 70
     0
102
RTVSPost2010Prop29
280
     1
102
RTVSPost2010PropOp29
 70
     0
102
RTVSPost2010Prop30
280
     1
102
RTVSPost2010PropOp30
 70
     0
102
RTVSPost2010Prop31
280
     0
102
RTVSPost2010PropOp31
 70
     0
102
RTVSPost2010Prop32
280
     0
102
RTVSPost2010PropOp32
 70
     0
102
RTVSPost2010Prop33
280
     0
102
RTVSPost2010PropOp33
 70
     0
102
RTVSPost2010Prop34
280
     0
102
RTVSPost2010PropOp34
 70
     0
102
RTVSPost2010Prop35
280
     0
102
RTVSPost2010PropOp35
 70
     0
102
RTVSPost2010Prop36
280
     0
102
RTVSPost2010PropOp36
 70
     0
102
RTVSPost2010Prop37
 90
       50
102
RTVSPost2010PropOp37
 70
     0
102
RTVSPost2010Prop38
140
0.0
102
RTVSPost2010PropOp38
 70
     0
102
RTVSPost2010Prop39
140
1.0
102
RTVSPost2010PropOp39
 70
     0
102
RTVSPost2010Prop40
 90
        0
102
RTVSPost2010PropOp40
 70
     0
102
RTVSPost2010Prop41ColorIndex
 90
       18
102
RTVSPost2010Prop41ColorRGB
 90
        0
102
RTVSPost2010PropOp41
 70
     0
102
RTVSPost2010Prop42
 90
       50
102
RTVSPost2010PropOp42
 70
     0
102
RTVSPost2010Prop43
 90
        3
102
RTVSPost2010PropOp43
 70
     0
102
RTVSPost2010Prop44ColorIndex
 90
        5
102
RTVSPost2010Prop44ColorRGB
 90
      255
102
RTVSPost2010PropOp44
 70
     0
102
RTVSPost2010Prop45
280
     0
102
RTVSPost2010PropOp45
 70
     0
102
RTVSPost2010Prop46
 90
       50
102
RTVSPost2010PropOp46
 70
     0
102
RTVSPost2010Prop47
 90
       50
102
RTVSPost2010PropOp47
 70
     0
102
RTVSPost2010Prop48
 90
       50
102
RTVSPost2010PropOp48
 70
     0
102
RTVSPost2010Prop49
280
     0
102
RTVSPost2010PropOp49
 70
     0
102
RTVSPost2010Prop50
 90
       50
102
RTVSPost2010PropOp50
 70
     0
102
RTVSPost2010Prop51ColorIndex
 90
      256
102
RTVSPost2010Prop51ColorRGB
 90
-16777216
102
RTVSPost2010PropOp51
 70
     0
102
RTVSPost2010Prop52
140
1.0
102
RTVSPost2010PropOp52
 70
     0
102
RTVSPost2010Prop53
 90
        2
102
RTVSPost2010PropOp53
 70
     0
102
RTVSPost2010Prop54
  1
strokes_ogs.tif
102
RTVSPost2010PropOp54
 70
     0
102
RTVSPost2010Prop55
280
     0
102
RTVSPost2010PropOp55
 70
     0
102
RTVSPost2010Prop56
140
1.0
102
RTVSPost2010PropOp56
 70
     0
102
RTVSPost2010Prop57
140
1.0
102
RTVSPost2010PropOp57
 70
     0
  0
XRECORD
  5
4B6
102
{ACAD_REACTORS
330
4B5
102
}
330
4B5
100
AcDbXrecord
280
     1
102
RTVSPropertyOp0
 70
     1
102
RTVSPropertyOp1
 70
     1
102
RTVSPropertyOp2
 70
     1
102
RTVSPropertyOp3
 70
     1
102
RTVSPropertyOp4
 70
     1
102
RTVSPropertyOp5
 70
     1
102
RTVSPropertyOp6
 70
     1
102
RTVSPropertyOp7
 70
     1
102
RTVSPropertyOp8
 70
     1
102
RTVSPropertyOp9
 70
     1
102
RTVSPropertyOp10
 70
     1
102
RTVSPropertyOp11
 70
     1
102
RTVSPropertyOp12
 70
     1
102
RTVSPropertyOp13
 70
     1
102
RTVSPropertyOp14
 70
     1
102
RTVSPropertyOp15
 70
     1
102
RTVSPropertyOp16
 70
     1
102
RTVSPropertyOp17
 70
     1
102
RTVSPropertyOp18
 70
     1
102
RTVSPropertyOp19
 70
     1
102
RTVSPropertyOp20
 70
     1
102
RTVSPropertyOp21
 70
     1
102
RTVSPropertyOp22
 70
     1
102
RTVSPropertyOp23
 70
     1
102
RTVSPropertyOp24
 70
     1
102
RTVSPropertyOp25
 70
     1
102
RTVSPropertyOp26
 70
     1
102
RTVSPropertyOp27
 70
     1
102
RTVSPropertyOp28
 70
     1
102
RTVSPropertyOp29
 70
     1
102
RTVSPropertyOp30
 70
     1
102
RTVSPropertyOp31
 70
     1
102
RTVSPropertyOp32
 70
     1
102
RTVSPropertyOp33
 70
     1
102
RTVSPropertyOp34
 70
     1
102
RTVSPropertyOp35
 70
     1
102
RTVSPropertyOp36
 70
     1
102
RTVSPropertyOp37
 70
     1
102
RTVSPropertyOp38
 70
     1
102
RTVSPropertyOp39
 70
     1
102
RTVSPropertyOp40
 70
     1
102
RTVSPropertyOp41
 70
     1
102
RTVSPropertyOp42
 70
     1
102
RTVSPropertyOp43
 70
     1
102
RTVSPropertyOp44
 70
     1
102
RTVSPropertyOp45
 70
     1
102
RTVSPropertyOp46
 70
     1
102
RTVSPropertyOp47
 70
     1
102
RTVSPropertyOp48
 70
     1
102
RTVSPropertyOp49
 70
     1
102
RTVSPropertyOp50
 70
     1
102
RTVSPropertyOp51
 70
     0
102
RTVSPropertyOp52
 70
     0
102
RTVSPropertyOp53
 70
     1
102
RTVSPropertyOp54
 70
     1
102
RTVSPropertyOp55
 70
     1
102
RTVSPropertyOp56
 70
     1
102
RTVSPropertyOp57
 70
     1
102
RTVSPost2010Prop28
280
     0
102
RTVSPost2010PropOp28
 70
     1
102
RTVSPost2010Prop29
280
     1
102
RTVSPost2010PropOp29
 70
     1
102
RTVSPost2010Prop30
280
     1
102
RTVSPost2010PropOp30
 70
     1
102
RTVSPost2010Prop31
280
     0
102
RTVSPost2010PropOp31
 70
     1
102
RTVSPost2010Prop32
280
     0
102
RTVSPost2010PropOp32
 70
     1
102
RTVSPost2010Prop33
280
     0
102
RTVSPost2010PropOp33
 70
     1
102
RTVSPost2010Prop34
280
     0
102
RTVSPost2010PropOp34
 70
     1
102
RTVSPost2010Prop35
280
     0
102
RTVSPost2010PropOp35
 70
     1
102
RTVSPost2010Prop36
280
     0
102
RTVSPost2010PropOp36
 70
     1
102
RTVSPost2010Prop37
 90
       50
102
RTVSPost2010PropOp37
 70
     1
102
RTVSPost2010Prop38
140
0.0
102
RTVSPost2010PropOp38
 70
     1
102
RTVSPost2010Prop39
140
1.0
102
RTVSPost2010PropOp39
 70
     1
102
RTVSPost2010Prop40
 90
        0
102
RTVSPost2010PropOp40
 70
     1
102
RTVSPost2010Prop41ColorIndex
 90
       18
102
RTVSPost2010Prop41ColorRGB
 90
        0
102
RTVSPost2010PropOp41
 70
     1
102
RTVSPost2010Prop42
 90
       50
102
RTVSPost2010PropOp42
 70
     1
102
RTVSPost2010Prop43
 90
        3
102
RTVSPost2010PropOp43
 70
     1
102
RTVSPost2010Prop44ColorIndex
 90
        5
102
RTVSPost2010Prop44ColorRGB
 90
      255
102
RTVSPost2010PropOp44
 70
     1
102
RTVSPost2010Prop45
280
     0
102
RTVSPost2010PropOp45
 70
     1
102
RTVSPost2010Prop46
 90
       50
102
RTVSPost2010PropOp46
 70
     1
102
RTVSPost2010Prop47
 90
       50
102
RTVSPost2010PropOp47
 70
     1
102
RTVSPost2010Prop48
 90
       50
102
RTVSPost2010PropOp48
 70
     1
102
RTVSPost2010Prop49
280
     0
102
RTVSPost2010PropOp49
 70
     1
102
RTVSPost2010Prop50
 90
       50
102
RTVSPost2010PropOp50
 70
     1
102
RTVSPost2010Prop51ColorIndex
 90
      256
102
RTVSPost2010Prop51ColorRGB
 90
-16777216
102
RTVSPost2010PropOp51
 70
     0
102
RTVSPost2010Prop52
140
1.0
102
RTVSPost2010PropOp52
 70
     0
102
RTVSPost2010Prop53
 90
        2
102
RTVSPost2010PropOp53
 70
     1
102
RTVSPost2010Prop54
  1
strokes_ogs.tif
102
RTVSPost2010PropOp54
 70
     1
102
RTVSPost2010Prop55
280
     0
102
RTVSPost2010PropOp55
 70
     1
102
RTVSPost2010Prop56
140
1.0
102
RTVSPost2010PropOp56
 70
     1
102
RTVSPost2010Prop57
140
1.0
102
RTVSPost2010PropOp57
 70
     1
  0
XRECORD
  5
49A
102
{ACAD_REACTORS
330
499
102
}
330
499
100
AcDbXrecord
280
     1
102
RTVSPropertyOp0
 70
     1
102
RTVSPropertyOp1
 70
     1
102
RTVSPropertyOp2
 70
     1
102
RTVSPropertyOp3
 70
     1
102
RTVSPropertyOp4
 70
     1
102
RTVSPropertyOp5
 70
     1
102
RTVSPropertyOp6
 70
     1
102
RTVSPropertyOp7
 70
     1
102
RTVSPropertyOp8
 70
     1
102
RTVSPropertyOp9
 70
     1
102
RTVSPropertyOp10
 70
     1
102
RTVSPropertyOp11
 70
     1
102
RTVSPropertyOp12
 70
     1
102
RTVSPropertyOp13
 70
     1
102
RTVSPropertyOp14
 70
     1
102
RTVSPropertyOp15
 70
     1
102
RTVSPropertyOp16
 70
     1
102
RTVSPropertyOp17
 70
     1
102
RTVSPropertyOp18
 70
     1
102
RTVSPropertyOp19
 70
     1
102
RTVSPropertyOp20
 70
     1
102
RTVSPropertyOp21
 70
     1
102
RTVSPropertyOp22
 70
     1
102
RTVSPropertyOp23
 70
     1
102
RTVSPropertyOp24
 70
     1
102
RTVSPropertyOp25
 70
     1
102
RTVSPropertyOp26
 70
     1
102
RTVSPropertyOp27
 70
     1
102
RTVSPropertyOp28
 70
     1
102
RTVSPropertyOp29
 70
     1
102
RTVSPropertyOp30
 70
     1
102
RTVSPropertyOp31
 70
     1
102
RTVSPropertyOp32
 70
     1
102
RTVSPropertyOp33
 70
     1
102
RTVSPropertyOp34
 70
     1
102
RTVSPropertyOp35
 70
     1
102
RTVSPropertyOp36
 70
     1
102
RTVSPropertyOp37
 70
     1
102
RTVSPropertyOp38
 70
     1
102
RTVSPropertyOp39
 70
     1
102
RTVSPropertyOp40
 70
     1
102
RTVSPropertyOp41
 70
     1
102
RTVSPropertyOp42
 70
     1
102
RTVSPropertyOp43
 70
     1
102
RTVSPropertyOp44
 70
     1
102
RTVSPropertyOp45
 70
     1
102
RTVSPropertyOp46
 70
     1
102
RTVSPropertyOp47
 70
     1
102
RTVSPropertyOp48
 70
     1
102
RTVSPropertyOp49
 70
     1
102
RTVSPropertyOp50
 70
     1
102
RTVSPropertyOp51
 70
     0
102
RTVSPropertyOp52
 70
     0
102
RTVSPropertyOp53
 70
     1
102
RTVSPropertyOp54
 70
     1
102
RTVSPropertyOp55
 70
     1
102
RTVSPropertyOp56
 70
     1
102
RTVSPropertyOp57
 70
     1
102
RTVSPost2010Prop28
280
     0
102
RTVSPost2010PropOp28
 70
     1
102
RTVSPost2010Prop29
280
     1
102
RTVSPost2010PropOp29
 70
     1
102
RTVSPost2010Prop30
280
     1
102
RTVSPost2010PropOp30
 70
     1
102
RTVSPost2010Prop31
280
     0
102
RTVSPost2010PropOp31
 70
     1
102
RTVSPost2010Prop32
280
     0
102
RTVSPost2010PropOp32
 70
     1
102
RTVSPost2010Prop33
280
     0
102
RTVSPost2010PropOp33
 70
     1
102
RTVSPost2010Prop34
280
     0
102
RTVSPost2010PropOp34
 70
     1
102
RTVSPost2010Prop35
280
     0
102
RTVSPost2010PropOp35
 70
     1
102
RTVSPost2010Prop36
280
     0
102
RTVSPost2010PropOp36
 70
     1
102
RTVSPost2010Prop37
 90
       50
102
RTVSPost2010PropOp37
 70
     1
102
RTVSPost2010Prop38
140
0.0
102
RTVSPost2010PropOp38
 70
     1
102
RTVSPost2010Prop39
140
1.0
102
RTVSPost2010PropOp39
 70
     1
102
RTVSPost2010Prop40
 90
        0
102
RTVSPost2010PropOp40
 70
     1
102
RTVSPost2010Prop41ColorIndex
 90
       18
102
RTVSPost2010Prop41ColorRGB
 90
        0
102
RTVSPost2010PropOp41
 70
     1
102
RTVSPost2010Prop42
 90
       50
102
RTVSPost2010PropOp42
 70
     1
102
RTVSPost2010Prop43
 90
        3
102
RTVSPost2010PropOp43
 70
     1
102
RTVSPost2010Prop44ColorIndex
 90
        5
102
RTVSPost2010Prop44ColorRGB
 90
      255
102
RTVSPost2010PropOp44
 70
     1
102
RTVSPost2010Prop45
280
     0
102
RTVSPost2010PropOp45
 70
     1
102
RTVSPost2010Prop46
 90
       50
102
RTVSPost2010PropOp46
 70
     1
102
RTVSPost2010Prop47
 90
       50
102
RTVSPost2010PropOp47
 70
     1
102
RTVSPost2010Prop48
 90
       50
102
RTVSPost2010PropOp48
 70
     1
102
RTVSPost2010Prop49
280
     0
102
RTVSPost2010PropOp49
 70
     1
102
RTVSPost2010Prop50
 90
       50
102
RTVSPost2010PropOp50
 70
     1
102
RTVSPost2010Prop51ColorIndex
 90
      256
102
RTVSPost2010Prop51ColorRGB
 90
-16777216
102
RTVSPost2010PropOp51
 70
     0
102
RTVSPost2010Prop52
140
1.0
102
RTVSPost2010PropOp52
 70
     0
102
RTVSPost2010Prop53
 90
        2
102
RTVSPost2010PropOp53
 70
     1
102
RTVSPost2010Prop54
  1
strokes_ogs.tif
102
RTVSPost2010PropOp54
 70
     1
102
RTVSPost2010Prop55
280
     0
102
RTVSPost2010PropOp55
 70
     1
102
RTVSPost2010Prop56
140
1.0
102
RTVSPost2010PropOp56
 70
     1
102
RTVSPost2010Prop57
140
1.0
102
RTVSPost2010PropOp57
 70
     1
  0
XRECORD
  5
49C
102
{ACAD_REACTORS
330
49B
102
}
330
49B
100
AcDbXrecord
280
     1
102
RTVSPropertyOp0
 70
     1
102
RTVSPropertyOp1
 70
     1
102
RTVSPropertyOp2
 70
     1
102
RTVSPropertyOp3
 70
     1
102
RTVSPropertyOp4
 70
     1
102
RTVSPropertyOp5
 70
     1
102
RTVSPropertyOp6
 70
     1
102
RTVSPropertyOp7
 70
     1
102
RTVSPropertyOp8
 70
     1
102
RTVSPropertyOp9
 70
     1
102
RTVSPropertyOp10
 70
     1
102
RTVSPropertyOp11
 70
     1
102
RTVSPropertyOp12
 70
     1
102
RTVSPropertyOp13
 70
     1
102
RTVSPropertyOp14
 70
     1
102
RTVSPropertyOp15
 70
     1
102
RTVSPropertyOp16
 70
     1
102
RTVSPropertyOp17
 70
     1
102
RTVSPropertyOp18
 70
     1
102
RTVSPropertyOp19
 70
     1
102
RTVSPropertyOp20
 70
     1
102
RTVSPropertyOp21
 70
     1
102
RTVSPropertyOp22
 70
     1
102
RTVSPropertyOp23
 70
     1
102
RTVSPropertyOp24
 70
     1
102
RTVSPropertyOp25
 70
     1
102
RTVSPropertyOp26
 70
     1
102
RTVSPropertyOp27
 70
     1
102
RTVSPropertyOp28
 70
     1
102
RTVSPropertyOp29
 70
     1
102
RTVSPropertyOp30
 70
     1
102
RTVSPropertyOp31
 70
     1
102
RTVSPropertyOp32
 70
     1
102
RTVSPropertyOp33
 70
     1
102
RTVSPropertyOp34
 70
     1
102
RTVSPropertyOp35
 70
     1
102
RTVSPropertyOp36
 70
     1
102
RTVSPropertyOp37
 70
     1
102
RTVSPropertyOp38
 70
     1
102
RTVSPropertyOp39
 70
     1
102
RTVSPropertyOp40
 70
     1
102
RTVSPropertyOp41
 70
     1
102
RTVSPropertyOp42
 70
     1
102
RTVSPropertyOp43
 70
     1
102
RTVSPropertyOp44
 70
     1
102
RTVSPropertyOp45
 70
     1
102
RTVSPropertyOp46
 70
     1
102
RTVSPropertyOp47
 70
     1
102
RTVSPropertyOp48
 70
     1
102
RTVSPropertyOp49
 70
     1
102
RTVSPropertyOp50
 70
     1
102
RTVSPropertyOp51
 70
     0
102
RTVSPropertyOp52
 70
     0
102
RTVSPropertyOp53
 70
     1
102
RTVSPropertyOp54
 70
     1
102
RTVSPropertyOp55
 70
     1
102
RTVSPropertyOp56
 70
     1
102
RTVSPropertyOp57
 70
     1
102
RTVSPost2010Prop28
280
     0
102
RTVSPost2010PropOp28
 70
     1
102
RTVSPost2010Prop29
280
     1
102
RTVSPost2010PropOp29
 70
     1
102
RTVSPost2010Prop30
280
     1
102
RTVSPost2010PropOp30
 70
     1
102
RTVSPost2010Prop31
280
     0
102
RTVSPost2010PropOp31
 70
     1
102
RTVSPost2010Prop32
280
     0
102
RTVSPost2010PropOp32
 70
     1
102
RTVSPost2010Prop33
280
     0
102
RTVSPost2010PropOp33
 70
     1
102
RTVSPost2010Prop34
280
     0
102
RTVSPost2010PropOp34
 70
     1
102
RTVSPost2010Prop35
280
     0
102
RTVSPost2010PropOp35
 70
     1
102
RTVSPost2010Prop36
280
     0
102
RTVSPost2010PropOp36
 70
     1
102
RTVSPost2010Prop37
 90
       50
102
RTVSPost2010PropOp37
 70
     1
102
RTVSPost2010Prop38
140
0.0
102
RTVSPost2010PropOp38
 70
     1
102
RTVSPost2010Prop39
140
1.0
102
RTVSPost2010PropOp39
 70
     1
102
RTVSPost2010Prop40
 90
        0
102
RTVSPost2010PropOp40
 70
     1
102
RTVSPost2010Prop41ColorIndex
 90
       18
102
RTVSPost2010Prop41ColorRGB
 90
        0
102
RTVSPost2010PropOp41
 70
     1
102
RTVSPost2010Prop42
 90
       50
102
RTVSPost2010PropOp42
 70
     1
102
RTVSPost2010Prop43
 90
        3
102
RTVSPost2010PropOp43
 70
     1
102
RTVSPost2010Prop44ColorIndex
 90
        5
102
RTVSPost2010Prop44ColorRGB
 90
      255
102
RTVSPost2010PropOp44
 70
     1
102
RTVSPost2010Prop45
280
     0
102
RTVSPost2010PropOp45
 70
     1
102
RTVSPost2010Prop46
 90
       50
102
RTVSPost2010PropOp46
 70
     1
102
RTVSPost2010Prop47
 90
       50
102
RTVSPost2010PropOp47
 70
     1
102
RTVSPost2010Prop48
 90
       50
102
RTVSPost2010PropOp48
 70
     1
102
RTVSPost2010Prop49
280
     0
102
RTVSPost2010PropOp49
 70
     1
102
RTVSPost2010Prop50
 90
       50
102
RTVSPost2010PropOp50
 70
     1
102
RTVSPost2010Prop51ColorIndex
 90
      256
102
RTVSPost2010Prop51ColorRGB
 90
-16777216
102
RTVSPost2010PropOp51
 70
     0
102
RTVSPost2010Prop52
140
1.0
102
RTVSPost2010PropOp52
 70
     0
102
RTVSPost2010Prop53
 90
        2
102
RTVSPost2010PropOp53
 70
     1
102
RTVSPost2010Prop54
  1
strokes_ogs.tif
102
RTVSPost2010PropOp54
 70
     1
102
RTVSPost2010Prop55
280
     0
102
RTVSPost2010PropOp55
 70
     1
102
RTVSPost2010Prop56
140
1.0
102
RTVSPost2010PropOp56
 70
     1
102
RTVSPost2010Prop57
140
1.0
102
RTVSPost2010PropOp57
 70
     1
  0
XRECORD
  5
49E
102
{ACAD_REACTORS
330
49D
102
}
330
49D
100
AcDbXrecord
280
     1
102
RTVSPropertyOp0
 70
     1
102
RTVSPropertyOp1
 70
     1
102
RTVSPropertyOp2
 70
     1
102
RTVSPropertyOp3
 70
     1
102
RTVSPropertyOp4
 70
     1
102
RTVSPropertyOp5
 70
     1
102
RTVSPropertyOp6
 70
     1
102
RTVSPropertyOp7
 70
     1
102
RTVSPropertyOp8
 70
     1
102
RTVSPropertyOp9
 70
     1
102
RTVSPropertyOp10
 70
     1
102
RTVSPropertyOp11
 70
     1
102
RTVSPropertyOp12
 70
     1
102
RTVSPropertyOp13
 70
     1
102
RTVSPropertyOp14
 70
     1
102
RTVSPropertyOp15
 70
     1
102
RTVSPropertyOp16
 70
     1
102
RTVSPropertyOp17
 70
     1
102
RTVSPropertyOp18
 70
     1
102
RTVSPropertyOp19
 70
     1
102
RTVSPropertyOp20
 70
     1
102
RTVSPropertyOp21
 70
     1
102
RTVSPropertyOp22
 70
     1
102
RTVSPropertyOp23
 70
     1
102
RTVSPropertyOp24
 70
     1
102
RTVSPropertyOp25
 70
     1
102
RTVSPropertyOp26
 70
     1
102
RTVSPropertyOp27
 70
     1
102
RTVSPropertyOp28
 70
     1
102
RTVSPropertyOp29
 70
     1
102
RTVSPropertyOp30
 70
     1
102
RTVSPropertyOp31
 70
     1
102
RTVSPropertyOp32
 70
     1
102
RTVSPropertyOp33
 70
     1
102
RTVSPropertyOp34
 70
     1
102
RTVSPropertyOp35
 70
     1
102
RTVSPropertyOp36
 70
     1
102
RTVSPropertyOp37
 70
     1
102
RTVSPropertyOp38
 70
     1
102
RTVSPropertyOp39
 70
     1
102
RTVSPropertyOp40
 70
     1
102
RTVSPropertyOp41
 70
     1
102
RTVSPropertyOp42
 70
     1
102
RTVSPropertyOp43
 70
     1
102
RTVSPropertyOp44
 70
     1
102
RTVSPropertyOp45
 70
     1
102
RTVSPropertyOp46
 70
     1
102
RTVSPropertyOp47
 70
     1
102
RTVSPropertyOp48
 70
     1
102
RTVSPropertyOp49
 70
     1
102
RTVSPropertyOp50
 70
     1
102
RTVSPropertyOp51
 70
     0
102
RTVSPropertyOp52
 70
     0
102
RTVSPropertyOp53
 70
     1
102
RTVSPropertyOp54
 70
     1
102
RTVSPropertyOp55
 70
     1
102
RTVSPropertyOp56
 70
     1
102
RTVSPropertyOp57
 70
     1
102
RTVSPost2010Prop28
280
     0
102
RTVSPost2010PropOp28
 70
     1
102
RTVSPost2010Prop29
280
     1
102
RTVSPost2010PropOp29
 70
     1
102
RTVSPost2010Prop30
280
     1
102
RTVSPost2010PropOp30
 70
     1
102
RTVSPost2010Prop31
280
     0
102
RTVSPost2010PropOp31
 70
     1
102
RTVSPost2010Prop32
280
     0
102
RTVSPost2010PropOp32
 70
     1
102
RTVSPost2010Prop33
280
     0
102
RTVSPost2010PropOp33
 70
     1
102
RTVSPost2010Prop34
280
     0
102
RTVSPost2010PropOp34
 70
     1
102
RTVSPost2010Prop35
280
     0
102
RTVSPost2010PropOp35
 70
     1
102
RTVSPost2010Prop36
280
     0
102
RTVSPost2010PropOp36
 70
     1
102
RTVSPost2010Prop37
 90
       50
102
RTVSPost2010PropOp37
 70
     1
102
RTVSPost2010Prop38
140
0.0
102
RTVSPost2010PropOp38
 70
     1
102
RTVSPost2010Prop39
140
1.0
102
RTVSPost2010PropOp39
 70
     1
102
RTVSPost2010Prop40
 90
        0
102
RTVSPost2010PropOp40
 70
     1
102
RTVSPost2010Prop41ColorIndex
 90
       18
102
RTVSPost2010Prop41ColorRGB
 90
        0
102
RTVSPost2010PropOp41
 70
     1
102
RTVSPost2010Prop42
 90
       50
102
RTVSPost2010PropOp42
 70
     1
102
RTVSPost2010Prop43
 90
        3
102
RTVSPost2010PropOp43
 70
     1
102
RTVSPost2010Prop44ColorIndex
 90
        5
102
RTVSPost2010Prop44ColorRGB
 90
      255
102
RTVSPost2010PropOp44
 70
     1
102
RTVSPost2010Prop45
280
     0
102
RTVSPost2010PropOp45
 70
     1
102
RTVSPost2010Prop46
 90
       50
102
RTVSPost2010PropOp46
 70
     1
102
RTVSPost2010Prop47
 90
       50
102
RTVSPost2010PropOp47
 70
     1
102
RTVSPost2010Prop48
 90
       50
102
RTVSPost2010PropOp48
 70
     1
102
RTVSPost2010Prop49
280
     0
102
RTVSPost2010PropOp49
 70
     1
102
RTVSPost2010Prop50
 90
       50
102
RTVSPost2010PropOp50
 70
     1
102
RTVSPost2010Prop51ColorIndex
 90
      256
102
RTVSPost2010Prop51ColorRGB
 90
-16777216
102
RTVSPost2010PropOp51
 70
     0
102
RTVSPost2010Prop52
140
1.0
102
RTVSPost2010PropOp52
 70
     0
102
RTVSPost2010Prop53
 90
        2
102
RTVSPost2010PropOp53
 70
     1
102
RTVSPost2010Prop54
  1
strokes_ogs.tif
102
RTVSPost2010PropOp54
 70
     1
102
RTVSPost2010Prop55
280
     0
102
RTVSPost2010PropOp55
 70
     1
102
RTVSPost2010Prop56
140
1.0
102
RTVSPost2010PropOp56
 70
     1
102
RTVSPost2010Prop57
140
1.0
102
RTVSPost2010PropOp57
 70
     1
  0
XRECORD
  5
4A0
102
{ACAD_REACTORS
330
49F
102
}
330
49F
100
AcDbXrecord
280
     1
102
RTVSPropertyOp0
 70
     1
102
RTVSPropertyOp1
 70
     1
102
RTVSPropertyOp2
 70
     1
102
RTVSPropertyOp3
 70
     1
102
RTVSPropertyOp4
 70
     1
102
RTVSPropertyOp5
 70
     1
102
RTVSPropertyOp6
 70
     1
102
RTVSPropertyOp7
 70
     1
102
RTVSPropertyOp8
 70
     1
102
RTVSPropertyOp9
 70
     1
102
RTVSPropertyOp10
 70
     1
102
RTVSPropertyOp11
 70
     1
102
RTVSPropertyOp12
 70
     1
102
RTVSPropertyOp13
 70
     1
102
RTVSPropertyOp14
 70
     1
102
RTVSPropertyOp15
 70
     1
102
RTVSPropertyOp16
 70
     1
102
RTVSPropertyOp17
 70
     1
102
RTVSPropertyOp18
 70
     1
102
RTVSPropertyOp19
 70
     1
102
RTVSPropertyOp20
 70
     1
102
RTVSPropertyOp21
 70
     1
102
RTVSPropertyOp22
 70
     1
102
RTVSPropertyOp23
 70
     1
102
RTVSPropertyOp24
 70
     1
102
RTVSPropertyOp25
 70
     1
102
RTVSPropertyOp26
 70
     1
102
RTVSPropertyOp27
 70
     1
102
RTVSPropertyOp28
 70
     1
102
RTVSPropertyOp29
 70
     1
102
RTVSPropertyOp30
 70
     1
102
RTVSPropertyOp31
 70
     1
102
RTVSPropertyOp32
 70
     1
102
RTVSPropertyOp33
 70
     1
102
RTVSPropertyOp34
 70
     1
102
RTVSPropertyOp35
 70
     1
102
RTVSPropertyOp36
 70
     1
102
RTVSPropertyOp37
 70
     1
102
RTVSPropertyOp38
 70
     1
102
RTVSPropertyOp39
 70
     1
102
RTVSPropertyOp40
 70
     1
102
RTVSPropertyOp41
 70
     1
102
RTVSPropertyOp42
 70
     1
102
RTVSPropertyOp43
 70
     1
102
RTVSPropertyOp44
 70
     1
102
RTVSPropertyOp45
 70
     1
102
RTVSPropertyOp46
 70
     1
102
RTVSPropertyOp47
 70
     1
102
RTVSPropertyOp48
 70
     1
102
RTVSPropertyOp49
 70
     1
102
RTVSPropertyOp50
 70
     1
102
RTVSPropertyOp51
 70
     0
102
RTVSPropertyOp52
 70
     0
102
RTVSPropertyOp53
 70
     1
102
RTVSPropertyOp54
 70
     1
102
RTVSPropertyOp55
 70
     1
102
RTVSPropertyOp56
 70
     1
102
RTVSPropertyOp57
 70
     1
102
RTVSPost2010Prop28
280
     0
102
RTVSPost2010PropOp28
 70
     1
102
RTVSPost2010Prop29
280
     1
102
RTVSPost2010PropOp29
 70
     1
102
RTVSPost2010Prop30
280
     1
102
RTVSPost2010PropOp30
 70
     1
102
RTVSPost2010Prop31
280
     0
102
RTVSPost2010PropOp31
 70
     1
102
RTVSPost2010Prop32
280
     0
102
RTVSPost2010PropOp32
 70
     1
102
RTVSPost2010Prop33
280
     0
102
RTVSPost2010PropOp33
 70
     1
102
RTVSPost2010Prop34
280
     0
102
RTVSPost2010PropOp34
 70
     1
102
RTVSPost2010Prop35
280
     0
102
RTVSPost2010PropOp35
 70
     1
102
RTVSPost2010Prop36
280
     0
102
RTVSPost2010PropOp36
 70
     1
102
RTVSPost2010Prop37
 90
       50
102
RTVSPost2010PropOp37
 70
     1
102
RTVSPost2010Prop38
140
0.0
102
RTVSPost2010PropOp38
 70
     1
102
RTVSPost2010Prop39
140
1.0
102
RTVSPost2010PropOp39
 70
     1
102
RTVSPost2010Prop40
 90
        0
102
RTVSPost2010PropOp40
 70
     1
102
RTVSPost2010Prop41ColorIndex
 90
       18
102
RTVSPost2010Prop41ColorRGB
 90
        0
102
RTVSPost2010PropOp41
 70
     1
102
RTVSPost2010Prop42
 90
       50
102
RTVSPost2010PropOp42
 70
     1
102
RTVSPost2010Prop43
 90
        3
102
RTVSPost2010PropOp43
 70
     1
102
RTVSPost2010Prop44ColorIndex
 90
        5
102
RTVSPost2010Prop44ColorRGB
 90
      255
102
RTVSPost2010PropOp44
 70
     1
102
RTVSPost2010Prop45
280
     0
102
RTVSPost2010PropOp45
 70
     1
102
RTVSPost2010Prop46
 90
       50
102
RTVSPost2010PropOp46
 70
     1
102
RTVSPost2010Prop47
 90
       50
102
RTVSPost2010PropOp47
 70
     1
102
RTVSPost2010Prop48
 90
       50
102
RTVSPost2010PropOp48
 70
     1
102
RTVSPost2010Prop49
280
     0
102
RTVSPost2010PropOp49
 70
     1
102
RTVSPost2010Prop50
 90
       50
102
RTVSPost2010PropOp50
 70
     1
102
RTVSPost2010Prop51ColorIndex
 90
      256
102
RTVSPost2010Prop51ColorRGB
 90
-16777216
102
RTVSPost2010PropOp51
 70
     0
102
RTVSPost2010Prop52
140
1.0
102
RTVSPost2010PropOp52
 70
     0
102
RTVSPost2010Prop53
 90
        2
102
RTVSPost2010PropOp53
 70
     1
102
RTVSPost2010Prop54
  1
strokes_ogs.tif
102
RTVSPost2010PropOp54
 70
     1
102
RTVSPost2010Prop55
280
     0
102
RTVSPost2010PropOp55
 70
     1
102
RTVSPost2010Prop56
140
1.0
102
RTVSPost2010PropOp56
 70
     1
102
RTVSPost2010Prop57
140
1.0
102
RTVSPost2010PropOp57
 70
     1
  0
XRECORD
  5
4A6
102
{ACAD_REACTORS
330
4A5
102
}
330
4A5
100
AcDbXrecord
280
     1
102
RTVSPropertyOp0
 70
     1
102
RTVSPropertyOp1
 70
     1
102
RTVSPropertyOp2
 70
     1
102
RTVSPropertyOp3
 70
     1
102
RTVSPropertyOp4
 70
     1
102
RTVSPropertyOp5
 70
     1
102
RTVSPropertyOp6
 70
     1
102
RTVSPropertyOp7
 70
     1
102
RTVSPropertyOp8
 70
     1
102
RTVSPropertyOp9
 70
     1
102
RTVSPropertyOp10
 70
     1
102
RTVSPropertyOp11
 70
     1
102
RTVSPropertyOp12
 70
     1
102
RTVSPropertyOp13
 70
     1
102
RTVSPropertyOp14
 70
     1
102
RTVSPropertyOp15
 70
     1
102
RTVSPropertyOp16
 70
     1
102
RTVSPropertyOp17
 70
     1
102
RTVSPropertyOp18
 70
     1
102
RTVSPropertyOp19
 70
     1
102
RTVSPropertyOp20
 70
     1
102
RTVSPropertyOp21
 70
     1
102
RTVSPropertyOp22
 70
     1
102
RTVSPropertyOp23
 70
     1
102
RTVSPropertyOp24
 70
     1
102
RTVSPropertyOp25
 70
     1
102
RTVSPropertyOp26
 70
     1
102
RTVSPropertyOp27
 70
     1
102
RTVSPropertyOp28
 70
     1
102
RTVSPropertyOp29
 70
     1
102
RTVSPropertyOp30
 70
     1
102
RTVSPropertyOp31
 70
     1
102
RTVSPropertyOp32
 70
     1
102
RTVSPropertyOp33
 70
     1
102
RTVSPropertyOp34
 70
     1
102
RTVSPropertyOp35
 70
     1
102
RTVSPropertyOp36
 70
     1
102
RTVSPropertyOp37
 70
     1
102
RTVSPropertyOp38
 70
     1
102
RTVSPropertyOp39
 70
     1
102
RTVSPropertyOp40
 70
     1
102
RTVSPropertyOp41
 70
     1
102
RTVSPropertyOp42
 70
     1
102
RTVSPropertyOp43
 70
     1
102
RTVSPropertyOp44
 70
     1
102
RTVSPropertyOp45
 70
     1
102
RTVSPropertyOp46
 70
     1
102
RTVSPropertyOp47
 70
     1
102
RTVSPropertyOp48
 70
     1
102
RTVSPropertyOp49
 70
     1
102
RTVSPropertyOp50
 70
     1
102
RTVSPropertyOp51
 70
     0
102
RTVSPropertyOp52
 70
     0
102
RTVSPropertyOp53
 70
     1
102
RTVSPropertyOp54
 70
     1
102
RTVSPropertyOp55
 70
     1
102
RTVSPropertyOp56
 70
     1
102
RTVSPropertyOp57
 70
     1
102
RTVSPost2010Prop28
280
     0
102
RTVSPost2010PropOp28
 70
     1
102
RTVSPost2010Prop29
280
     1
102
RTVSPost2010PropOp29
 70
     1
102
RTVSPost2010Prop30
280
     1
102
RTVSPost2010PropOp30
 70
     1
102
RTVSPost2010Prop31
280
     0
102
RTVSPost2010PropOp31
 70
     1
102
RTVSPost2010Prop32
280
     0
102
RTVSPost2010PropOp32
 70
     1
102
RTVSPost2010Prop33
280
     0
102
RTVSPost2010PropOp33
 70
     1
102
RTVSPost2010Prop34
280
     0
102
RTVSPost2010PropOp34
 70
     1
102
RTVSPost2010Prop35
280
     0
102
RTVSPost2010PropOp35
 70
     1
102
RTVSPost2010Prop36
280
     0
102
RTVSPost2010PropOp36
 70
     1
102
RTVSPost2010Prop37
 90
       50
102
RTVSPost2010PropOp37
 70
     1
102
RTVSPost2010Prop38
140
0.0
102
RTVSPost2010PropOp38
 70
     1
102
RTVSPost2010Prop39
140
1.0
102
RTVSPost2010PropOp39
 70
     1
102
RTVSPost2010Prop40
 90
        0
102
RTVSPost2010PropOp40
 70
     1
102
RTVSPost2010Prop41ColorIndex
 90
       18
102
RTVSPost2010Prop41ColorRGB
 90
        0
102
RTVSPost2010PropOp41
 70
     1
102
RTVSPost2010Prop42
 90
       50
102
RTVSPost2010PropOp42
 70
     1
102
RTVSPost2010Prop43
 90
        3
102
RTVSPost2010PropOp43
 70
     1
102
RTVSPost2010Prop44ColorIndex
 90
        5
102
RTVSPost2010Prop44ColorRGB
 90
      255
102
RTVSPost2010PropOp44
 70
     1
102
RTVSPost2010Prop45
280
     0
102
RTVSPost2010PropOp45
 70
     1
102
RTVSPost2010Prop46
 90
       50
102
RTVSPost2010PropOp46
 70
     1
102
RTVSPost2010Prop47
 90
       50
102
RTVSPost2010PropOp47
 70
     1
102
RTVSPost2010Prop48
 90
       50
102
RTVSPost2010PropOp48
 70
     1
102
RTVSPost2010Prop49
280
     0
102
RTVSPost2010PropOp49
 70
     1
102
RTVSPost2010Prop50
 90
       50
102
RTVSPost2010PropOp50
 70
     1
102
RTVSPost2010Prop51ColorIndex
 90
      256
102
RTVSPost2010Prop51ColorRGB
 90
-16777216
102
RTVSPost2010PropOp51
 70
     0
102
RTVSPost2010Prop52
140
1.0
102
RTVSPost2010PropOp52
 70
     0
102
RTVSPost2010Prop53
 90
        2
102
RTVSPost2010PropOp53
 70
     1
102
RTVSPost2010Prop54
  1
strokes_ogs.tif
102
RTVSPost2010PropOp54
 70
     1
102
RTVSPost2010Prop55
280
     0
102
RTVSPost2010PropOp55
 70
     1
102
RTVSPost2010Prop56
140
1.0
102
RTVSPost2010PropOp56
 70
     1
102
RTVSPost2010Prop57
140
1.0
102
RTVSPost2010PropOp57
 70
     1
  0
XRECORD
  5
4BA
102
{ACAD_REACTORS
330
4B9
102
}
330
4B9
100
AcDbXrecord
280
     1
102
RTVSPropertyOp0
 70
     0
102
RTVSPropertyOp1
 70
     0
102
RTVSPropertyOp2
 70
     0
102
RTVSPropertyOp3
 70
     0
102
RTVSPropertyOp4
 70
     0
102
RTVSPropertyOp5
 70
     0
102
RTVSPropertyOp6
 70
     0
102
RTVSPropertyOp7
 70
     0
102
RTVSPropertyOp8
 70
     0
102
RTVSPropertyOp9
 70
     0
102
RTVSPropertyOp10
 70
     0
102
RTVSPropertyOp11
 70
     0
102
RTVSPropertyOp12
 70
     0
102
RTVSPropertyOp13
 70
     0
102
RTVSPropertyOp14
 70
     2
102
RTVSPropertyOp15
 70
     0
102
RTVSPropertyOp16
 70
     0
102
RTVSPropertyOp17
 70
     0
102
RTVSPropertyOp18
 70
     0
102
RTVSPropertyOp19
 70
     0
102
RTVSPropertyOp20
 70
     0
102
RTVSPropertyOp21
 70
     0
102
RTVSPropertyOp22
 70
     0
102
RTVSPropertyOp23
 70
     0
102
RTVSPropertyOp24
 70
     0
102
RTVSPropertyOp25
 70
     0
102
RTVSPropertyOp26
 70
     0
102
RTVSPropertyOp27
 70
     0
102
RTVSPropertyOp28
 70
     0
102
RTVSPropertyOp29
 70
     0
102
RTVSPropertyOp30
 70
     0
102
RTVSPropertyOp31
 70
     0
102
RTVSPropertyOp32
 70
     0
102
RTVSPropertyOp33
 70
     0
102
RTVSPropertyOp34
 70
     0
102
RTVSPropertyOp35
 70
     0
102
RTVSPropertyOp36
 70
     0
102
RTVSPropertyOp37
 70
     0
102
RTVSPropertyOp38
 70
     0
102
RTVSPropertyOp39
 70
     0
102
RTVSPropertyOp40
 70
     0
102
RTVSPropertyOp41
 70
     0
102
RTVSPropertyOp42
 70
     0
102
RTVSPropertyOp43
 70
     0
102
RTVSPropertyOp44
 70
     0
102
RTVSPropertyOp45
 70
     0
102
RTVSPropertyOp46
 70
     0
102
RTVSPropertyOp47
 70
     0
102
RTVSPropertyOp48
 70
     0
102
RTVSPropertyOp49
 70
     0
102
RTVSPropertyOp50
 70
     0
102
RTVSPropertyOp51
 70
     0
102
RTVSPropertyOp52
 70
     0
102
RTVSPropertyOp53
 70
     0
102
RTVSPropertyOp54
 70
     0
102
RTVSPropertyOp55
 70
     0
102
RTVSPropertyOp56
 70
     0
102
RTVSPropertyOp57
 70
     0
102
RTVSPost2010Prop28
280
     0
102
RTVSPost2010PropOp28
 70
     0
102
RTVSPost2010Prop29
280
     1
102
RTVSPost2010PropOp29
 70
     0
102
RTVSPost2010Prop30
280
     1
102
RTVSPost2010PropOp30
 70
     0
102
RTVSPost2010Prop31
280
     0
102
RTVSPost2010PropOp31
 70
     0
102
RTVSPost2010Prop32
280
     0
102
RTVSPost2010PropOp32
 70
     0
102
RTVSPost2010Prop33
280
     0
102
RTVSPost2010PropOp33
 70
     0
102
RTVSPost2010Prop34
280
     0
102
RTVSPost2010PropOp34
 70
     0
102
RTVSPost2010Prop35
280
     0
102
RTVSPost2010PropOp35
 70
     0
102
RTVSPost2010Prop36
280
     0
102
RTVSPost2010PropOp36
 70
     0
102
RTVSPost2010Prop37
 90
       50
102
RTVSPost2010PropOp37
 70
     0
102
RTVSPost2010Prop38
140
0.0
102
RTVSPost2010PropOp38
 70
     0
102
RTVSPost2010Prop39
140
1.0
102
RTVSPost2010PropOp39
 70
     0
102
RTVSPost2010Prop40
 90
        0
102
RTVSPost2010PropOp40
 70
     0
102
RTVSPost2010Prop41ColorIndex
 90
       18
102
RTVSPost2010Prop41ColorRGB
 90
        0
102
RTVSPost2010PropOp41
 70
     0
102
RTVSPost2010Prop42
 90
       50
102
RTVSPost2010PropOp42
 70
     0
102
RTVSPost2010Prop43
 90
        3
102
RTVSPost2010PropOp43
 70
     0
102
RTVSPost2010Prop44ColorIndex
 90
        5
102
RTVSPost2010Prop44ColorRGB
 90
      255
102
RTVSPost2010PropOp44
 70
     0
102
RTVSPost2010Prop45
280
     0
102
RTVSPost2010PropOp45
 70
     0
102
RTVSPost2010Prop46
 90
       50
102
RTVSPost2010PropOp46
 70
     0
102
RTVSPost2010Prop47
 90
       50
102
RTVSPost2010PropOp47
 70
     0
102
RTVSPost2010Prop48
 90
       50
102
RTVSPost2010PropOp48
 70
     0
102
RTVSPost2010Prop49
280
     0
102
RTVSPost2010PropOp49
 70
     0
102
RTVSPost2010Prop50
 90
       50
102
RTVSPost2010PropOp50
 70
     0
102
RTVSPost2010Prop51ColorIndex
 90
      256
102
RTVSPost2010Prop51ColorRGB
 90
-16777216
102
RTVSPost2010PropOp51
 70
     0
102
RTVSPost2010Prop52
140
1.0
102
RTVSPost2010PropOp52
 70
     0
102
RTVSPost2010Prop53
 90
        2
102
RTVSPost2010PropOp53
 70
     0
102
RTVSPost2010Prop54
  1
strokes_ogs.tif
102
RTVSPost2010PropOp54
 70
     0
102
RTVSPost2010Prop55
280
     0
102
RTVSPost2010PropOp55
 70
     0
102
RTVSPost2010Prop56
140
1.0
102
RTVSPost2010PropOp56
 70
     0
102
RTVSPost2010Prop57
140
1.0
102
RTVSPost2010PropOp57
 70
     0
  0
XRECORD
  5
4B4
102
{ACAD_REACTORS
330
4B3
102
}
330
4B3
100
AcDbXrecord
280
     1
102
RTVSPropertyOp0
 70
     1
102
RTVSPropertyOp1
 70
     1
102
RTVSPropertyOp2
 70
     1
102
RTVSPropertyOp3
 70
     1
102
RTVSPropertyOp4
 70
     1
102
RTVSPropertyOp5
 70
     1
102
RTVSPropertyOp6
 70
     1
102
RTVSPropertyOp7
 70
     1
102
RTVSPropertyOp8
 70
     1
102
RTVSPropertyOp9
 70
     1
102
RTVSPropertyOp10
 70
     1
102
RTVSPropertyOp11
 70
     1
102
RTVSPropertyOp12
 70
     1
102
RTVSPropertyOp13
 70
     1
102
RTVSPropertyOp14
 70
     1
102
RTVSPropertyOp15
 70
     1
102
RTVSPropertyOp16
 70
     1
102
RTVSPropertyOp17
 70
     1
102
RTVSPropertyOp18
 70
     1
102
RTVSPropertyOp19
 70
     1
102
RTVSPropertyOp20
 70
     1
102
RTVSPropertyOp21
 70
     1
102
RTVSPropertyOp22
 70
     1
102
RTVSPropertyOp23
 70
     1
102
RTVSPropertyOp24
 70
     1
102
RTVSPropertyOp25
 70
     1
102
RTVSPropertyOp26
 70
     1
102
RTVSPropertyOp27
 70
     1
102
RTVSPropertyOp28
 70
     1
102
RTVSPropertyOp29
 70
     1
102
RTVSPropertyOp30
 70
     1
102
RTVSPropertyOp31
 70
     1
102
RTVSPropertyOp32
 70
     1
102
RTVSPropertyOp33
 70
     1
102
RTVSPropertyOp34
 70
     1
102
RTVSPropertyOp35
 70
     1
102
RTVSPropertyOp36
 70
     1
102
RTVSPropertyOp37
 70
     1
102
RTVSPropertyOp38
 70
     1
102
RTVSPropertyOp39
 70
     1
102
RTVSPropertyOp40
 70
     1
102
RTVSPropertyOp41
 70
     1
102
RTVSPropertyOp42
 70
     1
102
RTVSPropertyOp43
 70
     1
102
RTVSPropertyOp44
 70
     1
102
RTVSPropertyOp45
 70
     1
102
RTVSPropertyOp46
 70
     1
102
RTVSPropertyOp47
 70
     1
102
RTVSPropertyOp48
 70
     1
102
RTVSPropertyOp49
 70
     1
102
RTVSPropertyOp50
 70
     1
102
RTVSPropertyOp51
 70
     0
102
RTVSPropertyOp52
 70
     0
102
RTVSPropertyOp53
 70
     1
102
RTVSPropertyOp54
 70
     1
102
RTVSPropertyOp55
 70
     1
102
RTVSPropertyOp56
 70
     1
102
RTVSPropertyOp57
 70
     1
102
RTVSPost2010Prop28
280
     0
102
RTVSPost2010PropOp28
 70
     1
102
RTVSPost2010Prop29
280
     1
102
RTVSPost2010PropOp29
 70
     1
102
RTVSPost2010Prop30
280
     1
102
RTVSPost2010PropOp30
 70
     1
102
RTVSPost2010Prop31
280
     0
102
RTVSPost2010PropOp31
 70
     1
102
RTVSPost2010Prop32
280
     0
102
RTVSPost2010PropOp32
 70
     1
102
RTVSPost2010Prop33
280
     0
102
RTVSPost2010PropOp33
 70
     1
102
RTVSPost2010Prop34
280
     0
102
RTVSPost2010PropOp34
 70
     1
102
RTVSPost2010Prop35
280
     0
102
RTVSPost2010PropOp35
 70
     1
102
RTVSPost2010Prop36
280
     0
102
RTVSPost2010PropOp36
 70
     1
102
RTVSPost2010Prop37
 90
       50
102
RTVSPost2010PropOp37
 70
     1
102
RTVSPost2010Prop38
140
0.0
102
RTVSPost2010PropOp38
 70
     1
102
RTVSPost2010Prop39
140
1.0
102
RTVSPost2010PropOp39
 70
     1
102
RTVSPost2010Prop40
 90
        0
102
RTVSPost2010PropOp40
 70
     1
102
RTVSPost2010Prop41ColorIndex
 90
       18
102
RTVSPost2010Prop41ColorRGB
 90
        0
102
RTVSPost2010PropOp41
 70
     1
102
RTVSPost2010Prop42
 90
       50
102
RTVSPost2010PropOp42
 70
     1
102
RTVSPost2010Prop43
 90
        3
102
RTVSPost2010PropOp43
 70
     1
102
RTVSPost2010Prop44ColorIndex
 90
        5
102
RTVSPost2010Prop44ColorRGB
 90
      255
102
RTVSPost2010PropOp44
 70
     1
102
RTVSPost2010Prop45
280
     0
102
RTVSPost2010PropOp45
 70
     1
102
RTVSPost2010Prop46
 90
       50
102
RTVSPost2010PropOp46
 70
     1
102
RTVSPost2010Prop47
 90
       50
102
RTVSPost2010PropOp47
 70
     1
102
RTVSPost2010Prop48
 90
       50
102
RTVSPost2010PropOp48
 70
     1
102
RTVSPost2010Prop49
280
     0
102
RTVSPost2010PropOp49
 70
     1
102
RTVSPost2010Prop50
 90
       50
102
RTVSPost2010PropOp50
 70
     1
102
RTVSPost2010Prop51ColorIndex
 90
      256
102
RTVSPost2010Prop51ColorRGB
 90
-16777216
102
RTVSPost2010PropOp51
 70
     0
102
RTVSPost2010Prop52
140
1.0
102
RTVSPost2010PropOp52
 70
     0
102
RTVSPost2010Prop53
 90
        2
102
RTVSPost2010PropOp53
 70
     1
102
RTVSPost2010Prop54
  1
strokes_ogs.tif
102
RTVSPost2010PropOp54
 70
     1
102
RTVSPost2010Prop55
280
     0
102
RTVSPost2010PropOp55
 70
     1
102
RTVSPost2010Prop56
140
1.0
102
RTVSPost2010PropOp56
 70
     1
102
RTVSPost2010Prop57
140
1.0
102
RTVSPost2010PropOp57
 70
     1
  0
XRECORD
  5
4BC
102
{ACAD_REACTORS
330
4BB
102
}
330
4BB
100
AcDbXrecord
280
     1
102
RTVSPropertyOp0
 70
     0
102
RTVSPropertyOp1
 70
     0
102
RTVSPropertyOp2
 70
     0
102
RTVSPropertyOp3
 70
     0
102
RTVSPropertyOp4
 70
     0
102
RTVSPropertyOp5
 70
     0
102
RTVSPropertyOp6
 70
     0
102
RTVSPropertyOp7
 70
     0
102
RTVSPropertyOp8
 70
     0
102
RTVSPropertyOp9
 70
     0
102
RTVSPropertyOp10
 70
     0
102
RTVSPropertyOp11
 70
     0
102
RTVSPropertyOp12
 70
     0
102
RTVSPropertyOp13
 70
     0
102
RTVSPropertyOp14
 70
     2
102
RTVSPropertyOp15
 70
     0
102
RTVSPropertyOp16
 70
     0
102
RTVSPropertyOp17
 70
     0
102
RTVSPropertyOp18
 70
     0
102
RTVSPropertyOp19
 70
     0
102
RTVSPropertyOp20
 70
     0
102
RTVSPropertyOp21
 70
     0
102
RTVSPropertyOp22
 70
     0
102
RTVSPropertyOp23
 70
     0
102
RTVSPropertyOp24
 70
     0
102
RTVSPropertyOp25
 70
     0
102
RTVSPropertyOp26
 70
     0
102
RTVSPropertyOp27
 70
     0
102
RTVSPropertyOp28
 70
     0
102
RTVSPropertyOp29
 70
     0
102
RTVSPropertyOp30
 70
     0
102
RTVSPropertyOp31
 70
     0
102
RTVSPropertyOp32
 70
     0
102
RTVSPropertyOp33
 70
     0
102
RTVSPropertyOp34
 70
     0
102
RTVSPropertyOp35
 70
     0
102
RTVSPropertyOp36
 70
     0
102
RTVSPropertyOp37
 70
     0
102
RTVSPropertyOp38
 70
     0
102
RTVSPropertyOp39
 70
     0
102
RTVSPropertyOp40
 70
     0
102
RTVSPropertyOp41
 70
     0
102
RTVSPropertyOp42
 70
     0
102
RTVSPropertyOp43
 70
     0
102
RTVSPropertyOp44
 70
     0
102
RTVSPropertyOp45
 70
     0
102
RTVSPropertyOp46
 70
     0
102
RTVSPropertyOp47
 70
     0
102
RTVSPropertyOp48
 70
     0
102
RTVSPropertyOp49
 70
     0
102
RTVSPropertyOp50
 70
     0
102
RTVSPropertyOp51
 70
     0
102
RTVSPropertyOp52
 70
     0
102
RTVSPropertyOp53
 70
     0
102
RTVSPropertyOp54
 70
     0
102
RTVSPropertyOp55
 70
     0
102
RTVSPropertyOp56
 70
     0
102
RTVSPropertyOp57
 70
     0
102
RTVSPost2010Prop28
280
     0
102
RTVSPost2010PropOp28
 70
     0
102
RTVSPost2010Prop29
280
     1
102
RTVSPost2010PropOp29
 70
     0
102
RTVSPost2010Prop30
280
     1
102
RTVSPost2010PropOp30
 70
     0
102
RTVSPost2010Prop31
280
     0
102
RTVSPost2010PropOp31
 70
     0
102
RTVSPost2010Prop32
280
     0
102
RTVSPost2010PropOp32
 70
     0
102
RTVSPost2010Prop33
280
     0
102
RTVSPost2010PropOp33
 70
     0
102
RTVSPost2010Prop34
280
     0
102
RTVSPost2010PropOp34
 70
     0
102
RTVSPost2010Prop35
280
     0
102
RTVSPost2010PropOp35
 70
     0
102
RTVSPost2010Prop36
280
     0
102
RTVSPost2010PropOp36
 70
     0
102
RTVSPost2010Prop37
 90
       50
102
RTVSPost2010PropOp37
 70
     0
102
RTVSPost2010Prop38
140
0.0
102
RTVSPost2010PropOp38
 70
     0
102
RTVSPost2010Prop39
140
1.0
102
RTVSPost2010PropOp39
 70
     0
102
RTVSPost2010Prop40
 90
        0
102
RTVSPost2010PropOp40
 70
     0
102
RTVSPost2010Prop41ColorIndex
 90
       18
102
RTVSPost2010Prop41ColorRGB
 90
        0
102
RTVSPost2010PropOp41
 70
     0
102
RTVSPost2010Prop42
 90
       50
102
RTVSPost2010PropOp42
 70
     0
102
RTVSPost2010Prop43
 90
        3
102
RTVSPost2010PropOp43
 70
     0
102
RTVSPost2010Prop44ColorIndex
 90
        5
102
RTVSPost2010Prop44ColorRGB
 90
      255
102
RTVSPost2010PropOp44
 70
     0
102
RTVSPost2010Prop45
280
     0
102
RTVSPost2010PropOp45
 70
     0
102
RTVSPost2010Prop46
 90
       50
102
RTVSPost2010PropOp46
 70
     0
102
RTVSPost2010Prop47
 90
       50
102
RTVSPost2010PropOp47
 70
     0
102
RTVSPost2010Prop48
 90
       50
102
RTVSPost2010PropOp48
 70
     0
102
RTVSPost2010Prop49
280
     0
102
RTVSPost2010PropOp49
 70
     0
102
RTVSPost2010Prop50
 90
       50
102
RTVSPost2010PropOp50
 70
     0
102
RTVSPost2010Prop51ColorIndex
 90
      256
102
RTVSPost2010Prop51ColorRGB
 90
-16777216
102
RTVSPost2010PropOp51
 70
     0
102
RTVSPost2010Prop52
140
1.0
102
RTVSPost2010PropOp52
 70
     0
102
RTVSPost2010Prop53
 90
        2
102
RTVSPost2010PropOp53
 70
     0
102
RTVSPost2010Prop54
  1
strokes_ogs.tif
102
RTVSPost2010PropOp54
 70
     0
102
RTVSPost2010Prop55
280
     0
102
RTVSPost2010PropOp55
 70
     0
102
RTVSPost2010Prop56
140
1.0
102
RTVSPost2010PropOp56
 70
     0
102
RTVSPost2010Prop57
140
1.0
102
RTVSPost2010PropOp57
 70
     0
  0
XRECORD
  5
4AA
102
{ACAD_REACTORS
330
4A9
102
}
330
4A9
100
AcDbXrecord
280
     1
102
RTVSPropertyOp0
 70
     1
102
RTVSPropertyOp1
 70
     1
102
RTVSPropertyOp2
 70
     1
102
RTVSPropertyOp3
 70
     1
102
RTVSPropertyOp4
 70
     1
102
RTVSPropertyOp5
 70
     1
102
RTVSPropertyOp6
 70
     1
102
RTVSPropertyOp7
 70
     1
102
RTVSPropertyOp8
 70
     1
102
RTVSPropertyOp9
 70
     1
102
RTVSPropertyOp10
 70
     1
102
RTVSPropertyOp11
 70
     1
102
RTVSPropertyOp12
 70
     1
102
RTVSPropertyOp13
 70
     1
102
RTVSPropertyOp14
 70
     1
102
RTVSPropertyOp15
 70
     1
102
RTVSPropertyOp16
 70
     1
102
RTVSPropertyOp17
 70
     1
102
RTVSPropertyOp18
 70
     1
102
RTVSPropertyOp19
 70
     1
102
RTVSPropertyOp20
 70
     1
102
RTVSPropertyOp21
 70
     1
102
RTVSPropertyOp22
 70
     1
102
RTVSPropertyOp23
 70
     1
102
RTVSPropertyOp24
 70
     1
102
RTVSPropertyOp25
 70
     1
102
RTVSPropertyOp26
 70
     1
102
RTVSPropertyOp27
 70
     1
102
RTVSPropertyOp28
 70
     1
102
RTVSPropertyOp29
 70
     1
102
RTVSPropertyOp30
 70
     1
102
RTVSPropertyOp31
 70
     1
102
RTVSPropertyOp32
 70
     1
102
RTVSPropertyOp33
 70
     1
102
RTVSPropertyOp34
 70
     1
102
RTVSPropertyOp35
 70
     1
102
RTVSPropertyOp36
 70
     1
102
RTVSPropertyOp37
 70
     1
102
RTVSPropertyOp38
 70
     1
102
RTVSPropertyOp39
 70
     1
102
RTVSPropertyOp40
 70
     1
102
RTVSPropertyOp41
 70
     1
102
RTVSPropertyOp42
 70
     1
102
RTVSPropertyOp43
 70
     1
102
RTVSPropertyOp44
 70
     1
102
RTVSPropertyOp45
 70
     1
102
RTVSPropertyOp46
 70
     1
102
RTVSPropertyOp47
 70
     1
102
RTVSPropertyOp48
 70
     1
102
RTVSPropertyOp49
 70
     1
102
RTVSPropertyOp50
 70
     1
102
RTVSPropertyOp51
 70
     0
102
RTVSPropertyOp52
 70
     0
102
RTVSPropertyOp53
 70
     1
102
RTVSPropertyOp54
 70
     1
102
RTVSPropertyOp55
 70
     1
102
RTVSPropertyOp56
 70
     1
102
RTVSPropertyOp57
 70
     1
102
RTVSPost2010Prop28
280
     0
102
RTVSPost2010PropOp28
 70
     1
102
RTVSPost2010Prop29
280
     1
102
RTVSPost2010PropOp29
 70
     1
102
RTVSPost2010Prop30
280
     1
102
RTVSPost2010PropOp30
 70
     1
102
RTVSPost2010Prop31
280
     0
102
RTVSPost2010PropOp31
 70
     1
102
RTVSPost2010Prop32
280
     0
102
RTVSPost2010PropOp32
 70
     1
102
RTVSPost2010Prop33
280
     0
102
RTVSPost2010PropOp33
 70
     1
102
RTVSPost2010Prop34
280
     0
102
RTVSPost2010PropOp34
 70
     1
102
RTVSPost2010Prop35
280
     0
102
RTVSPost2010PropOp35
 70
     1
102
RTVSPost2010Prop36
280
     0
102
RTVSPost2010PropOp36
 70
     1
102
RTVSPost2010Prop37
 90
       50
102
RTVSPost2010PropOp37
 70
     1
102
RTVSPost2010Prop38
140
0.0
102
RTVSPost2010PropOp38
 70
     1
102
RTVSPost2010Prop39
140
1.0
102
RTVSPost2010PropOp39
 70
     1
102
RTVSPost2010Prop40
 90
        0
102
RTVSPost2010PropOp40
 70
     1
102
RTVSPost2010Prop41ColorIndex
 90
       18
102
RTVSPost2010Prop41ColorRGB
 90
        0
102
RTVSPost2010PropOp41
 70
     1
102
RTVSPost2010Prop42
 90
       50
102
RTVSPost2010PropOp42
 70
     1
102
RTVSPost2010Prop43
 90
        3
102
RTVSPost2010PropOp43
 70
     1
102
RTVSPost2010Prop44ColorIndex
 90
        5
102
RTVSPost2010Prop44ColorRGB
 90
      255
102
RTVSPost2010PropOp44
 70
     1
102
RTVSPost2010Prop45
280
     0
102
RTVSPost2010PropOp45
 70
     1
102
RTVSPost2010Prop46
 90
       50
102
RTVSPost2010PropOp46
 70
     1
102
RTVSPost2010Prop47
 90
       50
102
RTVSPost2010PropOp47
 70
     1
102
RTVSPost2010Prop48
 90
       50
102
RTVSPost2010PropOp48
 70
     1
102
RTVSPost2010Prop49
280
     0
102
RTVSPost2010PropOp49
 70
     1
102
RTVSPost2010Prop50
 90
       50
102
RTVSPost2010PropOp50
 70
     1
102
RTVSPost2010Prop51ColorIndex
 90
      256
102
RTVSPost2010Prop51ColorRGB
 90
-16777216
102
RTVSPost2010PropOp51
 70
     0
102
RTVSPost2010Prop52
140
1.0
102
RTVSPost2010PropOp52
 70
     0
102
RTVSPost2010Prop53
 90
        2
102
RTVSPost2010PropOp53
 70
     1
102
RTVSPost2010Prop54
  1
strokes_ogs.tif
102
RTVSPost2010PropOp54
 70
     1
102
RTVSPost2010Prop55
280
     0
102
RTVSPost2010PropOp55
 70
     1
102
RTVSPost2010Prop56
140
1.0
102
RTVSPost2010PropOp56
 70
     1
102
RTVSPost2010Prop57
140
1.0
102
RTVSPost2010PropOp57
 70
     1
  0
XRECORD
  5
4C8
102
{ACAD_REACTORS
330
4C7
102
}
330
4C7
100
AcDbXrecord
280
     1
102
RTVSPropertyOp0
 70
     1
102
RTVSPropertyOp1
 70
     1
102
RTVSPropertyOp2
 70
     1
102
RTVSPropertyOp3
 70
     1
102
RTVSPropertyOp4
 70
     1
102
RTVSPropertyOp5
 70
     1
102
RTVSPropertyOp6
 70
     1
102
RTVSPropertyOp7
 70
     1
102
RTVSPropertyOp8
 70
     1
102
RTVSPropertyOp9
 70
     1
102
RTVSPropertyOp10
 70
     1
102
RTVSPropertyOp11
 70
     1
102
RTVSPropertyOp12
 70
     1
102
RTVSPropertyOp13
 70
     1
102
RTVSPropertyOp14
 70
     1
102
RTVSPropertyOp15
 70
     1
102
RTVSPropertyOp16
 70
     1
102
RTVSPropertyOp17
 70
     1
102
RTVSPropertyOp18
 70
     1
102
RTVSPropertyOp19
 70
     1
102
RTVSPropertyOp20
 70
     1
102
RTVSPropertyOp21
 70
     1
102
RTVSPropertyOp22
 70
     1
102
RTVSPropertyOp23
 70
     1
102
RTVSPropertyOp24
 70
     1
102
RTVSPropertyOp25
 70
     1
102
RTVSPropertyOp26
 70
     1
102
RTVSPropertyOp27
 70
     1
102
RTVSPropertyOp28
 70
     1
102
RTVSPropertyOp29
 70
     1
102
RTVSPropertyOp30
 70
     1
102
RTVSPropertyOp31
 70
     1
102
RTVSPropertyOp32
 70
     1
102
RTVSPropertyOp33
 70
     1
102
RTVSPropertyOp34
 70
     1
102
RTVSPropertyOp35
 70
     1
102
RTVSPropertyOp36
 70
     1
102
RTVSPropertyOp37
 70
     1
102
RTVSPropertyOp38
 70
     1
102
RTVSPropertyOp39
 70
     1
102
RTVSPropertyOp40
 70
     1
102
RTVSPropertyOp41
 70
     1
102
RTVSPropertyOp42
 70
     1
102
RTVSPropertyOp43
 70
     1
102
RTVSPropertyOp44
 70
     1
102
RTVSPropertyOp45
 70
     1
102
RTVSPropertyOp46
 70
     1
102
RTVSPropertyOp47
 70
     1
102
RTVSPropertyOp48
 70
     1
102
RTVSPropertyOp49
 70
     1
102
RTVSPropertyOp50
 70
     1
102
RTVSPropertyOp51
 70
     0
102
RTVSPropertyOp52
 70
     0
102
RTVSPropertyOp53
 70
     1
102
RTVSPropertyOp54
 70
     1
102
RTVSPropertyOp55
 70
     1
102
RTVSPropertyOp56
 70
     1
102
RTVSPropertyOp57
 70
     1
102
RTVSPost2010Prop28
280
     0
102
RTVSPost2010PropOp28
 70
     1
102
RTVSPost2010Prop29
280
     1
102
RTVSPost2010PropOp29
 70
     1
102
RTVSPost2010Prop30
280
     1
102
RTVSPost2010PropOp30
 70
     1
102
RTVSPost2010Prop31
280
     0
102
RTVSPost2010PropOp31
 70
     1
102
RTVSPost2010Prop32
280
     0
102
RTVSPost2010PropOp32
 70
     1
102
RTVSPost2010Prop33
280
     0
102
RTVSPost2010PropOp33
 70
     1
102
RTVSPost2010Prop34
280
     0
102
RTVSPost2010PropOp34
 70
     1
102
RTVSPost2010Prop35
280
     0
102
RTVSPost2010PropOp35
 70
     1
102
RTVSPost2010Prop36
280
     0
102
RTVSPost2010PropOp36
 70
     1
102
RTVSPost2010Prop37
 90
       50
102
RTVSPost2010PropOp37
 70
     1
102
RTVSPost2010Prop38
140
0.0
102
RTVSPost2010PropOp38
 70
     1
102
RTVSPost2010Prop39
140
1.0
102
RTVSPost2010PropOp39
 70
     1
102
RTVSPost2010Prop40
 90
        0
102
RTVSPost2010PropOp40
 70
     1
102
RTVSPost2010Prop41ColorIndex
 90
       18
102
RTVSPost2010Prop41ColorRGB
 90
        0
102
RTVSPost2010PropOp41
 70
     1
102
RTVSPost2010Prop42
 90
       50
102
RTVSPost2010PropOp42
 70
     1
102
RTVSPost2010Prop43
 90
        3
102
RTVSPost2010PropOp43
 70
     1
102
RTVSPost2010Prop44ColorIndex
 90
        5
102
RTVSPost2010Prop44ColorRGB
 90
      255
102
RTVSPost2010PropOp44
 70
     1
102
RTVSPost2010Prop45
280
     0
102
RTVSPost2010PropOp45
 70
     1
102
RTVSPost2010Prop46
 90
       50
102
RTVSPost2010PropOp46
 70
     1
102
RTVSPost2010Prop47
 90
       50
102
RTVSPost2010PropOp47
 70
     1
102
RTVSPost2010Prop48
 90
       50
102
RTVSPost2010PropOp48
 70
     1
102
RTVSPost2010Prop49
280
     0
102
RTVSPost2010PropOp49
 70
     1
102
RTVSPost2010Prop50
 90
       50
102
RTVSPost2010PropOp50
 70
     1
102
RTVSPost2010Prop51ColorIndex
 90
      256
102
RTVSPost2010Prop51ColorRGB
 90
-16777216
102
RTVSPost2010PropOp51
 70
     0
102
RTVSPost2010Prop52
140
1.0
102
RTVSPost2010PropOp52
 70
     0
102
RTVSPost2010Prop53
 90
        2
102
RTVSPost2010PropOp53
 70
     1
102
RTVSPost2010Prop54
  1
strokes_ogs.tif
102
RTVSPost2010PropOp54
 70
     1
102
RTVSPost2010Prop55
280
     0
102
RTVSPost2010PropOp55
 70
     1
102
RTVSPost2010Prop56
140
1.0
102
RTVSPost2010PropOp56
 70
     1
102
RTVSPost2010Prop57
140
1.0
102
RTVSPost2010PropOp57
 70
     1
  0
XRECORD
  5
4C6
102
{ACAD_REACTORS
330
4C5
102
}
330
4C5
100
AcDbXrecord
280
     1
102
RTVSPropertyOp0
 70
     1
102
RTVSPropertyOp1
 70
     1
102
RTVSPropertyOp2
 70
     1
102
RTVSPropertyOp3
 70
     1
102
RTVSPropertyOp4
 70
     1
102
RTVSPropertyOp5
 70
     1
102
RTVSPropertyOp6
 70
     1
102
RTVSPropertyOp7
 70
     1
102
RTVSPropertyOp8
 70
     1
102
RTVSPropertyOp9
 70
     1
102
RTVSPropertyOp10
 70
     1
102
RTVSPropertyOp11
 70
     1
102
RTVSPropertyOp12
 70
     1
102
RTVSPropertyOp13
 70
     1
102
RTVSPropertyOp14
 70
     1
102
RTVSPropertyOp15
 70
     1
102
RTVSPropertyOp16
 70
     1
102
RTVSPropertyOp17
 70
     1
102
RTVSPropertyOp18
 70
     1
102
RTVSPropertyOp19
 70
     1
102
RTVSPropertyOp20
 70
     1
102
RTVSPropertyOp21
 70
     1
102
RTVSPropertyOp22
 70
     1
102
RTVSPropertyOp23
 70
     1
102
RTVSPropertyOp24
 70
     1
102
RTVSPropertyOp25
 70
     1
102
RTVSPropertyOp26
 70
     1
102
RTVSPropertyOp27
 70
     1
102
RTVSPropertyOp28
 70
     1
102
RTVSPropertyOp29
 70
     1
102
RTVSPropertyOp30
 70
     1
102
RTVSPropertyOp31
 70
     1
102
RTVSPropertyOp32
 70
     1
102
RTVSPropertyOp33
 70
     1
102
RTVSPropertyOp34
 70
     1
102
RTVSPropertyOp35
 70
     1
102
RTVSPropertyOp36
 70
     1
102
RTVSPropertyOp37
 70
     1
102
RTVSPropertyOp38
 70
     1
102
RTVSPropertyOp39
 70
     1
102
RTVSPropertyOp40
 70
     1
102
RTVSPropertyOp41
 70
     1
102
RTVSPropertyOp42
 70
     1
102
RTVSPropertyOp43
 70
     1
102
RTVSPropertyOp44
 70
     1
102
RTVSPropertyOp45
 70
     1
102
RTVSPropertyOp46
 70
     1
102
RTVSPropertyOp47
 70
     1
102
RTVSPropertyOp48
 70
     1
102
RTVSPropertyOp49
 70
     1
102
RTVSPropertyOp50
 70
     1
102
RTVSPropertyOp51
 70
     0
102
RTVSPropertyOp52
 70
     0
102
RTVSPropertyOp53
 70
     1
102
RTVSPropertyOp54
 70
     1
102
RTVSPropertyOp55
 70
     1
102
RTVSPropertyOp56
 70
     1
102
RTVSPropertyOp57
 70
     1
102
RTVSPost2010Prop28
280
     0
102
RTVSPost2010PropOp28
 70
     1
102
RTVSPost2010Prop29
280
     1
102
RTVSPost2010PropOp29
 70
     1
102
RTVSPost2010Prop30
280
     1
102
RTVSPost2010PropOp30
 70
     1
102
RTVSPost2010Prop31
280
     0
102
RTVSPost2010PropOp31
 70
     1
102
RTVSPost2010Prop32
280
     0
102
RTVSPost2010PropOp32
 70
     1
102
RTVSPost2010Prop33
280
     0
102
RTVSPost2010PropOp33
 70
     1
102
RTVSPost2010Prop34
280
     0
102
RTVSPost2010PropOp34
 70
     1
102
RTVSPost2010Prop35
280
     0
102
RTVSPost2010PropOp35
 70
     1
102
RTVSPost2010Prop36
280
     0
102
RTVSPost2010PropOp36
 70
     1
102
RTVSPost2010Prop37
 90
       50
102
RTVSPost2010PropOp37
 70
     1
102
RTVSPost2010Prop38
140
0.0
102
RTVSPost2010PropOp38
 70
     1
102
RTVSPost2010Prop39
140
1.0
102
RTVSPost2010PropOp39
 70
     1
102
RTVSPost2010Prop40
 90
        0
102
RTVSPost2010PropOp40
 70
     1
102
RTVSPost2010Prop41ColorIndex
 90
       18
102
RTVSPost2010Prop41ColorRGB
 90
        0
102
RTVSPost2010PropOp41
 70
     1
102
RTVSPost2010Prop42
 90
       50
102
RTVSPost2010PropOp42
 70
     1
102
RTVSPost2010Prop43
 90
        3
102
RTVSPost2010PropOp43
 70
     1
102
RTVSPost2010Prop44ColorIndex
 90
        5
102
RTVSPost2010Prop44ColorRGB
 90
      255
102
RTVSPost2010PropOp44
 70
     1
102
RTVSPost2010Prop45
280
     0
102
RTVSPost2010PropOp45
 70
     1
102
RTVSPost2010Prop46
 90
       50
102
RTVSPost2010PropOp46
 70
     1
102
RTVSPost2010Prop47
 90
       50
102
RTVSPost2010PropOp47
 70
     1
102
RTVSPost2010Prop48
 90
       50
102
RTVSPost2010PropOp48
 70
     1
102
RTVSPost2010Prop49
280
     0
102
RTVSPost2010PropOp49
 70
     1
102
RTVSPost2010Prop50
 90
       50
102
RTVSPost2010PropOp50
 70
     1
102
RTVSPost2010Prop51ColorIndex
 90
      256
102
RTVSPost2010Prop51ColorRGB
 90
-16777216
102
RTVSPost2010PropOp51
 70
     0
102
RTVSPost2010Prop52
140
1.0
102
RTVSPost2010PropOp52
 70
     0
102
RTVSPost2010Prop53
 90
        2
102
RTVSPost2010PropOp53
 70
     1
102
RTVSPost2010Prop54
  1
strokes_ogs.tif
102
RTVSPost2010PropOp54
 70
     1
102
RTVSPost2010Prop55
280
     0
102
RTVSPost2010PropOp55
 70
     1
102
RTVSPost2010Prop56
140
1.0
102
RTVSPost2010PropOp56
 70
     1
102
RTVSPost2010Prop57
140
1.0
102
RTVSPost2010PropOp57
 70
     1
  0
XRECORD
  5
4C0
102
{ACAD_REACTORS
330
4BF
102
}
330
4BF
100
AcDbXrecord
280
     1
102
RTVSPropertyOp0
 70
     1
102
RTVSPropertyOp1
 70
     1
102
RTVSPropertyOp2
 70
     1
102
RTVSPropertyOp3
 70
     1
102
RTVSPropertyOp4
 70
     1
102
RTVSPropertyOp5
 70
     1
102
RTVSPropertyOp6
 70
     1
102
RTVSPropertyOp7
 70
     1
102
RTVSPropertyOp8
 70
     1
102
RTVSPropertyOp9
 70
     1
102
RTVSPropertyOp10
 70
     1
102
RTVSPropertyOp11
 70
     1
102
RTVSPropertyOp12
 70
     1
102
RTVSPropertyOp13
 70
     1
102
RTVSPropertyOp14
 70
     1
102
RTVSPropertyOp15
 70
     1
102
RTVSPropertyOp16
 70
     1
102
RTVSPropertyOp17
 70
     1
102
RTVSPropertyOp18
 70
     1
102
RTVSPropertyOp19
 70
     1
102
RTVSPropertyOp20
 70
     1
102
RTVSPropertyOp21
 70
     1
102
RTVSPropertyOp22
 70
     1
102
RTVSPropertyOp23
 70
     1
102
RTVSPropertyOp24
 70
     1
102
RTVSPropertyOp25
 70
     1
102
RTVSPropertyOp26
 70
     1
102
RTVSPropertyOp27
 70
     1
102
RTVSPropertyOp28
 70
     1
102
RTVSPropertyOp29
 70
     1
102
RTVSPropertyOp30
 70
     1
102
RTVSPropertyOp31
 70
     1
102
RTVSPropertyOp32
 70
     1
102
RTVSPropertyOp33
 70
     1
102
RTVSPropertyOp34
 70
     1
102
RTVSPropertyOp35
 70
     1
102
RTVSPropertyOp36
 70
     1
102
RTVSPropertyOp37
 70
     1
102
RTVSPropertyOp38
 70
     1
102
RTVSPropertyOp39
 70
     1
102
RTVSPropertyOp40
 70
     1
102
RTVSPropertyOp41
 70
     1
102
RTVSPropertyOp42
 70
     1
102
RTVSPropertyOp43
 70
     1
102
RTVSPropertyOp44
 70
     1
102
RTVSPropertyOp45
 70
     1
102
RTVSPropertyOp46
 70
     1
102
RTVSPropertyOp47
 70
     1
102
RTVSPropertyOp48
 70
     1
102
RTVSPropertyOp49
 70
     1
102
RTVSPropertyOp50
 70
     1
102
RTVSPropertyOp51
 70
     0
102
RTVSPropertyOp52
 70
     0
102
RTVSPropertyOp53
 70
     1
102
RTVSPropertyOp54
 70
     1
102
RTVSPropertyOp55
 70
     1
102
RTVSPropertyOp56
 70
     1
102
RTVSPropertyOp57
 70
     1
102
RTVSPost2010Prop28
280
     0
102
RTVSPost2010PropOp28
 70
     1
102
RTVSPost2010Prop29
280
     1
102
RTVSPost2010PropOp29
 70
     1
102
RTVSPost2010Prop30
280
     1
102
RTVSPost2010PropOp30
 70
     1
102
RTVSPost2010Prop31
280
     0
102
RTVSPost2010PropOp31
 70
     1
102
RTVSPost2010Prop32
280
     0
102
RTVSPost2010PropOp32
 70
     1
102
RTVSPost2010Prop33
280
     0
102
RTVSPost2010PropOp33
 70
     1
102
RTVSPost2010Prop34
280
     0
102
RTVSPost2010PropOp34
 70
     1
102
RTVSPost2010Prop35
280
     0
102
RTVSPost2010PropOp35
 70
     1
102
RTVSPost2010Prop36
280
     0
102
RTVSPost2010PropOp36
 70
     1
102
RTVSPost2010Prop37
 90
       50
102
RTVSPost2010PropOp37
 70
     1
102
RTVSPost2010Prop38
140
0.0
102
RTVSPost2010PropOp38
 70
     1
102
RTVSPost2010Prop39
140
1.0
102
RTVSPost2010PropOp39
 70
     1
102
RTVSPost2010Prop40
 90
        0
102
RTVSPost2010PropOp40
 70
     1
102
RTVSPost2010Prop41ColorIndex
 90
       18
102
RTVSPost2010Prop41ColorRGB
 90
        0
102
RTVSPost2010PropOp41
 70
     1
102
RTVSPost2010Prop42
 90
       50
102
RTVSPost2010PropOp42
 70
     1
102
RTVSPost2010Prop43
 90
        3
102
RTVSPost2010PropOp43
 70
     1
102
RTVSPost2010Prop44ColorIndex
 90
        5
102
RTVSPost2010Prop44ColorRGB
 90
      255
102
RTVSPost2010PropOp44
 70
     1
102
RTVSPost2010Prop45
280
     0
102
RTVSPost2010PropOp45
 70
     1
102
RTVSPost2010Prop46
 90
       50
102
RTVSPost2010PropOp46
 70
     1
102
RTVSPost2010Prop47
 90
       50
102
RTVSPost2010PropOp47
 70
     1
102
RTVSPost2010Prop48
 90
       50
102
RTVSPost2010PropOp48
 70
     1
102
RTVSPost2010Prop49
280
     0
102
RTVSPost2010PropOp49
 70
     1
102
RTVSPost2010Prop50
 90
       50
102
RTVSPost2010PropOp50
 70
     1
102
RTVSPost2010Prop51ColorIndex
 90
      256
102
RTVSPost2010Prop51ColorRGB
 90
-16777216
102
RTVSPost2010PropOp51
 70
     0
102
RTVSPost2010Prop52
140
1.0
102
RTVSPost2010PropOp52
 70
     0
102
RTVSPost2010Prop53
 90
        2
102
RTVSPost2010PropOp53
 70
     1
102
RTVSPost2010Prop54
  1
strokes_ogs.tif
102
RTVSPost2010PropOp54
 70
     1
102
RTVSPost2010Prop55
280
     0
102
RTVSPost2010PropOp55
 70
     1
102
RTVSPost2010Prop56
140
1.0
102
RTVSPost2010PropOp56
 70
     1
102
RTVSPost2010Prop57
140
1.0
102
RTVSPost2010PropOp57
 70
     1
  0
XRECORD
  5
4C2
102
{ACAD_REACTORS
330
4C1
102
}
330
4C1
100
AcDbXrecord
280
     1
102
RTVSPropertyOp0
 70
     1
102
RTVSPropertyOp1
 70
     1
102
RTVSPropertyOp2
 70
     1
102
RTVSPropertyOp3
 70
     1
102
RTVSPropertyOp4
 70
     1
102
RTVSPropertyOp5
 70
     1
102
RTVSPropertyOp6
 70
     1
102
RTVSPropertyOp7
 70
     1
102
RTVSPropertyOp8
 70
     1
102
RTVSPropertyOp9
 70
     1
102
RTVSPropertyOp10
 70
     1
102
RTVSPropertyOp11
 70
     1
102
RTVSPropertyOp12
 70
     1
102
RTVSPropertyOp13
 70
     1
102
RTVSPropertyOp14
 70
     1
102
RTVSPropertyOp15
 70
     1
102
RTVSPropertyOp16
 70
     1
102
RTVSPropertyOp17
 70
     1
102
RTVSPropertyOp18
 70
     1
102
RTVSPropertyOp19
 70
     1
102
RTVSPropertyOp20
 70
     1
102
RTVSPropertyOp21
 70
     1
102
RTVSPropertyOp22
 70
     1
102
RTVSPropertyOp23
 70
     1
102
RTVSPropertyOp24
 70
     1
102
RTVSPropertyOp25
 70
     1
102
RTVSPropertyOp26
 70
     1
102
RTVSPropertyOp27
 70
     1
102
RTVSPropertyOp28
 70
     1
102
RTVSPropertyOp29
 70
     1
102
RTVSPropertyOp30
 70
     1
102
RTVSPropertyOp31
 70
     1
102
RTVSPropertyOp32
 70
     1
102
RTVSPropertyOp33
 70
     1
102
RTVSPropertyOp34
 70
     1
102
RTVSPropertyOp35
 70
     1
102
RTVSPropertyOp36
 70
     1
102
RTVSPropertyOp37
 70
     1
102
RTVSPropertyOp38
 70
     1
102
RTVSPropertyOp39
 70
     1
102
RTVSPropertyOp40
 70
     1
102
RTVSPropertyOp41
 70
     1
102
RTVSPropertyOp42
 70
     1
102
RTVSPropertyOp43
 70
     1
102
RTVSPropertyOp44
 70
     1
102
RTVSPropertyOp45
 70
     1
102
RTVSPropertyOp46
 70
     1
102
RTVSPropertyOp47
 70
     1
102
RTVSPropertyOp48
 70
     1
102
RTVSPropertyOp49
 70
     1
102
RTVSPropertyOp50
 70
     1
102
RTVSPropertyOp51
 70
     0
102
RTVSPropertyOp52
 70
     0
102
RTVSPropertyOp53
 70
     1
102
RTVSPropertyOp54
 70
     1
102
RTVSPropertyOp55
 70
     1
102
RTVSPropertyOp56
 70
     1
102
RTVSPropertyOp57
 70
     1
102
RTVSPost2010Prop28
280
     0
102
RTVSPost2010PropOp28
 70
     1
102
RTVSPost2010Prop29
280
     1
102
RTVSPost2010PropOp29
 70
     1
102
RTVSPost2010Prop30
280
     1
102
RTVSPost2010PropOp30
 70
     1
102
RTVSPost2010Prop31
280
     0
102
RTVSPost2010PropOp31
 70
     1
102
RTVSPost2010Prop32
280
     0
102
RTVSPost2010PropOp32
 70
     1
102
RTVSPost2010Prop33
280
     0
102
RTVSPost2010PropOp33
 70
     1
102
RTVSPost2010Prop34
280
     0
102
RTVSPost2010PropOp34
 70
     1
102
RTVSPost2010Prop35
280
     0
102
RTVSPost2010PropOp35
 70
     1
102
RTVSPost2010Prop36
280
     0
102
RTVSPost2010PropOp36
 70
     1
102
RTVSPost2010Prop37
 90
       50
102
RTVSPost2010PropOp37
 70
     1
102
RTVSPost2010Prop38
140
0.0
102
RTVSPost2010PropOp38
 70
     1
102
RTVSPost2010Prop39
140
1.0
102
RTVSPost2010PropOp39
 70
     1
102
RTVSPost2010Prop40
 90
        0
102
RTVSPost2010PropOp40
 70
     1
102
RTVSPost2010Prop41ColorIndex
 90
       18
102
RTVSPost2010Prop41ColorRGB
 90
        0
102
RTVSPost2010PropOp41
 70
     1
102
RTVSPost2010Prop42
 90
       50
102
RTVSPost2010PropOp42
 70
     1
102
RTVSPost2010Prop43
 90
        3
102
RTVSPost2010PropOp43
 70
     1
102
RTVSPost2010Prop44ColorIndex
 90
        5
102
RTVSPost2010Prop44ColorRGB
 90
      255
102
RTVSPost2010PropOp44
 70
     1
102
RTVSPost2010Prop45
280
     0
102
RTVSPost2010PropOp45
 70
     1
102
RTVSPost2010Prop46
 90
       50
102
RTVSPost2010PropOp46
 70
     1
102
RTVSPost2010Prop47
 90
       50
102
RTVSPost2010PropOp47
 70
     1
102
RTVSPost2010Prop48
 90
       50
102
RTVSPost2010PropOp48
 70
     1
102
RTVSPost2010Prop49
280
     0
102
RTVSPost2010PropOp49
 70
     1
102
RTVSPost2010Prop50
 90
       50
102
RTVSPost2010PropOp50
 70
     1
102
RTVSPost2010Prop51ColorIndex
 90
      256
102
RTVSPost2010Prop51ColorRGB
 90
-16777216
102
RTVSPost2010PropOp51
 70
     0
102
RTVSPost2010Prop52
140
1.0
102
RTVSPost2010PropOp52
 70
     0
102
RTVSPost2010Prop53
 90
        2
102
RTVSPost2010PropOp53
 70
     1
102
RTVSPost2010Prop54
  1
strokes_ogs.tif
102
RTVSPost2010PropOp54
 70
     1
102
RTVSPost2010Prop55
280
     0
102
RTVSPost2010PropOp55
 70
     1
102
RTVSPost2010Prop56
140
1.0
102
RTVSPost2010PropOp56
 70
     1
102
RTVSPost2010Prop57
140
1.0
102
RTVSPost2010PropOp57
 70
     1
  0
XRECORD
  5
4B2
102
{ACAD_REACTORS
330
4B1
102
}
330
4B1
100
AcDbXrecord
280
     1
102
RTVSPropertyOp0
 70
     1
102
RTVSPropertyOp1
 70
     1
102
RTVSPropertyOp2
 70
     1
102
RTVSPropertyOp3
 70
     1
102
RTVSPropertyOp4
 70
     1
102
RTVSPropertyOp5
 70
     1
102
RTVSPropertyOp6
 70
     1
102
RTVSPropertyOp7
 70
     1
102
RTVSPropertyOp8
 70
     1
102
RTVSPropertyOp9
 70
     1
102
RTVSPropertyOp10
 70
     1
102
RTVSPropertyOp11
 70
     1
102
RTVSPropertyOp12
 70
     1
102
RTVSPropertyOp13
 70
     1
102
RTVSPropertyOp14
 70
     1
102
RTVSPropertyOp15
 70
     1
102
RTVSPropertyOp16
 70
     1
102
RTVSPropertyOp17
 70
     1
102
RTVSPropertyOp18
 70
     1
102
RTVSPropertyOp19
 70
     1
102
RTVSPropertyOp20
 70
     1
102
RTVSPropertyOp21
 70
     1
102
RTVSPropertyOp22
 70
     1
102
RTVSPropertyOp23
 70
     1
102
RTVSPropertyOp24
 70
     1
102
RTVSPropertyOp25
 70
     1
102
RTVSPropertyOp26
 70
     1
102
RTVSPropertyOp27
 70
     1
102
RTVSPropertyOp28
 70
     1
102
RTVSPropertyOp29
 70
     1
102
RTVSPropertyOp30
 70
     1
102
RTVSPropertyOp31
 70
     1
102
RTVSPropertyOp32
 70
     1
102
RTVSPropertyOp33
 70
     1
102
RTVSPropertyOp34
 70
     1
102
RTVSPropertyOp35
 70
     1
102
RTVSPropertyOp36
 70
     1
102
RTVSPropertyOp37
 70
     1
102
RTVSPropertyOp38
 70
     1
102
RTVSPropertyOp39
 70
     1
102
RTVSPropertyOp40
 70
     1
102
RTVSPropertyOp41
 70
     1
102
RTVSPropertyOp42
 70
     1
102
RTVSPropertyOp43
 70
     1
102
RTVSPropertyOp44
 70
     1
102
RTVSPropertyOp45
 70
     1
102
RTVSPropertyOp46
 70
     1
102
RTVSPropertyOp47
 70
     1
102
RTVSPropertyOp48
 70
     1
102
RTVSPropertyOp49
 70
     1
102
RTVSPropertyOp50
 70
     1
102
RTVSPropertyOp51
 70
     0
102
RTVSPropertyOp52
 70
     0
102
RTVSPropertyOp53
 70
     1
102
RTVSPropertyOp54
 70
     1
102
RTVSPropertyOp55
 70
     1
102
RTVSPropertyOp56
 70
     1
102
RTVSPropertyOp57
 70
     1
102
RTVSPost2010Prop28
280
     0
102
RTVSPost2010PropOp28
 70
     1
102
RTVSPost2010Prop29
280
     1
102
RTVSPost2010PropOp29
 70
     1
102
RTVSPost2010Prop30
280
     1
102
RTVSPost2010PropOp30
 70
     1
102
RTVSPost2010Prop31
280
     0
102
RTVSPost2010PropOp31
 70
     1
102
RTVSPost2010Prop32
280
     0
102
RTVSPost2010PropOp32
 70
     1
102
RTVSPost2010Prop33
280
     0
102
RTVSPost2010PropOp33
 70
     1
102
RTVSPost2010Prop34
280
     0
102
RTVSPost2010PropOp34
 70
     1
102
RTVSPost2010Prop35
280
     0
102
RTVSPost2010PropOp35
 70
     1
102
RTVSPost2010Prop36
280
     0
102
RTVSPost2010PropOp36
 70
     1
102
RTVSPost2010Prop37
 90
       50
102
RTVSPost2010PropOp37
 70
     1
102
RTVSPost2010Prop38
140
0.0
102
RTVSPost2010PropOp38
 70
     1
102
RTVSPost2010Prop39
140
1.0
102
RTVSPost2010PropOp39
 70
     1
102
RTVSPost2010Prop40
 90
        0
102
RTVSPost2010PropOp40
 70
     1
102
RTVSPost2010Prop41ColorIndex
 90
       18
102
RTVSPost2010Prop41ColorRGB
 90
        0
102
RTVSPost2010PropOp41
 70
     1
102
RTVSPost2010Prop42
 90
       50
102
RTVSPost2010PropOp42
 70
     1
102
RTVSPost2010Prop43
 90
        3
102
RTVSPost2010PropOp43
 70
     1
102
RTVSPost2010Prop44ColorIndex
 90
        5
102
RTVSPost2010Prop44ColorRGB
 90
      255
102
RTVSPost2010PropOp44
 70
     1
102
RTVSPost2010Prop45
280
     0
102
RTVSPost2010PropOp45
 70
     1
102
RTVSPost2010Prop46
 90
       50
102
RTVSPost2010PropOp46
 70
     1
102
RTVSPost2010Prop47
 90
       50
102
RTVSPost2010PropOp47
 70
     1
102
RTVSPost2010Prop48
 90
       50
102
RTVSPost2010PropOp48
 70
     1
102
RTVSPost2010Prop49
280
     0
102
RTVSPost2010PropOp49
 70
     1
102
RTVSPost2010Prop50
 90
       50
102
RTVSPost2010PropOp50
 70
     1
102
RTVSPost2010Prop51ColorIndex
 90
      256
102
RTVSPost2010Prop51ColorRGB
 90
-16777216
102
RTVSPost2010PropOp51
 70
     0
102
RTVSPost2010Prop52
140
1.0
102
RTVSPost2010PropOp52
 70
     0
102
RTVSPost2010Prop53
 90
        2
102
RTVSPost2010PropOp53
 70
     1
102
RTVSPost2010Prop54
  1
strokes_ogs.tif
102
RTVSPost2010PropOp54
 70
     1
102
RTVSPost2010Prop55
280
     0
102
RTVSPost2010PropOp55
 70
     1
102
RTVSPost2010Prop56
140
1.0
102
RTVSPost2010PropOp56
 70
     1
102
RTVSPost2010Prop57
140
1.0
102
RTVSPost2010PropOp57
 70
     1
  0
XRECORD
  5
4A4
102
{ACAD_REACTORS
330
4A3
102
}
330
4A3
100
AcDbXrecord
280
     1
102
RTVSPropertyOp0
 70
     1
102
RTVSPropertyOp1
 70
     1
102
RTVSPropertyOp2
 70
     1
102
RTVSPropertyOp3
 70
     1
102
RTVSPropertyOp4
 70
     1
102
RTVSPropertyOp5
 70
     1
102
RTVSPropertyOp6
 70
     1
102
RTVSPropertyOp7
 70
     1
102
RTVSPropertyOp8
 70
     1
102
RTVSPropertyOp9
 70
     1
102
RTVSPropertyOp10
 70
     1
102
RTVSPropertyOp11
 70
     1
102
RTVSPropertyOp12
 70
     1
102
RTVSPropertyOp13
 70
     1
102
RTVSPropertyOp14
 70
     1
102
RTVSPropertyOp15
 70
     1
102
RTVSPropertyOp16
 70
     1
102
RTVSPropertyOp17
 70
     1
102
RTVSPropertyOp18
 70
     1
102
RTVSPropertyOp19
 70
     1
102
RTVSPropertyOp20
 70
     1
102
RTVSPropertyOp21
 70
     1
102
RTVSPropertyOp22
 70
     1
102
RTVSPropertyOp23
 70
     1
102
RTVSPropertyOp24
 70
     1
102
RTVSPropertyOp25
 70
     1
102
RTVSPropertyOp26
 70
     1
102
RTVSPropertyOp27
 70
     1
102
RTVSPropertyOp28
 70
     1
102
RTVSPropertyOp29
 70
     1
102
RTVSPropertyOp30
 70
     1
102
RTVSPropertyOp31
 70
     1
102
RTVSPropertyOp32
 70
     1
102
RTVSPropertyOp33
 70
     1
102
RTVSPropertyOp34
 70
     1
102
RTVSPropertyOp35
 70
     1
102
RTVSPropertyOp36
 70
     1
102
RTVSPropertyOp37
 70
     1
102
RTVSPropertyOp38
 70
     1
102
RTVSPropertyOp39
 70
     1
102
RTVSPropertyOp40
 70
     1
102
RTVSPropertyOp41
 70
     1
102
RTVSPropertyOp42
 70
     1
102
RTVSPropertyOp43
 70
     1
102
RTVSPropertyOp44
 70
     1
102
RTVSPropertyOp45
 70
     1
102
RTVSPropertyOp46
 70
     1
102
RTVSPropertyOp47
 70
     1
102
RTVSPropertyOp48
 70
     1
102
RTVSPropertyOp49
 70
     1
102
RTVSPropertyOp50
 70
     1
102
RTVSPropertyOp51
 70
     0
102
RTVSPropertyOp52
 70
     0
102
RTVSPropertyOp53
 70
     1
102
RTVSPropertyOp54
 70
     1
102
RTVSPropertyOp55
 70
     1
102
RTVSPropertyOp56
 70
     1
102
RTVSPropertyOp57
 70
     1
102
RTVSPost2010Prop28
280
     0
102
RTVSPost2010PropOp28
 70
     1
102
RTVSPost2010Prop29
280
     1
102
RTVSPost2010PropOp29
 70
     1
102
RTVSPost2010Prop30
280
     1
102
RTVSPost2010PropOp30
 70
     1
102
RTVSPost2010Prop31
280
     0
102
RTVSPost2010PropOp31
 70
     1
102
RTVSPost2010Prop32
280
     0
102
RTVSPost2010PropOp32
 70
     1
102
RTVSPost2010Prop33
280
     0
102
RTVSPost2010PropOp33
 70
     1
102
RTVSPost2010Prop34
280
     0
102
RTVSPost2010PropOp34
 70
     1
102
RTVSPost2010Prop35
280
     0
102
RTVSPost2010PropOp35
 70
     1
102
RTVSPost2010Prop36
280
     0
102
RTVSPost2010PropOp36
 70
     1
102
RTVSPost2010Prop37
 90
       50
102
RTVSPost2010PropOp37
 70
     1
102
RTVSPost2010Prop38
140
0.0
102
RTVSPost2010PropOp38
 70
     1
102
RTVSPost2010Prop39
140
1.0
102
RTVSPost2010PropOp39
 70
     1
102
RTVSPost2010Prop40
 90
        0
102
RTVSPost2010PropOp40
 70
     1
102
RTVSPost2010Prop41ColorIndex
 90
       18
102
RTVSPost2010Prop41ColorRGB
 90
        0
102
RTVSPost2010PropOp41
 70
     1
102
RTVSPost2010Prop42
 90
       50
102
RTVSPost2010PropOp42
 70
     1
102
RTVSPost2010Prop43
 90
        3
102
RTVSPost2010PropOp43
 70
     1
102
RTVSPost2010Prop44ColorIndex
 90
        5
102
RTVSPost2010Prop44ColorRGB
 90
      255
102
RTVSPost2010PropOp44
 70
     1
102
RTVSPost2010Prop45
280
     0
102
RTVSPost2010PropOp45
 70
     1
102
RTVSPost2010Prop46
 90
       50
102
RTVSPost2010PropOp46
 70
     1
102
RTVSPost2010Prop47
 90
       50
102
RTVSPost2010PropOp47
 70
     1
102
RTVSPost2010Prop48
 90
       50
102
RTVSPost2010PropOp48
 70
     1
102
RTVSPost2010Prop49
280
     0
102
RTVSPost2010PropOp49
 70
     1
102
RTVSPost2010Prop50
 90
       50
102
RTVSPost2010PropOp50
 70
     1
102
RTVSPost2010Prop51ColorIndex
 90
      256
102
RTVSPost2010Prop51ColorRGB
 90
-16777216
102
RTVSPost2010PropOp51
 70
     0
102
RTVSPost2010Prop52
140
1.0
102
RTVSPost2010PropOp52
 70
     0
102
RTVSPost2010Prop53
 90
        2
102
RTVSPost2010PropOp53
 70
     1
102
RTVSPost2010Prop54
  1
strokes_ogs.tif
102
RTVSPost2010PropOp54
 70
     1
102
RTVSPost2010Prop55
280
     0
102
RTVSPost2010PropOp55
 70
     1
102
RTVSPost2010Prop56
140
1.0
102
RTVSPost2010PropOp56
 70
     1
102
RTVSPost2010Prop57
140
1.0
102
RTVSPost2010PropOp57
 70
     1
  0
XRECORD
  5
4C4
102
{ACAD_REACTORS
330
4C3
102
}
330
4C3
100
AcDbXrecord
280
     1
102
RTVSPropertyOp0
 70
     1
102
RTVSPropertyOp1
 70
     1
102
RTVSPropertyOp2
 70
     1
102
RTVSPropertyOp3
 70
     1
102
RTVSPropertyOp4
 70
     1
102
RTVSPropertyOp5
 70
     1
102
RTVSPropertyOp6
 70
     1
102
RTVSPropertyOp7
 70
     1
102
RTVSPropertyOp8
 70
     1
102
RTVSPropertyOp9
 70
     1
102
RTVSPropertyOp10
 70
     1
102
RTVSPropertyOp11
 70
     1
102
RTVSPropertyOp12
 70
     1
102
RTVSPropertyOp13
 70
     1
102
RTVSPropertyOp14
 70
     1
102
RTVSPropertyOp15
 70
     1
102
RTVSPropertyOp16
 70
     1
102
RTVSPropertyOp17
 70
     1
102
RTVSPropertyOp18
 70
     1
102
RTVSPropertyOp19
 70
     1
102
RTVSPropertyOp20
 70
     1
102
RTVSPropertyOp21
 70
     1
102
RTVSPropertyOp22
 70
     1
102
RTVSPropertyOp23
 70
     1
102
RTVSPropertyOp24
 70
     1
102
RTVSPropertyOp25
 70
     1
102
RTVSPropertyOp26
 70
     1
102
RTVSPropertyOp27
 70
     1
102
RTVSPropertyOp28
 70
     1
102
RTVSPropertyOp29
 70
     1
102
RTVSPropertyOp30
 70
     1
102
RTVSPropertyOp31
 70
     1
102
RTVSPropertyOp32
 70
     1
102
RTVSPropertyOp33
 70
     1
102
RTVSPropertyOp34
 70
     1
102
RTVSPropertyOp35
 70
     1
102
RTVSPropertyOp36
 70
     1
102
RTVSPropertyOp37
 70
     1
102
RTVSPropertyOp38
 70
     1
102
RTVSPropertyOp39
 70
     1
102
RTVSPropertyOp40
 70
     1
102
RTVSPropertyOp41
 70
     1
102
RTVSPropertyOp42
 70
     1
102
RTVSPropertyOp43
 70
     1
102
RTVSPropertyOp44
 70
     1
102
RTVSPropertyOp45
 70
     1
102
RTVSPropertyOp46
 70
     1
102
RTVSPropertyOp47
 70
     1
102
RTVSPropertyOp48
 70
     1
102
RTVSPropertyOp49
 70
     1
102
RTVSPropertyOp50
 70
     1
102
RTVSPropertyOp51
 70
     0
102
RTVSPropertyOp52
 70
     0
102
RTVSPropertyOp53
 70
     1
102
RTVSPropertyOp54
 70
     1
102
RTVSPropertyOp55
 70
     1
102
RTVSPropertyOp56
 70
     1
102
RTVSPropertyOp57
 70
     1
102
RTVSPost2010Prop28
280
     0
102
RTVSPost2010PropOp28
 70
     1
102
RTVSPost2010Prop29
280
     1
102
RTVSPost2010PropOp29
 70
     1
102
RTVSPost2010Prop30
280
     1
102
RTVSPost2010PropOp30
 70
     1
102
RTVSPost2010Prop31
280
     0
102
RTVSPost2010PropOp31
 70
     1
102
RTVSPost2010Prop32
280
     0
102
RTVSPost2010PropOp32
 70
     1
102
RTVSPost2010Prop33
280
     0
102
RTVSPost2010PropOp33
 70
     1
102
RTVSPost2010Prop34
280
     0
102
RTVSPost2010PropOp34
 70
     1
102
RTVSPost2010Prop35
280
     0
102
RTVSPost2010PropOp35
 70
     1
102
RTVSPost2010Prop36
280
     0
102
RTVSPost2010PropOp36
 70
     1
102
RTVSPost2010Prop37
 90
       50
102
RTVSPost2010PropOp37
 70
     1
102
RTVSPost2010Prop38
140
0.0
102
RTVSPost2010PropOp38
 70
     1
102
RTVSPost2010Prop39
140
1.0
102
RTVSPost2010PropOp39
 70
     1
102
RTVSPost2010Prop40
 90
        0
102
RTVSPost2010PropOp40
 70
     1
102
RTVSPost2010Prop41ColorIndex
 90
       18
102
RTVSPost2010Prop41ColorRGB
 90
        0
102
RTVSPost2010PropOp41
 70
     1
102
RTVSPost2010Prop42
 90
       50
102
RTVSPost2010PropOp42
 70
     1
102
RTVSPost2010Prop43
 90
        3
102
RTVSPost2010PropOp43
 70
     1
102
RTVSPost2010Prop44ColorIndex
 90
        5
102
RTVSPost2010Prop44ColorRGB
 90
      255
102
RTVSPost2010PropOp44
 70
     1
102
RTVSPost2010Prop45
280
     0
102
RTVSPost2010PropOp45
 70
     1
102
RTVSPost2010Prop46
 90
       50
102
RTVSPost2010PropOp46
 70
     1
102
RTVSPost2010Prop47
 90
       50
102
RTVSPost2010PropOp47
 70
     1
102
RTVSPost2010Prop48
 90
       50
102
RTVSPost2010PropOp48
 70
     1
102
RTVSPost2010Prop49
280
     0
102
RTVSPost2010PropOp49
 70
     1
102
RTVSPost2010Prop50
 90
       50
102
RTVSPost2010PropOp50
 70
     1
102
RTVSPost2010Prop51ColorIndex
 90
      256
102
RTVSPost2010Prop51ColorRGB
 90
-16777216
102
RTVSPost2010PropOp51
 70
     0
102
RTVSPost2010Prop52
140
1.0
102
RTVSPost2010PropOp52
 70
     0
102
RTVSPost2010Prop53
 90
        2
102
RTVSPost2010PropOp53
 70
     1
102
RTVSPost2010Prop54
  1
strokes_ogs.tif
102
RTVSPost2010PropOp54
 70
     1
102
RTVSPost2010Prop55
280
     0
102
RTVSPost2010PropOp55
 70
     1
102
RTVSPost2010Prop56
140
1.0
102
RTVSPost2010PropOp56
 70
     1
102
RTVSPost2010Prop57
140
1.0
102
RTVSPost2010PropOp57
 70
     1
  0
ENDSEC
  0
EOF
